osu file format v14

[General]
AudioFilename: audio.mp3
AudioLeadIn: 0
PreviewTime: 49365
Countdown: 0
SampleSet: Soft
StackLeniency: 0.7
Mode: 0
LetterboxInBreaks: 0
WidescreenStoryboard: 0

[Editor]
DistanceSpacing: 1.2
BeatDivisor: 8
GridSize: 16
TimelineZoom: 3.099999

[Metadata]
Title:Paid My Dues
TitleUnicode:Paid My Dues
Artist:Anastacia
ArtistUnicode:Anastacia
Creator:Voli
Version:Normal
Source:
Tags:Freak of Nature Lyn Newkirk pachiru
BeatmapID:1365223
BeatmapSetID:643999

[Difficulty]
HPDrainRate:3
CircleSize:4
OverallDifficulty:3
ApproachRate:5
SliderMultiplier:1.5
SliderTickRate:1

[Events]
//Background and Video events
0,0,"pmd.jpg",0,0
//Break Periods
//Storyboard Layer 0 (Background)
//Storyboard Layer 1 (Fail)
//Storyboard Layer 2 (Pass)
//Storyboard Layer 3 (Foreground)
//Storyboard Sound Samples

[TimingPoints]
220,618.556701030928,4,2,3,30,1,0
220,-125,4,2,3,30,0,0
2384,-125,4,2,3,15,0,0
2694,-125,4,2,3,30,0,0
4859,-125,4,2,3,15,0,0
5168,-125,4,2,3,30,0,0
10086,618.556701030928,4,2,3,30,1,0
10086,-111.111111111111,4,2,3,30,0,0
12251,-111.111111111111,4,2,3,20,0,0
12561,-111.111111111111,4,2,3,30,0,0
14725,-111.111111111111,4,2,3,20,0,0
15034,-111.111111111111,4,2,3,30,0,0
19364,-111.111111111111,4,2,1,45,0,0
19982,-100,4,2,1,60,0,0
49673,-83.3333333333333,4,2,1,80,0,1
69467,-100,4,2,1,80,0,0

[Colours]
Combo1 : 247,209,172
Combo2 : 145,136,225
Combo3 : 255,174,94
Combo4 : 249,77,77
Combo5 : 85,91,170

[HitObjects]
187,155,220,6,0,B|283:126|399:29|254:-57|109:29|225:126|322:155,1,420,2|0,0:0|0:0,0:0:0:0:
325,229,2694,2,0,B|228:257|112:354|257:441|402:354|286:257|189:229,1,420,2|0,0:0|0:0,0:0:0:0:
144,171,5168,6,0,L|136:111,2,60,2|0|2,0:0|0:0|0:0,0:0:0:0:
256,79,6405,2,0,L|256:159,2,60,2|0|2,0:0|0:0|0:0,0:0:0:0:
368,171,7642,2,0,L|376:111,2,60,2|0|0,0:0|0:0|0:0,0:0:0:0:
355,242,8570,1,0,0:0:0:0:
88,233,10086,6,0,B|164:248|164:248|194:263|194:294|194:294|194:355|256:385|317:355|317:294|317:294|317:263|347:248|347:248|424:233,1,472.499985580445,2|0,0:0|0:0,0:0:0:0:
424,151,12560,2,0,B|347:135|347:135|317:120|317:89|317:89|317:28|255:-1|194:28|194:89|194:89|194:120|164:135|164:135|87:151,1,472.499985580445,2|0,0:0|0:0,0:0:0:0:
43,220,15034,6,0,P|40:253|53:283,2,67.4999979400635,2|0|2,0:0|0:0|0:0,0:0:0:0:
187,291,16271,2,0,P|208:318|239:330,2,67.4999979400635,2|0|2,0:0|0:0|0:0,0:0:0:0:
349,273,17508,2,0,P|382:276|412:263,2,67.4999979400635,2|0|0,0:0|0:0|0:0,0:0:0:0:
369,194,18436,1,0,0:0:0:0:
168,56,19364,1,0,3:0:0:0:
346,30,19982,6,0,L|420:41,1,75,4|0,3:2|3:0,0:0:0:0:
422,132,20601,2,0,L|347:143,1,75,0|0,1:0|0:0,0:0:0:0:
264,110,21220,2,0,B|247:162|247:162|278:251,1,150,4|0,3:0|1:0,0:0:0:0:
312,335,22147,1,0,0:0:0:0:
223,319,22457,6,0,B|165:324|165:324|137:340|137:340|78:346,1,150,4|0,3:0|1:0,0:0:0:0:
23,275,23384,1,0,0:0:0:0:
59,192,23694,2,0,P|78:120|55:35,1,150,4|0,3:0|1:0,0:0:0:0:
241,37,24931,6,0,L|233:127,1,75,4|0,3:0|3:0,0:0:0:0:
298,174,25549,2,0,L|304:248,1,75,0|0,1:0|0:0,0:0:0:0:
374,307,26168,2,0,P|303:340|239:314,1,150,4|0,3:0|1:0,0:0:0:0:
196,236,27096,1,0,0:0:0:0:
222,150,27405,6,0,B|239:104|210:60|210:60|235:44|246:11|246:11|277:33|317:40,2,225,2|0|0,3:1|0:0|1:0,0:0:0:0:
348,279,29879,6,0,P|384:292|421:290,1,75,4|0,3:0|3:0,0:0:0:0:
397,201,30498,2,0,P|422:130|417:56,1,150,0|0,1:0|3:0,0:0:0:0:
338,14,31426,1,0,3:0:0:0:
273,76,31735,1,0,1:0:0:0:
185,233,32354,6,0,L|89:220,1,75,4|0,3:0|3:0,0:0:0:0:
85,136,32972,2,0,L|181:123,1,75,0|0,1:0|0:0,0:0:0:0:
242,160,33591,2,0,P|275:225|254:295,1,150,4|0,3:0|1:0,0:0:0:0:
431,329,34828,6,0,B|417:294|417:294|426:255,1,75,4|0,3:0|3:0,0:0:0:0:
506,219,35446,2,0,B|520:184|520:184|511:145,1,75,0|0,1:0|0:0,0:0:0:0:
463,71,36065,2,0,P|390:61|328:102,1,150,4|0,3:0|1:0,0:0:0:0:
256,156,36993,1,0,0:0:0:0:
183,102,37302,6,0,P|121:61|48:71,2,150,4|0|0,3:0|1:0|3:0,0:0:0:0:
313,226,39158,2,0,L|302:321,1,75,0|0,1:0|3:0,0:0:0:0:
214,307,39776,6,0,B|137:330|142:271|66:294,2,150,4|0|4,3:1|1:0|3:0,0:0:0:0:
256,227,41323,1,0,0:0:0:0:
298,307,41632,1,0,1:0:0:0:
298,147,42250,6,0,B|374:123|369:182|445:159,2,150,4|0|4,3:1|1:0|3:0,0:0:0:0:
256,227,43797,1,0,0:0:0:0:
214,147,44106,1,0,1:0:0:0:
99,286,44725,6,0,L|184:301,1,75,4|0,3:1|3:0,0:0:0:0:
249,250,45343,2,0,L|322:236,1,75,0|0,1:0|0:0,0:0:0:0:
322,147,45962,2,0,L|248:133,1,75,4|0,3:1|3:0,0:0:0:0:
172,84,46580,2,0,L|99:98,1,75,0|0,1:0|3:0,0:0:0:0:
141,178,47199,6,0,B|234:158|234:158|249:133|249:133|352:113,1,225,4|0,3:2|3:0,0:0:0:0:
432,84,48436,2,2,P|506:138|419:168,1,225,2|0,3:1|3:0,0:1:0:0:
325,222,49673,6,0,P|316:266|325:310,1,89.9999972534181,4|0,3:1|3:0,0:0:0:0:
220,339,50292,2,0,L|119:331,1,89.9999972534181,0|0,1:0|0:0,0:0:0:0:
76,238,50910,2,0,L|177:230,1,89.9999972534181,4|0,3:0|3:0,0:0:0:0:
226,141,51529,1,0,1:0:0:0:
410,30,52147,6,0,P|398:72|414:113,1,89.9999972534181,4|0,3:0|3:0,0:0:0:0:
478,201,52766,2,0,P|490:243|474:284,1,89.9999972534181,0|0,1:0|0:0,0:0:0:0:
388,350,53384,2,0,L|279:339,2,89.9999972534181,4|0|0,3:0|3:0|1:0,0:0:0:0:
346,249,54312,1,0,3:0:0:0:
239,263,54622,6,0,B|150:267|76:329|76:329|72:269|33:239,1,269.999991760254,4|0,3:1|0:0,0:0:0:0:
42,138,55859,2,0,B|72:115|75:55|75:55|149:117|238:121,1,269.999991760254,4|0,3:1|0:0,0:0:0:0:
333,72,57096,6,0,P|376:62|419:72,1,89.9999972534181,4|0,3:0|3:0,0:0:0:0:
480,161,57714,2,0,P|489:204|479:247,1,89.9999972534181,0|0,1:0|3:0,0:0:0:0:
404,326,58333,2,0,L|302:316,2,89.9999972534181,4|0|0,3:0|3:0|1:0,0:0:0:0:
260,164,59570,6,0,B|239:197|239:197|248:247,1,89.9999972534181,4|0,3:1|3:0,0:0:0:0:
140,255,60189,2,0,B|149:305|149:305|128:338,1,89.9999972534181,0|0,1:0|0:0,0:0:0:0:
36,281,60807,2,0,L|19:159,1,89.9999972534181,4|0,3:0|3:0,0:0:0:0:
76,97,61426,1,0,1:0:0:0:
287,53,62044,6,0,P|331:47|373:61,1,89.9999972534181,4|0,3:0|3:0,0:0:0:0:
321,156,62663,2,0,L|337:252,1,89.9999972534181,0|0,1:0|0:0,0:0:0:0:
418,315,63281,2,0,L|506:329,2,89.9999972534181,4|0|0,3:0|3:0|1:0,0:0:0:0:
315,350,64209,1,0,3:0:0:0:
210,317,64518,6,0,B|212:262|170:222|170:222|176:173|204:138|204:138|186:96|201:68,1,269.999991760254,4|0,3:1|0:0,0:0:0:0:
310,68,65756,2,0,B|325:96|307:138|307:138|335:173|341:222|341:222|299:262|302:317,1,269.999991760254,4|0,3:1|0:0,0:0:0:0:
409,308,66993,6,0,L|496:286,1,89.9999972534181,4|0,3:0|3:0,0:0:0:0:
449,188,67611,2,0,L|455:98,1,89.9999972534181,0|0,1:0|3:0,0:0:0:0:
365,37,68230,2,0,P|247:20|227:150,1,269.999991760254,0|0,3:0|3:0,0:0:0:0:
297,95,69467,5,4,3:1:0:0:
