osu file format v14

[General]
AudioFilename: audio.mp3
AudioLeadIn: 0
PreviewTime: 8875
Countdown: 0
SampleSet: Normal
StackLeniency: 0.7
Mode: 0
LetterboxInBreaks: 0
WidescreenStoryboard: 0

[Editor]
DistanceSpacing: 0.8
BeatDivisor: 4
GridSize: 4
TimelineZoom: 1.8

[Metadata]
Title:Scott Pilgrim Anthem
TitleUnicode:Scott Pilgrim Anthem
Artist:Anamanaguchi
ArtistUnicode:Anamanaguchi
Creator:Leader
Version:Normal
Source:Scott Pilgrim vs. the World: The Game
Tags:Alphabet Venax Polka PolkaMocha Veridian video game instrumental
BeatmapID:2188149
BeatmapSetID:1014370

[Difficulty]
HPDrainRate:4
CircleSize:3
OverallDifficulty:5
ApproachRate:5
SliderMultiplier:1.1
SliderTickRate:1

[Events]
//Background and Video events
0,0,"normal.jpg",0,0
//Break Periods
2,45090,50342
//Storyboard Layer 0 (Background)
//Storyboard Layer 1 (Fail)
//Storyboard Layer 2 (Pass)
//Storyboard Layer 3 (Foreground)
//Storyboard Layer 4 (Overlay)
//Storyboard Sound Samples

[TimingPoints]
342,266.666666666667,4,1,1,40,1,0
7008,-100,4,1,1,50,0,0
7275,-100,4,1,1,60,0,0
51542,-100,4,2,1,50,0,0
59008,-100,4,1,1,50,0,0
60075,-100,4,1,1,60,0,0
77142,-100,4,1,1,40,0,0
79275,-100,4,1,1,60,0,0
83608,-100,4,1,1,40,0,0
84608,-100,4,1,1,60,0,0
85675,-100,4,1,1,60,0,1
93142,-100,4,1,1,50,0,0
93675,-100,4,1,1,40,0,0
95275,-100,4,1,1,30,0,0
96342,-100,4,1,1,20,0,0
96608,-100,4,1,1,10,0,0
96875,-100,4,1,1,5,0,0

[Colours]
Combo1 : 108,255,38
Combo2 : 255,30,30
Combo3 : 242,115,0
Combo4 : 255,255,15

[HitObjects]
63,329,4608,6,0,P|77:272|76:202,1,110,4|0,0:0|0:0,0:0:0:0:
62,135,5142,2,0,L|186:119,1,110,8|8,0:0|0:0,0:0:0:0:
189,34,5675,2,0,L|301:43,1,110
348,115,6208,2,0,L|460:104,1,110,8|8,0:0|0:0,0:0:0:0:
487,187,6742,6,0,P|495:234|491:302,1,110,2|2,0:0|0:0,0:0:0:0:
424,346,7275,1,2,0:0:0:0:
387,265,7542,1,2,0:0:0:0:
307,302,7808,2,0,L|294:183,1,110,2|2,0:0|0:0,0:0:0:0:
305,104,8342,2,0,L|249:113,1,55,8|0,0:0|0:0,0:0:0:0:
210,94,8608,2,0,L|150:85,1,55,8|8,0:0|0:0,0:0:0:0:
111,85,8875,6,0,P|116:142|109:206,1,110,4|8,0:0|0:0,0:0:0:0:
79,276,9408,2,0,L|23:266,2,55,0|0|8,0:0|0:0|0:0,0:0:0:0:
154,322,9942,2,0,B|259:314|258:368|379:352,1,220
440,301,10742,1,8,0:0:0:0:
383,233,11008,6,0,P|376:184|386:115,1,110,0|8,0:0|0:0,0:0:0:0:
401,37,11542,1,0,0:0:0:0:
401,37,11675,1,0,0:0:0:0:
401,37,11808,1,8,0:0:0:0:
319,69,12075,2,0,P|284:72|208:48,1,110,0|8,0:0|0:0,0:0:0:0:
130,81,12608,2,0,L|123:142,1,55,8|0,0:0|0:0,0:0:0:0:
97,171,12875,2,0,L|103:228,1,55,8|0,0:0|0:0,0:0:0:0:
119,266,13142,6,0,P|179:268|244:293,1,110,0|8,0:0|0:0,0:0:0:0:
302,327,13675,2,0,L|372:337,1,55
399,342,13942,1,8,0:0:0:0:
439,264,14208,2,0,P|448:211|428:147,1,110,0|8,0:0|0:0,0:0:0:0:
400,75,14742,1,0,0:0:0:0:
344,142,15008,1,8,0:0:0:0:
277,84,15275,6,0,P|232:65|123:175,1,220
126,253,16075,1,8,0:0:0:0:
180,322,16342,2,0,L|172:386,2,55,0|0|8,0:0|0:0|0:0,0:0:0:0:
258,282,16875,2,0,P|291:292|320:306,1,55,8|0,0:0|0:0,0:0:0:0:
344,327,17142,2,0,L|423:334,1,55,8|0,0:0|0:0,0:0:0:0:
432,304,17408,6,0,P|431:265|441:180,1,110,4|8,0:0|0:0,0:0:0:0:
454,107,17942,2,0,L|332:121,1,110,0|8,0:0|0:0,0:0:0:0:
306,96,18342,1,0,0:0:0:0:
269,71,18475,2,0,P|234:57|111:178,1,220
111,245,19275,1,8,0:0:0:0:
171,308,19542,6,0,L|294:321,1,110,0|8,0:0|0:0,0:0:0:0:
362,351,20075,2,0,P|411:362|462:303,1,110,0|8,0:0|0:0,0:0:0:0:
401,258,20608,1,0,0:0:0:0:
458,191,20875,1,8,0:0:0:0:
371,176,21142,2,0,P|362:128|371:61,1,110,8|8,0:0|0:0,0:0:0:0:
283,47,21675,6,0,P|190:27|88:103,1,220,4|0,0:0|0:0,0:0:0:0:
68,179,22475,1,8,0:0:0:0:
125,245,22742,2,0,L|245:257,1,110
258,340,23275,2,0,L|378:328,1,110,8|8,0:0|0:0,0:0:0:0:
425,263,23808,6,0,P|436:192|339:84,1,220
258,71,24608,1,8,0:0:0:0:
258,159,24875,1,0,0:0:0:0:
258,247,25142,2,0,L|320:247,2,55,8|0|8,0:0|0:0|0:0,0:0:0:0:
207,315,25675,1,8,0:0:0:0:
124,272,25942,6,0,P|123:200|117:147,1,110,4|8,0:0|0:0,0:0:0:0:
108,74,26475,2,0,L|170:80,1,55
191,112,26742,2,0,L|263:106,1,55,8|0,0:0|0:0,0:0:0:0:
278,77,27008,2,0,P|336:66|386:97,1,110,0|8,0:0|0:0,0:0:0:0:
422,165,27542,2,0,P|433:217|436:282,1,110,0|8,0:0|0:0,0:0:0:0:
390,348,28075,5,0,0:0:0:0:
320,294,28342,1,8,0:0:0:0:
263,360,28608,2,0,L|148:372,1,110,0|8,0:0|0:0,0:0:0:0:
87,312,29142,2,0,P|52:304|25:300,2,55,0|0|8,0:0|0:0|0:0,0:0:0:0:
164,270,29675,2,0,P|162:215|154:143,1,110,8|8,0:0|0:0,0:0:0:0:
146,117,30075,1,0,0:0:0:0:
188,129,30208,6,0,P|259:146|357:47,1,220
436,87,31008,1,8,0:0:0:0:
419,173,31275,2,0,P|416:217|417:291,1,110,0|8,0:0|0:0,0:0:0:0:
364,353,31808,2,0,L|253:361,1,110,0|8,0:0|0:0,0:0:0:0:
171,328,32342,6,0,P|133:284|171:136,1,220
241,92,33142,1,8,0:0:0:0:
241,92,33275,1,0,0:0:0:0:
241,92,33408,2,0,L|359:102,1,110,0|8,0:0|0:0,0:0:0:0:
425,148,33942,2,0,P|434:191|436:213,1,55,8|0,0:0|0:0,0:0:0:0:
437,245,34208,2,0,L|371:254,1,55,8|0,0:0|0:0,0:0:0:0:
338,258,34475,5,4,0:0:0:0:
298,336,34742,1,8,0:0:0:0:
214,309,35008,2,0,P|182:314|158:323,2,55,0|0|8,0:0|0:0|0:0,0:0:0:0:
251,228,35542,2,0,P|251:153|134:75,1,220
74,132,36342,1,8,0:0:0:0:
101,215,36608,6,0,P|109:275|112:334,1,110,0|8,0:0|0:0,0:0:0:0:
195,352,37142,2,0,P|241:347|261:346,1,55
293,350,37408,1,8,0:0:0:0:
379,367,37675,2,0,P|431:378|480:330,1,110,0|8,0:0|0:0,0:0:0:0:
451,260,38208,2,0,L|444:197,1,55,8|0,0:0|0:0,0:0:0:0:
472,171,38475,2,0,L|477:98,1,55,8|0,0:0|0:0,0:0:0:0:
480,72,38742,5,0,0:0:0:0:
366,206,39275,1,0,0:0:0:0:
299,43,39808,1,8,0:0:0:0:
183,176,40342,1,8,0:0:0:0:
242,341,40875,1,8,0:0:0:0:
256,192,41008,12,4,43008,0:0:0:0:
58,30,51542,5,2,0:0:0:0:
224,85,52075,2,0,P|231:147|233:200,1,110,2|2,0:0|0:0,0:0:0:0:
230,282,52608,1,2,0:0:0:0:
390,353,53142,1,2,0:0:0:0:
497,213,53675,6,0,P|500:130|369:89,1,220,2|2,0:0|0:0,0:0:0:0:
324,141,54475,1,2,0:0:0:0:
241,111,54742,2,0,P|195:111|120:94,1,110,2|2,0:0|0:0,0:0:0:0:
74,164,55275,2,0,P|80:209|83:285,1,110,2|2,0:0|0:0,0:0:0:0:
139,341,55808,6,0,B|236:316|234:381|369:355,1,220,2|2,0:0|0:0,0:0:0:0:
441,340,56608,1,2,0:0:0:0:
383,273,56875,2,0,P|364:211|399:56,1,220,2|2,0:0|0:0,0:0:0:0:
469,15,57675,1,0,0:0:0:0:
394,62,57942,6,0,P|347:89|209:6,1,220,2|0,0:0|0:0,0:0:0:0:
159,90,58742,1,0,0:0:0:0:
78,55,59008,1,2,0:0:0:0:
78,55,60075,6,0,P|72:109|80:164,1,110,4|8,0:0|0:0,0:0:0:0:
128,237,60608,2,0,L|248:258,1,110,0|8,0:0|0:0,0:0:0:0:
311,209,61142,1,0,0:0:0:0:
369,274,61408,1,8,0:0:0:0:
437,219,61675,2,0,P|448:185|437:102,1,110,0|8,0:0|0:0,0:0:0:0:
357,84,62208,6,0,P|314:90|257:53,2,110,0|8|0,0:0|0:0|0:0,0:0:0:0:
423,26,63008,1,8,0:0:0:0:
441,112,63275,2,0,L|448:170,1,55
457,209,63542,1,8,0:0:0:0:
451,296,63808,1,8,0:0:0:0:
378,246,64075,1,8,0:0:0:0:
340,325,64342,6,0,B|235:303|237:370|122:341,1,220
37,334,65142,1,8,0:0:0:0:
92,266,65408,2,0,P|97:207|93:142,2,110,0|8|0,0:0|0:0|0:0,0:0:0:0:
252,194,66475,5,0,0:0:0:0:
321,248,66742,1,8,0:0:0:0:
389,193,67008,2,0,P|388:142|380:82,1,110,0|8,0:0|0:0,0:0:0:0:
314,24,67542,1,0,0:0:0:0:
256,90,67808,2,0,P|208:88|146:55,2,110,8|8|0,0:0|0:0|0:0,0:0:0:0:
337,124,68608,5,4,0:0:0:0:
337,124,69675,1,8,0:0:0:0:
255,280,70208,1,8,0:0:0:0:
166,127,70742,6,0,P|159:179|162:252,1,110,4|8,0:0|0:0,0:0:0:0:
183,321,71275,1,0,0:0:0:0:
256,369,71542,1,8,0:0:0:0:
331,323,71808,1,0,0:0:0:0:
255,277,72075,2,0,L|256:151,2,110,8|0|8,0:0|0:0|0:0,0:0:0:0:
183,321,72875,6,0,P|135:332|69:197,1,220
107,131,73675,1,8,0:0:0:0:
183,86,73942,2,0,L|295:85,1,110
359,27,74475,2,0,P|379:79|361:149,1,110,8|8,0:0|0:0,0:0:0:0:
335,212,75008,6,0,L|212:213,1,110,4|8,0:0|0:0,0:0:0:0:
136,212,75542,1,0,0:0:0:0:
181,286,75808,1,8,0:0:0:0:
92,289,76075,2,0,P|57:255|126:115,1,220,0|8,0:0|0:0,0:0:0:0:
194,86,76875,1,8,0:0:0:0:
255,149,77142,5,4,0:0:0:0:
415,87,77675,2,0,L|422:26,2,55,8|0|8,0:0|0:0|0:0,0:0:0:0:
401,174,78208,2,0,P|396:240|397:295,1,110,0|8,0:0|0:0,0:0:0:0:
338,350,78742,2,0,L|211:359,1,110,0|8,0:0|0:0,0:0:0:0:
189,278,79275,6,0,P|178:227|185:102,2,165,4|4|4,0:0|0:0|0:0,0:0:0:0:
228,357,80342,1,4,0:0:0:0:
306,317,80608,2,0,L|432:309,2,110,8|8|8,0:0|0:0|0:0,0:0:0:0:
228,357,81408,5,4,0:0:0:0:
89,248,81942,2,0,P|86:197|88:129,1,110,0|8,0:0|0:0,0:0:0:0:
120,56,82475,1,0,0:0:0:0:
256,192,83008,1,0,0:0:0:0:
358,48,83542,1,4,0:0:0:0:
256,192,83675,12,4,84608,0:0:0:0:
93,74,85675,6,0,P|97:123|99:193,1,110,4|8,0:0|0:0,0:0:0:0:
85,270,86208,1,0,0:0:0:0:
137,340,86475,1,8,0:0:0:0:
212,294,86742,2,0,P|258:298|328:308,1,110,0|8,0:0|0:0,0:0:0:0:
408,319,87275,1,0,0:0:0:0:
375,237,87542,1,8,0:0:0:0:
462,245,87808,6,0,P|466:203|460:123,1,110,4|8,0:0|0:0,0:0:0:0:
428,53,88342,1,0,0:0:0:0:
377,125,88608,1,8,0:0:0:0:
298,84,88875,2,0,P|257:89|184:104,1,110,0|8,0:0|0:0,0:0:0:0:
115,54,89408,1,0,0:0:0:0:
71,130,89675,1,8,0:0:0:0:
141,183,89942,6,0,P|145:224|145:301,1,110,4|8,0:0|0:0,0:0:0:0:
214,346,90475,2,0,L|277:351,1,55
306,327,90742,2,0,L|370:320,1,55,8|0,0:0|0:0,0:0:0:0:
399,341,91008,2,0,P|452:352|481:294,1,110,0|8,0:0|0:0,0:0:0:0:
443,232,91542,2,0,P|440:171|451:107,1,110,8|8,0:0|0:0,0:0:0:0:
418,39,92075,5,4,0:0:0:0:
364,108,92342,1,8,0:0:0:0:
301,46,92608,1,0,0:0:0:0:
258,123,92875,1,8,0:0:0:0:
197,58,93142,2,0,P|163:51|116:104,1,110,0|8,0:0|0:0,0:0:0:0:
135,187,93675,2,0,P|141:241|139:304,1,110,8|0,0:0|0:0,0:0:0:0:
124,383,94208,1,0,0:0:0:0:
256,192,94342,12,0,96875,0:0:0:0:
