osu file format v14

[General]
AudioFilename: audio.mp3
AudioLeadIn: 0
PreviewTime: 8875
Countdown: 0
SampleSet: Normal
StackLeniency: 0.7
Mode: 0
LetterboxInBreaks: 0
WidescreenStoryboard: 0

[Editor]
DistanceSpacing: 1.1
BeatDivisor: 4
GridSize: 32
TimelineZoom: 1.8

[Metadata]
Title:Scott Pilgrim Anthem
TitleUnicode:Scott Pilgrim Anthem
Artist:Anamanaguchi
ArtistUnicode:Anamanaguchi
Creator:Leader
Version:Alphabet's Expert
Source:Scott Pilgrim vs. the World: The Game
Tags:Alphabet Venax Polka PolkaMocha Veridian video game instrumental
BeatmapID:2133847
BeatmapSetID:1014370

[Difficulty]
HPDrainRate:6.2
CircleSize:3.8
OverallDifficulty:8.5
ApproachRate:9.2
SliderMultiplier:1.66
SliderTickRate:1

[Events]
//Background and Video events
0,0,"alphabet.png",0,0
//Break Periods
//Storyboard Layer 0 (Background)
//Storyboard Layer 1 (Fail)
//Storyboard Layer 2 (Pass)
//Storyboard Layer 3 (Foreground)
//Storyboard Layer 4 (Overlay)
//Storyboard Sound Samples

[TimingPoints]
342,266.666666666667,4,1,1,40,1,0
4608,-142.857142857143,4,1,1,40,0,0
7009,-142.857142857143,4,1,1,50,0,0
7275,-142.857142857143,4,1,1,60,0,0
8342,-100,4,1,1,60,0,0
23808,-80,4,1,1,60,0,0
25942,-100,4,1,1,60,0,0
43008,-100,4,1,1,60,0,0
51542,-117.647058823529,4,2,1,50,0,0
59008,-117.647058823529,4,1,1,50,0,0
60075,-100,4,1,1,60,0,0
68608,-166.666666666667,4,1,1,60,0,0
70742,-100,4,1,1,60,0,0
77142,-86.9565217391304,4,1,1,40,0,1
79275,-86.9565217391304,4,1,1,60,0,1
81408,-90.9090909090909,4,1,1,60,0,0
84608,-125,4,1,1,60,0,0
85675,-100,4,1,1,60,0,0
93142,-100,4,1,1,50,0,0
93675,-100,4,1,1,40,0,0
95275,-100,4,1,1,30,0,0
96342,-100,4,1,1,20,0,0
96608,-100,4,1,1,5,0,0

[Colours]
Combo1 : 108,255,38
Combo2 : 255,30,30
Combo3 : 242,115,0
Combo4 : 255,255,15

[HitObjects]
246,344,4608,6,0,L|487:312,1,232.399992907715,4|8,0:0|0:0,0:0:0:0:
481,329,5675,2,0,L|250:359,1,232.399992907715,0|8,0:0|0:0,0:0:0:0:
162,177,6475,1,8,0:0:0:0:
105,367,6742,6,0,B|83:315|83:315|99:242,1,116.199996453858,2|2,0:0|0:0,0:0:0:0:
153,66,7275,2,0,B|175:118|175:118|159:191,1,116.199996453858,2|2,0:0|0:0,0:0:0:0:
163,307,7808,5,2,0:0:0:0:
93,125,7942,1,0,0:0:0:0:
157,311,8075,1,2,0:0:0:0:
87,129,8208,1,0,0:0:0:0:
43,280,8342,6,0,L|31:373,1,83,8|0,0:0|0:0,0:0:0:0:
216,216,8608,2,0,L|204:123,1,83,8|8,0:0|0:0,0:0:0:0:
356,349,8875,6,0,B|477:332|477:332|444:300,1,166,4|8,0:0|0:0,0:0:0:0:
379,246,9275,1,0,0:0:0:0:
480,105,9408,1,0,0:0:0:0:
451,192,9542,1,0,0:0:0:0:
364,163,9675,1,8,0:0:0:0:
393,76,9808,1,0,0:0:0:0:
315,11,9942,6,0,P|243:8|167:81,1,166,0|8,0:0|0:0,0:0:0:0:
142,146,10342,1,0,0:0:0:0:
79,83,10475,2,0,L|122:270,1,166,0|8,0:0|0:0,0:0:0:0:
64,339,10875,1,0,0:0:0:0:
228,197,11008,6,0,B|317:178|293:266|399:242,1,166,0|8,0:0|0:0,0:0:0:0:
440,308,11408,1,0,0:0:0:0:
467,221,11542,2,0,L|455:131,1,83
373,66,11808,2,0,L|362:148,1,83,8|0,0:0|0:0,0:0:0:0:
247,274,12075,6,0,P|271:316|288:370,1,83
156,184,12342,2,0,P|131:225|93:267,1,83,8|0,0:0|0:0,0:0:0:0:
14,143,12608,1,8,0:0:0:0:
136,72,12742,1,0,0:0:0:0:
268,148,12875,1,8,0:0:0:0:
354,64,13008,1,0,0:0:0:0:
282,20,13142,6,0,P|301:96|359:198,1,166,0|8,0:0|0:0,0:0:0:0:
430,254,13542,1,0,0:0:0:0:
430,254,13675,2,0,L|529:245,1,83
322,344,13942,2,0,L|404:351,1,83,8|0,0:0|0:0,0:0:0:0:
253,218,14208,5,0,0:0:0:0:
205,287,14342,1,0,0:0:0:0:
171,211,14475,2,0,P|130:186|83:180,1,83,8|0,0:0|0:0,0:0:0:0:
23,320,14742,1,0,0:0:0:0:
23,320,14875,1,0,0:0:0:0:
122,279,15008,1,8,0:0:0:0:
190,376,15142,1,0,0:0:0:0:
294,294,15275,6,0,P|370:300|461:340,1,166,0|8,0:0|0:0,0:0:0:0:
475,192,15675,1,0,0:0:0:0:
401,230,15808,2,0,P|381:194|382:149,1,83
430,44,16075,2,0,L|526:51,1,83,8|0,0:0|0:0,0:0:0:0:
296,123,16342,6,0,L|200:116,1,83
110,50,16608,1,8,0:0:0:0:
21,165,16742,1,0,0:0:0:0:
21,165,16808,1,0,0:0:0:0:
21,165,16875,2,0,L|117:158,1,83,8|0,0:0|0:0,0:0:0:0:
222,221,17142,1,8,0:0:0:0:
135,320,17275,1,0,0:0:0:0:
194,384,17408,6,0,P|174:307|127:209,1,166,4|8,0:0|0:0,0:0:0:0:
204,116,17808,1,0,0:0:0:0:
413,184,17942,1,0,0:0:0:0:
384,97,18075,1,0,0:0:0:0:
297,126,18208,1,8,0:0:0:0:
326,213,18342,1,0,0:0:0:0:
436,293,18475,6,0,P|387:285|333:374,1,166,0|8,0:0|0:0,0:0:0:0:
252,307,18875,1,0,0:0:0:0:
197,376,19008,2,0,L|4:347,1,166,0|8,0:0|0:0,0:0:0:0:
114,221,19408,1,0,0:0:0:0:
35,264,19542,6,0,B|3:175|61:197|30:95,1,166,0|8,0:0|0:0,0:0:0:0:
115,29,19942,1,0,0:0:0:0:
183,78,20075,2,0,P|149:109|90:109,1,83
263,11,20342,2,0,L|367:18,1,83,8|0,0:0|0:0,0:0:0:0:
444,169,20608,5,0,0:0:0:0:
408,92,20742,1,0,0:0:0:0:
455,24,20875,2,0,P|477:49|487:104,1,83,8|0,0:0|0:0,0:0:0:0:
421,252,21142,1,8,0:0:0:0:
269,203,21275,1,0,0:0:0:0:
185,345,21408,1,8,0:0:0:0:
265,308,21542,1,0,0:0:0:0:
194,258,21675,6,0,P|129:266|15:329,1,166,4|8,0:0|0:0,0:0:0:0:
276,188,22075,1,0,0:0:0:0:
215,116,22208,2,0,P|173:124|108:160,1,83
24,28,22475,2,0,L|121:39,1,83,8|0,0:0|0:0,0:0:0:0:
314,87,22742,1,0,0:0:0:0:
246,20,22875,1,0,0:0:0:0:
215,116,23008,1,8,0:0:0:0:
207,135,23275,5,8,0:0:0:0:
327,5,23408,1,0,0:0:0:0:
379,173,23542,1,8,0:0:0:0:
387,193,23808,6,0,B|299:207|299:207|283:220|283:220|164:235,1,207.5,0|8,0:0|0:0,0:0:0:0:
16,279,24208,1,0,0:0:0:0:
114,323,24342,1,0,0:0:0:0:
92,229,24475,1,0,0:0:0:0:
34,367,24608,1,8,0:0:0:0:
25,384,24875,5,0,0:0:0:0:
199,278,25008,1,0,0:0:0:0:
206,292,25075,1,0,0:0:0:0:
214,306,25142,2,0,L|324:319,1,103.75,8|0,0:0|0:0,0:0:0:0:
483,278,25408,1,8,0:0:0:0:
358,186,25542,1,0,0:0:0:0:
487,114,25675,1,8,0:0:0:0:
427,35,25808,1,0,0:0:0:0:
350,68,25942,6,0,P|305:40|185:13,1,166,4|8,0:0|0:0,0:0:0:0:
48,134,26342,1,0,0:0:0:0:
13,36,26475,1,0,0:0:0:0:
115,55,26608,1,0,0:0:0:0:
180,164,26742,1,8,0:0:0:0:
253,109,26875,1,0,0:0:0:0:
265,200,27008,6,0,P|239:261|232:366,1,166,0|8,0:0|0:0,0:0:0:0:
335,269,27408,1,0,0:0:0:0:
335,269,27542,2,0,P|351:320|374:362,1,83
425,249,27808,2,0,P|477:260|525:261,1,83,8|0,0:0|0:0,0:0:0:0:
438,96,28075,6,0,B|397:73|351:93|364:102|323:133|267:109,1,166,0|8,0:0|0:0,0:0:0:0:
167,164,28475,1,0,0:0:0:0:
105,103,28608,2,0,P|140:76|160:34,1,83
6,163,28875,2,0,P|9:218|30:339,1,166,8|0,0:0|0:0,0:0:0:0:
159,283,29275,1,0,0:0:0:0:
168,297,29408,2,0,P|163:345|153:392,1,83,8|0,0:0|0:0,0:0:0:0:
355,288,29675,5,8,0:0:0:0:
208,208,29808,1,0,0:0:0:0:
293,346,29942,1,8,0:0:0:0:
427,254,30075,1,0,0:0:0:0:
360,207,30208,6,0,L|375:40,1,166,0|8,0:0|0:0,0:0:0:0:
265,113,30608,1,0,0:0:0:0:
136,43,30742,1,0,0:0:0:0:
236,18,30875,1,0,0:0:0:0:
157,145,31008,1,8,0:0:0:0:
64,120,31142,1,0,0:0:0:0:
3,191,31275,6,0,P|25:250|36:370,1,166,0|8,0:0|0:0,0:0:0:0:
189,280,31675,1,0,0:0:0:0:
189,280,31808,2,0,P|140:268|106:230,1,83
272,226,32075,2,0,P|286:274|270:322,1,83,8|0,0:0|0:0,0:0:0:0:
187,173,32342,6,0,B|157:82|226:99|182:-4,1,166,0|8,0:0|0:0,0:0:0:0:
275,130,32742,1,0,0:0:0:0:
275,130,32875,2,0,P|326:120|357:77,1,83
454,16,33142,1,8,0:0:0:0:
413,146,33275,1,0,0:0:0:0:
487,213,33408,6,0,B|510:255|510:255|478:378,1,166,0|8,0:0|0:0,0:0:0:0:
371,272,33808,1,0,0:0:0:0:
282,366,33942,5,8,0:0:0:0:
253,184,34075,1,0,0:0:0:0:
272,371,34208,1,8,0:0:0:0:
243,189,34342,1,0,0:0:0:0:
168,352,34475,6,0,B|84:321|90:394|1:365,1,166,4|8,0:0|0:0,0:0:0:0:
39,176,34875,1,0,0:0:0:0:
131,230,35008,1,0,0:0:0:0:
42,280,35142,1,0,0:0:0:0:
43,185,35275,1,8,0:0:0:0:
124,235,35408,1,0,0:0:0:0:
199,180,35542,6,0,P|261:153|365:135,1,166,0|8,0:0|0:0,0:0:0:0:
250,26,35942,1,0,0:0:0:0:
250,26,36075,2,0,P|292:48|344:54,1,83
485,38,36342,2,0,P|444:46|408:66,1,83,8|0,0:0|0:0,0:0:0:0:
391,296,36608,6,0,P|381:206|346:113,1,166,0|8,0:0|0:0,0:0:0:0:
213,226,37008,1,0,0:0:0:0:
203,242,37142,2,0,P|236:292|267:295,1,83
279,113,37408,2,0,B|237:91|199:110|207:120|176:158|111:145,1,166,8|0,0:0|0:0,0:0:0:0:
12,114,37808,1,0,0:0:0:0:
99,59,37942,2,0,P|107:100|114:163,1,83,8|0,0:0|0:0,0:0:0:0:
127,319,38208,5,8,0:0:0:0:
12,254,38342,1,0,0:0:0:0:
179,220,38475,1,8,0:0:0:0:
213,376,38608,1,0,0:0:0:0:
292,325,38742,5,0,0:0:0:0:
282,307,38875,1,0,0:0:0:0:
354,248,39008,1,8,0:0:0:0:
354,230,39142,1,0,0:0:0:0:
437,147,39275,5,0,0:0:0:0:
459,255,39408,1,0,0:0:0:0:
346,83,39542,1,8,0:0:0:0:
280,180,39675,1,0,0:0:0:0:
232,40,39808,5,8,0:0:0:0:
251,48,39942,1,0,0:0:0:0:
154,128,40075,1,8,0:0:0:0:
173,123,40208,1,0,0:0:0:0:
39,36,40342,6,0,P|57:81|67:126,1,83,8|0,0:0|0:0,0:0:0:0:
98,213,40608,2,0,P|78:257|54:296,1,83,8|0,0:0|0:0,0:0:0:0:
232,368,40875,5,8,0:0:0:0:
189,209,41008,1,0,0:0:0:0:
289,294,41142,1,8,0:0:0:0:
311,206,41275,1,0,0:0:0:0:
377,300,41408,5,8,0:0:0:0:
398,291,41542,1,0,0:0:0:0:
417,175,41675,1,8,0:0:0:0:
486,238,41808,1,0,0:0:0:0:
339,22,41942,5,0,0:0:0:0:
486,119,42075,1,0,0:0:0:0:
228,27,42208,1,8,0:0:0:0:
272,125,42342,1,0,0:0:0:0:
172,220,42475,5,0,0:0:0:0:
202,66,42608,1,0,0:0:0:0:
63,4,42742,1,8,0:0:0:0:
102,99,42875,1,0,0:0:0:0:
15,207,43008,6,0,P|38:264|46:383,1,166,4|0,0:0|0:0,0:0:0:0:
234,362,43408,2,0,P|184:342|168:227,1,166
236,277,43808,1,0,0:0:0:0:
466,373,44075,5,0,0:0:0:0:
512,215,44208,1,0,0:0:0:0:
400,308,44342,2,0,P|387:264|357:200,1,83
475,94,44608,2,0,P|441:126|430:186,1,83
264,134,44875,2,0,P|305:140|345:149,1,83
133,229,45142,6,0,L|149:322,1,83
68,144,45408,1,0,0:0:0:0:
68,144,45542,2,0,P|46:214|30:317,1,166
258,354,45942,2,0,P|277:306|211:256,1,124.5
206,261,46208,5,0,0:0:0:0:
400,366,46342,1,0,0:0:0:0:
441,201,46475,1,0,0:0:0:0:
358,281,46608,1,0,0:0:0:0:
297,105,46742,2,0,P|309:51|326:9,1,83
456,105,47008,1,0,0:0:0:0:
292,193,47142,1,0,0:0:0:0:
197,86,47275,6,0,P|144:91|144:196,1,166
14,235,47675,2,0,P|58:258|131:360,1,166
285,375,48075,1,0,0:0:0:0:
197,86,48342,5,0,0:0:0:0:
257,168,48475,1,0,0:0:0:0:
307,78,48608,2,0,P|314:26|310:-14,1,83
174,168,48875,2,0,P|125:187|92:211,1,83
318,238,49142,2,0,P|359:270|396:286,1,83
506,128,49408,6,0,B|414:102|430:176|334:149,1,166
200,262,49808,2,0,P|233:336|309:364,1,166
262,119,50208,2,0,L|160:111,1,83
14,212,50475,5,0,0:0:0:0:
111,317,50608,1,0,0:0:0:0:
152,184,50742,1,0,0:0:0:0:
139,202,50875,1,0,0:0:0:0:
27,354,51008,5,0,0:0:0:0:
215,299,51142,1,0,0:0:0:0:
394,373,51275,1,0,0:0:0:0:
321,303,51408,1,0,0:0:0:0:
352,223,51542,6,0,P|355:183|341:58,1,141.100002691269,2|0,0:0|0:0,0:0:0:0:
250,17,51942,1,0,0:0:0:0:
250,17,52075,2,0,P|229:63|230:108,1,70.5500013456345,2|0,0:0|0:0,0:0:0:0:
175,208,52342,2,0,P|170:157|146:119,1,70.5500013456345,2|2,0:0|0:0,0:0:0:0:
18,20,52608,5,2,0:0:0:0:
76,82,52742,1,0,0:0:0:0:
43,127,52875,2,0,P|32:176|26:274,1,141.100002691269,0|2,0:0|0:0,0:0:0:0:
116,372,53275,1,0,0:0:0:0:
181,323,53408,2,0,P|176:273|160:232,1,70.5500013456345
295,129,53675,6,0,P|362:144|442:174,1,141.100002691269,2|2,0:0|0:0,0:0:0:0:
413,251,54075,2,0,P|346:226|277:211,1,141.100002691269
202,103,54475,2,0,B|227:183|168:167|202:258,1,141.100002691269,2|2,0:0|0:0,0:0:0:0:
243,379,54875,1,0,0:0:0:0:
110,262,55008,2,0,P|61:258|25:276,1,70.5500013456345,2|0,0:0|0:0,0:0:0:0:
277,211,55275,1,2,0:0:0:0:
131,135,55408,1,2,0:0:0:0:
281,64,55542,1,2,0:0:0:0:
254,39,55675,1,2,0:0:0:0:
401,42,55808,6,0,P|381:114|373:200,1,141.100002691269,2|0,0:0|0:0,0:0:0:0:
397,277,56208,1,0,0:0:0:0:
397,277,56342,2,0,P|442:274|477:251,1,70.5500013456345,2|0,0:0|0:0,0:0:0:0:
292,178,56608,2,0,P|259:163|224:163,1,70.5500013456345,2|2,0:0|0:0,0:0:0:0:
79,290,56875,5,2,0:0:0:0:
147,244,57008,1,0,0:0:0:0:
181,269,57142,2,0,P|227:285|311:332,1,141.100002691269,0|2,0:0|0:0,0:0:0:0:
461,324,57542,1,0,0:0:0:0:
411,227,57675,2,0,P|378:249|370:281,1,70.5500013456345
512,176,57942,6,0,B|481:134|481:134|492:21,1,141.100002691269,2|2,0:0|0:0,0:0:0:0:
374,0,58342,2,0,B|405:42|405:42|394:155,1,141.100002691269,2|0,0:0|0:0,0:0:0:0:
299,226,58742,2,0,P|212:213|198:212,1,70.5500013456345,2|0,0:0|0:0,0:0:0:0:
56,167,59008,5,2,0:0:0:0:
132,289,59142,1,0,0:0:0:0:
191,148,59275,1,0,0:0:0:0:
172,128,59408,1,0,0:0:0:0:
172,126,59475,1,0,0:0:0:0:
172,126,59542,1,8,0:0:0:0:
33,259,59675,5,0,0:0:0:0:
14,75,59808,1,8,0:0:0:0:
129,205,59942,1,0,0:0:0:0:
255,22,60075,6,0,P|314:36|354:59,1,83,4|0,0:0|0:0,0:0:0:0:
401,165,60342,2,0,P|342:179|302:202,1,83,8|0,0:0|0:0,0:0:0:0:
227,297,60608,2,0,P|246:353|253:387,1,83
365,331,60875,2,0,P|374:290|389:251,1,83,8|0,0:0|0:0,0:0:0:0:
222,90,61142,5,0,0:0:0:0:
252,205,61275,1,0,0:0:0:0:
148,170,61408,2,0,L|58:163,1,83,8|0,0:0|0:0,0:0:0:0:
144,363,61675,1,0,0:0:0:0:
231,300,61808,1,0,0:0:0:0:
137,256,61942,2,0,L|47:249,1,83,8|0,0:0|0:0,0:0:0:0:
310,128,62208,6,0,P|354:142|395:144,1,83
492,236,62475,2,0,P|448:250|407:252,1,83,8|0,0:0|0:0,0:0:0:0:
300,358,62742,2,0,P|290:313|271:273,1,83
162,177,63008,2,0,P|152:222|133:262,1,83,8|0,0:0|0:0,0:0:0:0:
15,370,63275,5,0,0:0:0:0:
36,275,63408,1,0,0:0:0:0:
7,175,63542,2,0,P|11:130|15:77,1,83,8|0,0:0|0:0,0:0:0:0:
223,33,63808,5,8,0:0:0:0:
97,113,63942,1,0,0:0:0:0:
231,45,64075,1,8,0:0:0:0:
105,125,64208,1,0,0:0:0:0:
215,236,64342,6,0,P|224:178|221:135,1,83
64,232,64608,2,0,P|63:273|55:314,1,83,8|0,0:0|0:0,0:0:0:0:
225,380,64875,2,0,P|281:365|308:334,1,83
410,219,65142,2,0,P|354:204|327:173,1,83,8|0,0:0|0:0,0:0:0:0:
303,12,65408,5,0,0:0:0:0:
440,94,65542,1,0,0:0:0:0:
422,14,65675,2,0,P|385:32|360:87,1,83,8|0,0:0|0:0,0:0:0:0:
135,210,65942,1,0,0:0:0:0:
272,128,66075,1,0,0:0:0:0:
254,208,66208,2,0,P|217:190|192:135,1,83,8|0,0:0|0:0,0:0:0:0:
110,15,66475,6,0,P|95:57|88:103,1,83
29,184,66742,2,0,P|48:224|75:261,1,83,8|0,0:0|0:0,0:0:0:0:
201,375,67008,2,0,P|218:323|249:285,1,83
135,151,67275,2,0,P|152:203|183:241,1,83,8|0,0:0|0:0,0:0:0:0:
336,350,67542,5,0,0:0:0:0:
439,254,67675,1,0,0:0:0:0:
512,373,67808,1,8,0:0:0:0:
512,373,67942,1,0,0:0:0:0:
348,257,68075,1,8,0:0:0:0:
363,226,68208,1,0,0:0:0:0:
267,123,68342,1,0,0:0:0:0:
376,75,68475,1,0,0:0:0:0:
241,242,68608,6,0,P|209:228|31:214,1,199.199993920899,4|0,0:0|0:0,0:0:0:0:
47,211,69408,1,8,0:0:0:0:
142,384,69675,2,0,B|109:288|184:304|146:182,1,199.199993920899,8|8,0:0|0:0,0:0:0:0:
149,190,70742,6,0,P|96:178|67:155,1,83,4|0,0:0|0:0,0:0:0:0:
213,97,71008,1,8,0:0:0:0:
299,207,71142,2,0,P|246:219|217:242,1,83
365,290,71408,1,0,0:0:0:0:
447,185,71542,2,0,P|394:173|365:150,1,83,8|0,0:0|0:0,0:0:0:0:
310,17,71808,5,0,0:0:0:0:
310,17,71942,1,0,0:0:0:0:
310,17,72075,2,0,L|301:107,1,83,8|0,0:0|0:0,0:0:0:0:
231,317,72342,2,0,L|222:227,1,83
152,17,72608,2,0,L|143:107,1,83,8|0,0:0|0:0,0:0:0:0:
18,211,72875,6,0,P|73:237|101:278,1,83
112,366,73142,1,8,0:0:0:0:
203,232,73275,2,0,P|258:206|286:165,1,83
295,358,73542,1,0,0:0:0:0:
384,195,73675,2,0,P|439:221|467:262,1,83,8|0,0:0|0:0,0:0:0:0:
476,40,73942,5,0,0:0:0:0:
476,40,74075,1,0,0:0:0:0:
476,40,74208,2,0,L|391:53,1,83
182,181,74475,2,0,L|264:193,1,83,8|0,0:0|0:0,0:0:0:0:
505,291,74742,2,0,L|422:303,1,83,8|0,0:0|0:0,0:0:0:0:
172,336,75008,6,0,P|238:296|336:273,1,166,4|8,0:0|0:0,0:0:0:0:
497,168,75408,2,0,P|449:176|409:146,1,83
477,66,75675,1,0,0:0:0:0:
339,264,75808,2,0,P|346:215|347:161,1,83,8|0,0:0|0:0,0:0:0:0:
223,23,76075,5,0,0:0:0:0:
194,33,76208,1,0,0:0:0:0:
239,146,76342,1,8,0:0:0:0:
133,114,76475,1,0,0:0:0:0:
303,27,76608,1,8,0:0:0:0:
86,51,76742,1,0,0:0:0:0:
90,240,76875,2,0,P|43:211|25:167,1,83,8|0,0:0|0:0,0:0:0:0:
309,262,77142,5,4,0:0:0:0:
293,342,77275,1,0,0:0:0:0:
212,326,77408,1,8,0:0:0:0:
228,246,77542,1,0,0:0:0:0:
461,150,77675,5,8,0:0:0:0:
497,250,77808,1,0,0:0:0:0:
410,222,77942,1,8,0:0:0:0:
387,317,78075,1,0,0:0:0:0:
258,148,78208,5,0,0:0:0:0:
233,29,78342,1,0,0:0:0:0:
352,6,78475,1,8,0:0:0:0:
375,123,78608,1,0,0:0:0:0:
168,135,78742,5,0,0:0:0:0:
322,259,78875,1,0,0:0:0:0:
80,201,79008,1,8,0:0:0:0:
298,357,79142,1,0,0:0:0:0:
184,46,79275,6,0,P|122:56|85:101,1,95.4500018205643,4|0,0:0|0:0,0:0:0:0:
23,262,79542,1,8,0:0:0:0:
168,135,79675,2,0,P|230:145|267:190,1,95.4500018205643,4|0,0:0|0:0,0:0:0:0:
315,369,79942,1,8,0:0:0:0:
184,223,80075,2,0,P|169:274|164:326,1,95.4500018205643,4|0,0:0|0:0,0:0:0:0:
351,139,80342,6,0,P|345:91|331:46,1,95.4500018205643,4|0,0:0|0:0,0:0:0:0:
450,259,80608,1,8,0:0:0:0:
253,165,80742,1,0,0:0:0:0:
253,165,80808,1,0,0:0:0:0:
253,165,80875,1,8,0:0:0:0:
432,93,81008,1,0,0:0:0:0:
346,272,81142,2,0,P|299:276|248:322,1,95.4500018205643,8|0,0:0|0:0,0:0:0:0:
126,376,81408,6,0,B|104:278|165:302|129:189,1,182.60000557251,4|8,0:0|0:0,0:0:0:0:
61,109,81808,1,0,0:0:0:0:
222,215,81942,1,0,0:0:0:0:
195,88,82075,1,0,0:0:0:0:
255,23,82208,1,8,0:0:0:0:
265,18,82342,1,0,0:0:0:0:
376,136,82475,6,0,P|332:123|272:120,1,91.300002786255
132,231,82742,2,0,P|177:227|221:214,1,91.300002786255,8|0,0:0|0:0,0:0:0:0:
339,362,83008,6,0,P|347:313|323:267,1,91.300002786255
462,172,83275,2,0,P|445:213|454:258,1,91.300002786255,8|0,0:0|0:0,0:0:0:0:
253,332,83542,6,0,P|195:324|157:313,1,91.300002786255,4|0,0:0|0:0,0:0:0:0:
27,263,83808,1,0,0:0:0:0:
43,358,83942,2,0,P|60:271|53:151,1,182.60000557251,4|0,0:0|0:0,0:0:0:0:
138,28,84342,2,0,P|86:36|73:89,1,91.300002786255,4|0,0:0|0:0,0:0:0:0:
166,209,84608,5,4,0:0:0:0:
166,209,84742,1,0,0:0:0:0:
238,125,84875,2,0,L|318:133,1,66.4,2|2,0:0|0:0,0:0:0:0:
363,218,85142,2,0,L|429:211,1,66.4,2|0,0:0|0:0,0:0:0:0:
482,127,85408,1,2,0:0:0:0:
482,127,85675,6,0,P|472:184|486:320,1,166,4|8,0:0|0:0,0:0:0:0:
376,278,86075,1,0,0:0:0:0:
373,371,86208,2,0,P|312:344|296:233,1,166,0|8,0:0|0:0,0:0:0:0:
340,106,86608,1,0,0:0:0:0:
204,144,86742,2,0,B|115:112|131:184|34:152,1,166,0|8,0:0|0:0,0:0:0:0:
6,248,87142,1,0,0:0:0:0:
104,238,87275,2,0,P|173:256|256:326,1,166,0|8,0:0|0:0,0:0:0:0:
246,313,87808,6,0,P|234:267|321:200,1,166,4|8,0:0|0:0,0:0:0:0:
395,258,88208,1,0,0:0:0:0:
405,160,88342,2,0,P|423:118|425:-6,1,166,0|8,0:0|0:0,0:0:0:0:
333,102,88742,1,0,0:0:0:0:
269,4,88875,6,0,L|70:-1,1,166,0|8,0:0|0:0,0:0:0:0:
20,54,89275,1,0,0:0:0:0:
110,97,89408,2,0,P|168:114|207:143,1,83
82,221,89675,2,0,P|24:238|-15:267,1,83,8|0,0:0|0:0,0:0:0:0:
186,350,89942,5,4,0:0:0:0:
186,350,90075,1,0,0:0:0:0:
235,276,90208,2,0,P|263:307|275:357,1,83,8|0,0:0|0:0,0:0:0:0:
89,324,90475,1,0,0:0:0:0:
89,324,90608,1,0,0:0:0:0:
44,212,90742,2,0,P|84:203|134:217,1,83,8|0,0:0|0:0,0:0:0:0:
245,116,91008,5,0,0:0:0:0:
245,116,91142,1,0,0:0:0:0:
373,232,91275,2,0,P|319:218|286:181,1,83,8|0,0:0|0:0,0:0:0:0:
202,41,91542,2,0,P|276:69|381:79,1,166,8|8,0:0|0:0,0:0:0:0:
361,79,92075,5,4,0:0:0:0:
361,79,92208,1,0,0:0:0:0:
457,75,92342,2,0,P|474:27|509:-7,1,83,8|0,0:0|0:0,0:0:0:0:
357,186,92608,1,0,0:0:0:0:
357,186,92742,1,0,0:0:0:0:
261,182,92875,2,0,P|244:134|209:100,1,83,8|0,0:0|0:0,0:0:0:0:
100,304,93142,5,0,0:0:0:0:
100,304,93275,1,0,0:0:0:0:
193,275,93408,1,8,0:0:0:0:
203,308,93542,1,0,0:0:0:0:
90,170,93675,1,8,0:0:0:0:
67,213,93808,1,8,0:0:0:0:
171,75,93942,1,0,0:0:0:0:
192,155,94075,1,8,0:0:0:0:
278,15,94208,5,0,0:0:0:0:
256,192,94275,12,0,96342,0:0:0:0:
