osu file format v14

[General]
AudioFilename: audio.mp3
AudioLeadIn: 0
PreviewTime: 32986
Countdown: 1
SampleSet: Normal
StackLeniency: 0.7
Mode: 3
LetterboxInBreaks: 0
SpecialStyle: 0
WidescreenStoryboard: 0

[Editor]
DistanceSpacing: 1
BeatDivisor: 4
GridSize: 4
TimelineZoom: 1.5

[Metadata]
Title:SPF 420
TitleUnicode:SPF 420
Artist:Anamanaguchi
ArtistUnicode:Anamanaguchi
Creator:juankristal
Version:Introduction
Source:
Tags:LN
BeatmapID:1546477
BeatmapSetID:733019

[Difficulty]
HPDrainRate:7.5
CircleSize:4
OverallDifficulty:7.5
ApproachRate:5
SliderMultiplier:1.4
SliderTickRate:1

[Events]
//Background and Video events
0,0,"anime-colorful-abstract-miku-vocaloid-hd-1080P-wallpaper-middle-size.jpg",0,0
//Break Periods
//Storyboard Layer 0 (Background)
//Storyboard Layer 1 (Fail)
//Storyboard Layer 2 (Pass)
//Storyboard Layer 3 (Foreground)
//Storyboard Sound Samples

[TimingPoints]
16,326.441784548422,4,1,0,100,1,0

[HitObjects]
448,192,16,5,0,0:0:0:0:
448,192,342,1,0,0:0:0:0:
448,192,668,1,0,0:0:0:0:
448,192,995,1,0,0:0:0:0:
64,192,1158,1,0,0:0:0:0:
320,192,1158,1,0,0:0:0:0:
192,192,1321,128,0,1648:0:0:0:0:
448,192,1321,128,0,1648:0:0:0:0:
64,192,1648,128,0,1974:0:0:0:0:
192,192,1811,128,0,1974:0:0:0:0:
448,192,1974,128,0,2301:0:0:0:0:
320,192,2301,128,0,2627:0:0:0:0:
192,192,2464,128,0,2627:0:0:0:0:
64,192,2627,128,0,2953:0:0:0:0:
448,192,2627,128,0,2709:0:0:0:0:
448,192,2790,128,0,2953:0:0:0:0:
192,192,2953,128,0,3280:0:0:0:0:
320,192,2953,128,0,3035:0:0:0:0:
320,192,3117,128,0,3280:0:0:0:0:
64,192,3280,128,0,3606:0:0:0:0:
448,192,3280,128,0,3362:0:0:0:0:
448,192,3443,128,0,3606:0:0:0:0:
192,192,3606,128,0,3933:0:0:0:0:
320,192,3606,128,0,3688:0:0:0:0:
320,192,3770,128,0,3933:0:0:0:0:
64,192,3933,128,0,4259:0:0:0:0:
448,192,3933,128,0,4014:0:0:0:0:
448,192,4096,128,0,4259:0:0:0:0:
192,192,4259,128,0,4586:0:0:0:0:
320,192,4259,128,0,4586:0:0:0:0:
64,192,4586,128,0,4912:0:0:0:0:
448,192,4586,128,0,4912:0:0:0:0:
192,192,4912,128,0,5157:0:0:0:0:
320,192,4912,128,0,5157:0:0:0:0:
192,192,5239,128,0,5565:0:0:0:0:
320,192,5239,128,0,6218:0:0:0:0:
448,192,5565,128,0,5891:0:0:0:0:
192,192,5728,128,0,5810:0:0:0:0:
192,192,5891,128,0,6871:0:0:0:0:
64,192,6218,128,0,6544:0:0:0:0:
448,192,6381,128,0,6463:0:0:0:0:
448,192,6544,128,0,7197:0:0:0:0:
320,192,6871,128,0,7197:0:0:0:0:
64,192,7034,128,0,7116:0:0:0:0:
64,192,7197,128,0,7850:0:0:0:0:
192,192,7197,128,0,7360:0:0:0:0:
448,192,7360,128,0,7524:0:0:0:0:
192,192,7524,128,0,7687:0:0:0:0:
320,192,7687,128,0,7850:0:0:0:0:
448,192,7850,128,0,8177:0:0:0:0:
192,192,7850,128,0,7932:0:0:0:0:
192,192,8013,128,0,8177:0:0:0:0:
320,192,8177,128,0,8503:0:0:0:0:
64,192,8177,128,0,8258:0:0:0:0:
64,192,8340,128,0,8503:0:0:0:0:
448,192,8503,128,0,8829:0:0:0:0:
192,192,8503,128,0,8585:0:0:0:0:
192,192,8666,128,0,8829:0:0:0:0:
320,192,8829,128,0,9156:0:0:0:0:
64,192,8829,128,0,8911:0:0:0:0:
64,192,8993,128,0,9156:0:0:0:0:
448,192,9156,128,0,9482:0:0:0:0:
192,192,9156,128,0,9237:0:0:0:0:
192,192,9319,128,0,9482:0:0:0:0:
64,192,9482,128,0,9809:0:0:0:0:
320,192,9482,128,0,9809:0:0:0:0:
192,192,9809,128,0,10135:0:0:0:0:
448,192,9809,128,0,10135:0:0:0:0:
320,192,10135,128,0,10380:0:0:0:0:
64,192,10135,128,0,10380:0:0:0:0:
64,192,10462,128,0,11441:0:0:0:0:
320,192,10462,128,0,10788:0:0:0:0:
448,192,10788,128,0,11115:0:0:0:0:
192,192,10951,128,0,11033:0:0:0:0:
192,192,11115,128,0,12094:0:0:0:0:
320,192,11441,128,0,11767:0:0:0:0:
448,192,11604,128,0,11686:0:0:0:0:
448,192,11767,128,0,12747:0:0:0:0:
320,192,12094,128,0,12420:0:0:0:0:
64,192,12257,128,0,12339:0:0:0:0:
64,192,12420,128,0,12747:0:0:0:0:
192,192,12584,128,0,12747:0:0:0:0:
320,192,12747,128,0,12828:0:0:0:0:
320,192,12910,128,0,13073:0:0:0:0:
64,192,13073,1,0,0:0:0:0:
448,192,13073,1,0,0:0:0:0:
192,192,13236,128,0,13644:0:0:0:0:
320,192,13400,128,0,13808:0:0:0:0:
192,192,13726,128,0,14216:0:0:0:0:
320,192,13889,128,0,14216:0:0:0:0:
64,192,14052,1,0,0:0:0:0:
448,192,14216,128,0,14461:0:0:0:0:
448,192,14542,128,0,14705:0:0:0:0:
320,192,14705,128,0,15032:0:0:0:0:
192,192,15032,128,0,15358:0:0:0:0:
64,192,15358,128,0,15685:0:0:0:0:
320,192,15685,128,0,16011:0:0:0:0:
448,192,15685,1,0,0:0:0:0:
64,192,15848,128,0,16011:0:0:0:0:
192,192,16011,128,0,16338:0:0:0:0:
448,192,16011,1,0,0:0:0:0:
448,192,16174,128,0,16338:0:0:0:0:
320,192,16338,128,0,16664:0:0:0:0:
64,192,16338,1,0,0:0:0:0:
64,192,16501,128,0,16664:0:0:0:0:
192,192,16664,128,0,16990:0:0:0:0:
448,192,16664,1,0,0:0:0:0:
448,192,16827,128,0,16990:0:0:0:0:
320,192,16990,128,0,17317:0:0:0:0:
64,192,16990,1,0,0:0:0:0:
64,192,17154,128,0,17317:0:0:0:0:
192,192,17317,128,0,17643:0:0:0:0:
448,192,17317,1,0,0:0:0:0:
320,192,17480,128,0,17643:0:0:0:0:
64,192,17643,128,0,17970:0:0:0:0:
448,192,17643,1,0,0:0:0:0:
192,192,17807,128,0,17970:0:0:0:0:
320,192,17970,128,0,18296:0:0:0:0:
448,192,17970,1,0,0:0:0:0:
64,192,18133,128,0,18296:0:0:0:0:
448,192,18296,128,0,18623:0:0:0:0:
192,192,18459,128,0,18868:0:0:0:0:
320,192,18623,128,0,19031:0:0:0:0:
192,192,18949,128,0,19439:0:0:0:0:
320,192,19112,128,0,19439:0:0:0:0:
64,192,19276,1,0,0:0:0:0:
448,192,19439,128,0,19684:0:0:0:0:
448,192,19765,128,0,19928:0:0:0:0:
320,192,19928,128,0,20255:0:0:0:0:
192,192,20255,128,0,20581:0:0:0:0:
64,192,20581,128,0,20908:0:0:0:0:
192,192,20908,128,0,21234:0:0:0:0:
320,192,20908,1,0,0:0:0:0:
448,192,21071,128,0,21234:0:0:0:0:
320,192,21234,128,0,21561:0:0:0:0:
64,192,21234,1,0,0:0:0:0:
64,192,21397,128,0,21561:0:0:0:0:
192,192,21561,128,0,21887:0:0:0:0:
448,192,21561,1,0,0:0:0:0:
448,192,21724,128,0,21887:0:0:0:0:
320,192,21887,128,0,22214:0:0:0:0:
64,192,21887,1,0,0:0:0:0:
64,192,22050,128,0,22214:0:0:0:0:
192,192,22214,128,0,22540:0:0:0:0:
448,192,22214,1,0,0:0:0:0:
448,192,22377,128,0,22540:0:0:0:0:
320,192,22540,128,0,22866:0:0:0:0:
64,192,22540,1,0,0:0:0:0:
192,192,22703,128,0,22866:0:0:0:0:
448,192,22866,128,0,23193:0:0:0:0:
64,192,22866,1,0,0:0:0:0:
320,192,23030,128,0,23193:0:0:0:0:
192,192,23193,128,0,23519:0:0:0:0:
64,192,23193,1,0,0:0:0:0:
448,192,23356,128,0,23519:0:0:0:0:
64,192,23519,128,0,23601:0:0:0:0:
64,192,23683,128,0,23846:0:0:0:0:
448,192,23846,128,0,24172:0:0:0:0:
320,192,23846,1,0,0:0:0:0:
192,192,24009,128,0,24172:0:0:0:0:
64,192,24172,128,0,24254:0:0:0:0:
64,192,24335,128,0,24499:0:0:0:0:
448,192,24499,128,0,24825:0:0:0:0:
320,192,24499,1,0,0:0:0:0:
192,192,24662,128,0,24825:0:0:0:0:
64,192,24825,128,0,24907:0:0:0:0:
64,192,24988,128,0,25152:0:0:0:0:
448,192,25152,128,0,25478:0:0:0:0:
320,192,25152,1,0,0:0:0:0:
192,192,25315,128,0,25478:0:0:0:0:
64,192,25478,128,0,25641:0:0:0:0:
320,192,25641,128,0,25968:0:0:0:0:
448,192,25804,1,0,0:0:0:0:
64,192,25804,1,0,0:0:0:0:
192,192,25968,128,0,28416:0:0:0:0:
320,192,26294,1,0,0:0:0:0:
448,192,26457,1,0,0:0:0:0:
64,192,26784,128,0,28089:0:0:0:0:
448,192,27110,1,0,0:0:0:0:
320,192,27437,128,0,28742:0:0:0:0:
448,192,27763,1,0,0:0:0:0:
448,192,28089,128,0,28742:0:0:0:0:
64,192,28416,1,0,0:0:0:0:
64,192,28742,1,0,0:0:0:0:
192,192,28742,1,0,0:0:0:0:
320,192,28906,128,0,29314:0:0:0:0:
192,192,29069,128,0,29477:0:0:0:0:
320,192,29395,128,0,29885:0:0:0:0:
192,192,29558,128,0,29885:0:0:0:0:
64,192,29722,1,0,0:0:0:0:
448,192,29885,128,0,30130:0:0:0:0:
448,192,30211,128,0,30375:0:0:0:0:
320,192,30375,128,0,30701:0:0:0:0:
192,192,30701,128,0,31027:0:0:0:0:
64,192,31027,128,0,31354:0:0:0:0:
192,192,31354,1,0,0:0:0:0:
448,192,31354,128,0,31680:0:0:0:0:
192,192,31517,128,0,31680:0:0:0:0:
320,192,31680,1,0,0:0:0:0:
64,192,31680,128,0,32007:0:0:0:0:
320,192,31844,128,0,32007:0:0:0:0:
192,192,32007,1,0,0:0:0:0:
448,192,32007,128,0,32333:0:0:0:0:
192,192,32170,128,0,32333:0:0:0:0:
320,192,32333,1,0,0:0:0:0:
64,192,32333,128,0,32660:0:0:0:0:
320,192,32496,128,0,32660:0:0:0:0:
192,192,32660,1,0,0:0:0:0:
448,192,32660,128,0,32986:0:0:0:0:
320,192,32823,128,0,32986:0:0:0:0:
64,192,32986,128,0,33313:0:0:0:0:
192,192,32986,128,0,33149:0:0:0:0:
448,192,33149,128,0,33313:0:0:0:0:
320,192,33313,128,0,33639:0:0:0:0:
192,192,33313,128,0,33639:0:0:0:0:
64,192,33639,128,0,33965:0:0:0:0:
448,192,33639,128,0,33802:0:0:0:0:
320,192,33802,128,0,33965:0:0:0:0:
448,192,33965,128,0,34047:0:0:0:0:
192,192,33965,128,0,34292:0:0:0:0:
448,192,34129,128,0,34292:0:0:0:0:
320,192,34292,128,0,34618:0:0:0:0:
64,192,34292,128,0,34618:0:0:0:0:
448,192,34618,128,0,34700:0:0:0:0:
192,192,34618,128,0,34945:0:0:0:0:
448,192,34782,128,0,34945:0:0:0:0:
320,192,34945,128,0,35271:0:0:0:0:
64,192,34945,128,0,35271:0:0:0:0:
448,192,35271,128,0,35353:0:0:0:0:
192,192,35271,128,0,35598:0:0:0:0:
448,192,35434,128,0,35598:0:0:0:0:
64,192,35598,128,0,35924:0:0:0:0:
320,192,35598,128,0,35842:0:0:0:0:
320,192,35924,128,0,36251:0:0:0:0:
448,192,35924,128,0,36251:0:0:0:0:
64,192,36251,128,0,36495:0:0:0:0:
192,192,36251,128,0,36495:0:0:0:0:
64,192,36577,128,0,37556:0:0:0:0:
192,192,36577,128,0,36903:0:0:0:0:
320,192,36903,128,0,37230:0:0:0:0:
448,192,37067,128,0,37148:0:0:0:0:
448,192,37230,128,0,38209:0:0:0:0:
320,192,37556,128,0,37883:0:0:0:0:
192,192,37720,128,0,37801:0:0:0:0:
192,192,37883,128,0,38536:0:0:0:0:
320,192,38209,128,0,38536:0:0:0:0:
64,192,38372,128,0,38454:0:0:0:0:
64,192,38536,128,0,39189:0:0:0:0:
448,192,38536,128,0,38617:0:0:0:0:
448,192,38699,128,0,38862:0:0:0:0:
320,192,38862,128,0,38944:0:0:0:0:
320,192,39025,128,0,39189:0:0:0:0:
192,192,39189,128,0,39270:0:0:0:0:
448,192,39189,128,0,39515:0:0:0:0:
192,192,39352,128,0,39515:0:0:0:0:
320,192,39515,128,0,39841:0:0:0:0:
64,192,39515,128,0,39841:0:0:0:0:
192,192,39841,128,0,39923:0:0:0:0:
448,192,39841,128,0,40168:0:0:0:0:
192,192,40005,128,0,40168:0:0:0:0:
320,192,40168,128,0,40494:0:0:0:0:
64,192,40168,128,0,40494:0:0:0:0:
192,192,40494,128,0,40576:0:0:0:0:
448,192,40494,128,0,40821:0:0:0:0:
192,192,40658,128,0,40821:0:0:0:0:
64,192,40821,128,0,41147:0:0:0:0:
320,192,40821,128,0,41066:0:0:0:0:
320,192,41147,128,0,41474:0:0:0:0:
448,192,41147,128,0,41474:0:0:0:0:
64,192,41474,128,0,41718:0:0:0:0:
192,192,41474,128,0,41718:0:0:0:0:
64,192,41800,128,0,42779:0:0:0:0:
192,192,41800,128,0,42126:0:0:0:0:
448,192,42126,128,0,42453:0:0:0:0:
320,192,42290,128,0,42371:0:0:0:0:
320,192,42453,128,0,43432:0:0:0:0:
192,192,42779,128,0,43106:0:0:0:0:
448,192,42943,128,0,43024:0:0:0:0:
448,192,43106,128,0,44085:0:0:0:0:
192,192,43432,128,0,43759:0:0:0:0:
64,192,43595,128,0,43677:0:0:0:0:
64,192,43759,128,0,44085:0:0:0:0:
320,192,43922,128,0,44085:0:0:0:0:
192,192,44085,128,0,44167:0:0:0:0:
192,192,44248,128,0,44412:0:0:0:0:
448,192,44412,128,0,45554:0:0:0:0:
64,192,44412,1,0,0:0:0:0:
320,192,44575,128,0,44901:0:0:0:0:
192,192,44738,128,0,44901:0:0:0:0:
320,192,45064,128,0,45228:0:0:0:0:
192,192,45228,128,0,45554:0:0:0:0:
320,192,45554,128,0,45717:0:0:0:0:
64,192,45554,128,0,45717:0:0:0:0:
448,192,45881,128,0,46044:0:0:0:0:
192,192,45881,128,0,46044:0:0:0:0:
320,192,46044,128,0,46370:0:0:0:0:
64,192,46044,128,0,46370:0:0:0:0:
192,192,46370,128,0,46697:0:0:0:0:
448,192,46370,128,0,46697:0:0:0:0:
320,192,46697,128,0,47023:0:0:0:0:
64,192,46697,128,0,47023:0:0:0:0:
448,192,47023,128,0,47350:0:0:0:0:
192,192,47023,1,0,0:0:0:0:
320,192,47186,128,0,47350:0:0:0:0:
64,192,47350,128,0,47676:0:0:0:0:
192,192,47350,1,0,0:0:0:0:
192,192,47513,128,0,47676:0:0:0:0:
448,192,47676,128,0,48002:0:0:0:0:
320,192,47676,1,0,0:0:0:0:
320,192,47839,128,0,48002:0:0:0:0:
64,192,48002,128,0,48329:0:0:0:0:
192,192,48002,1,0,0:0:0:0:
320,192,48166,128,0,48329:0:0:0:0:
448,192,48329,128,0,48655:0:0:0:0:
192,192,48329,1,0,0:0:0:0:
320,192,48492,128,0,48655:0:0:0:0:
64,192,48655,128,0,48982:0:0:0:0:
192,192,48655,1,0,0:0:0:0:
448,192,48819,128,0,48982:0:0:0:0:
192,192,48982,128,0,49308:0:0:0:0:
320,192,48982,1,0,0:0:0:0:
320,192,49145,128,0,49308:0:0:0:0:
64,192,49308,128,0,49635:0:0:0:0:
448,192,49308,128,0,49471:0:0:0:0:
320,192,49471,128,0,49635:0:0:0:0:
448,192,49635,128,0,49879:0:0:0:0:
192,192,49635,128,0,49879:0:0:0:0:
320,192,49961,128,0,50043:0:0:0:0:
64,192,49961,1,0,0:0:0:0:
320,192,50124,128,0,50206:0:0:0:0:
192,192,50288,128,0,50369:0:0:0:0:
192,192,50451,128,0,50532:0:0:0:0:
64,192,50614,128,0,50696:0:0:0:0:
320,192,50614,1,0,0:0:0:0:
448,192,50777,128,0,50859:0:0:0:0:
320,192,51104,128,0,51185:0:0:0:0:
192,192,51267,128,0,51348:0:0:0:0:
64,192,51267,1,0,0:0:0:0:
192,192,51430,128,0,51512:0:0:0:0:
64,192,51593,128,0,51675:0:0:0:0:
64,192,51757,128,0,51838:0:0:0:0:
320,192,51920,128,0,52001:0:0:0:0:
448,192,51920,1,0,0:0:0:0:
320,192,52083,128,0,52165:0:0:0:0:
448,192,52246,128,0,52491:0:0:0:0:
64,192,52246,128,0,52491:0:0:0:0:
320,192,52573,128,0,52654:0:0:0:0:
192,192,52573,1,0,0:0:0:0:
320,192,52736,128,0,52817:0:0:0:0:
192,192,52899,128,0,52981:0:0:0:0:
448,192,52899,128,0,53470:0:0:0:0:
192,192,53062,128,0,53144:0:0:0:0:
64,192,53226,128,0,53307:0:0:0:0:
320,192,53226,1,0,0:0:0:0:
320,192,53389,128,0,53470:0:0:0:0:
448,192,53552,128,0,54858:0:0:0:0:
192,192,53552,1,0,0:0:0:0:
320,192,53715,128,0,53797:0:0:0:0:
192,192,53878,128,0,53960:0:0:0:0:
192,192,54042,128,0,54123:0:0:0:0:
64,192,54205,128,0,54286:0:0:0:0:
64,192,54368,128,0,54450:0:0:0:0:
320,192,54531,128,0,54613:0:0:0:0:
320,192,54694,128,0,54858:0:0:0:0:
64,192,54858,128,0,54939:0:0:0:0:
64,192,55021,128,0,55511:0:0:0:0:
320,192,55184,128,0,55266:0:0:0:0:
448,192,55184,1,0,0:0:0:0:
320,192,55347,128,0,55837:0:0:0:0:
192,192,55511,128,0,55592:0:0:0:0:
192,192,55674,128,0,56163:0:0:0:0:
448,192,55837,128,0,55919:0:0:0:0:
64,192,55837,1,0,0:0:0:0:
448,192,56000,128,0,56490:0:0:0:0:
64,192,56163,128,0,56245:0:0:0:0:
64,192,56327,128,0,56816:0:0:0:0:
320,192,56490,128,0,56572:0:0:0:0:
192,192,56490,1,0,0:0:0:0:
320,192,56653,128,0,56980:0:0:0:0:
192,192,56816,128,0,56898:0:0:0:0:
192,192,56980,128,0,57306:0:0:0:0:
64,192,56980,128,0,57306:0:0:0:0:
320,192,57306,128,0,58449:0:0:0:0:
448,192,57306,128,0,58775:0:0:0:0:
192,192,57796,128,0,58122:0:0:0:0:
64,192,58122,128,0,58775:0:0:0:0:
192,192,58449,128,0,59101:0:0:0:0:
320,192,58775,128,0,59428:0:0:0:0:
448,192,59101,128,0,60081:0:0:0:0:
64,192,59101,128,0,59754:0:0:0:0:
192,192,59428,128,0,59754:0:0:0:0:
320,192,59754,128,0,60081:0:0:0:0:
192,192,60081,128,0,60162:0:0:0:0:
192,192,60244,128,0,60734:0:0:0:0:
320,192,60407,128,0,60489:0:0:0:0:
448,192,60407,1,0,0:0:0:0:
320,192,60570,128,0,61060:0:0:0:0:
64,192,60734,128,0,60815:0:0:0:0:
64,192,60897,128,0,61387:0:0:0:0:
448,192,61060,128,0,61142:0:0:0:0:
192,192,61060,1,0,0:0:0:0:
448,192,61223,128,0,61713:0:0:0:0:
192,192,61387,128,0,61468:0:0:0:0:
192,192,61550,128,0,62039:0:0:0:0:
320,192,61713,128,0,61795:0:0:0:0:
64,192,61713,1,0,0:0:0:0:
320,192,61876,128,0,62203:0:0:0:0:
64,192,62039,128,0,62121:0:0:0:0:
64,192,62203,128,0,62529:0:0:0:0:
448,192,62203,128,0,62529:0:0:0:0:
192,192,62529,128,0,63345:0:0:0:0:
320,192,62529,128,0,63672:0:0:0:0:
64,192,63019,128,0,63998:0:0:0:0:
448,192,63345,128,0,64651:0:0:0:0:
192,192,63672,128,0,64325:0:0:0:0:
320,192,63998,128,0,64977:0:0:0:0:
64,192,64325,128,0,64977:0:0:0:0:
192,192,64651,128,0,64977:0:0:0:0:
448,192,64977,128,0,65304:0:0:0:0:
320,192,65304,128,0,65385:0:0:0:0:
320,192,65467,128,0,65957:0:0:0:0:
192,192,65630,128,0,65712:0:0:0:0:
64,192,65630,1,0,0:0:0:0:
192,192,65794,128,0,66283:0:0:0:0:
448,192,65957,128,0,66038:0:0:0:0:
448,192,66120,128,0,66610:0:0:0:0:
64,192,66283,128,0,66365:0:0:0:0:
320,192,66283,1,0,0:0:0:0:
64,192,66446,128,0,66936:0:0:0:0:
320,192,66610,128,0,66691:0:0:0:0:
320,192,66773,128,0,67263:0:0:0:0:
192,192,66936,128,0,67018:0:0:0:0:
448,192,66936,1,0,0:0:0:0:
192,192,67099,128,0,67426:0:0:0:0:
448,192,67263,128,0,67344:0:0:0:0:
448,192,67426,128,0,67752:0:0:0:0:
64,192,67426,128,0,67752:0:0:0:0:
320,192,67752,128,0,68568:0:0:0:0:
192,192,67752,128,0,68895:0:0:0:0:
64,192,68242,128,0,69221:0:0:0:0:
448,192,68568,128,0,70200:0:0:0:0:
320,192,68895,128,0,69548:0:0:0:0:
192,192,69221,128,0,69874:0:0:0:0:
64,192,69548,128,0,70200:0:0:0:0:
320,192,69874,128,0,70200:0:0:0:0:
192,192,70200,128,0,70527:0:0:0:0:
448,192,70527,128,0,70853:0:0:0:0:
64,192,70527,1,0,0:0:0:0:
320,192,70690,128,0,70853:0:0:0:0:
64,192,70853,128,0,71261:0:0:0:0:
192,192,70853,128,0,71261:0:0:0:0:
320,192,71180,128,0,71506:0:0:0:0:
448,192,71180,128,0,71506:0:0:0:0:
64,192,71343,128,0,71506:0:0:0:0:
192,192,71343,128,0,71506:0:0:0:0:
448,192,71669,128,0,71914:0:0:0:0:
320,192,71669,128,0,71914:0:0:0:0:
320,192,71996,128,0,72159:0:0:0:0:
448,192,71996,128,0,72159:0:0:0:0:
64,192,72159,128,0,72812:0:0:0:0:
192,192,72159,128,0,72486:0:0:0:0:
320,192,72486,128,0,72812:0:0:0:0:
448,192,72486,128,0,72812:0:0:0:0:
192,192,72812,128,0,73138:0:0:0:0:
448,192,73138,128,0,74118:0:0:0:0:
64,192,73138,128,0,73220:0:0:0:0:
64,192,73302,128,0,73465:0:0:0:0:
320,192,73465,128,0,73547:0:0:0:0:
192,192,73465,1,0,0:0:0:0:
320,192,73628,128,0,73791:0:0:0:0:
64,192,73791,128,0,73873:0:0:0:0:
192,192,73791,1,0,0:0:0:0:
64,192,73955,128,0,74118:0:0:0:0:
320,192,74118,128,0,74444:0:0:0:0:
192,192,74118,1,0,0:0:0:0:
448,192,74281,128,0,74444:0:0:0:0:
192,192,74444,128,0,74934:0:0:0:0:
64,192,74444,1,0,0:0:0:0:
64,192,74607,128,0,74771:0:0:0:0:
448,192,74771,128,0,74852:0:0:0:0:
320,192,74771,1,0,0:0:0:0:
64,192,74934,128,0,75015:0:0:0:0:
448,192,74934,128,0,75097:0:0:0:0:
64,192,75097,128,0,75750:0:0:0:0:
320,192,75097,128,0,75179:0:0:0:0:
320,192,75260,128,0,75424:0:0:0:0:
192,192,75424,128,0,75505:0:0:0:0:
448,192,75424,1,0,0:0:0:0:
192,192,75587,128,0,75750:0:0:0:0:
448,192,75750,128,0,75832:0:0:0:0:
448,192,75913,128,0,76403:0:0:0:0:
320,192,76076,128,0,76403:0:0:0:0:
192,192,76076,1,0,0:0:0:0:
64,192,76403,128,0,76484:0:0:0:0:
64,192,76566,128,0,77056:0:0:0:0:
320,192,76729,128,0,77056:0:0:0:0:
192,192,76729,1,0,0:0:0:0:
448,192,76893,1,0,0:0:0:0:
192,192,77056,128,0,78362:0:0:0:0:
448,192,77056,1,0,0:0:0:0:
448,192,77382,1,0,0:0:0:0:
320,192,77382,1,0,0:0:0:0:
64,192,77545,1,0,0:0:0:0:
320,192,77872,1,0,0:0:0:0:
448,192,78035,1,0,0:0:0:0:
64,192,78035,1,0,0:0:0:0:
320,192,78198,1,0,0:0:0:0:
64,192,78362,128,0,78688:0:0:0:0:
320,192,78688,1,0,0:0:0:0:
448,192,78688,1,0,0:0:0:0:
64,192,78851,128,0,79014:0:0:0:0:
192,192,79014,128,0,79341:0:0:0:0:
64,192,79341,1,0,0:0:0:0:
448,192,79341,128,0,79667:0:0:0:0:
192,192,79667,128,0,80483:0:0:0:0:
320,192,79994,1,0,0:0:0:0:
448,192,79994,1,0,0:0:0:0:
64,192,80157,1,0,0:0:0:0:
448,192,80483,128,0,80647:0:0:0:0:
192,192,80647,128,0,80810:0:0:0:0:
320,192,80647,1,0,0:0:0:0:
448,192,80810,128,0,80973:0:0:0:0:
320,192,80973,128,0,81626:0:0:0:0:
64,192,80973,1,0,0:0:0:0:
192,192,81300,1,0,0:0:0:0:
448,192,81300,1,0,0:0:0:0:
192,192,81626,128,0,81952:0:0:0:0:
64,192,81626,1,0,0:0:0:0:
320,192,81952,128,0,82279:0:0:0:0:
448,192,81952,1,0,0:0:0:0:
64,192,82279,128,0,83585:0:0:0:0:
192,192,82279,1,0,0:0:0:0:
320,192,82605,1,0,0:0:0:0:
448,192,82605,1,0,0:0:0:0:
192,192,82768,128,0,83585:0:0:0:0:
448,192,83095,1,0,0:0:0:0:
320,192,83258,1,0,0:0:0:0:
448,192,83421,128,0,83503:0:0:0:0:
448,192,83585,128,0,84727:0:0:0:0:
320,192,83585,1,0,0:0:0:0:
192,192,83911,1,0,0:0:0:0:
320,192,83911,1,0,0:0:0:0:
64,192,84074,1,0,0:0:0:0:
320,192,84401,128,0,84727:0:0:0:0:
192,192,84564,1,0,0:0:0:0:
64,192,84564,1,0,0:0:0:0:
64,192,84727,128,0,85706:0:0:0:0:
448,192,85054,1,0,0:0:0:0:
320,192,85217,1,0,0:0:0:0:
192,192,85217,1,0,0:0:0:0:
448,192,85380,128,0,85706:0:0:0:0:
320,192,85543,128,0,85706:0:0:0:0:
192,192,85706,128,0,86033:0:0:0:0:
448,192,85870,1,0,0:0:0:0:
64,192,85870,1,0,0:0:0:0:
320,192,86033,128,0,86359:0:0:0:0:
448,192,86359,128,0,86523:0:0:0:0:
320,192,86523,128,0,87339:0:0:0:0:
64,192,86523,1,0,0:0:0:0:
448,192,87012,128,0,87339:0:0:0:0:
192,192,87175,128,0,87339:0:0:0:0:
64,192,87175,1,0,0:0:0:0:
64,192,87339,128,0,88808:0:0:0:0:
192,192,87665,128,0,87992:0:0:0:0:
320,192,87828,128,0,87992:0:0:0:0:
448,192,87828,1,0,0:0:0:0:
448,192,87992,128,0,88318:0:0:0:0:
320,192,88155,128,0,88318:0:0:0:0:
192,192,88155,1,0,0:0:0:0:
192,192,88318,128,0,88644:0:0:0:0:
320,192,88481,128,0,88644:0:0:0:0:
448,192,88481,1,0,0:0:0:0:
448,192,88644,128,0,88808:0:0:0:0:
320,192,88808,128,0,89461:0:0:0:0:
192,192,88808,1,0,0:0:0:0:
64,192,89134,1,0,0:0:0:0:
448,192,89134,1,0,0:0:0:0:
192,192,89297,128,0,89461:0:0:0:0:
64,192,89461,128,0,89787:0:0:0:0:
320,192,89787,128,0,90113:0:0:0:0:
448,192,89787,1,0,0:0:0:0:
192,192,90113,128,0,90930:0:0:0:0:
64,192,90113,1,0,0:0:0:0:
320,192,90440,1,0,0:0:0:0:
448,192,90440,1,0,0:0:0:0:
64,192,90603,1,0,0:0:0:0:
64,192,90930,128,0,91419:0:0:0:0:
448,192,91093,128,0,91256:0:0:0:0:
192,192,91093,1,0,0:0:0:0:
320,192,91256,128,0,91419:0:0:0:0:
448,192,91419,128,0,91501:0:0:0:0:
192,192,91419,128,0,91501:0:0:0:0:
192,192,91582,128,0,91746:0:0:0:0:
448,192,91582,128,0,91746:0:0:0:0:
64,192,91746,128,0,92072:0:0:0:0:
320,192,91746,128,0,91990:0:0:0:0:
320,192,92072,128,0,92154:0:0:0:0:
448,192,92072,128,0,92154:0:0:0:0:
320,192,92235,128,0,92399:0:0:0:0:
448,192,92235,128,0,92399:0:0:0:0:
64,192,92399,128,0,92725:0:0:0:0:
192,192,92399,128,0,92725:0:0:0:0:
448,192,92725,128,0,93051:0:0:0:0:
320,192,92725,128,0,93051:0:0:0:0:
64,192,93051,128,0,93215:0:0:0:0:
192,192,93051,128,0,93215:0:0:0:0:
320,192,93215,128,0,93378:0:0:0:0:
448,192,93215,1,0,0:0:0:0:
192,192,93541,128,0,94031:0:0:0:0:
64,192,93541,1,0,0:0:0:0:
320,192,93704,1,0,0:0:0:0:
448,192,93704,1,0,0:0:0:0:
448,192,94031,128,0,96153:0:0:0:0:
64,192,94031,1,0,0:0:0:0:
192,192,94357,1,0,0:0:0:0:
320,192,94357,1,0,0:0:0:0:
64,192,94520,1,0,0:0:0:0:
64,192,94847,1,0,0:0:0:0:
192,192,95010,1,0,0:0:0:0:
320,192,95010,1,0,0:0:0:0:
64,192,95337,1,0,0:0:0:0:
64,192,95500,1,0,0:0:0:0:
192,192,95663,1,0,0:0:0:0:
320,192,95663,1,0,0:0:0:0:
64,192,95826,128,0,95908:0:0:0:0:
64,192,95989,128,0,96153:0:0:0:0:
192,192,96153,128,0,96479:0:0:0:0:
320,192,96316,1,0,0:0:0:0:
64,192,96316,1,0,0:0:0:0:
448,192,96479,128,0,97948:0:0:0:0:
320,192,96805,1,0,0:0:0:0:
192,192,96969,1,0,0:0:0:0:
64,192,96969,1,0,0:0:0:0:
192,192,97295,1,0,0:0:0:0:
320,192,97458,1,0,0:0:0:0:
192,192,97622,1,0,0:0:0:0:
64,192,97622,1,0,0:0:0:0:
320,192,97785,128,0,97948:0:0:0:0:
192,192,97866,128,0,97948:0:0:0:0:
64,192,97948,128,0,99254:0:0:0:0:
192,192,98111,1,0,0:0:0:0:
320,192,98274,128,0,98356:0:0:0:0:
448,192,98274,1,0,0:0:0:0:
320,192,98438,128,0,98601:0:0:0:0:
448,192,98601,128,0,98927:0:0:0:0:
192,192,98764,1,0,0:0:0:0:
320,192,98927,128,0,99009:0:0:0:0:
192,192,98927,1,0,0:0:0:0:
320,192,99091,128,0,99254:0:0:0:0:
448,192,99254,128,0,99580:0:0:0:0:
192,192,99254,128,0,99335:0:0:0:0:
192,192,99417,128,0,99580:0:0:0:0:
64,192,99580,128,0,99907:0:0:0:0:
320,192,99580,128,0,99662:0:0:0:0:
320,192,99743,128,0,99907:0:0:0:0:
448,192,99907,128,0,100233:0:0:0:0:
192,192,99907,128,0,99988:0:0:0:0:
192,192,100070,128,0,100233:0:0:0:0:
64,192,100233,128,0,100560:0:0:0:0:
320,192,100233,128,0,100315:0:0:0:0:
320,192,100396,128,0,100560:0:0:0:0:
448,192,100560,128,0,100886:0:0:0:0:
192,192,100560,128,0,100641:0:0:0:0:
192,192,100723,128,0,100886:0:0:0:0:
64,192,100886,128,0,101539:0:0:0:0:
320,192,100886,128,0,101212:0:0:0:0:
192,192,101212,128,0,101539:0:0:0:0:
448,192,101212,128,0,101457:0:0:0:0:
448,192,101539,128,0,101784:0:0:0:0:
320,192,101539,128,0,101784:0:0:0:0:
320,192,101865,128,0,102355:0:0:0:0:
448,192,101865,128,0,102355:0:0:0:0:
64,192,102192,1,0,0:0:0:0:
192,192,102355,128,0,102845:0:0:0:0:
448,192,102518,128,0,102845:0:0:0:0:
320,192,102518,1,0,0:0:0:0:
320,192,102845,1,0,0:0:0:0:
64,192,102845,128,0,103498:0:0:0:0:
448,192,103008,1,0,0:0:0:0:
192,192,103171,128,0,103498:0:0:0:0:
448,192,103334,1,0,0:0:0:0:
320,192,103334,1,0,0:0:0:0:
448,192,103498,1,0,0:0:0:0:
320,192,103661,128,0,104150:0:0:0:0:
192,192,103824,128,0,104150:0:0:0:0:
64,192,103824,1,0,0:0:0:0:
448,192,103987,1,0,0:0:0:0:
64,192,104150,1,0,0:0:0:0:
448,192,104314,1,0,0:0:0:0:
320,192,104477,128,0,104803:0:0:0:0:
64,192,104477,128,0,104558:0:0:0:0:
64,192,104640,128,0,104803:0:0:0:0:
192,192,104803,128,0,105130:0:0:0:0:
448,192,104803,128,0,104885:0:0:0:0:
448,192,104967,128,0,105130:0:0:0:0:
320,192,105130,128,0,105456:0:0:0:0:
64,192,105130,128,0,105211:0:0:0:0:
64,192,105293,128,0,105456:0:0:0:0:
192,192,105456,128,0,105783:0:0:0:0:
448,192,105456,128,0,105538:0:0:0:0:
448,192,105619,128,0,105783:0:0:0:0:
320,192,105783,128,0,106109:0:0:0:0:
64,192,105783,128,0,105864:0:0:0:0:
64,192,105946,128,0,106109:0:0:0:0:
448,192,106109,128,0,106762:0:0:0:0:
192,192,106109,128,0,106436:0:0:0:0:
320,192,106436,128,0,106762:0:0:0:0:
64,192,106436,128,0,106680:0:0:0:0:
64,192,106762,128,0,107007:0:0:0:0:
192,192,106762,128,0,107007:0:0:0:0:
192,192,107088,128,0,107578:0:0:0:0:
64,192,107088,128,0,107578:0:0:0:0:
448,192,107415,1,0,0:0:0:0:
320,192,107578,128,0,108068:0:0:0:0:
64,192,107741,128,0,108068:0:0:0:0:
192,192,107741,1,0,0:0:0:0:
192,192,108068,1,0,0:0:0:0:
448,192,108068,128,0,108721:0:0:0:0:
64,192,108231,1,0,0:0:0:0:
320,192,108394,128,0,108721:0:0:0:0:
64,192,108557,1,0,0:0:0:0:
192,192,108557,1,0,0:0:0:0:
64,192,108721,1,0,0:0:0:0:
192,192,108884,128,0,109373:0:0:0:0:
320,192,109047,128,0,109373:0:0:0:0:
448,192,109047,1,0,0:0:0:0:
64,192,109210,1,0,0:0:0:0:
448,192,109373,1,0,0:0:0:0:
64,192,109455,1,0,0:0:0:0:
320,192,109537,1,0,0:0:0:0:
192,192,109618,1,0,0:0:0:0:
448,192,109700,128,0,110026:0:0:0:0:
64,192,109700,128,0,109782:0:0:0:0:
64,192,109863,128,0,110026:0:0:0:0:
320,192,110026,128,0,110353:0:0:0:0:
192,192,110026,128,0,110108:0:0:0:0:
192,192,110190,128,0,110353:0:0:0:0:
448,192,110353,128,0,110679:0:0:0:0:
64,192,110353,128,0,110434:0:0:0:0:
64,192,110516,128,0,110679:0:0:0:0:
320,192,110679,128,0,111006:0:0:0:0:
192,192,110679,128,0,110761:0:0:0:0:
192,192,110842,128,0,111006:0:0:0:0:
448,192,111006,128,0,111332:0:0:0:0:
64,192,111006,128,0,111087:0:0:0:0:
64,192,111169,128,0,111332:0:0:0:0:
320,192,111332,128,0,111659:0:0:0:0:
192,192,111332,128,0,111985:0:0:0:0:
448,192,111659,128,0,111903:0:0:0:0:
64,192,111659,128,0,111985:0:0:0:0:
320,192,111985,128,0,112230:0:0:0:0:
448,192,111985,128,0,112230:0:0:0:0:
320,192,112311,128,0,112801:0:0:0:0:
448,192,112311,128,0,112801:0:0:0:0:
192,192,112475,1,0,0:0:0:0:
64,192,112638,1,0,0:0:0:0:
192,192,112801,128,0,113291:0:0:0:0:
320,192,112964,128,0,113291:0:0:0:0:
448,192,113128,1,0,0:0:0:0:
64,192,113291,1,0,0:0:0:0:
320,192,113454,128,0,113944:0:0:0:0:
192,192,113617,128,0,113944:0:0:0:0:
448,192,113780,1,0,0:0:0:0:
64,192,113780,1,0,0:0:0:0:
64,192,113944,1,0,0:0:0:0:
320,192,114107,128,0,114597:0:0:0:0:
64,192,114270,128,0,114597:0:0:0:0:
448,192,114270,1,0,0:0:0:0:
192,192,114433,1,0,0:0:0:0:
448,192,114597,1,0,0:0:0:0:
192,192,114597,1,0,0:0:0:0:
320,192,114760,1,0,0:0:0:0:
192,192,114923,128,0,115249:0:0:0:0:
448,192,114923,128,0,115005:0:0:0:0:
448,192,115086,128,0,115249:0:0:0:0:
64,192,115249,128,0,115576:0:0:0:0:
320,192,115249,128,0,115331:0:0:0:0:
320,192,115413,128,0,115576:0:0:0:0:
192,192,115576,128,0,115902:0:0:0:0:
448,192,115576,128,0,115658:0:0:0:0:
448,192,115739,128,0,115902:0:0:0:0:
64,192,115902,128,0,116229:0:0:0:0:
320,192,115902,128,0,115984:0:0:0:0:
320,192,116066,128,0,116229:0:0:0:0:
192,192,116229,128,0,116555:0:0:0:0:
448,192,116229,128,0,116310:0:0:0:0:
448,192,116392,128,0,116555:0:0:0:0:
64,192,116555,128,0,116882:0:0:0:0:
320,192,116555,128,0,117208:0:0:0:0:
192,192,116882,128,0,117126:0:0:0:0:
448,192,116882,128,0,117208:0:0:0:0:
64,192,117208,128,0,117453:0:0:0:0:
192,192,117208,128,0,117453:0:0:0:0:
64,192,117535,128,0,118024:0:0:0:0:
192,192,117535,128,0,118024:0:0:0:0:
320,192,117698,1,0,0:0:0:0:
448,192,117861,1,0,0:0:0:0:
320,192,118024,128,0,118514:0:0:0:0:
192,192,118187,128,0,118514:0:0:0:0:
448,192,118187,1,0,0:0:0:0:
64,192,118351,1,0,0:0:0:0:
448,192,118514,1,0,0:0:0:0:
64,192,118677,128,0,119167:0:0:0:0:
192,192,118840,128,0,119167:0:0:0:0:
448,192,118840,1,0,0:0:0:0:
320,192,119004,1,0,0:0:0:0:
320,192,119167,1,0,0:0:0:0:
448,192,119330,128,0,120146:0:0:0:0:
192,192,119493,128,0,120146:0:0:0:0:
320,192,119493,1,0,0:0:0:0:
64,192,119656,1,0,0:0:0:0:
320,192,119820,1,0,0:0:0:0:
64,192,119983,1,0,0:0:0:0:
64,192,120146,128,0,121452:0:0:0:0:
320,192,120146,128,0,121452:0:0:0:0:
