osu file format v14

[General]
AudioFilename: Anamanaguchi - Pop It.mp3
AudioLeadIn: 0
PreviewTime: 58441
Countdown: 0
SampleSet: None
StackLeniency: 0.4
Mode: 0
LetterboxInBreaks: 0
EpilepsyWarning: 1
WidescreenStoryboard: 1

[Editor]
Bookmarks: 8420,25115,41811,58507,75202,77289,79376,81463,83550,85637,87724,89811,91898,108594,110680,112767,114854,116941,119028,121115,123202,146158,162429,178700,194971,211242
DistanceSpacing: 1.3
BeatDivisor: 8
GridSize: 8
TimelineZoom: 2.799998

[Metadata]
Title:Pop It
TitleUnicode:Pop It
Artist:Anamanaguchi
ArtistUnicode:Anamanaguchi
Creator:Bonsai
Version:Hard
Source:
Tags:Pop_It feat. meesh彡☆ Electro Chiptune Bitpop idk
BeatmapID:1218448
BeatmapSetID:501677

[Difficulty]
HPDrainRate:4
CircleSize:3.5
OverallDifficulty:6
ApproachRate:7
SliderMultiplier:1.62
SliderTickRate:1

[Events]
//Background and Video events
0,0,"Anamanaguchi - Pop It.png",0,0
Video,-69,"Anamanaguchi - Pop It.avi"
//Break Periods
2,117141,123867
2,178900,185427
//Storyboard Layer 0 (Background)
Sprite,Background,Centre,"Anamanaguchi - Pop It.png",320,240 F,0,0,75203,0 S,0,0,218361,0.6667 F,0,75203,162428,1 F,0,162428,218361,0
//Storyboard Layer 1 (Fail)
//Storyboard Layer 2 (Pass)
//Storyboard Layer 3 (Foreground)
Sprite,Foreground,Centre,"white.jpg",320,240 S,0,0,218361,55 F,0,74159,74941,0,1 F,0,75267,75724,1,0 F,0,161793,162174,0,1 F,0,162429,162683,1,0
//Storyboard Sound Samples

[TimingPoints]
72.2758620689654,521.739130434783,4,3,1,100,1,0
4246,-100,4,3,1,45,0,0
4767,-100,4,3,1,50,0,0
5289,-100,4,3,1,55,0,0
5811,-100,4,3,1,60,0,0
6333,-100,4,3,1,65,0,0
6854,-100,4,3,1,70,0,0
7376,-100,4,3,1,75,0,0
7898,-100,4,3,1,100,0,0
16767,-100,4,3,1,85,0,0
17289,-100,4,3,1,100,0,0
19898,-100,4,2,1,100,0,0
20420,-100,4,3,1,100,0,0
57985,-100,4,3,1,50,0,0
58507,-90.9090909090909,4,3,1,100,0,1
75202,-100,4,3,1,100,0,0
78333,-125,4,3,1,100,0,0
79376,-100,4,3,1,100,0,0
82507,-111.111111111111,4,3,1,100,0,0
83550,-100,4,3,1,100,0,0
91898,-111.111111111111,4,3,1,75,0,0
132072,-111.111111111111,4,3,1,100,0,0
141985,530.973451327434,4,3,2,80,1,0
141985,-196.078431372549,4,3,2,80,0,0
145701,-196.078431372549,4,3,2,60,0,0
146158,508.474576271186,4,3,1,100,1,1
146285,-100,4,3,1,100,0,0
152259,-100,4,3,0,100,0,0
154293,-100,4,3,1,100,0,0
162429,-90.9090909090909,4,3,1,100,0,1
171073,-83.3333333333333,4,3,1,100,0,1
171454,-90.9090909090909,4,3,1,100,0,1
176666,-100,4,3,1,100,0,1
178700,-100,4,3,1,100,0,0
186835,-90.9090909090909,4,3,1,100,0,1
194971,-100,4,3,1,100,0,0
211242,-100,4,3,1,75,0,0

[Colours]
Combo1 : 221,0,5
Combo2 : 230,172,0
Combo3 : 0,83,236

[HitObjects]
256,192,4246,12,0,7898,0:0:0:0:
147,64,8420,6,0,P|201:14|256:64,1,162,4|8,0:0|0:0,0:0:0:0:
256,169,9202,1,0,0:0:0:0:
256,274,9463,2,0,P|284:347|357:375,1,162,4|8,0:0|0:0,0:0:0:0:
361,278,10246,1,0,0:0:0:0:
361,278,10376,6,0,L|457:278,2,81,4|4|0,0:0|0:0|0:0,0:0:0:0:
308,278,11028,1,8,0:0:0:0:
236,201,11289,1,0,0:0:0:0:
164,124,11550,2,0,P|92:92|21:124,1,162,4|8,0:0|0:0,0:0:0:0:
20,230,12333,1,0,0:0:0:0:
20,335,12594,6,0,L|202:335,1,162,4|8,0:0|0:0,0:0:0:0:
256,260,13376,1,0,0:0:0:0:
330,334,13637,2,0,L|512:334,1,162,4|8,0:0|0:0,0:0:0:0:
492,334,14550,6,0,L|492:218,2,81,4|4|0,0:0|0:0|0:0,0:0:0:0:
439,334,15202,2,0,P|403:316|386:281,1,81,8|0,0:0|0:0,0:0:0:0:
386,174,15724,1,4,0:0:0:0:
491,174,15985,1,0,0:0:0:0:
491,68,16246,1,8,0:0:0:0:
256,68,16767,6,2,B|238:147|272:147|256:227,1,162,4|8,0:0|0:0,0:0:0:0:
220,328,17550,1,0,0:0:0:0:
220,328,17680,2,0,B|240:288|240:288|320:288,1,121.5,4|4,0:0|0:0,0:0:0:0:
220,328,18333,2,0,L|110:328,1,81,8|2,0:0|0:1,0:0:0:0:
90,328,18724,6,2,P|85:273|70:228,1,81,4|4,0:0|0:0,0:0:0:0:
78,248,19376,2,2,P|66:168|78:88,2,162,8|4|8,0:0|3:0|0:0,0:0:0:0:
285,248,20941,1,4,0:0:0:0:
495,171,21463,6,0,P|507:209|494:246,1,81,8|0,0:0|0:0,0:0:0:0:
445,247,21854,2,0,B|368:247|368:247|348:207,1,121.5,4|4,0:0|0:0,0:0:0:0:
304,111,22507,2,0,L|406:111,1,81,8|2,0:0|0:1,0:0:0:0:
436,111,22898,6,2,P|448:72|436:34,1,81,4|4,0:0|0:0,0:0:0:0:
437,193,23550,1,10,0:0:0:0:
240,149,24072,2,0,B|117:317|393:317|270:149,1,324,4|4,0:0|0:0,0:2:0:0:
105,129,25637,6,0,P|88:166|80:206,1,81,8|0,0:0|0:0,0:0:0:0:
80,303,26159,2,0,P|118:317|156:303,1,81,4|0,0:0|0:0,0:0:0:0:
225,235,26680,2,0,L|289:171,1,81,8|0,0:0|0:0,0:0:0:0:
317,142,27072,6,0,P|334:106|370:88,2,81,4|4|0,0:0|0:0|0:0,0:0:0:0:
351,176,27724,2,0,L|408:233,1,81,8|0,0:0|0:0,0:0:0:0:
483,308,28246,2,0,P|446:295|408:308,1,81,4|0,0:0|0:0,0:0:0:0:
333,382,28767,1,8,0:0:0:0:
258,308,29028,1,0,0:0:0:0:
183,233,29289,6,0,P|150:161|182:89,1,162,4|8,0:0|0:0,0:0:0:0:
257,164,30072,1,0,0:0:0:0:
331,89,30333,2,0,L|470:89,1,121.5,4|0,0:0|0:0,0:0:0:0:
504,89,30854,1,8,0:0:0:0:
504,247,31246,6,0,L|389:247,2,81,4|4|0,0:0|0:0|0:0,0:0:0:0:
504,299,31898,2,0,P|486:334|450:352,1,81,8|0,0:0|0:0,0:0:0:0:
345,352,32420,1,4,0:0:0:0:
345,247,32680,1,0,0:0:0:0:
345,141,32941,2,0,P|362:105|398:87,1,81,8|0,0:0|0:0,0:0:0:0:
417,215,33463,6,0,P|345:247|273:215,1,162,4|8,0:0|0:0,0:0:0:0:
198,140,34246,1,0,0:0:0:0:
198,34,34507,2,0,B|157:34|124:62|124:62|91:34|50:34,1,162,4|8,0:0|0:0,0:0:0:0:
54,143,35289,1,0,0:0:0:0:
54,143,35420,6,0,L|54:235,2,81,4|4|0,0:0|0:0|0:0,0:0:0:0:
106,143,36072,2,0,L|191:143,1,81,8|0,0:0|0:0,0:0:0:0:
291,143,36594,2,0,P|363:110|435:142,1,162,4|8,0:0|0:0,0:0:0:0:
434,246,37376,1,0,0:0:0:0:
433,350,37637,6,0,P|471:363|509:350,2,81,4|0|8,0:0|0:0|0:0,0:0:0:0:
359,276,38420,1,0,0:0:0:0:
284,201,38680,2,0,P|211:169|140:202,1,162,4|8,0:0|0:0,0:0:0:0:
140,202,39594,6,0,L|140:108,1,81,4|4,0:0|0:0,0:0:0:0:
256,192,40115,12,4,41811,0:2:0:0:
199,317,42333,6,0,L|279:317,1,81,8|0,0:0|0:0,0:0:0:0:
332,317,42724,2,0,P|313:260|332:203,1,121.5,4|4,0:0|0:0,0:0:0:0:
390,115,43376,2,0,P|404:77|391:39,1,81,8|0,0:0|0:0,0:0:0:0:
339,40,43767,6,0,L|258:40,1,81,4|4,0:0|0:0,0:0:0:0:
391,116,44420,1,8,0:0:0:0:
262,192,44811,1,0,0:0:0:0:
262,192,44941,2,0,B|244:271|278:271|262:351,1,162,4|8,0:0|0:0,0:0:0:0:
155,352,45724,1,0,0:0:0:0:
49,352,45985,6,0,L|49:181,1,162,4|8,0:0|0:0,0:0:0:0:
49,84,46767,1,0,0:0:0:0:
49,84,46898,2,0,P|105:65|162:84,1,121.5,4|4,0:0|0:0,0:0:0:0:
250,141,47550,2,0,P|287:153|325:140,1,81,8|0,0:0|0:0,0:0:0:0:
374,119,47941,5,4,0:0:0:0:
374,224,48202,2,0,L|374:305,1,81,4|0,0:0|0:0,0:0:0:0:
374,358,48594,2,0,L|433:358,1,40.5,8|0,0:0|0:0,0:0:0:0:
283,305,48985,1,0,0:0:0:0:
282,304,49115,2,0,P|245:292|207:305,1,81,4|0,0:0|0:0,0:0:0:0:
154,305,49507,2,0,P|116:292|78:305,1,81,8|0,0:0|0:0,0:0:0:0:
25,305,49898,1,8,0:0:0:0:
25,199,50159,6,0,B|25:145|25:145|53:98|53:98|53:45,1,162,2|8,0:1|0:0,0:0:0:0:
158,44,50941,1,0,0:0:0:0:
158,44,51072,2,0,P|214:25|271:44,1,121.5,4|4,0:0|0:0,0:0:0:0:
363,93,51724,2,0,P|400:105|438:92,1,81,8|0,0:0|0:0,0:0:0:0:
475,54,52115,6,0,B|475:110|475:110|488:130,1,81,2|2,1:0|1:0,0:0:0:0:
489,131,52767,2,0,B|502:151|502:151|502:207,1,81,8|0,0:0|0:0,0:0:0:0:
502,313,53289,2,0,P|430:346|358:314,2,162,4|8|2,0:0|0:0|0:0,0:2:0:0:
298,254,54854,5,8,0:0:0:0:
298,254,55898,1,8,0:0:0:0:
98,317,56420,5,4,0:0:0:0:
98,317,56550,2,4,L|17:317,3,81
17,264,57463,2,2,L|17:65,1,162,2|0,1:3|0:0,0:2:0:0:
17,102,58507,6,0,P|35:62|74:41,1,89.1000027191163,6|0,0:0|0:0,0:0:0:0:
198,42,59028,2,0,P|238:60|258:98,1,89.1000027191163,8|0,0:0|0:0,0:0:0:0:
258,152,59420,1,0,0:0:0:0:
258,205,59550,2,0,P|240:245|202:265,1,89.1000027191163,4|0,0:0|0:0,0:0:0:0:
169,152,60072,2,0,L|258:152,1,89.1000027191163,8|0,0:0|0:0,0:0:0:0:
305,152,60463,6,0,L|305:46,2,89.1000027191163,4|4|0,0:0|0:0|0:0,0:0:0:0:
358,152,61115,2,0,L|470:152,1,89.1000027191163,8|0,0:0|0:0,0:0:0:0:
500,152,61507,1,0,0:0:0:0:
500,205,61637,2,4,P|482:245|444:265,1,89.1000027191163,4|0,0:0|0:0,0:0:0:0:
318,265,62159,2,0,P|279:285|261:325,1,89.1000027191163,8|0,0:0|0:0,0:0:0:0:
136,325,62680,5,4,0:0:0:0:
136,325,62811,2,0,L|136:164,1,133.650004078674,0|8,0:0|0:0,0:0:0:0:
136,66,63463,2,0,L|181:20,1,44.5500013595581,0|0,0:0|0:0,0:0:0:0:
221,34,63724,2,0,P|261:52|281:90,1,89.1000027191163,4|0,0:0|0:0,0:0:0:0:
281,215,64246,2,0,L|393:215,1,89.1000027191163,8|0,0:0|0:0,0:0:0:0:
424,215,64637,6,0,L|424:102,2,89.1000027191163,4|4|0,0:0|0:0|0:0,0:0:0:0:
424,269,65289,2,0,L|424:358,1,89.1000027191163,8|0,0:0|0:0,0:0:0:0:
298,358,65811,1,4,0:0:0:0:
298,233,66072,1,0,0:0:0:0:
298,108,66333,1,8,0:0:0:0:
82,108,66854,6,0,P|40:94|0:108,2,89.1000027191163,4|0|8,0:0|0:0|0:0,0:0:0:0:
82,233,67637,2,0,L|82:302,1,44.5500013595581
82,331,67898,2,0,P|123:343|165:329,1,89.1000027191163,4|0,0:0|0:0,0:0:0:0:
252,241,68420,2,0,L|364:241,1,89.1000027191163,8|0,0:0|0:0,0:0:0:0:
393,241,68811,6,0,L|393:345,2,89.1000027191163,4|4|0,0:0|0:0|0:0,0:0:0:0:
393,186,69463,2,0,L|393:96,1,89.1000027191163,8|0,0:0|0:0,0:0:0:0:
393,43,69854,1,0,0:0:0:0:
339,43,69985,2,0,P|258:73|228:154,1,178.200005438233,4|8,0:0|0:0,0:0:0:0:
228,279,70767,1,0,0:0:0:0:
103,279,71028,5,4,0:0:0:0:
103,279,71159,2,0,L|103:136,1,133.650004078674,0|8,0:0|0:0,0:0:0:0:
103,20,71811,2,0,L|41:20,1,44.5500013595581
4,20,72072,2,0,P|-9:61|5:102,1,89.1000027191163,4|0,0:0|0:0,0:0:0:0:
103,180,72594,2,0,P|144:166|185:180,1,89.1000027191163,8|0,0:0|0:0,0:0:0:0:
223,218,72985,6,0,L|223:311,2,89.1000027191163,4|4|0,0:0|0:0|0:0,0:0:0:0:
260,180,73637,1,8,0:0:0:0:
348,91,73898,1,0,0:0:0:0:
436,179,74159,2,0,P|472:257|436:336,1,178.200005438233,4|8,0:0|0:0,0:0:0:0:
206,291,75202,6,0,B|289:290|281:256|363:258,1,162,4|8,0:0|0:0,0:0:0:0:
468,258,75985,2,0,L|468:151,1,81,0|4,0:0|0:0,0:0:0:0:
468,124,76376,2,0,L|332:124,1,121.5,0|8,0:0|0:0,0:0:0:0:
346,18,77028,1,0,0:0:0:0:
345,18,77159,6,0,P|384:5|422:18,1,81,4|4,0:0|0:0,0:0:0:0:
421,17,77811,2,0,P|440:73|421:130,1,121.5,8|0,0:0|0:0,0:0:0:0:
392,165,78333,2,0,P|369:223|393:282,2,129.6,4|8|4,0:0|0:0|0:0,0:0:0:0:
464,349,79898,6,0,P|391:381|320:348,1,162,12|4,0:0|0:0,0:0:0:0:
320,243,80680,1,0,0:0:0:0:
245,168,80941,2,0,L|187:111,1,81,8|0,0:0|0:0,0:0:0:0:
148,73,81333,6,0,P|111:85|73:74,1,81,4|4,0:0|0:0,0:0:0:0:
219,3,81985,1,8,0:0:0:0:
73,163,82507,2,0,P|42:228|71:293,1,145.799995550537,4|8,0:0|0:0,0:0:0:0:
296,293,83550,6,0,L|382:293,2,81,4|0|8,0:0|0:0|0:0,0:0:0:0:
296,188,84333,1,0,0:0:0:0:
296,83,84594,2,0,L|296:-3,2,81,4|0|8,0:0|0:0|0:0,0:0:0:0:
190,83,85376,1,0,0:0:0:0:
85,83,85637,2,0,L|4:83,2,81,4|0|8,0:0|0:0|0:0,0:0:0:0:
85,189,86420,1,0,0:0:0:0:
85,293,86680,6,0,B|209:292|197:241|319:244,1,243,4|0,0:0|0:0,0:2:0:0:
426,244,87724,6,0,L|426:163,2,81,4|0|8,0:0|0:0|0:0,0:0:0:0:
322,227,88507,1,0,0:0:0:0:
217,210,88767,2,0,L|217:129,1,81,4|0,0:0|0:0,0:0:0:0:
112,112,89289,2,0,L|112:193,1,81,8|0,0:0|0:0,0:0:0:0:
112,245,89680,6,0,P|73:257|35:245,1,81,4|4,0:0|0:0,0:0:0:0:
196,193,90333,1,8,0:0:0:0:
336,36,90854,2,0,B|337:201|405:185|401:349,1,324,4|4,0:0|0:0,0:2:0:0:
210,350,92420,6,4,B|316:197|72:197|179:350,1,291.599991101075,2|0,0:2|0:0,0:0:0:0:
369,350,93985,2,4,B|369:204|369:204|324:146,1,218.699993325806,4|0,0:0|0:0,0:0:0:0:
287,146,94898,2,4,L|170:146,2,109.349996662903,4|4|0,0:0|0:0|0:0,0:0:0:0:
324,146,95811,1,4,0:0:0:0:
391,78,96072,5,4,0:0:0:0:
391,78,96594,2,0,P|229:131|388:218,2,437.399986651612,2|4|0,0:2|0:0|0:0,0:0:0:0:
480,190,100246,6,0,B|508:260|451:260|480:330,3,145.799995550537,2|2|2|2,0:2|0:2|0:2|0:2,0:2:0:0:
319,331,102333,2,0,B|347:260|290:260|319:190,3,145.799995550537,2|2|2|2,0:2|0:2|0:2|0:2,0:2:0:0:
399,51,104420,5,4,0:0:0:0:
399,51,104941,2,0,L|295:51,1,72.8999977752686,6|0,0:0|0:0,0:0:0:0:
289,51,105333,2,0,B|237:33|237:33|185:51,1,109.349996662903,6|0,0:0|0:0,0:0:0:0:
185,87,105854,2,0,L|185:188,2,72.8999977752686,6|2|0,0:0|0:0|0:0,0:0:0:0:
186,51,106507,2,0,L|40:51,1,145.799995550537,6|0,0:0|0:0,0:0:0:0:
40,145,107289,5,2,0:0:0:0:
40,145,107420,2,0,L|153:145,1,109.349996662903,6|0,0:0|0:0,0:0:0:0:
185,145,107941,2,0,L|275:235,1,109.349996662903,6|2,0:0|0:0,0:0:0:0:
329,289,108594,6,0,P|339:323|329:357,2,72.8999977752686,2|0|2,0:2|0:0|0:0,0:0:0:0:
396,221,109376,2,0,P|445:200|494:220,3,109.349996662903,2|2|2|2,0:0|0:0|0:0|0:0,0:0:0:0:
495,268,110680,2,0,L|495:343,1,72.8999977752686,2|0,0:2|0:0,0:0:0:0:
396,340,111202,5,2,0:0:0:0:
300,339,111463,2,0,P|280:289|300:240,1,109.349996662903,2|0,0:0|0:0,0:0:0:0:
393,148,112246,2,0,P|412:98|392:49,1,109.349996662903,2|2,0:0|0:0,0:0:0:0:
345,49,112767,6,0,L|263:49,1,72.8999977752686,2|0,0:2|0:0,0:0:0:0:
176,49,113289,1,2,0:0:0:0:
108,116,113550,2,0,P|87:165|107:214,2,109.349996662903,2|2|2,0:0|0:0|0:0,0:0:0:0:
250,116,114724,6,0,L|334:116,1,72.8999977752686,2|4,0:2|0:0,0:0:0:0:
370,116,115115,2,0,B|378:151|361:151|370:187,2,72.8999977752686,2|2|2,0:0|0:0|0:0,0:0:0:0:
335,27,115898,2,0,P|369:16|403:26,1,72.8999977752686,4|0,0:0|0:0,0:0:0:0:
470,93,116419,2,0,L|470:212,1,109.349996662903,2|2,0:0|0:0,0:0:0:0:
470,249,116941,5,2,0:2:0:0:
280,40,124767,5,8,0:0:0:0:
280,244,125289,6,0,P|233:197|280:151,1,145.799995550537,0|8,1:2|0:2,0:2:0:0:
278,151,126202,2,0,L|397:151,1,109.349996662903,2|2,0:0|0:0,0:0:0:0:
482,151,126854,2,0,L|482:93,1,36.4499988876343,8|0,0:2|0:2,0:2:0:0:
482,300,127376,6,0,P|435:346|389:300,1,145.799995550537,0|8,1:2|0:2,0:2:0:0:
390,299,128289,2,0,L|390:180,1,109.349996662903,2|2,0:0|0:0,0:0:0:0:
322,122,128941,1,8,0:2:0:0:
227,122,129202,1,2,0:0:0:0:
159,189,129463,6,0,P|112:235|66:189,1,145.799995550537,0|8,1:2|0:2,0:2:0:0:
66,188,130376,2,0,L|66:69,1,109.349996662903,2|2,0:0|0:0,0:0:0:0:
161,78,131028,2,0,L|161:114,1,36.4499988876343,8|0,0:2|0:2,0:2:0:0:
299,78,131550,5,0,1:2:0:0:
299,304,132072,1,8,0:0:0:0:
299,304,133115,1,8,0:0:0:0:
75,306,133637,5,4,0:0:0:0:
19,125,134159,1,4,0:0:0:0:
201,69,134680,1,4,0:0:0:0:
256,250,135202,1,4,0:0:0:0:
437,306,135724,5,4,0:0:0:0:
493,125,136246,1,4,0:0:0:0:
311,69,136767,1,4,0:0:0:0:
256,250,137289,1,4,0:0:0:0:
75,305,137811,6,4,L|19:128,1,145.799995550537
212,109,138854,2,4,L|255:248,1,145.799995550537
437,305,139898,6,4,L|493:128,1,145.799995550537
300,109,140941,2,4,L|256:248,1,145.799995550537
308,367,141985,6,4,B|441:136|196:54|39:259|278:376,1,578.340003529907,2|0,0:2|0:0,0:0:0:0:
256,248,146158,6,0,L|131:248,1,121.5,4|0,0:2|0:0,0:0:0:0:
81,248,146666,1,8,0:0:0:0:
28,156,146920,1,0,0:0:0:0:
81,65,147174,1,4,0:0:0:0:
133,156,147429,1,0,0:0:0:0:
190,69,147683,1,8,0:0:0:0:
190,69,147810,2,0,P|243:43|296:67,1,121.5,0|4,0:0|0:0,0:0:0:0:
296,120,148319,6,0,L|296:265,1,121.5,0|8,0:0|0:0,0:0:0:0:
296,346,148954,1,0,0:0:0:0:
405,350,149208,1,4,0:0:0:0:
405,350,149335,1,0,0:0:0:0:
405,244,149590,2,0,L|405:114,1,121.5,8|8,0:0|0:0,0:0:0:0:
310,77,150225,6,0,B|250:62|250:91|190:77,1,121.5,4|0,0:0|0:0,0:0:0:0:
137,76,150734,1,8,0:0:0:0:
31,76,150988,1,0,0:0:0:0:
31,181,151242,2,0,L|31:267,1,81,4|0,0:0|0:0,0:0:0:0:
35,371,151751,1,8,0:0:0:0:
35,371,151878,2,0,L|144:371,1,81
168,371,152259,6,0,B|168:331|168:331|192:291,1,81,4|4,0:0|0:0,0:0:0:0:
220,252,152641,1,4,0:0:0:0:
252,210,152768,2,0,B|273:174|273:174|273:134,1,81,8|4,1:3|0:0,0:0:0:0:
378,134,153276,2,0,B|378:174|378:174|399:209,1,81,4|4,0:0|0:0,0:0:0:0:
431,251,153657,1,4,0:0:0:0:
462,294,153785,2,0,B|483:329|483:329|483:369,1,81,8|4,1:3|0:0,0:0:0:0:
362,369,154293,6,0,L|289:271,1,121.5,4|0,0:0|0:0,0:0:0:0:
252,233,154802,2,0,P|238:195|250:158,1,81,8|0,0:0|0:0,0:0:0:0:
317,82,155310,2,0,L|373:82,2,40.5,0|0|0,0:0|1:0|0:0,0:0:0:0:
183,82,155819,1,8,0:0:0:0:
183,82,155946,2,0,P|129:57|76:82,1,121.5,0|4,0:0|0:0,0:0:0:0:
76,135,156454,5,0,0:0:0:0:
76,292,156835,1,8,0:0:0:0:
181,292,157090,1,0,0:0:0:0:
286,292,157344,2,0,L|411:292,2,121.5,4|8|8,0:0|0:0|0:0,0:0:0:0:
233,200,158361,6,0,L|233:70,1,121.5,4|0,0:0|0:0,0:0:0:0:
270,41,158869,2,0,P|307:28|345:39,1,81,8|0,0:0|0:0,0:0:0:0:
420,106,159378,2,0,P|432:143|420:181,1,81,4|0,0:0|0:0,0:0:0:0:
357,259,159886,1,8,0:0:0:0:
357,259,160013,2,0,P|332:312|357:365,1,121.5,0|4,0:0|0:0,0:0:0:0:
419,366,160522,6,0,L|274:366,1,121.5,0|8,0:0|0:0,0:0:0:0:
191,366,161158,1,0,0:0:0:0:
89,370,161412,1,4,0:0:0:0:
89,370,161539,2,0,L|-3:370,2,81,0|8|0,0:0|0:0|0:0,0:0:0:0:
141,370,162174,1,8,0:0:0:0:
216,294,162429,6,0,B|216:204|216:204|179:167,1,133.650004078674,4|0,1:2|0:0,0:0:0:0:
147,135,162937,2,0,B|116:104|116:104|116:37,1,89.1000027191163,10|2,0:0|0:0,0:0:0:0:
154,20,163319,2,0,P|195:5|237:18,1,89.1000027191163,2|2,0:0|0:0,0:0:0:0:
274,56,163700,1,2,0:0:0:0:
274,162,163954,2,0,L|274:213,3,44.5500013595581,10|2|2|2,0:0|0:0|0:0|0:0,0:0:0:0:
274,260,164463,6,0,B|274:350|274:350|311:387,1,133.650004078674,6|2,0:0|0:0,0:0:0:0:
358,380,164971,2,0,B|390:347|390:347|390:304,1,89.1000027191163,10|2,0:0|0:0,0:0:0:0:
390,250,165352,2,0,P|375:208|388:166,1,89.1000027191163,2|2,0:0|0:0,0:0:0:0:
426,128,165734,1,2,0:0:0:0:
350,52,165988,2,0,L|295:52,1,44.5500013595581,10|2,0:0|0:0,0:0:0:0:
252,52,166242,2,0,L|198:52,1,44.5500013595581,2|2,0:0|0:0,0:0:0:0:
154,52,166496,6,0,B|154:118|154:118|105:167,1,133.650004078674,6|2,0:0|0:0,0:0:0:0:
68,203,167005,2,0,L|4:266,1,89.1000027191163,10|2,0:0|0:0,0:0:0:0:
4,319,167386,2,0,P|45:332|87:319,1,89.1000027191163,2|2,0:0|0:0,0:0:0:0:
125,281,167767,1,2,0:0:0:0:
200,205,168021,2,0,L|277:127,1,89.1000027191163,10|2,0:0|0:0,0:0:0:0:
338,66,168530,6,0,B|368:96|368:96|368:186,1,133.650004078674,6|2,0:0|0:0,0:0:0:0:
368,240,169039,1,10,0:0:0:0:
292,315,169293,1,2,0:0:0:0:
292,315,169420,2,0,P|250:328|208:314,1,89.1000027191163,2|2,0:0|0:0,0:0:0:0:
170,276,169802,1,2,0:0:0:0:
94,200,170056,1,10,0:0:0:0:
169,124,170310,1,2,0:0:0:0:
244,199,170564,6,0,B|291:246|291:246|338:200,1,133.650004078674,6|2,0:0|0:0,0:0:0:0:
376,162,171073,2,0,L|478:162,1,97.1999970336915,10|2,1:3|0:0,0:0:0:0:
500,116,171454,2,0,P|513:74|499:32,1,89.1000027191163,2|2,0:0|0:0,0:0:0:0:
446,32,171835,1,2,0:0:0:0:
339,32,172089,2,0,L|339:78,1,44.5500013595581,10|2,0:0|0:0,0:0:0:0:
339,129,172343,2,0,L|339:175,1,44.5500013595581,2|2,0:0|0:0,0:0:0:0:
339,227,172598,6,0,L|201:227,1,133.650004078674,6|2,0:0|0:0,0:0:0:0:
151,227,173107,1,10,0:0:0:0:
155,337,173361,1,2,0:0:0:0:
155,337,173488,2,0,P|196:350|238:337,1,89.1000027191163,2|2,0:0|0:0,0:0:0:0:
291,338,173869,1,2,0:0:0:0:
291,231,174123,2,0,L|291:176,1,44.5500013595581,10|2,0:0|0:0,0:0:0:0:
291,133,174377,2,0,L|237:133,1,44.5500013595581,2|2,0:0|0:0,0:0:0:0:
192,133,174632,6,0,B|192:223|192:223|161:253,1,133.650004078674,6|2,0:0|0:0,0:0:0:0:
123,291,175141,2,0,B|79:280|79:301|35:291,1,89.1000027191163,10|2,1:3|0:0,0:0:0:0:
9,243,175522,2,0,P|-4:201|9:159,1,89.1000027191163,2|2,0:0|0:0,0:0:0:0:
35,113,175903,1,2,0:0:0:0:
141,113,176157,2,0,L|232:113,1,89.1000027191163,10|2,0:0|0:0,0:0:0:0:
337,113,176666,6,0,L|336:289,3,162,2|2|2|2,0:0|0:0|0:0|0:0,0:0:0:0:
336,380,178446,1,2,0:0:0:0:
441,380,178700,5,2,0:0:0:0:
128,64,186327,5,8,0:0:0:0:
128,64,186835,6,0,B|128:154|128:154|165:191,1,133.650004078674,4|2,0:1|0:0,0:0:0:0:
197,223,187343,2,0,B|228:254|228:254|228:321,1,89.1000027191163,10|2,0:0|0:0,0:0:0:0:
189,337,187725,2,0,P|147:350|105:336,1,89.1000027191163,2|2,0:0|0:0,0:0:0:0:
67,298,188106,1,2,0:0:0:0:
67,191,188360,2,0,L|67:136,3,44.5500013595581,10|2|2|2,0:0|0:0|0:0|0:0,0:0:0:0:
67,98,188869,6,0,L|218:98,1,133.650004078674,6|2,0:0|0:0,0:0:0:0:
254,98,189378,2,0,P|295:111|337:98,1,89.1000027191163,10|2,0:0|0:0,0:0:0:0:
379,66,189759,2,0,P|420:52|462:66,1,89.1000027191163,2|2,0:0|0:0,0:0:0:0:
504,98,190140,1,2,0:0:0:0:
504,204,190394,2,0,L|504:250,1,44.5500013595581,10|2,0:0|0:0,0:0:0:0:
504,301,190648,2,0,L|450:301,1,44.5500013595581,2|2,0:0|0:0,0:0:0:0:
405,301,190903,6,0,L|405:154,1,133.650004078674,6|2,0:0|0:0,0:0:0:0:
352,153,191412,2,0,B|308:142|308:163|264:153,1,89.1000027191163,10|2,0:0|0:0,0:0:0:0:
212,137,191793,2,0,P|198:95|212:53,1,89.1000027191163,2|2,0:0|0:0,0:0:0:0:
250,15,192174,1,2,0:0:0:0:
357,15,192429,2,0,L|451:15,1,89.1000027191163,10|2,0:0|0:0,0:0:0:0:
446,121,192937,6,0,P|422:181|362:204,1,133.650004078674,6|2,0:0|0:0,0:0:0:0:
308,204,193446,1,10,0:0:0:0:
201,204,193700,2,0,L|105:204,2,89.1000027191163,2|2|2,0:0|0:0|0:0,0:0:0:0:
276,279,194463,1,10,0:0:0:0:
351,354,194717,1,2,0:0:0:0:
425,279,194971,5,4,0:0:0:0:
425,279,195480,2,0,L|425:175,1,81,8|2,0:0|0:0,0:0:0:0:
425,92,195988,1,4,0:0:0:0:
425,92,196496,2,0,L|336:92,1,81,8|2,0:0|0:0,0:0:0:0:
238,92,197005,6,0,L|238:189,1,81,4|2,0:0|0:0,0:0:0:0:
238,278,197513,2,0,L|152:278,1,81,8|2,0:0|0:0,0:0:0:0:
103,278,197895,6,0,P|65:265|28:277,2,81,2|2|2,0:2|0:2|0:2,0:2:0:0:
140,315,198530,2,0,P|211:347|282:315,1,162,10|4,0:0|0:0,0:0:0:0:
283,314,199547,6,0,L|283:200,1,81,8|2,0:0|0:0,0:0:0:0:
283,126,200056,1,4,0:0:0:0:
283,126,200564,2,0,L|398:126,1,81,8|2,0:0|0:0,0:0:0:0:
469,126,201073,6,0,B|469:205|469:205|411:263,1,162,4|8,0:0|0:0,0:0:0:0:
336,338,201835,1,2,0:0:0:0:
261,263,202090,1,4,0:0:0:0:
261,263,202598,2,0,L|155:263,1,81,8|2,0:0|0:0,0:0:0:0:
105,188,203107,6,0,P|92:150|105:112,2,81,4|2|10,0:0|0:0|0:0,0:0:0:0:
180,263,203869,1,2,0:2:0:0:
254,188,204124,1,4,0:0:0:0:
254,188,204632,2,0,P|291:175|329:188,1,81,10|2,0:0|0:2,0:0:0:0:
404,263,205141,6,0,L|404:356,1,81,4|2,0:0|0:0,0:0:0:0:
298,344,205649,2,0,L|202:344,1,81,8|2,0:0|0:0,0:0:0:0:
111,344,206158,1,4,0:0:0:0:
111,344,206666,2,2,L|111:251,1,81,10|2,0:0|0:0,0:2:0:0:
111,149,207174,6,0,B|139:177|139:177|261:177,1,162,4|8,0:0|0:0,0:0:0:0:
366,178,207937,1,2,0:0:0:0:
440,103,208191,1,4,0:0:0:0:
440,103,208700,2,0,L|382:45,1,81,8|2,0:0|0:0,0:0:0:0:
277,46,209208,6,0,P|239:58|201:46,2,81,4|2|10,0:0|0:0|0:0,0:0:0:0:
383,46,209971,1,2,0:2:0:0:
383,151,210225,1,4,0:0:0:0:
383,151,210734,1,10,0:0:0:0:
277,151,210988,1,2,0:2:0:0:
171,151,211242,6,0,B|139:151|139:151|123:151|107:166|107:182|107:182|107:198|91:213|75:213|75:213|43:213,2,162,4|8|4,0:0|0:0|0:0,0:0:0:0:
239,219,212513,6,0,P|277:231|315:219,1,81,2|8,0:2|0:0,0:0:0:0:
412,219,213022,2,0,P|450:231|488:219,1,81,2|4,0:2|0:0,0:0:0:0:
488,24,213785,1,8,0:0:0:0:
293,24,214293,1,4,0:0:0:0:
293,121,214547,6,0,L|293:170,1,40.5,6|4,0:0|0:0,0:0:0:0:
293,210,214802,2,0,L|293:250,1,40.5,10|4,0:0|0:0,0:0:0:0:
110,250,215310,5,4,0:0:0:0:
110,55,215819,1,8,0:0:0:0:
304,55,216327,1,4,0:0:0:0:
304,249,216835,2,0,P|360:266|417:249,1,121.5,10|8,0:0|0:0,0:0:0:0:
452,213,217344,6,0,L|452:133,1,81,8|4,0:0|0:0,0:0:0:0:
452,34,217852,1,8,0:0:0:0:
354,34,218107,1,4,0:0:0:0:
354,131,218361,1,4,0:0:0:0:
