osu file format v14

[General]
AudioFilename: Anamanaguchi - Pop It.mp3
AudioLeadIn: 0
PreviewTime: 58441
Countdown: 0
SampleSet: None
StackLeniency: 0.3
Mode: 0
LetterboxInBreaks: 0
EpilepsyWarning: 1
WidescreenStoryboard: 1

[Editor]
Bookmarks: 8420,25115,41811,58507,75202,77289,79376,81463,83550,85637,87724,89811,91898,108594,110680,112767,114854,116941,119028,121115,123202,146158,162429,178700,194971,211242
DistanceSpacing: 1.3
BeatDivisor: 8
GridSize: 4
TimelineZoom: 3.099998

[Metadata]
Title:Pop It
TitleUnicode:Pop It
Artist:Anamanaguchi
ArtistUnicode:Anamanaguchi
Creator:Bonsai
Version:Extra
Source:
Tags:Pop_It feat. meesh彡☆ Electro Chiptune Bitpop idk
BeatmapID:1084171
BeatmapSetID:501677

[Difficulty]
HPDrainRate:6
CircleSize:4.5
OverallDifficulty:8
ApproachRate:9
SliderMultiplier:2.2
SliderTickRate:1

[Events]
//Background and Video events
0,0,"Anamanaguchi - Pop It.png",0,0
Video,-69,"Anamanaguchi - Pop It.avi"
//Break Periods
2,117141,124167
//Storyboard Layer 0 (Background)
Sprite,Background,Centre,"Anamanaguchi - Pop It.png",320,240 F,0,0,75203,0 S,0,0,218361,0.6667 F,0,75203,162428,1 F,0,162428,218361,0
//Storyboard Layer 1 (Fail)
//Storyboard Layer 2 (Pass)
//Storyboard Layer 3 (Foreground)
Sprite,Foreground,Centre,"white.jpg",320,240 S,0,0,218361,55 F,0,74159,74941,0,1 F,0,75267,75724,1,0 F,0,161793,162174,0,1 F,0,162429,162683,1,0
//Storyboard Sound Samples

[TimingPoints]
72.2758620689654,521.739130434783,4,3,1,100,1,0
4246,-100,4,3,1,45,0,0
4767,-100,4,3,1,50,0,0
5289,-100,4,3,1,55,0,0
5811,-100,4,3,1,60,0,0
6333,-100,4,3,1,65,0,0
6854,-100,4,3,1,70,0,0
7376,-100,4,3,1,75,0,0
7898,-100,4,3,1,100,0,0
16767,-100,4,3,1,85,0,0
17289,-100,4,3,1,100,0,0
53941,-98.0392156862745,4,3,1,100,0,0
54202,-100,4,3,1,100,0,0
54332,-153.846153846154,4,3,1,100,0,0
55767,-100,4,3,1,100,0,0
57985,-100,4,3,1,50,0,0
58507,-80,4,3,1,100,0,1
69072,-85.4700854700855,4,3,1,100,0,1
69333,-80,4,3,1,100,0,1
75202,-100,4,3,1,100,0,0
91506,-81.9672131147541,4,3,1,100,0,0
91898,-113.636363636364,4,3,1,100,0,0
112767,-113.636363636364,4,3,1,75,0,0
113028,-113.636363636364,4,3,1,100,0,0
125289,-100,4,3,0,75,0,0
125550,-100,4,3,1,90,0,0
127376,-100,4,3,0,75,0,0
127637,-100,4,3,1,90,0,0
129463,-100,4,3,0,75,0,0
129724,-100,4,3,1,90,0,0
131289,-64.1025641025641,4,3,0,100,0,0
131550,-64.1025641025641,4,3,0,75,0,0
131811,-100,4,3,1,90,0,0
132072,-100,4,3,1,100,0,0
135463,-83.3333333333333,4,3,1,100,0,0
135984,-100,4,3,1,100,0,0
138072,-100,4,3,1,90,0,0
139637,-90.9090909090909,4,3,1,90,0,0
140158,-100,4,3,1,80,0,0
140941,-100,4,3,1,75,0,0
141463,-100,4,3,1,70,0,0
141985,530.973451327434,4,3,1,25,1,0
141985,-100,4,3,1,25,0,0
142117,-100,4,3,1,80,0,0
145701,-100,4,3,1,50,0,0
146158,508.474576271186,4,3,1,100,1,1
146285,-100,4,3,1,100,0,0
152259,-100,4,3,0,100,0,0
152768,-100,4,3,1,100,0,0
152895,-100,4,3,0,100,0,0
153785,-100,4,3,1,100,0,0
153912,-100,4,3,0,100,0,0
154293,-100,4,3,1,100,0,0
162429,-80,4,3,1,100,0,1
171073,-62.5,4,3,1,100,0,1
171454,-80,4,3,1,100,0,1
178700,-121.951219512195,4,3,1,100,0,0
186835,-80,4,3,1,100,0,1
194971,-117.647058823529,4,3,1,100,0,0
209145,-117.647058823529,4,3,1,5,0,0
209208,-117.647058823529,4,3,1,100,0,0
211242,-133.333333333333,4,3,1,75,0,0

[Colours]
Combo1 : 221,0,5
Combo2 : 230,172,0
Combo3 : 0,83,236

[HitObjects]
256,192,4246,12,0,7898,0:0:0:0:
189,219,8420,6,0,P|182:192|189:166,1,55,6|0,0:0|0:0,0:0:0:0:
256,192,8680,1,2,0:2:0:0:
52,275,8941,1,8,0:0:0:0:
255,359,9202,1,2,0:2:0:0:
255,359,9333,1,2,0:2:0:0:
298,302,9463,6,0,P|305:275|298:249,1,55,6|2,0:0|0:2,0:0:0:0:
256,192,9724,1,2,0:0:0:0:
383,279,9854,2,0,L|467:279,1,55,2|8,0:0|0:0,0:0:0:0:
438,279,10246,1,2,0:2:0:0:
490,192,10376,6,0,P|437:177|384:191,2,110,6|6|2,0:0|0:0|0:2,0:0:0:0:
345,130,11028,2,0,P|331:76|345:24,1,110,8|2,0:0|0:2,0:0:0:0:
430,78,11420,1,2,0:2:0:0:
256,184,11550,5,6,1:3:0:0:
163,121,11680,2,0,P|111:107|59:120,1,110,2|2,1:3|0:2,0:0:0:0:
85,189,12072,2,0,P|112:182|138:189,1,55,8|0,1:3|0:0,0:0:0:0:
112,256,12333,1,2,0:2:0:0:
327,256,12594,6,0,L|382:256,1,55,6|0,0:0|0:0,0:0:0:0:
256,256,12854,1,2,0:2:0:0:
453,359,13115,1,8,0:0:0:0:
326,172,13376,2,0,P|320:145|327:119,1,55,2|2,0:2|0:2,0:2:0:0:
393,146,13637,5,4,0:0:0:0:
455,111,13767,2,0,P|481:104|507:111,1,55,2|0,0:2|2:0,0:0:0:0:
507,182,14028,2,0,P|480:189|454:182,1,55,2|8,0:2|0:0,0:0:0:0:
454,182,14420,1,0,0:0:0:0:
393,74,14550,6,0,L|393:19,1,55,6|0,0:0|0:0,0:0:0:0:
326,193,14811,2,0,L|326:138,1,55,6|0,0:0|0:0,0:0:0:0:
256,255,15072,1,2,0:2:0:0:
396,255,15202,1,8,0:0:0:0:
326,19,15463,2,0,L|326:46,2,27.5,2|0|0,0:2|0:0|0:0,0:0:0:0:
273,181,15724,6,0,P|325:194|378:180,1,110,6|2,1:3|0:2,0:0:0:0:
116,255,16246,1,10,1:3:0:0:
431,336,16767,6,2,P|325:362|221:332,1,220,4|8,0:0|0:0,0:0:0:0:
221,332,17550,6,0,L|221:266,1,55,2|2,0:3|0:3,0:3:0:0:
221,265,17746,1,2,0:3:0:0:
221,254,17811,2,0,L|100:254,1,110,4|2,0:3|0:3,0:3:0:0:
39,254,18202,2,0,L|39:297,2,27.5,0|0|8,0:3|0:3|0:3,0:3:0:0:
39,182,18463,1,2,0:3:0:0:
106,85,18594,5,2,0:1:0:0:
105,208,18724,2,2,P|112:181|105:155,1,55,6|0,0:0|0:0,0:1:0:0:
105,332,18985,2,2,P|113:305|105:279,1,55,6|0,0:0|2:1,0:1:0:0:
105,280,19376,2,2,P|158:264|210:278,1,110,8|2,0:0|0:0,0:0:0:0:
159,370,19767,1,2,0:0:0:0:
314,280,19898,6,0,L|369:280,1,55,4|0,0:0|0:0,0:0:0:0:
211,174,20159,2,0,B|186:125|186:125|211:76,1,110,2|8,0:0|0:0,0:0:0:0:
106,280,20550,1,2,0:0:0:0:
106,280,20811,2,0,L|78:280,1,27.5
116,280,20941,6,0,L|145:211,1,55,6|0,0:0|0:0,0:0:0:0:
162,162,21202,1,0,0:0:0:0:
386,213,21463,2,2,P|397:160|384:108,1,110,10|2,0:0|0:0,1:2:0:0:
327,71,21854,2,0,L|317:97,1,27.5,2|2,0:0|0:0,0:0:0:0:
313,108,21985,6,0,B|277:108|277:108|245:88|245:88|209:88,2,110,4|2|8,0:0|0:0|0:0,0:0:0:0:
384,108,22637,1,2,0:0:0:0:
313,192,22767,5,2,0:1:0:0:
410,275,22898,2,2,P|383:282|357:275,1,55,6|0,0:0|0:0,0:0:0:0:
161,273,23159,2,2,P|214:288|267:275,1,110,6|0,0:0|2:0,0:0:0:0:
162,108,23550,2,0,P|214:94|266:109,1,110,8|0,0:0|0:0,1:0:0:0:
266,120,23876,1,0,0:0:0:0:
266,131,23941,6,0,L|324:131,2,55,2|4|0,0:0|0:0|0:0,1:0:0:0:
214,192,24333,2,0,L|100:192,1,110,2|8,0:0|0:0,1:0:0:0:
266,253,24724,1,2,0:0:0:0:
432,16,25115,6,0,P|438:42|431:68,1,55,4|0,0:0|0:0,0:0:0:0:
364,94,25376,2,0,P|356:67|363:41,1,55,2|0,0:2|0:0,0:0:0:0:
298,121,25637,1,8,0:0:0:0:
435,229,25898,1,2,0:2:0:0:
435,229,26028,1,2,0:2:0:0:
368,255,26159,5,4,0:0:0:0:
425,296,26289,2,0,P|431:322|424:348,1,55,2|0,0:2|0:0,0:0:0:0:
358,322,26550,1,2,0:2:0:0:
500,322,26680,1,8,0:0:0:0:
215,322,26941,1,2,0:2:0:0:
161,218,27072,6,0,P|154:244|162:271,1,55,6|0,0:0|0:0,0:0:0:0:
264,166,27333,2,0,P|238:159|212:166,1,55,6|0,0:0|0:0,0:0:0:0:
315,217,27594,1,2,0:2:0:0:
143,148,27724,1,8,0:0:0:0:
146,344,27985,1,2,0:2:0:0:
146,344,28115,1,2,0:2:0:0:
239,244,28246,5,6,1:3:0:0:
332,344,28376,2,0,P|385:359|438:345,1,110,2|2,1:3|0:2,0:0:0:0:
358,277,28767,2,0,P|384:284|411:277,1,55,10|0,1:3|0:0,0:0:0:0:
384,210,29028,1,2,0:2:0:0:
176,54,29289,6,0,P|202:47|228:54,1,55,6|0,0:0|0:0,0:0:0:0:
62,91,29550,2,0,P|88:98|114:91,1,55,2|0,0:2|0:0,0:0:0:0:
0,130,29811,1,8,0:0:0:0:
293,18,30072,1,2,0:2:0:0:
293,18,30202,1,2,0:2:0:0:
228,54,30333,5,4,0:0:0:0:
289,90,30463,2,0,P|295:116|288:142,1,55,2|0,0:2|0:0,0:0:0:0:
228,179,30724,1,2,0:2:0:0:
364,116,30854,1,8,0:0:0:0:
92,242,31115,1,0,0:0:0:0:
207,293,31246,6,0,L|157:271,1,55,6|0,0:0|0:0,0:0:0:0:
322,344,31507,2,0,L|271:321,1,55,6|0,0:0|0:0,0:0:0:0:
386,372,31767,1,2,0:2:0:0:
501,321,31898,2,8,L|450:344,1,55,10|4,0:0|0:0,0:0:0:0:
272,322,32159,2,0,L|323:345,1,55,2|2,0:2|0:2,0:0:0:0:
156,372,32420,5,2,1:3:0:0:
40,321,32550,2,0,P|26:268|41:216,1,110,2|2,1:3|0:2,0:0:0:0:
78,103,32941,2,0,P|86:129|79:155,1,55,8|4,1:3|0:0,0:0:0:0:
39,43,33202,1,2,0:2:0:0:
163,216,33463,6,0,P|137:224|111:217,1,55,6|0,0:0|0:2,0:0:0:0:
213,267,33724,2,0,P|220:293|212:319,1,55,2|0,0:2|0:0,0:0:0:0:
232,198,33985,1,8,0:0:0:0:
388,41,34246,1,2,0:2:0:0:
388,41,34376,1,2,0:2:0:0:
337,90,34507,6,0,P|328:116|335:142,1,55,4|2,0:0|0:2,0:0:0:0:
403,119,34767,1,0,0:0:0:0:
268,170,34898,2,0,L|188:170,1,55,2|8,0:2|0:0,0:0:0:0:
213,170,35289,1,2,0:2:0:0:
269,293,35420,6,0,P|276:266|267:240,1,55,6|0,0:0|0:0,0:0:0:0:
370,340,35680,2,0,P|343:334|318:343,1,55,6|0,0:0|0:0,0:0:0:0:
250,363,35941,1,2,0:2:0:0:
351,261,36072,1,8,0:0:0:0:
152,264,36333,1,2,0:2:0:0:
152,264,36463,1,2,0:2:0:0:
253,162,36594,5,6,0:0:0:0:
152,60,36724,2,0,P|99:45|46:59,1,110,2|2,0:0|0:2,0:0:0:0:
126,127,37115,2,0,P|100:120|73:127,1,55,8|0,0:0|0:0,0:0:0:0:
100,194,37376,1,2,0:2:0:0:
28,379,37637,6,0,L|47:327,1,55,6|0,0:0|0:0,0:0:0:0:
74,261,37898,1,2,0:2:0:0:
256,379,38159,1,8,0:0:0:0:
457,312,38420,6,0,L|438:261,1,55,2|2,0:2|0:2,0:0:0:0:
484,379,38680,1,6,0:0:0:0:
384,308,38811,2,0,P|367:286|366:258,1,55,2|0,0:2|0:0,0:0:0:0:
508,262,39072,2,0,P|508:235|492:214,1,55,2|8,0:2|0:0,0:0:0:0:
492,214,39463,1,0,0:0:0:0:
411,193,39594,6,0,L|392:141,1,55,6|0,0:0|0:0,0:0:0:0:
366,260,39854,1,6,0:0:0:0:
256,192,39985,12,4,41811,0:2:0:0:
204,85,42333,6,0,P|152:71|100:84,1,110,8|2,0:0|0:2,0:0:0:0:
307,84,42724,2,0,P|333:77|359:84,2,55,2|4|0,0:2|0:0|0:0,0:0:0:0:
333,151,43115,2,0,P|346:203|334:256,1,110,2|8,0:2|0:0,0:0:0:0:
308,324,43507,2,0,P|334:331|360:324,1,55,2|0,0:2|0:0,0:0:0:0:
255,208,43767,6,0,P|229:200|203:207,1,55,6|0,0:0|0:0,0:0:0:0:
229,275,44028,1,6,0:0:0:0:
229,275,44289,1,0,0:0:0:0:
229,132,44420,1,10,0:0:0:0:
229,132,44680,2,0,L|231:70,1,55,0|2,0:0|0:2,0:0:0:0:
305,302,44941,6,0,P|318:250|304:197,2,110,6|2|10,0:3|0:2|0:0,0:0:0:0:
155,197,45594,2,0,P|141:249|154:302,1,110,2|0,0:2|0:2,0:0:0:0:
232,132,45985,5,4,0:0:0:0:
232,132,46115,1,0,0:0:0:0:
232,368,46376,1,0,0:0:0:0:
323,288,46507,2,0,P|283:278|244:287,1,82.5,8|2,0:0|0:2,0:0:0:0:
232,288,46767,1,0,0:0:0:0:
221,288,46833,6,0,P|181:277|141:287,1,82.5,2|4,0:2|0:0,0:0:0:0:
256,121,47289,2,0,P|269:173|257:226,1,110,2|8,0:2|0:0,0:0:0:0:
230,54,47680,2,0,P|256:47|282:54,1,55,2|0,0:2|0:0,0:0:0:0:
134,169,47941,5,6,0:0:0:0:
378,169,48202,1,6,0:0:0:0:
378,169,48463,1,0,0:0:0:0:
283,292,48594,2,0,P|257:299|230:292,1,55,10|0,0:0|0:0,0:0:0:0:
256,225,48854,1,0,0:2:0:0:
350,319,48985,6,0,P|357:293|350:266,2,55,2|4|0,0:2|0:0|0:0,0:0:0:0:
256,367,49376,1,2,0:2:0:0:
162,266,49507,2,0,P|154:292|162:319,1,55,2|8,0:2|0:0,0:0:0:0:
256,225,49767,1,2,0:2:0:0:
256,296,49898,1,2,0:2:0:0:
459,225,50159,5,6,1:3:0:0:
360,146,50289,2,0,B|324:146|324:146|292:126|292:126|256:126,1,110,2|0,1:3|0:0,0:0:0:0:
360,46,50680,1,8,0:0:0:0:
256,225,50941,1,2,0:2:0:0:
189,153,51072,6,0,P|182:127|189:100,2,55,2|4|0,0:2|0:0|0:0,0:0:0:0:
323,100,51463,2,0,P|329:126|322:152,1,55,2|0,0:2|0:0,0:0:0:0:
317,162,51659,1,0,0:0:0:0:
312,172,51724,2,0,P|305:198|312:224,1,55,8|2,0:0|0:2,0:0:0:0:
379,197,51985,1,2,1:3:0:0:
235,197,52115,6,0,L|180:197,1,55,6|0,1:3|0:0,0:0:0:0:
145,126,52376,2,0,L|255:126,1,110,6|0,1:3|0:0,0:0:0:0:
108,197,52767,2,0,P|95:250|108:302,1,110,10|2,0:3|0:2,0:0:0:0:
145,373,53159,1,2,0:2:0:0:
204,250,53289,6,0,B|240:250|240:250|272:270|272:270|308:270,2,110,6|2|8,1:3|0:2|0:0,0:0:0:0:
308,343,53941,2,0,P|358:320|380:270,1,112.200000684814,2|0,0:2|0:0,0:0:0:0:
309,198,54333,6,0,L|379:198,1,71.4999967269899,2|0,0:3|0:0,0:0:0:0:
93,198,54854,1,8,0:0:0:0:
309,125,55115,1,2,0:2:0:0:
142,251,55246,2,0,P|92:269|43:251,1,107.249995090485,2|2,0:2|0:2,0:0:0:0:
92,198,55767,2,0,L|92:169,1,27.5
92,159,55898,2,0,P|118:152|145:159,1,55,8|2,0:0|0:2,0:0:0:0:
200,210,56159,5,2,0:0:0:0:
200,210,56289,1,2,0:0:0:0:
274,210,56420,1,2,1:3:0:0:
274,210,56550,2,0,L|274:266,1,55,0|0,1:3|0:3,0:3:0:0:
346,155,56811,2,0,L|346:211,1,55,2|0,1:3|0:3,0:3:0:0:
418,100,57072,2,0,L|418:156,1,55,2|0,1:3|0:3,0:3:0:0:
473,45,57333,1,2,1:2:0:0:
442,223,57463,6,0,P|415:229|389:222,1,55,6|0,1:3|0:0,0:0:0:0:
380,216,57659,1,0,0:0:0:0:
370,211,57724,2,0,P|344:204|318:211,1,55,2|0,1:2|0:0,0:0:0:0:
344,276,57985,5,0,0:0:0:0:
88,230,58507,6,2,P|79:197|88:164,1,68.75,6|0,1:3|0:0,0:2:0:0:
172,197,58767,1,2,0:2:0:0:
255,228,58898,1,0,0:0:0:0:
333,185,59028,2,0,P|341:151|332:118,1,68.75,8|0,0:0|0:0,0:0:0:0:
336,278,59289,1,0,0:0:0:0:
336,278,59420,1,2,0:2:0:0:
398,340,59550,6,0,P|430:349|463:339,1,68.75,4|2,0:0|0:2,0:0:0:0:
463,249,59811,1,0,0:0:0:0:
463,159,59941,1,2,0:2:0:0:
397,69,60072,2,0,P|429:60|462:69,1,68.75,8|0,0:0|0:0,0:0:0:0:
333,133,60333,1,0,0:0:0:0:
270,70,60463,6,2,L|222:22,1,68.75,6|0,1:3|0:0,0:2:0:0:
397,69,60724,2,2,L|445:21,1,68.75,6|0,1:3|0:0,0:2:0:0:
333,133,60985,1,2,0:2:0:0:
333,222,61115,2,0,L|333:290,1,68.75,10|0,0:0|0:0,0:0:0:0:
336,384,61376,1,2,0:2:0:0:
336,384,61507,1,2,0:2:0:0:
407,256,61637,5,6,1:3:0:0:
259,335,61767,2,2,P|227:343|194:334,2,68.75,2|0|2,0:2|0:0|0:2,0:2:0:0:
116,290,62159,2,2,P|83:280|50:289,1,68.75,8|0,0:0|0:0,0:2:0:0:
85,376,62420,1,2,0:2:0:0:
85,376,62550,1,0,0:0:0:0:
146,208,62680,6,2,L|170:141,1,68.75,6|0,1:3|0:0,0:2:0:0:
200,59,62941,1,2,0:2:0:0:
289,59,63072,1,0,0:0:0:0:
319,143,63202,2,0,L|343:208,1,68.75,8|0,0:0|0:0,0:0:0:0:
377,296,63463,1,2,0:2:0:0:
377,296,63594,1,2,0:2:0:0:
410,207,63724,6,0,L|433:142,1,68.75,4|2,0:0|0:2,0:0:0:0:
464,61,63985,1,0,0:0:0:0:
464,61,64115,1,2,0:2:0:0:
343,142,64246,2,0,P|310:150|277:141,1,68.75,8|0,0:0|0:0,0:0:0:0:
311,57,64507,1,0,0:0:0:0:
311,235,64637,6,2,L|311:303,1,68.75,6|0,1:3|0:0,0:2:0:0:
223,213,64898,2,2,L|224:295,1,68.75,6|0,0:0|0:0,0:2:0:0:
135,191,65159,1,2,0:2:0:0:
46,168,65289,2,0,L|46:100,1,68.75,10|0,0:0|0:0,0:0:0:0:
46,258,65550,6,2,P|78:249|111:258,1,68.75,2|0,0:2|0:0,0:2:0:0:
267,348,65811,2,2,P|234:356|201:347,1,68.75,6|0,1:3|0:0,0:2:0:0:
201,258,66072,2,0,P|233:249|266:258,1,68.75,2|2,0:2|0:2,0:2:0:0:
112,348,66333,2,2,P|79:356|46:347,3,68.75,10|0|0|0,0:0|0:0|0:0|0:0,0:2:0:0:
112,258,66854,6,2,L|112:186,1,68.75,6|0,1:3|0:0,0:2:0:0:
112,99,67115,1,2,0:2:0:0:
175,35,67246,1,0,0:0:0:0:
264,35,67376,2,0,L|347:35,1,68.75,8|0,0:0|0:0,0:0:0:0:
425,38,67637,1,2,0:2:0:0:
425,38,67767,1,2,0:2:0:0:
377,114,67898,6,0,P|367:146|376:179,1,68.75,4|2,0:0|0:2,0:0:0:0:
440,243,68159,1,0,0:0:0:0:
503,306,68289,1,2,0:2:0:0:
375,306,68420,2,0,P|366:338|375:371,1,68.75,8|0,0:0|0:0,0:0:0:0:
440,243,68680,1,0,0:0:0:0:
312,243,68811,6,2,L|239:243,1,68.75,6|0,1:3|0:0,0:2:0:0:
375,371,69072,2,2,L|375:302,1,64.3500002454758,6|0,1:3|0:0,0:2:0:0:
376,179,69333,1,2,0:2:0:0:
440,243,69463,2,0,P|473:251|506:242,1,68.75,8|0,0:0|0:0,0:0:0:0:
312,243,69724,1,2,0:2:0:0:
312,243,69854,1,2,0:2:0:0:
309,52,69985,5,6,1:3:0:0:
249,180,70115,2,2,P|240:147|249:114,2,68.75,0|0|2,0:0|0:0|0:2,0:2:0:0:
185,49,70507,2,2,P|152:40|119:49,1,68.75,10|0,0:0|0:0,0:2:0:0:
58,116,70767,1,2,0:2:0:0:
58,116,70898,1,0,0:0:0:0:
58,205,71028,6,2,L|150:205,1,68.75,6|0,1:3|0:0,0:2:0:0:
216,205,71289,1,2,0:2:0:0:
305,205,71420,1,0,0:0:0:0:
373,294,71550,2,0,L|305:294,1,68.75,8|0,0:0|0:0,0:0:0:0:
219,297,71811,1,2,0:2:0:0:
219,297,71941,1,2,0:2:0:0:
156,359,72072,6,0,P|123:367|90:358,1,68.75,4|2,0:0|0:2,0:0:0:0:
124,274,72333,1,0,0:2:0:0:
124,184,72463,1,2,0:2:0:0:
92,99,72594,2,0,P|124:90|157:99,1,68.75,8|0,0:0|0:0,0:0:0:0:
211,171,72854,1,0,0:0:0:0:
333,99,72985,6,2,L|265:99,1,68.75,6|0,1:3|0:0,0:2:0:0:
387,171,73246,2,2,L|317:171,1,68.75,6|0,1:3|0:0,0:2:0:0:
440,243,73507,1,2,0:2:0:0:
494,171,73637,1,8,0:0:0:0:
389,318,73898,1,2,0:2:0:0:
389,318,74028,1,2,0:2:0:0:
332,243,74159,5,6,1:3:0:0:
276,319,74289,2,2,B|231:319|231:319|191:294|191:294|146:294,1,137.5,2|0,0:0|0:0,0:2:0:0:
331,111,74680,2,2,P|348:176|332:242,1,137.5,10|0,0:0|0:0,0:2:0:0:
288,28,75202,6,0,P|340:15|393:28,1,110,6|0,0:0|0:0,0:0:0:0:
398,104,75594,1,0,0:0:0:0:
398,104,75724,2,0,L|398:220,1,110,10|2,0:0|0:2,0:0:0:0:
326,214,76115,2,0,L|326:158,1,55,2|4,0:0|0:0,0:0:0:0:
254,87,76376,5,2,0:2:0:0:
254,159,76507,2,0,L|254:214,1,55,2|0,0:0|0:0,0:0:0:0:
254,224,76702,1,0,0:0:0:0:
254,234,76767,2,0,L|254:300,1,55,10|2,0:0|0:0,0:0:0:0:
326,87,77028,1,2,0:2:0:0:
182,87,77159,6,0,L|120:87,1,55,2|4,0:0|0:0,0:0:0:0:
0,87,77420,2,0,L|55:87,1,55,2|0,0:2|0:0,0:0:0:0:
55,86,77811,2,0,P|40:139|54:192,1,110,10|2,0:0|0:0,0:0:0:0:
91,254,78202,1,2,0:0:0:0:
207,193,78333,5,6,0:0:0:0:
242,253,78463,2,0,P|255:306|241:359,1,110,2|0,0:2|0:0,0:0:0:0:
278,193,78854,2,0,L|308:140,1,55,10|2,0:0|0:0,0:0:0:0:
342,83,79115,1,2,0:0:0:0:
377,21,79246,2,0,L|410:21,1,27.5,2|0,0:2|0:0,0:0:0:0:
415,21,79376,6,0,L|415:92,1,55,4|0,0:0|0:0,0:0:0:0:
415,147,79637,1,0,0:0:0:0:
272,20,79898,2,0,P|219:6|166:19,1,110,10|2,0:0|0:2,0:0:0:0:
111,91,80289,6,0,L|167:91,1,55,2|4,0:0|0:0,0:0:0:0:
111,162,80550,2,0,L|138:162,1,27.5,2|0,0:2|0:0,0:0:0:0:
100,162,80680,2,0,L|44:162,1,55,2|0,0:0|0:0,0:0:0:0:
45,173,80876,1,0,0:0:0:0:
45,183,80941,2,0,L|45:238,1,55,10|2,0:0|0:0,0:0:0:0:
45,91,81202,1,2,0:2:0:0:
112,238,81333,6,0,P|138:244|164:237,1,55,2|4,0:0|0:0,0:0:0:0:
190,306,81594,2,0,P|137:319|85:304,1,110,2|0,0:2|0:0,0:0:0:0:
137,170,81985,1,10,0:0:0:0:
283,173,82246,1,0,0:0:0:0:
283,173,82376,1,2,0:0:0:0:
283,44,82507,6,0,L|283:99,1,55,6|2,0:0|0:2,0:0:0:0:
214,23,82767,2,0,P|187:16|161:23,1,55,2|0,0:0|0:0,0:0:0:0:
161,34,82963,1,0,0:0:0:0:
161,44,83028,2,0,L|161:99,1,55,10|2,0:0|0:0,0:0:0:0:
161,170,83289,1,2,0:0:0:0:
394,98,83550,6,0,P|368:91|342:98,1,55,6|0,0:0|0:0,0:0:0:0:
460,129,83811,2,0,P|486:136|512:129,1,55,2|0,0:2|0:0,0:0:0:0:
369,166,84072,2,0,L|369:282,1,110,8|2,0:0|0:2,0:0:0:0:
369,348,84463,1,2,0:0:0:0:
296,276,84594,6,0,L|215:276,1,55,4|2,0:0|0:2,0:0:0:0:
229,276,84789,1,0,0:0:0:0:
218,276,84854,2,0,P|225:250|218:224,1,55,2|0,0:2|0:0,0:0:0:0:
213,213,85050,1,0,0:0:0:0:
207,203,85115,2,0,L|152:203,1,55,8|2,0:0|0:0,0:0:0:0:
296,203,85376,1,2,0:2:0:0:
152,276,85507,6,0,L|97:276,1,55,2|4,0:0|0:0,0:0:0:0:
152,131,85767,2,0,L|97:131,1,55,2|2,0:2|0:2,0:0:0:0:
152,203,86028,1,0,0:0:0:0:
151,59,86159,2,0,P|204:45|257:59,1,110,10|2,0:0|0:2,0:0:0:0:
257,133,86550,1,2,0:0:0:0:
399,61,86680,5,4,0:0:0:0:
399,132,86811,2,0,P|425:139|451:132,1,55,2|2,0:2|0:2,0:0:0:0:
327,61,87072,1,0,0:0:0:0:
326,186,87202,2,0,L|327:132,2,55,10|2|2,0:0|0:0|0:2,0:0:0:0:
329,296,87594,2,0,L|329:256,1,27.5,2|0,0:2|0:0,0:0:0:0:
329,258,87724,6,0,L|253:258,1,55,4|0,0:0|0:0,0:0:0:0:
202,258,87985,1,2,0:2:0:0:
379,375,88246,2,0,P|327:390|275:375,1,110,10|2,0:0|0:2,0:0:0:0:
441,336,88637,1,2,0:0:0:0:
441,264,88767,6,0,L|441:183,1,55,4|2,0:0|0:2,0:0:0:0:
441,197,88963,1,0,0:0:0:0:
441,186,89028,2,0,L|441:99,1,82.5,2|0,0:2|0:0,0:0:0:0:
441,92,89289,2,0,L|386:92,1,55,10|0,0:0|0:0,0:0:0:0:
512,92,89550,1,2,0:2:0:0:
368,161,89680,6,0,P|361:187|368:213,1,55,2|4,0:0|0:0,0:0:0:0:
368,285,89941,2,0,P|361:311|368:337,1,55,2|0,0:2|0:0,0:0:0:0:
368,337,90333,2,0,P|315:322|263:337,1,110,10|0,0:0|0:0,0:0:0:0:
203,377,90724,1,2,0:0:0:0:
203,234,90854,6,0,L|202:179,1,55,4|2,0:0|0:2,0:0:0:0:
203,306,91115,1,2,0:0:0:0:
204,109,91376,1,10,0:0:0:0:
202,179,91507,2,2,B|205:189|205:189|198:210|198:210|205:231|205:231|198:252|198:252|205:273|205:273|198:294|198:294|202:305|202:305,1,134.199994471131,2|2,0:0|0:2,0:2:0:0:
124,306,91898,6,0,L|124:254,1,48.4000014770508,6|0,0:0|0:0,0:0:0:0:
124,218,92159,1,0,0:0:0:0:
124,179,92289,1,0,0:0:0:0:
280,179,92420,2,0,L|280:294,1,96.8000029541017,8|0,0:0|0:0,0:0:0:0:
280,314,92811,2,0,L|339:314,1,48.4000014770508,0|4,0:0|0:0,0:0:0:0:
328,314,93202,2,0,L|387:314,1,48.4000014770508
478,314,93463,1,8,0:0:0:0:
376,314,93594,1,0,0:0:0:0:
376,114,93985,6,0,L|376:211,2,96.8000029541017,6|0|8,0:0|0:0|0:0,0:0:0:0:
376,11,94767,1,2,0:0:0:0:
206,11,94898,2,0,L|255:11,1,48.4000014770508,2|4,0:0|0:0,0:0:0:0:
254,11,95289,2,0,L|303:11,1,48.4000014770508,2|0,0:0|0:0,0:0:0:0:
133,11,95550,1,10,0:0:0:0:
133,83,95680,1,2,0:0:0:0:
81,134,95811,1,2,0:0:0:0:
268,185,96072,6,0,B|200:253|200:253|132:185,1,193.600005908203,6|8,0:0|0:0,0:0:0:0:
342,184,96724,1,0,0:0:0:0:
342,256,96854,2,0,L|342:311,2,48.4000014770508,0|0|4,0:0|0:0|0:0,0:0:0:0:
414,184,97246,1,0,0:0:0:0:
414,256,97376,2,0,L|414:304,1,48.4000014770508,0|0,0:0|0:0,0:0:0:0:
486,184,97637,1,8,0:0:0:0:
486,256,97767,1,0,0:0:0:0:
486,376,98028,6,0,L|486:328,1,48.4000014770508,2|4,0:0|0:0,0:0:0:0:
413,376,98289,2,0,L|413:230,1,145.200004431152,2|8,0:0|0:0,0:0:0:0:
486,328,98811,1,2,0:0:0:0:
341,328,98941,2,0,L|292:328,2,48.4000014770508,2|2|4,0:0|0:0|0:0,0:0:0:0:
218,211,99333,1,2,0:0:0:0:
219,328,99463,1,2,0:0:0:0:
97,328,99594,2,0,L|146:328,1,48.4000014770508,2|8,0:0|0:0,0:0:0:0:
24,328,99854,2,0,L|0:328,4,24.2000007385254,2|0|0|0|0,0:0|0:0|0:0|0:0|0:0,0:0:0:0:
24,254,100246,6,0,L|24:61,1,193.600005908203,4|8,0:0|0:0,0:0:0:0:
219,254,101028,1,0,0:0:0:0:
145,254,101159,2,0,L|97:254,2,48.4000014770508,0|4|0,0:0|0:0|0:0,0:0:0:0:
24,254,101550,1,0,0:0:0:0:
193,254,101811,2,0,L|144:254,1,48.4000014770508,8|0,0:0|0:0,0:0:0:0:
364,254,102333,6,0,L|316:254,1,48.4000014770508,4|0,0:0|0:0,0:0:0:0:
512,254,102854,1,8,0:0:0:0:
512,59,103115,1,2,0:0:0:0:
512,132,103246,2,0,L|512:181,2,48.4000014770508,2|4|0,0:0|0:0|0:0,0:0:0:0:
512,254,103637,1,2,0:0:0:0:
316,254,103898,2,0,L|364:254,1,48.4000014770508,8|2,0:0|0:0,0:0:0:0:
145,254,104420,6,0,L|193:254,1,48.4000014770508,4|0,0:0|0:0,0:0:0:0:
193,35,104941,2,0,L|144:35,1,48.4000014770508,10|0,0:0|0:0,0:0:0:0:
244,86,105202,1,2,0:0:0:0:
343,34,105333,2,0,L|295:34,2,48.4000014770508,2|4|0,0:0|0:0|0:0,0:0:0:0:
244,86,105724,1,2,0:0:0:0:
143,137,105854,2,0,L|192:137,1,48.4000014770508,2|8,0:0|0:0,0:0:0:0:
343,137,106115,2,0,L|295:137,1,48.4000014770508
92,85,106376,1,2,0:0:0:0:
92,236,106507,6,0,L|92:188,1,48.4000014770508,4|0,0:0|0:0,0:0:0:0:
396,236,107028,2,0,L|396:187,1,48.4000014770508,8|0,0:0|0:0,0:0:0:0:
396,308,107289,1,2,0:0:0:0:
279,308,107420,2,0,L|328:308,2,48.4000014770508,2|4|0,0:0|0:0|0:0,0:0:0:0:
206,308,107811,1,2,0:0:0:0:
328,234,107941,2,0,L|279:234,2,48.4000014770508,2|8|0,0:0|0:0|0:0,0:0:0:0:
206,234,108333,1,2,0:0:0:0:
335,76,108594,6,0,P|349:121|335:167,1,96.8000029541017,4|0,0:0|0:0,0:0:0:0:
173,29,109115,2,0,P|159:75|172:120,2,96.8000029541017,10|2|4,0:0|0:2|0:0,0:0:0:0:
256,75,109767,1,2,0:2:0:0:
339,29,109898,2,0,L|387:29,1,48.4000014770508,2|0,0:0|0:0,0:0:0:0:
430,121,110159,2,0,P|385:107|339:120,1,96.8000029541017,10|0,0:0|0:0,0:0:0:0:
385,251,110550,6,0,L|385:202,1,48.4000014770508,2|4,0:2|0:0,0:0:0:0:
385,343,110941,1,0,0:0:0:0:
255,201,111202,2,0,P|262:225|255:247,1,48.4000014770508,10|0,0:0|0:0,0:0:0:0:
210,120,111463,2,0,P|255:106|301:120,1,96.8000029541017,2|4,0:2|0:0,0:0:0:0:
164,220,111854,2,0,L|104:220,2,48.4000014770508,2|0|0,0:2|0:0|0:0,0:0:0:0:
302,328,112246,2,0,P|256:341|210:327,1,96.8000029541017,10|0,0:0|0:0,0:0:0:0:
256,222,112637,1,2,0:2:0:0:
256,222,112767,6,0,P|211:209|165:221,1,96.8000029541017,4|0,0:0|0:0,0:0:0:0:
347,223,113289,2,0,P|301:236|255:222,2,96.8000029541017,10|2|4,0:0|0:2|0:0,0:0:0:0:
300,92,113941,2,0,L|300:141,2,48.4000014770508,2|2|0,0:2|0:0|0:0,0:0:0:0:
253,9,114333,2,0,P|299:-4|345:10,1,96.8000029541017,10|0,0:0|0:0,0:0:0:0:
210,92,114724,6,0,L|210:140,1,48.4000014770508,6|0,0:0|0:0,0:0:0:0:
210,234,114985,1,4,0:0:0:0:
117,234,115115,1,2,0:2:0:0:
349,234,115376,2,0,L|301:234,2,48.4000014770508,10|4|2,0:0|0:0|0:2,0:0:0:0:
210,234,115767,1,4,0:0:0:0:
210,326,115898,2,0,L|210:377,1,48.4000014770508,4|2,0:0|0:2,0:0:0:0:
210,234,116159,2,0,L|210:170,1,48.4000014770508
210,326,116420,1,10,0:0:0:0:
129,280,116550,2,0,P|83:266|37:280,1,96.8000029541017,6|2,0:0|0:2,0:0:0:0:
82,360,116941,5,4,0:0:0:0:
259,67,124767,5,8,0:0:0:0:
259,67,124898,1,4,0:0:0:0:
469,290,125289,6,0,L|348:290,1,110,0|2,1:1|0:0,0:0:0:0:
359,290,125811,1,8,0:2:0:0:
359,218,125941,2,0,P|324:182|289:218,1,110,2|0,0:0|0:0,0:0:0:0:
290,222,126333,2,0,P|255:257|220:222,1,110,2|0,0:0|0:0,0:0:0:0:
220,216,126724,1,2,0:0:0:0:
149,216,126854,2,0,L|78:216,1,55,8|0,0:2|0:0,0:0:0:0:
88,216,127115,1,2,0:0:0:0:
88,52,127376,6,0,L|209:52,1,110,0|2,1:1|0:0,0:0:0:0:
198,52,127898,1,8,0:2:0:0:
198,124,128028,2,0,P|232:159|267:123,1,110,2|0,0:0|0:0,0:0:0:0:
267,118,128420,2,0,P|301:82|336:117,1,110,2|0,0:0|0:0,0:0:0:0:
336,122,128811,2,0,L|391:122,2,55,2|8|0,0:0|0:2|0:0,0:0:0:0:
198,124,129202,1,2,0:0:0:0:
198,289,129463,6,0,L|319:289,1,110,0|2,1:0|0:0,0:0:0:0:
308,289,129985,1,8,0:2:0:0:
308,217,130115,2,0,P|273:181|238:217,1,110,2|0,0:0|0:0,0:0:0:0:
233,217,130507,2,0,P|198:181|163:217,1,110,2|0,0:0|0:0,0:0:0:0:
163,221,130898,1,2,0:0:0:0:
91,221,131028,2,0,L|34:221,1,55,8|0,0:2|0:0,0:0:0:0:
91,216,131289,2,2,P|116:145|199:106,1,171.600005760498,2|0,0:0|1:0,0:2:0:0:
199,216,131811,5,2,0:0:0:0:
496,216,132072,1,8,1:3:0:0:
423,215,132202,2,0,P|388:250|424:285,1,110,2|0,0:0|0:0,0:0:0:0:
424,290,132594,2,0,P|458:325|493:289,1,110,2|0,0:0|0:0,0:0:0:0:
493,284,132985,1,2,0:0:0:0:
350,284,133115,2,0,L|291:284,1,55,8|0,1:3|0:0,0:0:0:0:
289,284,133376,1,2,0:0:0:0:
237,149,133637,6,0,P|289:134|342:150,1,110,4|2,0:0|0:0,0:0:0:0:
190,70,134159,1,4,0:0:0:0:
133,150,134289,2,0,P|185:165|237:149,1,110,2|0,0:0|0:0,0:0:0:0:
133,150,134680,2,0,P|80:134|28:150,1,110,6|0,0:0|0:0,0:0:0:0:
81,234,135072,1,2,0:0:0:0:
133,150,135202,2,0,L|133:95,1,55,4|0,0:0|0:0,0:0:0:0:
184,234,135463,2,2,L|184:374,1,131.99999597168,2|4,0:0|0:0,0:2:0:0:
236,150,135985,5,2,0:0:0:0:
390,234,136246,1,4,0:0:0:0:
340,151,136376,2,0,P|288:135|236:150,1,110,2|0,0:0|0:0,0:0:0:0:
286,233,136767,2,0,P|337:248|389:233,1,110,6|0,0:0|0:0,0:0:0:0:
340,151,137159,1,2,0:0:0:0:
286,233,137289,2,0,L|286:292,1,55,4|0,0:0|0:0,0:0:0:0:
236,150,137550,1,2,0:0:0:0:
32,234,137811,5,4,0:0:0:0:
286,233,138072,2,0,P|233:221|180:233,1,110,2|4,0:0|0:0,0:0:0:0:
51,244,138463,2,0,P|104:255|157:243,1,110,2|0,0:0|0:0,0:0:0:0:
163,122,138854,2,0,P|151:174|163:227,1,110,6|0,0:0|0:0,0:0:0:0:
167,324,139246,1,2,0:0:0:0:
173,303,139376,2,0,P|179:276|173:250,1,55,4|0,0:0|0:0,0:0:0:0:
134,122,139637,2,2,P|121:63|133:5,1,121.000003692627,2|4,0:0|0:0,0:2:0:0:
379,4,140159,5,2,0:0:0:0:
134,122,140420,1,4,0:0:0:0:
155,117,140550,2,0,P|209:110|263:117,1,110,2|0,0:0|0:0,0:0:0:0:
394,121,140941,2,0,P|339:127|284:121,1,110,6|0,0:0|0:0,0:0:0:0:
275,25,141333,1,2,0:0:0:0:
277,46,141463,2,0,P|279:73|276:101,1,55,4|0,0:0|0:0,0:0:0:0:
264,250,141724,2,0,B|253:196|253:196|264:143,1,110,2|0,0:0|0:0,0:0:0:0:
256,192,142117,12,0,145701,2:0:0:0:
135,287,146159,5,4,0:2:0:0:
204,217,146285,2,0,P|256:201|308:217,1,110,2|2,0:2|0:0,0:0:0:0:
377,339,146666,2,0,P|384:312|377:286,1,55,10|0,0:0|0:0,0:0:0:0:
135,94,146920,2,0,P|127:120|134:146,1,55,2|0,0:2|0:0,0:0:0:0:
377,146,147174,6,0,P|383:119|376:93,1,55,6|0,0:0|0:0,0:0:0:0:
135,287,147429,2,0,P|128:313|135:339,1,55,2|0,0:2|0:0,0:0:0:0:
256,217,147683,1,8,0:0:0:0:
134,146,147810,2,0,P|118:93|134:41,1,110,2|2,0:2|0:0,0:0:0:0:
256,95,148191,1,4,0:0:0:0:
377,41,148319,6,0,P|392:93|377:145,1,110,2|0,0:2|0:0,0:0:0:0:
499,95,148700,1,10,0:0:0:0:
256,95,148954,1,2,0:2:0:0:
16,98,149208,1,6,0:0:0:0:
16,98,149335,1,2,0:2:0:0:
256,95,149590,2,0,L|256:40,1,55,2|8,0:2|0:0,0:0:0:0:
184,95,149844,1,2,0:0:0:0:
328,95,149971,1,2,0:2:0:0:
256,302,150225,5,4,0:0:0:0:
333,240,150352,2,0,P|385:224|437:240,1,110,2|2,0:2|0:0,0:0:0:0:
179,364,150734,2,0,P|152:370|126:363,1,55,10|0,0:0|0:0,0:0:0:0:
333,364,150988,2,0,P|359:370|385:363,1,55,2|0,0:2|0:0,0:0:0:0:
179,240,151242,6,0,P|152:233|126:240,1,55,6|0,0:0|0:0,0:0:0:0:
333,240,151496,2,0,P|359:233|385:240,1,55,2|0,0:2|0:0,0:0:0:0:
256,302,151751,1,10,0:0:0:0:
256,176,151878,2,0,B|272:120|240:120|256:64,1,110,2|2,0:2|0:0,0:0:0:0:
161,100,152259,6,4,L|105:100,1,55,4|6,0:0|0:0,0:0:0:0:
73,100,152513,1,4,0:0:0:0:
39,100,152641,1,4,0:0:0:0:
39,171,152768,1,10,0:0:0:0:
71,171,152895,1,8,0:0:0:0:
103,171,153022,1,10,0:0:0:0:
135,171,153149,1,8,0:0:0:0:
135,242,153276,6,4,L|80:242,1,55,6|6,0:0|0:0,0:0:0:0:
69,242,153467,1,4,0:0:0:0:
58,242,153530,2,4,L|3:242,1,55,4|6,0:0|0:0,0:0:0:0:
3,313,153785,1,8,0:0:0:0:
35,313,153912,1,10,0:0:0:0:
67,313,154039,1,10,0:0:0:0:
256,192,154293,5,4,0:0:0:0:
146,244,154420,2,0,P|130:192|146:140,1,110,2|0,0:2|0:1,0:0:0:0:
283,87,154802,2,0,P|256:80|230:87,1,55,10|0,0:0|0:0,0:0:0:0:
230,298,155056,2,0,P|256:304|282:298,1,55,2|0,0:2|0:0,0:0:0:0:
369,140,155310,5,6,0:0:0:0:
369,244,155437,1,0,1:0:0:0:
453,192,155564,2,0,P|480:186|507:192,1,55,2|0,0:2|0:0,0:0:0:0:
369,348,155819,1,10,0:0:0:0:
284,191,155946,2,0,L|223:191,2,55,2|0|2,1:2|0:0|0:0,0:0:0:0:
369,244,156327,1,4,1:3:0:0:
184,128,156454,6,0,P|133:113|81:128,1,110,2|0,0:2|0:0,0:0:0:0:
327,129,156835,1,10,0:0:0:0:
9,129,157090,1,2,0:2:0:0:
398,129,157344,1,6,0:0:0:0:
256,129,157471,1,2,1:2:0:0:
398,129,157725,2,0,B|398:61,1,55,2|8,0:0|0:0,0:0:0:0:
185,129,157980,1,2,1:3:0:0:
327,129,158107,1,2,0:2:0:0:
256,325,158361,5,4,0:0:0:0:
307,219,158488,2,0,P|254:204|202:217,1,110,2|2,0:2|0:0,0:0:0:0:
371,352,158869,2,0,P|379:325|372:299,1,55,10|0,0:0|0:0,0:0:0:0:
141,352,159124,2,0,P|133:325|140:299,1,55,2|0,0:2|0:0,0:0:0:0:
256,325,159378,5,6,0:0:0:0:
256,204,159505,1,0,1:0:0:0:
372,299,159632,2,0,P|398:305|424:298,1,55,2|0,0:2|0:0,0:0:0:0:
256,325,159886,1,10,0:0:0:0:
140,230,160013,2,0,P|87:215|35:228,1,110,2|2,1:2|0:0,0:0:0:0:
86,312,160395,1,4,0:0:0:0:
203,192,160522,6,0,P|256:178|308:193,1,110,2|0,0:2|0:0,0:0:0:0:
429,142,160903,1,10,0:0:0:0:
83,142,161158,1,2,0:2:0:0:
358,142,161412,1,6,0:0:0:0:
154,142,161539,1,2,1:2:0:0:
429,142,161793,2,0,L|429:87,1,55,2|8,0:0|0:0,0:0:0:0:
286,142,162047,1,2,1:3:0:0:
500,142,162174,1,2,0:2:0:0:
20,242,162429,6,0,L|226:242,1,206.25,4|2,1:2|0:0,0:0:0:0:
156,145,162937,2,0,L|19:145,1,137.5,10|2,0:0|0:0,0:0:0:0:
156,48,163319,2,0,P|221:31|287:47,1,137.5,2|2,0:0|0:0,0:0:0:0:
19,48,163700,1,2,0:0:0:0:
425,47,163954,5,10,0:0:0:0:
425,143,164081,1,2,0:0:0:0:
357,210,164208,1,2,0:0:0:0:
357,306,164335,1,2,0:0:0:0:
425,374,164463,6,0,L|218:374,1,206.25,6|2,0:0|0:0,0:0:0:0:
81,277,164971,2,0,L|218:277,1,137.5,10|2,0:0|0:0,0:0:0:0:
12,209,165352,2,0,P|-4:143|12:77,1,137.5,2|2,0:0|0:0,0:0:0:0:
12,344,165734,1,2,0:0:0:0:
256,143,165988,5,10,0:0:0:0:
323,210,166115,1,2,0:0:0:0:
390,142,166242,1,2,0:0:0:0:
322,74,166369,1,2,0:0:0:0:
323,210,166496,6,0,L|468:355,1,206.25,6|2,0:0|0:0,0:0:0:0:
350,375,167005,2,0,L|252:277,1,137.5,10|2,0:0|0:0,0:0:0:0:
390,142,167386,2,0,P|405:75|388:10,1,137.5,2|2,0:0|0:0,0:0:0:0:
458,209,167768,1,2,0:0:0:0:
190,209,168022,5,10,0:0:0:0:
257,142,168149,2,0,P|241:75|258:10,1,137.5,2|0,0:0|0:0,0:0:0:0:
328,77,168530,6,0,L|152:77,1,137.5,6|0,0:0|0:0,0:0:0:0:
121,8,168912,1,2,0:0:0:0:
121,8,169039,2,0,L|121:145,1,137.5,10|0,0:0|0:0,0:0:0:0:
56,259,169420,2,0,P|121:240|187:258,1,137.5,2|2,0:0|0:0,0:0:0:0:
121,337,169802,1,2,0:0:0:0:
121,77,170056,6,0,L|121:145,1,68.75,10|2,0:0|0:0,0:0:0:0:
169,228,170310,1,2,0:0:0:0:
72,228,170437,1,2,0:0:0:0:
217,145,170564,6,0,B|285:145|285:145|345:181|345:181|413:181,1,206.25,6|2,0:0|0:0,0:0:0:0:
370,94,171073,2,0,P|413:32|455:94,1,176,10|2,1:3|0:0,0:0:0:0:
260,232,171454,2,0,P|242:297|261:362,1,137.5,2|2,0:0|0:0,0:0:0:0:
315,163,171835,1,2,0:0:0:0:
165,362,172090,5,10,0:0:0:0:
68,362,172217,1,2,0:0:0:0:
0,294,172344,1,2,0:0:0:0:
0,197,172471,1,2,0:0:0:0:
68,128,172598,6,0,B|136:128|136:128|196:164|196:164|264:164,1,206.25,6|2,0:0|0:0,0:0:0:0:
395,66,173107,2,0,P|329:49|264:66,1,137.5,10|2,0:0|0:0,0:0:0:0:
263,259,173488,2,0,P|330:275|395:258,1,137.5,2|2,0:0|0:0,0:0:0:0:
264,164,173869,1,2,0:0:0:0:
478,355,174124,6,0,L|411:355,1,34.375,10|2,0:0|0:0,0:0:0:0:
395,355,174251,1,2,0:0:0:0:
395,258,174378,1,2,0:0:0:0:
491,258,174505,1,2,0:0:0:0:
491,161,174632,6,0,L|284:161,1,206.25,6|2,0:0|0:0,0:0:0:0:
274,161,175077,1,0,1:0:0:0:
263,161,175141,2,0,L|263:298,1,137.5,10|2,0:0|0:0,0:0:0:0:
194,92,175522,2,0,P|128:75|63:92,1,137.5,2|2,0:0|0:0,0:0:0:0:
331,92,175903,1,2,0:0:0:0:
331,366,176157,5,10,0:0:0:0:
234,366,176285,2,0,L|92:366,1,137.5,2|0,0:0|0:0,0:0:0:0:
96,269,176666,6,0,L|272:269,1,137.5,2|0,0:0|0:0,0:0:0:0:
330,272,177047,1,2,0:0:0:0:
330,272,177174,2,0,L|330:128,1,137.5,2|0,0:2|0:0,0:0:0:0:
333,38,177556,1,2,0:0:0:0:
333,38,177683,6,0,L|247:38,1,68.75,2|2,0:0|0:0,0:0:0:0:
426,38,177937,1,2,0:0:0:0:
426,230,178191,2,0,L|357:230,1,68.75,2|0,0:2|0:0,0:0:0:0:
191,230,178446,2,2,L|259:230,1,68.75,2|0,0:1|0:0,0:1:0:0:
95,230,178700,5,0,0:0:0:0:
95,103,178954,1,0,0:0:0:0:
221,103,179208,1,2,0:2:0:0:
221,230,179463,1,0,0:0:0:0:
347,230,179717,1,0,0:0:0:0:
347,103,179971,1,0,0:0:0:0:
473,103,180225,1,2,0:2:0:0:
473,134,180352,1,0,0:0:0:0:
473,166,180480,1,0,0:0:0:0:
473,198,180607,1,0,0:0:0:0:
473,230,180734,5,0,0:0:0:0:
347,230,180988,1,0,0:0:0:0:
347,356,181242,1,2,0:2:0:0:
220,356,181496,1,0,0:0:0:0:
220,229,181751,1,0,0:0:0:0:
93,229,182005,1,0,0:0:0:0:
93,102,182259,2,0,L|93:79,1,22.5500003440857,2|0,0:2|0:0,0:0:0:0:
124,102,182386,1,0,0:0:0:0:
155,102,182513,1,0,0:0:0:0:
186,102,182641,1,0,0:0:0:0:
217,102,182768,5,0,0:0:0:0:
217,228,183022,1,0,0:0:0:0:
343,228,183276,1,2,0:2:0:0:
343,101,183530,1,0,0:0:0:0:
469,101,183785,1,0,0:0:0:0:
469,227,184039,1,0,0:0:0:0:
469,353,184293,1,2,0:2:0:0:
342,353,184547,1,0,0:0:0:0:
342,226,184802,5,0,0:0:0:0:
215,226,185056,1,0,0:0:0:0:
215,353,185310,1,2,0:2:0:0:
342,353,185564,1,0,0:0:0:0:
342,226,185819,1,0,0:0:0:0:
215,226,186073,1,0,0:0:0:0:
36,47,186327,5,8,0:0:0:0:
125,136,186454,2,0,L|125:158,5,22.5500003440857
161,158,186835,6,0,L|367:158,1,206.25,4|2,1:1|0:0,0:0:0:0:
367,351,187344,2,0,L|229:351,1,137.5,10|2,0:0|0:0,0:0:0:0:
367,254,187725,2,0,P|432:236|498:253,1,137.5,2|2,0:0|0:0,0:0:0:0:
367,351,188107,1,2,0:0:0:0:
367,117,188361,5,10,0:0:0:0:
270,117,188488,1,2,0:0:0:0:
202,185,188615,1,2,0:0:0:0:
202,282,188742,1,2,0:0:0:0:
270,351,188869,6,0,L|270:144,1,206.25,6|2,0:0|0:0,0:0:0:0:
202,282,189378,2,0,P|136:299|70:282,1,137.5,10|2,0:0|0:0,0:0:0:0:
338,213,189759,2,0,P|403:195|469:212,1,137.5,2|2,0:0|0:0,0:0:0:0:
270,247,190141,1,2,0:0:0:0:
70,158,190395,6,0,L|115:177,1,34.375,10|2,0:0|0:0,0:0:0:0:
146,191,190522,1,2,0:0:0:0:
231,154,190649,1,2,0:0:0:0:
146,115,190776,1,2,0:0:0:0:
146,25,190903,6,0,L|352:25,1,206.25,6|2,0:0|0:0,0:0:0:0:
362,25,191348,1,0,1:0:0:0:
372,25,191412,2,0,L|372:162,1,137.5,10|2,0:0|0:0,0:0:0:0:
371,366,191793,2,0,P|388:300|371:234,1,137.5,2|2,0:0|0:0,0:0:0:0:
275,366,192174,1,2,0:0:0:0:
275,42,192429,5,10,0:0:0:0:
275,138,192556,2,0,L|137:138,1,137.5,2|2,0:0|0:0,0:0:0:0:
0,138,192937,6,0,L|138:138,1,137.5,6|0,0:0|0:0,0:0:0:0:
140,234,193319,1,2,0:0:0:0:
140,234,193446,2,0,L|278:234,1,137.5,10|0,0:0|0:0,0:0:0:0:
275,138,193827,5,2,0:0:0:0:
371,138,193954,2,0,L|439:138,1,68.75,6|2,0:0|0:0,0:0:0:0:
371,234,194208,1,2,0:0:0:0:
371,40,194463,2,0,L|471:40,1,68.75,10|0,0:0|0:0,0:0:0:0:
436,233,194717,2,2,P|403:242|371:234,1,68.75,2|0,0:0|0:0,0:2:0:0:
277,234,194971,6,0,L|277:326,1,93.500001783371,4|2,0:0|0:0,0:0:0:0:
277,328,195480,1,10,0:0:0:0:
174,234,195607,2,0,L|174:327,1,93.500001783371,2|0,0:0|0:0,0:0:0:0:
71,234,195988,5,6,0:0:0:0:
277,234,196115,1,2,0:0:0:0:
277,234,196369,1,2,0:0:0:0:
71,234,196496,2,0,L|9:234,1,46.7500008916855,8|2,0:0|0:0,0:0:0:0:
174,234,196751,1,2,0:0:0:0:
174,22,197005,6,0,L|174:114,1,93.500001783371,4|2,0:0|0:0,0:0:0:0:
174,115,197513,1,10,0:0:0:0:
71,21,197641,1,2,0:0:0:0:
320,20,197895,6,0,P|298:26|276:20,1,46.7500008916855,2|4,0:2|0:0,0:0:0:0:
435,21,198149,2,0,P|413:27|391:21,1,46.7500008916855,2|0,0:2|2:0,0:0:0:0:
506,21,198403,1,2,0:0:0:0:
391,146,198530,2,0,L|391:122,4,23.3750004458428,10|2|0|0|0,0:0|0:2|0:0|0:0|0:0,0:0:0:0:
391,366,199039,6,0,L|391:273,1,93.500001783371,4|2,0:0|0:0,0:0:0:0:
391,272,199547,1,10,0:0:0:0:
288,365,199674,2,0,L|288:271,1,93.500001783371,2|0,0:0|0:0,0:0:0:0:
185,366,200056,5,6,0:0:0:0:
391,366,200183,1,2,0:0:0:0:
391,366,200437,1,2,0:0:0:0:
185,366,200564,2,0,L|137:366,1,46.7500008916855,8|2,0:0|0:0,0:0:0:0:
288,271,200819,1,2,0:0:0:0:
288,65,201073,6,0,L|288:158,1,93.500001783371,4|2,0:0|0:0,0:0:0:0:
288,158,201581,1,10,0:0:0:0:
390,65,201708,1,2,0:0:0:0:
390,158,201835,2,0,L|453:158,1,46.7500008916855,2|2,0:0|0:0,0:0:0:0:
446,158,202026,1,2,0:0:0:0:
455,158,202090,6,0,L|455:204,1,46.7500008916855,6|2,0:0|0:0,0:0:0:0:
455,204,202471,2,0,L|455:250,1,46.7500008916855,2|8,0:0|0:0,0:0:0:0:
455,353,202725,1,2,0:0:0:0:
352,353,202852,1,2,0:0:0:0:
353,110,203107,6,0,L|353:202,1,93.500001783371,4|2,0:0|0:0,0:0:0:0:
353,278,203488,1,2,0:0:0:0:
278,203,203615,2,0,L|232:203,1,46.7500008916855,10|2,0:0|0:0,0:0:0:0:
427,278,203869,2,0,P|449:284|471:278,1,46.7500008916855,2|2,0:2|0:0,0:0:0:0:
278,278,204124,5,6,0:0:0:0:
428,203,204251,1,2,0:0:0:0:
428,203,204505,1,2,0:0:0:0:
278,278,204632,2,0,P|266:233|278:188,1,93.500001783371,10|2,0:0|0:2,0:0:0:0:
353,352,205013,1,0,0:0:0:0:
278,352,205141,6,0,L|231:352,1,46.7500008916855,4|0,0:0|0:0,0:0:0:0:
156,352,205395,1,2,0:0:0:0:
156,277,205522,1,2,0:0:0:0:
81,352,205649,2,0,L|34:352,1,46.7500008916855,10|2,0:0|0:0,0:0:0:0:
231,277,205903,2,0,L|278:277,1,46.7500008916855,2|2,0:0|0:0,0:0:0:0:
81,277,206157,5,6,0:0:0:0:
231,352,206285,1,2,0:0:0:0:
231,352,206539,1,2,0:0:0:0:
231,183,206666,2,0,L|231:221,4,23.3750004458428,10|2|0|0|0,0:0|0:2|0:2|0:2|0:2,0:0:0:0:
231,14,207174,6,0,B|231:39|231:39|350:39,1,140.250002675057,6|0,0:0|0:0,0:0:0:0:
157,39,207683,2,0,L|63:39,1,93.500001783371,10|0,0:0|0:0,0:0:0:0:
346,39,208191,5,6,0:0:0:0:
157,39,208319,1,2,0:0:0:0:
157,39,208573,1,2,0:0:0:0:
346,39,208700,2,0,L|414:39,1,46.7500008916855,8|2,0:0|0:0,0:0:0:0:
259,132,208954,2,0,L|259:56,1,70.1250013375283,2|0,0:0|2:0,0:0:0:0:
259,39,209208,6,0,L|156:39,1,93.500001783371,4|2,0:0|0:0,0:0:0:0:
165,39,209717,1,10,0:0:0:0:
346,39,209844,1,2,0:0:0:0:
259,132,209971,2,0,P|252:154|258:176,1,46.7500008916855,2|2,0:2|0:0,0:0:0:0:
265,183,210162,1,2,0:0:0:0:
271,189,210225,6,0,L|213:189,1,46.7500008916855,6|2,0:0|0:0,0:0:0:0:
224,189,210607,1,2,0:0:0:0:
346,132,210734,2,0,P|369:126|391:132,1,46.7500008916855,10|2,0:0|0:0,0:0:0:0:
224,76,210988,1,2,0:2:0:0:
367,322,211242,6,0,L|367:342,7,20.6250007867813,4|0|0|0|0|0|0|0,0:0|0:0|0:0|0:0|0:0|0:0|0:0|0:0,0:0:0:0:
333,341,211751,2,0,L|250:341,1,82.5000031471254,8|0,0:0|2:0,0:0:0:0:
466,322,212259,2,0,L|507:322,1,41.2500015735627,4|0,0:0|2:0,0:0:0:0:
384,216,212513,6,0,P|373:177|384:138,2,82.5000031471254,2|8|2,0:2|0:0|0:2,0:0:0:0:
302,33,213276,5,4,0:0:0:0:
113,36,213657,1,0,2:0:0:0:
113,36,213785,1,8,0:0:0:0:
113,167,214039,2,0,L|113:259,1,82.5000031471254,0|4,2:0|0:0,0:0:0:0:
113,319,214420,1,0,2:0:0:0:
224,319,214547,6,0,L|182:319,1,41.2500015735627,6|4,0:0|0:0,0:0:0:0:
0,249,214802,2,0,L|42:249,1,41.2500015735627,10|4,0:0|0:0,0:0:0:0:
42,249,215310,6,0,L|42:110,1,123.750004720688,4|0,0:0|2:0,0:0:0:0:
42,54,215819,1,8,0:0:0:0:
173,54,216073,2,0,L|268:54,1,82.5000031471254,0|4,2:0|0:0,0:0:0:0:
325,54,216454,1,0,2:0:0:0:
325,249,216835,6,0,P|330:229|325:209,1,41.2500015735627,10|0,0:0|2:0,0:0:0:0:
332,216,217217,5,8,0:0:0:0:
332,216,217280,1,8,0:0:0:0:
332,216,217344,2,0,L|400:216,1,41.2500015735627,8|8,0:0|0:0,0:0:0:0:
443,216,217598,1,4,0:0:0:0:
443,145,217725,1,4,0:0:0:0:
373,286,217852,6,0,L|373:327,1,41.2500015735627,8|0,0:0|3:0,0:0:0:0:
373,216,218107,1,4,0:0:0:0:
373,216,218361,5,4,0:0:0:0:
