osu file format v14

[General]
AudioFilename: Anamanaguchi - Pop It.mp3
AudioLeadIn: 0
PreviewTime: 58441
Countdown: 0
SampleSet: None
StackLeniency: 0.5
Mode: 0
LetterboxInBreaks: 0
EpilepsyWarning: 1
WidescreenStoryboard: 1

[Editor]
Bookmarks: 8420,25115,41811,58507,75202,77289,79376,81463,83550,85637,87724,89811,91898,108594,110680,112767,114854,116941,119028,121115,123202,146158,162429,178700,194971,211242
DistanceSpacing: 1.3
BeatDivisor: 8
GridSize: 8
TimelineZoom: 3.999997

[Metadata]
Title:Pop It
TitleUnicode:Pop It
Artist:Anamanaguchi
ArtistUnicode:Anamanaguchi
Creator:Bonsai
Version:Insane
Source:
Tags:Pop_It feat. meesh彡☆ Electro Chiptune Bitpop idk
BeatmapID:1124628
BeatmapSetID:501677

[Difficulty]
HPDrainRate:5
CircleSize:4
OverallDifficulty:7
ApproachRate:8
SliderMultiplier:2.2
SliderTickRate:1

[Events]
//Background and Video events
0,0,"Anamanaguchi - Pop It.png",0,0
Video,-69,"Anamanaguchi - Pop It.avi"
//Break Periods
2,117141,124017
//Storyboard Layer 0 (Background)
Sprite,Background,Centre,"Anamanaguchi - Pop It.png",320,240 F,0,0,75203,0 S,0,0,218361,0.6667 F,0,75203,162428,1 F,0,162428,218361,0
//Storyboard Layer 1 (Fail)
//Storyboard Layer 2 (Pass)
//Storyboard Layer 3 (Foreground)
Sprite,Foreground,Centre,"white.jpg",320,240 S,0,0,218361,55 F,0,74159,74941,0,1 F,0,75267,75724,1,0 F,0,161793,162174,0,1 F,0,162429,162683,1,0
//Storyboard Sound Samples

[TimingPoints]
72.2758620689654,521.739130434783,4,3,1,100,1,0
4246,-100,4,3,1,45,0,0
4767,-100,4,3,1,50,0,0
5289,-100,4,3,1,55,0,0
5811,-100,4,3,1,60,0,0
6333,-100,4,3,1,65,0,0
6854,-100,4,3,1,70,0,0
7376,-100,4,3,1,75,0,0
7898,-100,4,3,1,100,0,0
16767,-100,4,3,1,85,0,0
17289,-100,4,3,1,100,0,0
54854,-125,4,3,1,100,0,0
56289,-100,4,3,1,100,0,0
57985,-100,4,3,1,50,0,0
58507,-86.9565217391304,4,3,1,100,0,1
59680,-76.9230769230769,4,3,1,100,0,1
60463,-86.9565217391304,4,3,1,100,0,1
61637,-76.9230769230769,4,3,1,100,0,1
62420,-86.9565217391304,4,3,1,100,0,1
64246,-76.9230769230769,4,3,1,100,0,1
64637,-86.9565217391304,4,3,1,100,0,1
65811,-76.9230769230769,4,3,1,100,0,1
66854,-86.9565217391304,4,3,1,100,0,1
68420,-76.9230769230769,4,3,1,100,0,1
68811,-86.9565217391304,4,3,1,100,0,1
69985,-76.9230769230769,4,3,1,100,0,1
70767,-86.9565217391304,4,3,1,100,0,1
72594,-76.9230769230769,4,3,1,100,0,1
72985,-86.9565217391304,4,3,1,100,0,1
74289,-76.9230769230769,4,3,1,100,0,1
75202,-100,4,3,1,100,0,0
91898,-113.636363636364,4,3,1,100,0,0
96072,-133.333333333333,4,3,1,100,0,0
96854,-113.636363636364,4,3,1,100,0,0
100246,-133.333333333333,4,3,1,100,0,0
101028,-113.636363636364,4,3,1,100,0,0
112767,-113.636363636364,4,3,1,75,0,0
113028,-113.636363636364,4,3,1,100,0,0
125289,-100,4,3,0,75,0,0
125550,-100,4,3,1,90,0,0
127376,-100,4,3,0,75,0,0
127637,-100,4,3,1,90,0,0
129463,-100,4,3,0,75,0,0
129724,-100,4,3,1,90,0,0
131289,-86.9565217391304,4,3,0,100,0,0
131550,-100,4,3,0,75,0,0
131811,-100,4,3,1,90,0,0
132072,-100,4,3,1,100,0,0
135463,-90.9090909090909,4,3,1,100,0,0
135724,-100,4,3,1,100,0,0
138072,-100,4,3,1,90,0,0
139637,-90.9090909090909,4,3,1,90,0,0
140158,-100,4,3,1,80,0,0
140941,-100,4,3,1,75,0,0
141463,-100,4,3,1,70,0,0
141985,530.973451327434,4,3,1,25,1,0
141985,-100,4,3,1,25,0,0
142115,-100,4,3,1,80,0,0
145701,-100,4,3,1,50,0,0
146158,508.474576271186,4,3,1,100,1,1
146285,-100,4,3,1,100,0,0
152259,-100,4,3,0,100,0,0
152768,-100,4,3,1,100,0,0
152895,-100,4,3,0,100,0,0
153785,-100,4,3,1,100,0,0
153912,-100,4,3,0,100,0,0
154293,-100,4,3,1,100,0,0
162429,-90.0900900900901,4,3,1,100,0,1
171073,-81.3008130081301,4,3,1,100,0,1
171454,-90.0900900900901,4,3,1,100,0,1
176666,-100,4,3,1,100,0,1
178700,-121.951219512195,4,3,1,100,0,0
186835,-90.0900900900901,4,3,1,100,0,1
191412,-81.3008130081301,4,3,1,100,0,1
191793,-90.0900900900901,4,3,1,100,0,1
194971,-117.647058823529,4,3,1,100,0,0
207174,-105.263157894737,4,3,1,100,0,0
207429,-117.647058823529,4,3,1,100,0,0
211242,-133.333333333333,4,3,1,75,0,0

[Colours]
Combo1 : 221,0,5
Combo2 : 230,172,0
Combo3 : 0,83,236

[HitObjects]
256,192,4246,12,0,7898,0:0:0:0:
119,256,8420,6,0,P|170:236|220:256,1,110,6|2,0:0|0:2,0:0:0:0:
331,367,8941,1,8,0:0:0:0:
440,259,9202,5,2,0:2:0:0:
440,181,9333,1,2,0:2:0:0:
388,129,9463,1,6,0:0:0:0:
388,129,9594,2,0,P|337:148|287:128,1,110,2|2,0:2|0:0,0:0:0:0:
232,183,9985,1,8,0:0:0:0:
76,128,10246,5,2,0:2:0:0:
75,127,10376,2,0,P|126:145|176:126,2,110,6|6|2,0:0|0:0|0:2,0:0:0:0:
21,182,11028,2,0,L|21:324,1,110,8|2,0:0|0:2,0:0:0:0:
21,370,11420,1,2,0:2:0:0:
100,373,11550,5,6,1:3:0:0:
100,373,11680,2,0,P|122:323|171:301,1,110,2|2,1:3|0:2,0:0:0:0:
248,300,12072,2,0,P|260:325|285:336,1,55,8|0,1:3|0:0,0:0:0:0:
248,223,12333,5,2,0:2:0:0:
402,223,12594,1,6,0:0:0:0:
324,87,12854,2,0,P|346:38|395:17,1,110,2|8,0:2|0:0,0:0:0:0:
325,165,13376,5,2,0:2:0:0:
247,165,13507,1,2,0:2:0:0:
173,168,13637,1,4,0:0:0:0:
173,168,13767,2,0,B|173:222|173:222|118:222,1,110,2|2,0:2|0:2,0:0:0:0:
39,222,14159,2,0,L|39:112,1,110,8|0,0:0|0:0,0:0:0:0:
39,34,14550,5,6,0:0:0:0:
171,112,14811,1,6,0:0:0:0:
306,37,15072,1,2,0:2:0:0:
306,37,15202,1,8,0:0:0:0:
404,165,15463,6,0,P|413:190|403:215,1,55,2|0,0:2|0:0,0:0:0:0:
349,269,15724,2,0,P|329:319|349:369,1,110,6|2,1:3|0:2,0:0:0:0:
294,216,16246,1,10,1:3:0:0:
2,237,16767,6,2,B|111:213|111:260|220:237,1,220,4|8,0:0|0:0,0:0:0:0:
270,80,17550,5,2,0:3:0:0:
270,80,17680,2,0,B|270:134|270:134|299:182|299:182|299:236,1,165,2|2,0:3|0:3,0:0:0:0:
299,317,18202,1,0,0:3:0:0:
299,317,18333,2,0,L|299:372,1,55,8|2,0:3|0:3,0:0:0:0:
376,317,18594,5,2,0:1:0:0:
376,240,18724,2,2,P|381:185|398:133,1,110,6|6,0:0|0:0,0:0:0:0:
398,133,19376,2,2,P|415:80|420:26,1,110,8|2,0:0|0:0,0:0:0:0:
343,26,19767,1,2,0:0:0:0:
303,92,19898,6,0,B|278:141|278:141|303:190,2,110,4|2|8,0:0|0:0|0:0,0:0:0:0:
363,140,20550,2,0,B|388:189|388:189|363:238,1,110,2|0,0:0|0:0,0:0:0:0:
324,305,20941,5,6,0:0:0:0:
324,305,21072,1,0,0:0:0:0:
97,234,21463,2,0,P|119:283|168:304,1,110,10|2,0:0|0:0,0:0:0:0:
246,305,21854,6,0,L|246:135,1,165,2|2,0:0|0:0,0:0:0:0:
246,62,22376,2,0,L|246:1,2,55,0|8|2,0:0|0:0|0:0,0:0:0:0:
168,62,22767,5,2,0:1:0:0:
168,139,22898,2,2,P|162:193|145:245,1,110,6|6,0:0|0:0,0:0:0:0:
145,245,23550,2,0,P|175:289|168:342,1,110,8|0,0:0|0:0,0:0:0:0:
98,308,23941,6,0,L|274:308,1,165,2|2,0:0|0:0,1:0:0:0:
420,311,24594,1,8,0:0:0:0:
420,311,24724,1,2,0:0:0:0:
469,103,25115,6,0,P|419:122|369:102,1,110,4|2,0:0|0:2,0:0:0:0:
314,47,25507,1,0,0:0:0:0:
237,47,25637,2,0,L|125:47,1,110,8|2,0:0|0:2,0:0:0:0:
49,47,26028,1,2,0:2:0:0:
49,124,26159,5,4,0:0:0:0:
125,124,26289,2,0,P|174:145|195:195,1,110,2|2,0:2|0:2,0:0:0:0:
194,272,26680,2,0,P|216:321|265:343,1,110,8|2,0:0|0:2,0:0:0:0:
343,343,27072,5,6,0:0:0:0:
265,234,27333,1,6,0:0:0:0:
346,128,27594,1,2,0:2:0:0:
346,128,27724,1,8,0:0:0:0:
424,238,27985,1,2,0:2:0:0:
424,238,28115,1,2,0:2:0:0:
343,238,28246,5,6,1:3:0:0:
288,292,28376,2,0,P|238:311|187:292,1,110,2|2,1:3|0:2,0:0:0:0:
236,232,28767,2,0,P|245:207|236:182,1,55,10|0,1:3|0:0,0:0:0:0:
188,122,29028,1,2,0:2:0:0:
180,129,29289,6,0,P|161:79|180:29,1,110,6|2,0:0|0:2,0:0:0:0:
238,80,29681,1,0,0:0:0:0:
314,80,29811,2,0,L|433:80,1,110,8|2,0:0|0:2,0:0:0:0:
501,80,30202,1,2,0:2:0:0:
501,157,30333,5,4,0:0:0:0:
446,211,30463,2,0,P|427:261|446:311,1,110,2|2,0:2|0:2,0:0:0:0:
504,362,30854,2,0,P|522:311|503:261,1,110,8|0,0:0|0:0,0:0:0:0:
447,312,31246,6,0,L|337:312,1,110,6|6,0:0|0:0,0:0:0:0:
329,319,31768,1,2,0:2:0:0:
252,319,31898,2,0,L|193:319,1,55,10|4,0:0|0:0,0:0:0:0:
123,322,32159,1,2,0:2:0:0:
123,322,32289,1,2,0:2:0:0:
123,244,32420,5,2,1:3:0:0:
199,244,32550,2,0,P|247:222|269:173,1,110,2|2,1:3|0:2,0:0:0:0:
192,165,32941,2,0,L|153:126,1,55,8|4,1:3|0:0,0:0:0:0:
98,71,33202,1,2,0:2:0:0:
234,0,33463,6,0,P|216:50|235:100,1,110,6|2,0:0|0:2,0:0:0:0:
343,208,33985,2,0,P|362:258|343:308,1,110,8|2,0:0|0:2,0:0:0:0:
288,363,34376,1,2,0:2:0:0:
233,308,34507,5,4,0:0:0:0:
178,362,34637,2,0,P|127:381|77:362,1,110,2|2,0:2|0:2,0:0:0:0:
128,304,35028,2,0,L|128:194,1,110,8|2,0:0|0:2,0:0:0:0:
178,135,35420,6,0,P|128:116|78:136,2,110,6|6|2,0:0|0:0|0:2,0:0:0:0:
233,190,36072,1,8,0:0:0:0:
356,137,36333,1,2,0:2:0:0:
356,137,36463,1,2,0:2:0:0:
410,191,36594,5,6,0:0:0:0:
351,240,36724,2,0,P|331:290|351:340,1,110,2|2,0:0|0:2,0:0:0:0:
410,290,37115,2,0,L|464:245,1,55,8|0,0:0|0:0,0:0:0:0:
512,206,37376,1,2,0:2:0:0:
397,105,37637,6,0,P|416:155|396:205,1,110,6|2,0:0|0:2,0:0:0:0:
278,306,38159,2,0,P|227:286|177:305,1,110,8|2,0:0|0:2,0:0:0:0:
123,361,38550,1,2,0:2:0:0:
68,306,38681,5,6,0:0:0:0:
122,251,38811,2,0,B|160:212|160:212|122:173,1,110,2|2,0:2|0:2,0:0:0:0:
67,118,39202,2,0,L|177:118,1,110,8|0,0:0|0:0,0:0:0:0:
256,192,39594,12,0,41289,0:0:0:0:
256,191,41811,5,4,0:2:0:0:
500,122,42333,6,0,P|450:143|428:192,1,110,8|2,0:0|0:2,0:0:0:0:
428,269,42724,1,2,0:2:0:0:
372,322,42854,2,0,P|322:340|272:320,2,110,4|2|8,0:0|0:2|0:0,0:0:0:0:
323,261,43507,2,0,L|269:216,1,55,2|0,0:2|0:0,0:0:0:0:
221,177,43768,5,6,0:0:0:0:
213,184,44028,1,6,0:0:0:0:
359,37,44420,1,10,0:0:0:0:
155,37,44811,1,2,0:2:0:0:
100,91,44941,6,0,P|49:110|0:90,2,110,6|2|10,0:3|0:2|0:0,0:0:0:0:
175,111,45594,2,0,P|193:162|173:212,1,110,2|0,0:2|0:2,0:0:0:0:
123,270,45985,1,4,0:0:0:0:
123,270,46115,1,0,0:0:0:0:
307,197,46507,6,0,P|328:246|376:269,1,110,8|0,0:0|0:0,0:0:0:0:
454,269,46898,1,0,0:0:0:0:
414,203,47028,2,0,P|395:152|415:102,1,110,4|2,0:0|0:2,0:0:0:0:
509,8,47550,2,0,L|432:8,1,55,8|2,0:0|0:2,0:0:0:0:
299,8,47941,5,6,0:0:0:0:
291,15,48202,2,0,L|291:139,1,110,6|0,0:0|0:0,0:0:0:0:
213,125,48594,2,0,L|150:125,1,55,10|0,0:0|0:0,0:0:0:0:
368,125,48985,5,2,0:2:0:0:
366,203,49115,2,0,P|343:251|294:272,1,110,4|2,0:0|0:2,0:0:0:0:
238,217,49507,2,0,P|214:206|202:181,1,55,2|8,0:2|0:0,0:0:0:0:
202,104,49767,1,2,0:2:0:0:
202,104,49898,1,2,0:2:0:0:
47,104,50159,6,0,B|22:153|22:153|47:202,1,110,6|0,1:3|0:0,0:0:0:0:
122,336,50680,2,0,P|172:317|222:337,1,110,8|2,0:0|0:2,0:0:0:0:
300,337,51072,1,2,0:2:0:0:
376,337,51202,2,0,P|395:286|378:235,2,110,4|2|8,0:0|0:2|0:0,0:0:0:0:
300,337,51854,2,0,L|300:256,1,55,2|2,0:2|1:3,0:0:0:0:
245,227,52115,5,6,1:3:0:0:
353,118,52376,1,6,1:3:0:0:
353,118,52767,2,0,P|302:137|252:117,1,110,10|2,0:3|0:2,0:0:0:0:
175,117,53158,1,2,0:2:0:0:
212,184,53289,6,0,B|237:233|237:233|212:282,2,110,6|2|8,1:3|0:2|0:0,0:0:0:0:
280,147,53942,2,0,P|358:153|391:224,1,165,2|2,0:2|0:3,0:0:0:0:
170,343,54854,6,0,L|270:343,1,88,8|2,0:0|0:2,0:0:0:0:
333,343,55246,2,0,B|333:317|333:317|333:304|345:291|358:291|358:291|371:291|384:278|384:265|384:265|384:239,1,132,2|2,0:2|0:2,0:0:0:0:
384,76,55898,2,0,L|384:164,1,88,8|2,0:0|0:0,0:0:0:0:
306,76,56289,6,0,L|196:76,4,110,2|0|2|2|2,0:0|1:3|1:3|1:3|1:2,0:0:0:0:
306,153,57463,6,0,P|256:174|234:223,1,110,6|2,1:3|1:2,0:0:0:0:
234,301,57854,1,0,0:0:0:0:
311,301,57985,5,0,0:0:0:0:
311,301,58507,6,0,L|311:152,1,126.500002412796,6|2,1:3|0:2,0:0:0:0:
248,111,58898,1,0,0:0:0:0:
185,173,59028,2,0,L|185:312,1,126.500002412796,8|2,0:0|0:2,0:0:0:0:
121,362,59420,1,2,0:2:0:0:
58,299,59550,5,4,0:0:0:0:
120,235,59680,2,0,P|184:209|249:236,1,142.99999345398,2|2,0:2|0:2,0:0:0:0:
314,301,60072,2,0,P|287:236|314:171,1,142.99999345398,8|0,0:0|0:0,0:0:0:0:
375,109,60463,6,0,L|310:44,1,63.250001206398,6|0,1:3|0:0,0:0:0:0:
253,109,60724,2,0,L|163:19,1,126.500002412796,6|2,1:3|0:2,0:0:0:0:
74,19,61115,2,0,P|51:76|74:134,1,126.500002412796,10|2,0:0|0:2,0:0:0:0:
138,195,61507,1,2,0:2:0:0:
224,196,61637,6,0,L|295:196,3,71.4999967269899,6|2|0|2,1:3|0:2|0:0|0:2,0:0:0:0:
356,257,62159,2,0,P|368:290|355:323,1,71.4999967269899,8|0,0:0|0:0,0:0:0:0:
294,384,62420,1,2,0:2:0:0:
155,323,62680,6,0,L|155:195,1,126.500002412796,6|2,1:3|0:2,0:0:0:0:
218,133,63072,1,0,0:0:0:0:
280,70,63202,2,0,L|280:201,1,126.500002412796,8|2,0:0|0:2,0:0:0:0:
343,259,63594,1,2,0:2:0:0:
405,196,63724,5,4,0:0:0:0:
467,258,63854,2,0,P|490:315|467:373,1,126.500002412796,2|2,0:2|0:2,0:0:0:0:
378,372,64246,2,0,P|314:346|249:373,1,142.99999345398,8|0,0:0|0:0,0:0:0:0:
160,372,64637,6,0,L|160:300,1,63.250001206398,6|0,1:3|0:0,0:0:0:0:
97,245,64898,2,0,L|97:155,1,63.250001206398,6|0,0:0|0:0,0:0:0:0:
97,92,65159,1,2,0:2:0:0:
161,26,65289,2,0,P|217:52|242:108,1,126.500002412796,10|2,0:0|0:2,0:0:0:0:
242,198,65680,1,0,0:0:0:0:
318,154,65811,6,0,P|350:142|383:155,1,71.4999967269899,6|0,1:3|0:0,0:0:0:0:
383,242,66072,2,0,P|350:253|317:240,1,71.4999967269899,2|2,0:2|0:2,0:0:0:0:
241,287,66333,2,0,P|214:352|149:378,1,142.99999345398,10|0,0:0|0:0,0:0:0:0:
24,287,66854,6,0,L|156:287,1,126.500002412796,6|2,1:3|0:2,0:0:0:0:
241,287,67246,1,0,0:0:0:0:
241,198,67376,2,0,L|241:62,1,126.500002412796,8|2,0:0|0:2,0:0:0:0:
330,71,67768,1,2,0:2:0:0:
330,159,67898,5,4,0:0:0:0:
418,159,68028,2,0,P|474:183|498:240,1,126.500002412796,2|2,0:2|0:2,0:0:0:0:
497,328,68420,2,0,P|433:302|369:327,1,142.99999345398,8|0,0:0|0:0,0:0:0:0:
306,265,68811,6,0,L|377:193,1,63.250001206398,6|0,1:3|0:0,0:0:0:0:
483,174,69072,2,0,L|439:219,1,63.250001206398,6|0,1:3|0:0,0:0:0:0:
393,142,69333,1,2,0:2:0:0:
304,142,69463,2,0,P|246:166|222:223,1,126.500002412796,8|2,0:0|0:2,0:0:0:0:
222,312,69855,1,2,0:2:0:0:
134,312,69985,6,0,L|63:312,3,71.4999967269899,6|0|0|2,1:3|0:0|0:0|0:2,0:0:0:0:
0,250,70507,2,0,P|-12:217|0:184,1,71.4999967269899,10|0,0:0|0:0,0:0:0:0:
62,121,70768,1,2,0:2:0:0:
220,184,71028,6,0,L|350:184,1,126.500002412796,6|2,1:3|0:2,0:0:0:0:
436,184,71420,1,0,0:0:0:0:
436,272,71550,2,0,L|309:272,1,126.500002412796,8|2,0:0|0:2,0:0:0:0:
219,272,71942,1,2,0:2:0:0:
156,334,72072,5,4,0:0:0:0:
93,271,72202,2,0,P|70:214|93:156,1,126.500002412796,2|2,0:2|0:2,0:0:0:0:
155,93,72594,2,0,P|219:119|283:92,1,142.99999345398,8|0,0:0|0:0,0:0:0:0:
346,30,72985,6,0,L|394:78,1,63.250001206398,6|0,1:3|0:0,0:0:0:0:
453,137,73246,2,0,L|404:185,1,63.250001206398,6|0,1:3|0:0,0:0:0:0:
345,244,73507,1,2,0:2:0:0:
407,306,73637,1,8,0:0:0:0:
287,180,73898,2,0,L|217:180,1,63.250001206398,2|2,0:2|0:2,0:0:0:0:
160,116,74159,5,6,1:3:0:0:
160,116,74289,2,0,P|133:180|160:244,1,142.99999345398,2|0,0:0|0:0,0:0:0:0:
224,308,74680,2,0,P|159:334|95:308,1,142.99999345398,10|0,0:0|0:0,0:0:0:0:
224,180,75202,6,0,L|341:180,1,110,6|0,0:0|0:0,0:0:0:0:
394,229,75594,1,0,0:0:0:0:
452,179,75724,2,0,P|470:230|450:280,1,110,10|2,0:0|0:2,0:0:0:0:
396,335,76115,6,0,B|347:310|347:310|298:335,1,110,2|2,0:0|0:2,0:0:0:0:
228,371,76507,1,2,0:0:0:0:
86,311,76767,1,10,0:0:0:0:
231,254,77028,1,2,0:2:0:0:
231,176,77159,6,0,L|231:121,1,55,2|4,0:0|0:0,0:0:0:0:
231,43,77420,1,2,0:2:0:0:
33,43,77811,2,0,L|33:161,1,110,10|2,0:0|0:0,0:0:0:0:
33,230,78202,1,2,0:0:0:0:
110,230,78333,6,0,P|128:280|108:330,2,110,6|0|10,0:0|0:0|0:0,0:0:0:0:
110,152,78985,1,2,0:0:0:0:
110,75,79115,1,2,0:0:0:0:
264,75,79376,6,0,L|264:185,1,110,4|0,0:0|0:0,0:0:0:0:
317,20,79898,2,0,P|368:1|418:21,1,110,10|2,0:0|0:2,0:0:0:0:
379,88,80289,6,0,B|354:137|354:137|379:186,1,110,2|2,0:0|0:2,0:0:0:0:
418,252,80681,1,2,0:0:0:0:
264,252,80941,1,10,0:0:0:0:
192,116,81202,1,2,0:2:0:0:
156,184,81333,6,0,L|132:233,1,55,2|4,0:0|0:0,0:0:0:0:
98,303,81594,1,2,0:2:0:0:
328,303,81985,6,0,L|376:204,1,110,10|0,0:0|0:0,0:0:0:0:
409,134,82376,1,2,0:0:0:0:
357,75,82507,6,0,P|406:55|457:73,2,110,6|2|10,0:0|0:0|0:0,0:0:0:0:
279,75,83159,1,2,0:0:0:0:
202,75,83289,1,2,0:0:0:0:
63,142,83550,6,0,P|111:164|133:213,1,110,6|2,0:0|0:2,0:0:0:0:
135,290,83941,1,0,0:0:0:0:
135,290,84072,2,0,P|156:339|205:361,1,110,8|2,0:0|0:2,0:0:0:0:
282,361,84463,6,0,L|282:301,1,55,2|4,0:0|0:0,0:0:0:0:
282,229,84724,1,2,0:2:0:0:
282,229,84854,2,0,L|282:112,2,110,2|8|2,0:2|0:0|0:2,0:0:0:0:
359,229,85507,1,2,0:0:0:0:
359,151,85637,6,0,P|381:102|430:80,1,110,4|2,0:0|0:2,0:0:0:0:
505,80,86028,1,0,0:0:0:0:
505,80,86159,2,0,P|483:30|434:8,1,110,10|2,0:0|0:2,0:0:0:0:
357,8,86550,1,2,0:0:0:0:
357,84,86680,6,0,L|287:84,1,55,4|2,0:0|0:2,0:0:0:0:
224,84,86941,1,2,0:2:0:0:
92,161,87202,1,10,0:0:0:0:
169,161,87333,2,0,L|224:161,2,55,2|2|2,0:0|0:2|0:2,0:0:0:0:
169,238,87724,6,0,P|191:286|240:308,1,110,4|2,0:0|0:2,0:0:0:0:
318,308,88115,1,0,0:0:0:0:
318,308,88246,2,0,P|339:258|388:236,1,110,10|2,0:0|0:2,0:0:0:0:
386,159,88637,1,2,0:0:0:0:
386,159,88767,6,0,L|323:159,1,55,4|2,0:0|0:2,0:0:0:0:
254,159,89028,1,2,0:2:0:0:
254,4,89289,2,0,L|309:4,1,55,10|0,0:0|0:0,0:0:0:0:
309,81,89550,5,2,0:2:0:0:
232,81,89680,2,0,L|177:81,1,55,2|4,0:0|0:0,0:0:0:0:
99,81,89941,1,2,0:2:0:0:
385,81,90333,1,10,0:0:0:0:
385,311,90724,1,2,0:0:0:0:
330,256,90854,6,0,P|309:206|328:155,1,110,4|2,0:0|0:0,0:0:0:0:
465,83,91376,1,10,0:0:0:0:
387,83,91507,2,2,B|378:85|378:85|361:79|361:79|344:85|344:85|326:79|326:79|309:85|309:85|292:79|292:79|283:83|283:83,1,110,2|2,0:0|0:2,2:0:0:0:
205,83,91898,6,0,L|205:135,3,48.4000014770508,6|0|0|0,0:0|0:0|0:0|0:0,0:0:0:0:
127,131,92420,2,0,P|109:200|127:269,2,145.200004431152,8|0|0,0:0|0:0|0:0,0:0:0:0:
265,201,93463,2,0,L|216:201,1,48.4000014770508,8|0,0:0|0:0,0:0:0:0:
428,109,93985,6,0,P|452:201|428:294,1,193.600005908203,6|8,0:0|0:0,0:0:0:0:
265,201,94767,1,2,0:0:0:0:
328,246,94898,2,0,P|265:278|202:247,1,145.200004431152,2|2,0:0|0:0,0:0:0:0:
202,42,95550,2,0,L|202:91,1,48.4000014770508,10|2,0:0|0:0,0:0:0:0:
202,169,95811,1,2,0:0:0:0:
30,223,96072,6,0,B|88:281|88:281|147:223,1,165.000006294251,6|8,0:0|0:0,0:0:0:0:
35,334,96854,1,0,0:0:0:0:
102,373,96985,2,0,P|148:385|194:373,1,96.8000029541017,0|0,0:0|0:0,0:0:0:0:
262,334,97376,1,0,0:0:0:0:
262,179,97637,2,0,L|262:232,1,48.4000014770508,8|0,0:0|0:0,0:0:0:0:
262,72,98028,6,0,L|262:23,1,48.4000014770508,2|4,0:0|0:0,0:0:0:0:
184,23,98289,2,0,L|184:186,1,145.200004431152,2|8,0:0|0:0,0:0:0:0:
106,168,98811,1,2,0:0:0:0:
106,245,98941,1,2,0:0:0:0:
183,245,99072,2,0,L|295:245,1,96.8000029541017,2|2,0:0|0:0,0:0:0:0:
279,167,99463,1,2,0:0:0:0:
356,167,99594,2,0,L|404:167,1,48.4000014770508,2|8,0:0|0:0,0:0:0:0:
356,244,99854,2,2,B|357:251|357:251|352:266|352:266|357:281|357:281|352:297|352:297|357:312|357:312|352:326|352:326|356:334|356:334,1,96.8000029541017,2|0,0:0|0:0,0:2:0:0:
279,245,100246,6,0,B|221:187|221:187|162:245,1,165.000006294251,4|8,0:0|0:0,0:0:0:0:
3,286,101028,1,0,0:0:0:0:
3,286,101159,2,0,P|49:298|95:286,1,96.8000029541017,0|0,0:0|0:0,0:0:0:0:
162,246,101550,2,0,P|208:233|254:245,1,96.8000029541017,0|8,0:0|0:0,0:0:0:0:
319,286,101941,1,0,0:0:0:0:
512,132,102333,6,0,L|318:132,1,193.600005908203,4|8,0:0|0:0,0:0:0:0:
97,132,103115,1,2,0:0:0:0:
164,169,103246,2,0,B|207:190|207:190|250:169,1,96.8000029541017,2|0,0:0|0:0,0:0:0:0:
318,132,103637,2,0,B|360:110|360:110|403:132,1,96.8000029541017,2|8,0:0|0:0,0:0:0:0:
474,167,104028,1,2,0:0:0:0:
212,35,104420,5,4,0:0:0:0:
212,35,104941,2,0,B|177:68|177:68|143:35,1,96.8000029541017,10|2,0:0|0:0,0:0:0:0:
124,120,105333,2,0,B|89:86|89:86|55:120,1,96.8000029541017,2|0,0:0|0:0,0:0:0:0:
0,175,105724,1,2,0:0:0:0:
54,229,105854,2,0,L|90:265,1,48.4000014770508,2|8,0:0|0:0,0:0:0:0:
143,318,106115,1,0,0:0:0:0:
252,208,106376,1,2,0:0:0:0:
306,262,106507,6,0,L|306:50,1,193.600005908203,4|8,0:0|0:0,0:0:0:0:
460,68,107289,1,2,0:0:0:0:
419,134,107420,2,0,B|398:177|398:177|419:220,1,96.8000029541017,2|0,0:0|0:0,0:0:0:0:
460,287,107811,1,2,0:0:0:0:
392,323,107941,2,0,L|343:347,1,48.4000014770508,2|8,0:0|0:0,0:0:0:0:
278,378,108202,1,0,0:0:0:0:
207,345,108333,1,2,0:0:0:0:
207,190,108594,5,4,0:0:0:0:
345,121,108854,1,0,0:0:0:0:
207,52,109115,2,0,P|160:40|114:52,2,96.8000029541017,10|2|4,0:0|0:2|0:0,0:0:0:0:
174,119,109767,2,0,B|153:162|153:162|174:205,1,96.8000029541017,2|0,0:2|0:0,0:0:0:0:
207,272,110159,2,0,P|160:285|114:272,1,96.8000029541017,10|0,0:0|0:0,0:0:0:0:
47,240,110550,1,2,0:2:0:0:
47,240,110680,6,0,L|47:112,1,96.8000029541017,4|0,0:0|0:0,0:0:0:0:
199,143,111202,1,10,0:0:0:0:
326,60,111463,2,0,P|372:47|418:60,1,96.8000029541017,2|4,0:2|0:0,0:0:0:0:
511,59,111854,2,0,P|464:47|418:59,1,96.8000029541017,2|0,0:2|0:0,0:0:0:0:
454,129,112246,2,0,P|472:198|454:267,1,145.200004431152,10|2,0:0|0:2,0:0:0:0:
418,336,112767,5,4,0:0:0:0:
348,198,113028,1,0,0:0:0:0:
278,336,113289,2,0,P|231:348|185:336,2,96.8000029541017,10|2|4,0:0|0:2|0:0,0:0:0:0:
239,269,113941,2,0,B|218:226|218:226|239:182,1,96.8000029541017,2|0,0:2|0:0,0:0:0:0:
278,113,114333,1,10,0:0:0:0:
432,113,114594,1,0,0:0:0:0:
470,184,114724,2,0,B|470:185|358:185,1,96.8000029541017,6|4,0:0|0:0,0:0:0:0:
335,255,115115,5,2,0:2:0:0:
278,113,115376,1,10,0:0:0:0:
240,184,115506,2,0,B|240:183|191:183,1,48.4000014770508,4|2,0:0|0:2,0:0:0:0:
111,255,115767,1,4,0:0:0:0:
111,255,115898,2,0,B|111:256|223:256,1,96.8000029541017,4|0,0:0|0:0,0:0:0:0:
318,345,116420,1,10,0:0:0:0:
240,345,116550,2,0,B|143:345,1,96.8000029541017,6|2,0:0|0:2,0:0:0:0:
65,345,116941,5,4,0:0:0:0:
260,112,124767,5,8,0:0:0:0:
260,112,124898,1,4,0:0:0:0:
260,272,125289,6,0,L|139:272,1,110,0|2,1:1|0:0,0:0:0:0:
142,279,125811,1,8,0:2:0:0:
142,201,125941,2,0,P|106:166|71:201,1,110,2|0,0:0|0:0,0:0:0:0:
71,281,126333,2,0,P|35:315|0:280,1,110,2|0,0:0|0:0,0:0:0:0:
0,203,126724,2,0,L|0:132,2,55,2|8|0,0:0|0:2|0:0,0:0:0:0:
0,280,127115,1,2,0:0:0:0:
142,202,127376,6,0,L|263:202,1,110,0|2,1:1|0:0,0:0:0:0:
259,209,127898,1,8,0:2:0:0:
259,132,128028,2,0,P|294:97|329:132,1,110,2|0,0:0|0:0,0:0:0:0:
329,209,128420,2,0,P|364:174|399:209,1,110,2|0,0:0|0:0,0:0:0:0:
402,289,128811,1,2,0:0:0:0:
402,289,128941,2,0,L|347:289,1,55,8|0,0:2|0:0,0:0:0:0:
269,289,129202,1,2,0:0:0:0:
269,134,129463,6,0,L|269:24,1,110,0|2,1:0|0:0,0:0:0:0:
261,31,129985,1,8,0:2:0:0:
337,31,130115,2,0,P|371:66|336:101,1,110,2|0,0:0|0:0,0:0:0:0:
258,101,130507,2,0,P|223:136|258:171,1,110,2|0,0:0|0:0,0:0:0:0:
335,171,130898,2,0,L|335:228,2,55,2|8|0,0:0|0:2|0:0,0:0:0:0:
413,171,131289,2,0,P|474:192|500:243,1,126.500002412796,2|0,0:0|1:0,0:0:0:0:
500,377,131811,5,2,0:0:0:0:
335,377,132072,1,8,1:3:0:0:
335,300,132202,2,0,P|299:264|264:299,1,110,2|0,0:0|0:0,0:0:0:0:
186,299,132594,2,0,P|150:263|115:298,1,110,2|0,0:0|0:0,0:0:0:0:
38,298,132985,1,2,0:0:0:0:
38,222,133115,2,0,L|38:163,1,55,8|0,1:3|0:0,0:0:0:0:
38,90,133376,1,2,0:0:0:0:
192,90,133637,6,0,P|242:70|292:90,1,110,4|2,0:0|0:0,0:0:0:0:
401,199,134159,1,4,0:0:0:0:
452,141,134289,2,0,P|401:121|351:140,1,110,2|0,0:0|0:0,0:0:0:0:
296,195,134680,2,0,P|245:214|195:195,1,110,6|0,0:0|0:0,0:0:0:0:
245,136,135072,2,0,L|283:97,2,55,2|4|0,0:0|0:0|0:0,0:0:0:0:
184,88,135463,2,0,P|129:66|74:87,1,121.000003692627,2|4,0:0|0:0,0:0:0:0:
73,264,135985,5,2,0:0:0:0:
227,264,136246,1,4,0:0:0:0:
281,209,136376,2,0,P|331:189|381:208,1,110,2|0,0:0|0:0,0:0:0:0:
432,266,136767,2,0,P|381:285|331:266,1,110,6|0,0:0|0:0,0:0:0:0:
281,209,137159,1,2,0:0:0:0:
281,132,137289,2,0,L|281:73,1,55,4|0,0:0|0:0,0:0:0:0:
281,0,137550,1,2,0:0:0:0:
204,132,137811,5,4,0:0:0:0:
349,40,138072,2,0,P|401:26|454:40,1,110,2|4,0:0|0:0,0:0:0:0:
493,79,138463,2,0,P|506:131|492:184,1,110,2|0,0:0|0:0,0:0:0:0:
452,223,138854,2,0,P|399:237|346:223,1,110,6|0,0:0|0:0,0:0:0:0:
302,190,139246,1,2,0:0:0:0:
256,159,139376,2,0,P|229:152|203:159,1,55,4|0,0:0|0:0,0:0:0:0:
164,197,139637,2,0,P|178:139|163:81,1,121.000003692627,2|4,0:0|0:0,0:0:0:0:
21,139,140159,5,2,0:0:0:0:
21,271,140420,1,4,0:0:0:0:
57,282,140550,2,0,P|111:288|165:281,1,110,2|0,0:0|0:0,0:0:0:0:
202,271,140941,2,0,P|256:264|310:271,1,110,6|0,0:0|0:0,0:0:0:0:
348,282,141333,1,2,0:0:0:0:
383,295,141463,2,0,P|410:297|438:294,1,55,4|0,0:0|0:0,0:0:0:0:
474,283,141724,2,0,B|463:229|463:229|474:176,1,110,2|0,0:0|0:0,0:0:0:0:
256,192,142117,12,0,145701,2:0:0:0:
151,296,146158,5,4,0:2:0:0:
205,241,146285,2,0,P|255:221|305:241,1,110,2|2,0:2|0:0,0:0:0:0:
360,296,146666,1,10,0:0:0:0:
503,241,146920,1,2,0:2:0:0:
360,184,147174,1,6,0:0:0:0:
216,241,147429,1,2,0:2:0:0:
72,184,147683,1,8,0:0:0:0:
72,107,147810,2,0,P|94:57|143:36,1,110,2|2,0:2|0:0,0:0:0:0:
220,36,148191,1,4,0:0:0:0:
220,113,148319,6,0,L|220:237,1,110,2|0,0:2|0:0,0:0:0:0:
220,299,148700,1,10,0:0:0:0:
373,299,148954,1,2,0:2:0:0:
377,149,149208,1,6,0:0:0:0:
377,149,149335,1,2,0:2:0:0:
222,149,149590,2,0,L|167:149,1,55,2|8,0:2|0:0,0:0:0:0:
90,149,149844,1,2,0:0:0:0:
90,149,149971,1,2,0:2:0:0:
222,226,150225,5,4,0:0:0:0:
164,277,150352,2,0,P|144:327|164:377,1,110,2|2,0:2|0:0,0:0:0:0:
222,327,150733,1,10,0:0:0:0:
105,226,150987,1,2,0:2:0:0:
222,127,151241,1,6,0:0:0:0:
340,226,151496,1,2,0:2:0:0:
458,325,151751,1,10,0:0:0:0:
512,270,151878,2,0,P|531:219|511:169,1,110,2|2,0:2|0:0,0:0:0:0:
458,114,152259,6,0,L|403:114,1,55,4|6,0:0|0:0,0:0:0:0:
359,114,152513,1,4,0:0:0:0:
314,114,152641,1,4,0:0:0:0:
270,114,152768,2,0,L|270:173,1,55,10|8,0:0|0:0,0:0:0:0:
270,212,153022,1,10,0:0:0:0:
270,255,153149,1,8,0:0:0:0:
270,298,153276,2,0,L|349:298,3,55,6|6|4|6,0:0|0:0|0:0|0:0,0:0:0:0:
369,298,153785,2,0,L|369:235,1,55,8|10,0:0|0:0,0:0:0:0:
369,199,154039,1,10,0:0:0:0:
215,199,154293,5,4,0:0:0:0:
215,275,154420,2,0,P|193:325|144:346,1,110,2|0,0:2|0:1,0:0:0:0:
67,345,154801,1,10,0:0:0:0:
15,199,155055,1,2,0:2:0:0:
67,54,155309,1,6,0:0:0:0:
213,3,155564,1,2,0:2:0:0:
357,54,155818,1,10,0:0:0:0:
357,131,155946,2,0,P|379:181|428:202,1,110,2|2,1:2|0:0,0:0:0:0:
503,201,156326,1,4,1:3:0:0:
503,278,156454,6,0,L|381:278,1,110,2|0,0:2|0:0,0:0:0:0:
316,278,156835,1,10,0:0:0:0:
316,124,157089,1,2,0:2:0:0:
166,128,157343,1,6,0:0:0:0:
166,128,157470,1,2,1:2:0:0:
166,282,157725,2,0,L|103:282,1,55,2|8,0:0|0:0,0:0:0:0:
34,282,157979,1,2,1:3:0:0:
34,282,158106,1,2,0:2:0:0:
34,127,158361,5,4,0:0:0:0:
110,127,158488,2,0,P|160:105|181:56,1,110,2|2,0:2|0:0,0:0:0:0:
104,49,158869,1,10,0:0:0:0:
212,157,159123,1,2,0:2:0:0:
365,157,159377,1,6,0:0:0:0:
474,47,159632,1,2,0:2:0:0:
320,47,159886,1,10,0:0:0:0:
265,101,160013,2,0,P|214:120|164:101,1,110,2|2,1:2|0:0,0:0:0:0:
110,46,160394,1,4,0:0:0:0:
55,100,160522,6,0,L|55:227,1,110,2|0,0:2|0:0,0:0:0:0:
55,286,160903,1,10,0:0:0:0:
208,286,161157,1,2,0:2:0:0:
212,136,161411,1,6,0:0:0:0:
212,136,161538,1,2,1:2:0:0:
366,136,161793,2,0,L|366:202,1,55,2|8,0:0|0:0,0:0:0:0:
366,267,162047,1,2,1:3:0:0:
366,267,162174,1,2,0:2:0:0:
229,349,162429,6,0,B|229:289|229:289|196:235|196:235|196:175,1,183.150004471436,4|2,1:2|0:0,0:0:0:0:
196,95,162937,2,0,L|333:95,1,122.100002980957,10|2,0:0|0:0,0:0:0:0:
397,94,163319,2,0,P|420:150|398:205,1,122.100002980957,2|2,0:0|0:0,0:0:0:0:
341,261,163700,1,2,0:0:0:0:
182,261,163954,5,10,0:0:0:0:
182,181,164081,1,2,0:0:0:0:
261,181,164208,1,2,0:0:0:0:
261,260,164335,1,2,0:0:0:0:
182,261,164463,6,0,B|90:261|90:261|26:197,1,183.150004471436,6|2,0:0|0:0,0:0:0:0:
25,117,164971,2,0,L|170:117,1,122.100002980957,10|2,0:0|0:0,0:0:0:0:
226,117,165352,2,0,P|248:61|226:6,1,122.100002980957,2|2,0:0|0:0,0:0:0:0:
146,6,165734,1,2,0:0:0:0:
33,117,165988,5,10,0:0:0:0:
86,177,166115,1,2,0:0:0:0:
165,177,166242,1,2,0:0:0:0:
221,120,166369,1,2,0:0:0:0:
221,40,166497,6,0,L|221:245,1,183.150004471436,6|2,0:0|0:0,0:0:0:0:
221,301,167004,2,0,L|364:300,1,122.100002980957,10|2,0:0|0:0,0:0:0:0:
423,300,167386,2,0,P|445:244|423:189,1,122.100002980957,2|2,0:0|0:0,0:0:0:0:
366,133,167767,1,2,0:0:0:0:
262,29,168021,5,10,0:0:0:0:
205,85,168149,2,0,B|85:85|85:85|37:37,2,183.150004471436,2|6|2,0:0|0:0|0:0,0:0:0:0:
284,85,169039,2,0,L|284:222,1,122.100002980957,10|0,0:0|0:0,0:0:0:0:
284,286,169420,5,2,0:0:0:0:
204,286,169547,2,0,P|149:309|125:364,1,122.100002980957,0|2,0:0|0:0,0:0:0:0:
45,364,169929,2,0,L|45:302,1,61.0500014904786,0|10,0:0|0:0,0:0:0:0:
45,227,170183,1,2,0:0:0:0:
45,227,170310,1,2,0:0:0:0:
161,119,170564,6,0,L|161:302,1,183.150004471436,6|2,0:0|0:0,0:0:0:0:
161,382,171073,2,0,B|161:318|161:318|232:318,1,135.300002064514,10|2,1:3|0:0,0:0:0:0:
311,318,171454,2,0,P|333:262|311:207,1,122.100002980957,2|2,0:0|0:0,0:0:0:0:
231,207,171835,1,2,0:0:0:0:
118,319,172090,5,10,0:0:0:0:
61,262,172217,1,2,0:0:0:0:
117,205,172344,1,2,0:0:0:0:
173,261,172471,1,2,0:0:0:0:
118,319,172599,6,0,L|118:129,1,183.150004471436,6|2,0:0|0:0,0:0:0:0:
118,56,173107,2,0,P|173:33|228:55,1,122.100002980957,10|2,0:0|0:0,0:0:0:0:
284,112,173488,2,0,P|339:134|394:112,1,122.100002980957,2|2,0:0|0:0,0:0:0:0:
450,55,173869,1,2,0:0:0:0:
341,164,174124,5,10,0:0:0:0:
341,242,174251,1,2,0:0:0:0:
397,298,174378,1,2,0:0:0:0:
476,298,174505,1,2,0:0:0:0:
476,218,174633,6,0,L|284:218,1,183.150004471436,6|2,0:0|0:0,0:0:0:0:
292,139,175140,2,0,L|421:139,1,122.100002980957,10|2,0:0|0:0,0:0:0:0:
494,139,175522,2,0,P|439:162|415:217,1,122.100002980957,2|2,0:0|0:0,0:0:0:0:
415,296,175903,1,2,0:0:0:0:
256,296,176157,5,10,0:0:0:0:
256,216,176285,2,0,L|256:32,1,183.150004471436,2|2,0:0|0:0,0:0:0:0:
415,32,176920,6,0,L|415:87,1,55,0|2,0:0|0:0,0:0:0:0:
415,130,177174,2,0,L|335:209,1,110,2|0,0:0|0:0,0:0:0:0:
293,207,177555,6,0,L|238:207,2,55,2|2|2,0:0|0:0|0:0,0:0:0:0:
293,284,177937,1,2,0:0:0:0:
293,294,178191,2,0,L|238:294,1,55,2|0,0:0|0:0,0:0:0:0:
161,294,178445,1,2,0:1:0:0:
74,207,178700,5,0,0:0:0:0:
83,207,178954,1,0,0:0:0:0:
92,207,179208,1,0,0:0:0:0:
101,207,179463,1,0,0:0:0:0:
110,207,179717,1,0,0:0:0:0:
119,207,179971,1,0,0:0:0:0:
128,207,180225,2,0,L|175:207,1,45.1000006881714,0|0,0:0|0:0,0:0:0:0:
209,207,180480,2,0,L|209:152,1,45.1000006881714,0|0,0:0|0:0,0:0:0:0:
209,125,180734,5,0,0:0:0:0:
199,125,180988,1,0,0:0:0:0:
189,125,181242,1,0,0:0:0:0:
179,125,181497,1,0,0:0:0:0:
169,125,181751,1,0,0:0:0:0:
159,125,182005,1,0,0:0:0:0:
150,125,182259,2,0,L|150:180,1,45.1000006881714,0|0,0:0|0:0,0:0:0:0:
150,206,182514,2,0,L|150:268,1,45.1000006881714,0|0,0:0|0:0,0:0:0:0:
150,287,182768,5,0,0:0:0:0:
159,287,183022,1,0,0:0:0:0:
168,287,183276,1,0,0:0:0:0:
177,287,183531,1,0,0:0:0:0:
186,287,183785,1,0,0:0:0:0:
195,287,184039,1,0,0:0:0:0:
204,287,184293,1,0,0:0:0:0:
213,287,184547,1,0,0:0:0:0:
330,287,184802,5,0,0:0:0:0:
339,287,185056,1,0,0:0:0:0:
348,287,185310,1,0,0:0:0:0:
357,287,185565,1,0,0:0:0:0:
366,287,185819,1,0,0:0:0:0:
375,287,186073,1,0,0:0:0:0:
375,169,186327,6,0,L|375:125,6,22.5500003440857,8|0|0|0|0|0|0,0:0|0:0|0:0|0:0|0:0|0:0|0:0,0:0:0:0:
375,217,186835,6,0,B|283:217|283:217|219:153,1,183.150004471436,4|2,1:1|0:0,0:0:0:0:
162,96,187344,2,0,B|223:96|223:96|265:53,1,122.100002980957,10|2,0:0|0:0,0:0:0:0:
345,52,187725,2,0,P|399:75|423:130,1,122.100002980957,2|2,0:0|0:0,0:0:0:0:
423,209,188106,1,2,0:0:0:0:
263,209,188361,5,10,0:0:0:0:
183,209,188488,1,2,0:0:0:0:
183,288,188615,1,2,0:0:0:0:
262,288,188742,1,2,0:0:0:0:
263,209,188870,6,0,L|69:209,1,183.150004471436,6|2,0:0|0:0,0:0:0:0:
25,266,189378,2,0,P|80:288|135:266,1,122.100002980957,10|2,0:0|0:0,0:0:0:0:
191,209,189759,2,0,P|245:185|301:208,1,122.100002980957,2|2,0:0|0:0,0:0:0:0:
357,265,190140,1,2,0:0:0:0:
245,379,190395,5,10,0:0:0:0:
301,322,190522,1,2,0:0:0:0:
245,265,190649,1,2,0:0:0:0:
189,321,190776,1,2,0:0:0:0:
132,377,190903,6,0,B|132:317|132:317|99:263|99:263|99:203,1,183.150004471436,6|2,0:0|0:0,0:0:0:0:
99,123,191412,2,0,B|99:187|99:187|170:187,1,135.300002064514,10|2,0:0|0:0,0:0:0:0:
249,187,191793,2,0,P|304:164|359:186,1,122.100002980957,2|2,0:0|0:0,0:0:0:0:
438,186,192174,1,2,0:0:0:0:
438,332,192428,5,10,0:0:0:0:
358,332,192556,2,0,L|155:332,1,183.150004471436,2|6,0:0|0:0,0:0:0:0:
174,135,193318,5,2,0:0:0:0:
174,135,193446,2,0,L|305:135,1,122.100002980957,10|0,0:0|0:0,0:0:0:0:
374,135,193826,6,0,L|434:74,2,61.0500014904786,2|6|2,0:0|0:0|0:0,0:0:0:0:
374,214,194208,1,2,0:0:0:0:
215,214,194462,2,0,L|153:214,1,61.0500014904786,10|0,0:0|0:0,0:0:0:0:
74,214,194717,2,0,P|128:190|151:135,1,122.100002980957,2|4,0:0|0:0,0:0:0:0:
151,14,195225,5,2,0:0:0:0:
282,14,195480,2,0,L|340:14,2,46.7500008916855,10|2|0,0:0|0:0|0:0,0:0:0:0:
282,144,195988,2,0,L|225:144,1,46.7500008916855,6|2,0:0|0:0,0:0:0:0:
228,150,196369,2,0,L|171:150,1,46.7500008916855,2|8,0:0|0:0,0:0:0:0:
105,150,196624,1,2,0:0:0:0:
105,150,196751,1,2,0:0:0:0:
105,280,197005,6,0,L|215:280,1,93.500001783371,4|2,0:0|0:0,0:0:0:0:
329,280,197513,2,0,L|329:233,2,46.7500008916855,10|2|0,0:0|0:0|0:0,0:0:0:0:
404,233,197895,2,0,L|515:233,2,93.500001783371,2|2|2,0:2|0:2|0:0,0:0:0:0:
329,232,198530,2,0,P|345:190|328:147,1,93.500001783371,10|0,0:0|0:0,0:0:0:0:
189,147,199039,6,0,L|189:240,1,93.500001783371,4|2,0:0|0:0,0:0:0:0:
189,371,199547,2,0,L|128:371,2,46.7500008916855,10|2|0,0:0|0:0|0:0,0:0:0:0:
319,371,200055,2,0,L|319:315,1,46.7500008916855,6|2,0:0|0:0,0:0:0:0:
312,317,200437,2,0,L|312:261,1,46.7500008916855,2|8,0:0|0:0,0:0:0:0:
314,194,200691,1,2,0:0:0:0:
386,195,200818,1,2,0:0:0:0:
386,63,201073,6,0,L|289:63,1,93.500001783371,4|2,0:0|0:0,0:0:0:0:
161,63,201581,2,0,L|83:63,2,46.7500008916855,10|2|2,0:0|0:0|0:0,0:0:0:0:
161,138,201963,1,2,0:0:0:0:
161,212,202090,2,0,L|218:212,1,46.7500008916855,6|2,0:0|0:0,0:0:0:0:
214,218,202471,2,0,L|272:218,1,46.7500008916855,2|8,0:0|0:0,0:0:0:0:
339,218,202725,1,2,0:0:0:0:
339,218,202852,1,2,0:0:0:0:
339,349,203107,6,0,L|245:349,1,93.500001783371,4|2,0:0|0:0,0:0:0:0:
170,349,203488,1,2,0:0:0:0:
170,274,203615,2,0,L|170:208,1,46.7500008916855,10|2,0:0|0:0,0:0:0:0:
170,152,203869,1,2,0:2:0:0:
301,152,204124,2,0,L|301:198,1,46.7500008916855,6|2,0:0|0:0,0:0:0:0:
294,205,204505,1,2,0:0:0:0:
371,205,204632,2,0,L|464:205,1,93.500001783371,10|2,0:0|0:2,0:0:0:0:
464,73,205141,6,0,L|344:73,1,93.500001783371,4|2,0:0|0:0,0:0:0:0:
295,73,205522,1,2,0:0:0:0:
295,147,205649,2,0,L|295:210,1,46.7500008916855,10|2,0:0|0:0,0:0:0:0:
295,268,205903,1,2,0:0:0:0:
163,268,206158,2,0,L|162:210,1,46.7500008916855,6|2,0:0|0:0,0:0:0:0:
155,214,206539,1,2,0:0:0:0:
207,161,206666,2,0,P|249:143|292:159,1,93.500001783371,10|0,0:0|0:2,0:0:0:0:
430,210,207174,6,0,B|389:242|389:242|348:210,1,104.499997209549,6|0,0:0|0:0,0:0:0:0:
436,123,207683,2,0,L|436:217,1,93.500001783371,10|0,0:0|0:0,0:0:0:0:
436,347,208191,2,0,L|380:347,1,46.7500008916855,6|2,0:0|0:0,0:0:0:0:
382,353,208573,2,0,L|326:353,1,46.7500008916855,2|8,0:0|0:0,0:0:0:0:
260,353,208827,1,2,0:0:0:0:
260,278,208954,1,2,0:0:0:0:
260,128,209208,6,0,L|166:128,1,93.500001783371,4|2,0:0|0:0,0:0:0:0:
91,128,209589,1,0,0:0:0:0:
91,202,209716,2,0,L|155:202,1,46.7500008916855,10|2,0:0|0:0,0:0:0:0:
259,202,209971,2,0,L|213:202,1,46.7500008916855,2|2,0:2|0:0,0:0:0:0:
212,276,210225,2,0,L|212:337,1,46.7500008916855,6|2,0:0|0:0,0:0:0:0:
205,329,210606,1,2,0:0:0:0:
282,329,210733,2,0,L|394:329,1,93.500001783371,10|2,0:0|0:2,0:0:0:0:
375,196,211242,6,0,L|375:176,6,20.6250007867813,4|0|0|0|0|0|0,0:0|0:0|0:0|0:0|0:0|0:0|0:0,0:0:0:0:
375,233,211751,2,0,L|203:233,1,165.000006294251,8|4,0:0|0:0,0:0:0:0:
82,179,212513,6,0,P|119:165|157:180,2,82.5000031471254,2|8|2,0:2|0:0|0:2,0:0:0:0:
7,302,213276,6,0,L|7:179,1,123.750004720688,4|0,0:0|2:0,0:0:0:0:
7,104,213785,1,8,0:0:0:0:
138,104,214039,2,0,L|138:196,1,82.5000031471254,0|4,2:0|0:0,0:0:0:0:
132,192,214547,6,0,P|151:187|171:192,1,41.2500015735627,6|4,0:0|0:0,0:0:0:0:
224,245,214802,2,0,P|243:250|263:245,1,41.2500015735627,10|4,0:0|0:0,0:0:0:0:
263,245,215310,6,0,L|263:106,1,123.750004720688,4|0,0:0|2:0,0:0:0:0:
263,46,215819,1,8,0:0:0:0:
411,46,216073,2,0,L|411:141,1,82.5000031471254,0|4,2:0|0:0,0:0:0:0:
411,202,216454,1,0,2:0:0:0:
411,202,216835,6,0,P|391:196|371:201,1,41.2500015735627,10|0,0:0|2:0,0:0:0:0:
365,207,217217,5,8,0:0:0:0:
290,207,217344,2,0,L|248:207,1,41.2500015735627,8|8,0:0|0:0,0:0:0:0:
177,207,217598,1,4,0:0:0:0:
177,207,217725,1,4,0:0:0:0:
177,281,217852,1,8,0:0:0:0:
309,281,218107,1,4,0:0:0:0:
309,149,218361,5,4,0:0:0:0:
