osu file format v14

[General]
AudioFilename: audio.mp3
AudioLeadIn: 0
PreviewTime: 135266
Countdown: 0
SampleSet: Soft
StackLeniency: 0.3
Mode: 0
LetterboxInBreaks: 0
WidescreenStoryboard: 1

[Editor]
DistanceSpacing: 1.2
BeatDivisor: 4
GridSize: 32
TimelineZoom: 2.900001

[Metadata]
Title:Miku
TitleUnicode:Miku
Artist:Anamanaguchi
ArtistUnicode:Anamanaguchi
Creator:Kuroise
Version:Normal
Source:
Tags:VMC0 vocaloid mapping competition contest VMC hatsune 初音ミク english electronic
BeatmapID:4130935
BeatmapSetID:1839623

[Difficulty]
HPDrainRate:3
CircleSize:3.3
OverallDifficulty:4
ApproachRate:5
SliderMultiplier:1.2
SliderTickRate:1

[Events]
//Background and Video events
0,0,"mikuanamana.jpg",0,0
//Break Periods
2,91170,97270
2,106170,116020
//Storyboard Layer 0 (Background)
//Storyboard Layer 1 (Fail)
//Storyboard Layer 2 (Pass)
//Storyboard Layer 3 (Foreground)
//Storyboard Layer 4 (Overlay)
//Storyboard Sound Samples

[TimingPoints]
970,468.75,4,2,1,60,1,0
15969,-100,4,2,1,70,0,0
22532,-100,4,2,2,70,0,0
24172,-100,4,2,1,70,0,0
25344,-100,4,2,3,70,0,0
27219,-100,4,2,3,75,0,0
28157,-100,4,2,3,80,0,0
29094,-100,4,2,1,85,0,0
30500,-100,4,2,3,85,0,0
30970,-86.9565217391304,4,2,2,90,0,0
31438,-86.9565217391304,4,2,1,90,0,0
32844,-86.9565217391304,4,2,2,90,0,0
33313,-86.9565217391304,4,2,1,90,0,0
33547,-86.9565217391304,4,2,2,90,0,0
34250,-86.9565217391304,4,2,1,90,0,0
36594,-86.9565217391304,4,2,2,90,0,0
37063,-86.9565217391304,4,2,1,90,0,0
37297,-86.9565217391304,4,2,2,90,0,0
38000,-86.9565217391304,4,2,1,90,0,0
40344,-86.9565217391304,4,2,2,90,0,0
40813,-86.9565217391304,4,2,1,90,0,0
41047,-86.9565217391304,4,2,2,90,0,0
41750,-86.9565217391304,4,2,1,90,0,0
44094,-86.9565217391304,4,2,2,90,0,0
44563,-86.9565217391304,4,2,1,90,0,0
44797,-86.9565217391304,4,2,2,90,0,0
45500,-86.9565217391304,4,2,1,90,0,0
45970,-90.9090909090909,4,2,2,85,0,0
46438,-90.9090909090909,4,2,1,85,0,0
60735,-90.9090909090909,4,2,3,85,0,0
60970,-100,4,2,1,80,0,0
62844,-100,4,2,2,80,0,0
63313,-100,4,2,1,80,0,0
63547,-100,4,2,2,80,0,0
64250,-100,4,2,1,80,0,0
66594,-100,4,2,2,80,0,0
67063,-100,4,2,1,80,0,0
67297,-100,4,2,2,80,0,0
67532,-86.9565217391304,4,2,2,90,0,0
68000,-86.9565217391304,4,2,1,90,0,0
68469,-86.9565217391304,4,2,2,90,0,0
68938,-86.9565217391304,4,2,1,90,0,0
70344,-86.9565217391304,4,2,2,90,0,0
70813,-86.9565217391304,4,2,1,90,0,0
71047,-86.9565217391304,4,2,2,90,0,0
71750,-86.9565217391304,4,2,1,90,0,0
74094,-86.9565217391304,4,2,2,90,0,0
74563,-86.9565217391304,4,2,1,90,0,0
74797,-86.9565217391304,4,2,2,90,0,0
75266,-86.9565217391304,4,2,1,90,0,0
75970,-100,4,2,4,75,0,0
81594,-100,4,2,3,75,0,0
82532,-100,4,2,4,75,0,0
83469,-100,4,2,5,80,0,0
83938,-100,4,2,4,80,0,0
85110,-100,4,2,3,80,0,0
89094,-100,4,2,1,80,0,0
90266,-100,4,2,3,80,0,0
90969,-100,4,2,2,80,0,0
98469,-100,4,2,2,40,0,0
99407,-100,4,2,2,50,0,0
100344,-100,4,2,2,60,0,0
101282,-100,4,2,2,70,0,0
102219,-100,4,2,2,80,0,0
105970,-111.111111111111,4,2,6,70,0,0
106907,-111.111111111111,4,2,2,70,0,0
108313,-111.111111111111,4,2,6,70,0,0
108782,-111.111111111111,4,2,2,70,0,0
109016,-111.111111111111,4,2,6,70,0,0
110657,-111.111111111111,4,2,2,70,0,0
112063,-111.111111111111,4,2,6,70,0,0
112532,-111.111111111111,4,2,2,70,0,0
112766,-111.111111111111,4,2,6,70,0,0
114407,-111.111111111111,4,2,2,70,0,0
116047,-111.111111111111,4,2,6,70,0,0
116282,-111.111111111111,4,2,2,70,0,0
116516,-111.111111111111,4,2,6,70,0,0
118157,-111.111111111111,4,2,2,70,0,0
118625,-111.111111111111,4,2,6,70,0,0
118860,-111.111111111111,4,2,2,70,0,0
120970,-100,4,2,7,80,0,0
121907,-100,4,2,3,80,0,0
123313,-100,4,2,7,80,0,0
123782,-100,4,2,3,80,0,0
124016,-100,4,2,7,80,0,0
125657,-100,4,2,3,80,0,0
127063,-100,4,2,7,80,0,0
127532,-100,4,2,3,80,0,0
127766,-100,4,2,7,80,0,0
129407,-100,4,2,3,80,0,0
131047,-100,4,2,7,80,0,0
131282,-100,4,2,3,80,0,0
131516,-100,4,2,7,80,0,0
133157,-100,4,2,3,80,0,0
133625,-100,4,2,7,80,0,0
133860,-100,4,2,3,80,0,0
135970,-86.9565217391304,4,2,2,90,0,0
136438,-86.9565217391304,4,2,1,90,0,0
137844,-86.9565217391304,4,2,2,90,0,0
138313,-86.9565217391304,4,2,1,90,0,0
138547,-86.9565217391304,4,2,2,90,0,0
139250,-86.9565217391304,4,2,1,90,0,0
141594,-86.9565217391304,4,2,2,90,0,0
142063,-86.9565217391304,4,2,1,90,0,0
142297,-86.9565217391304,4,2,2,90,0,0
143000,-86.9565217391304,4,2,1,90,0,0
145344,-86.9565217391304,4,2,2,90,0,0
145813,-86.9565217391304,4,2,1,90,0,0
146047,-86.9565217391304,4,2,2,90,0,0
146750,-86.9565217391304,4,2,1,90,0,0
149094,-86.9565217391304,4,2,2,90,0,0
149563,-86.9565217391304,4,2,1,90,0,0
149797,-86.9565217391304,4,2,2,90,0,0
150500,-86.9565217391304,4,2,1,90,0,0
150970,-100,4,2,8,80,0,0
151086,-100,4,2,4,80,0,0
151907,-100,4,2,8,80,0,0
152141,-100,4,2,3,80,0,0
152844,-100,4,2,9,80,0,0
153196,-100,4,2,4,80,0,0
153782,-100,4,2,8,80,0,0
153899,-100,4,2,3,80,0,0
154719,-100,4,2,8,80,0,0
154954,-100,4,2,4,80,0,0
155657,-100,4,2,9,80,0,0
156008,-100,4,2,3,80,0,0
156594,-100,4,2,8,80,0,0
156711,-100,4,2,4,80,0,0
157532,-100,4,2,8,80,0,0
157766,-100,4,2,3,80,0,0
158469,-100,4,2,9,80,0,0
158821,-100,4,2,4,80,0,0
159172,-100,4,2,6,80,0,0
159407,-100,4,2,8,80,0,0
159524,-100,4,2,3,80,0,0
160344,-100,4,2,8,80,0,0
160579,-100,4,2,7,80,0,0
161282,-100,4,2,9,80,0,0
161633,-100,4,2,3,80,0,0
162219,-100,4,2,8,80,0,0
162336,-100,4,2,4,80,0,0
163157,-100,4,2,8,80,0,0
163391,-100,4,2,3,80,0,0
164094,-100,4,2,9,80,0,0
164446,-100,4,2,4,80,0,0
165032,-100,4,2,8,80,0,0
165149,-100,4,2,3,80,0,0
165970,-90.9090909090909,4,2,8,90,0,0
166204,-90.9090909090909,4,2,4,90,0,0
166907,-90.9090909090909,4,2,9,90,0,0
167024,-90.9090909090909,4,2,3,90,0,0
167375,-90.9090909090909,4,2,5,90,0,0
167610,-90.9090909090909,4,2,3,90,0,0
167844,-90.9090909090909,4,2,8,90,0,0
167961,-90.9090909090909,4,2,4,90,0,0
168782,-90.9090909090909,4,2,8,90,0,0
169016,-90.9090909090909,4,2,3,90,0,0
169719,-90.9090909090909,4,2,9,90,0,0
169954,-90.9090909090909,4,2,4,90,0,0
170657,-90.9090909090909,4,2,8,90,0,0
170774,-90.9090909090909,4,2,3,90,0,0
171594,-90.9090909090909,4,2,8,90,0,0
171829,-90.9090909090909,4,2,4,90,0,0
172532,-90.9090909090909,4,2,10,90,0,0
172883,-90.9090909090909,4,2,3,90,0,0
173469,-90.9090909090909,4,2,8,90,0,0
173586,-90.9090909090909,4,2,4,90,0,0
174172,-90.9090909090909,4,2,6,90,0,0
174407,-90.9090909090909,4,2,8,90,0,0
174524,-90.9090909090909,4,2,3,90,0,0
175344,-90.9090909090909,4,2,10,90,0,0
175579,-90.9090909090909,4,2,7,90,0,0
176282,-90.9090909090909,4,2,8,90,0,0
176399,-90.9090909090909,4,2,3,90,0,0
177219,-90.9090909090909,4,2,8,90,0,0
177454,-90.9090909090909,4,2,4,90,0,0
178157,-90.9090909090909,4,2,9,90,0,0
178274,-90.9090909090909,4,2,3,90,0,0
179094,-90.9090909090909,4,2,8,90,0,0
179211,-90.9090909090909,4,2,4,90,0,0
180032,-90.9090909090909,4,2,8,90,0,0
180266,-90.9090909090909,4,2,3,90,0,0
180500,-90.9090909090909,4,2,5,90,0,0
180969,-90.9090909090909,4,2,9,95,0,0
181204,-90.9090909090909,4,2,4,95,0,0
181907,-90.9090909090909,4,2,8,95,0,0
182024,-90.9090909090909,4,2,3,95,0,0
182844,-90.9090909090909,4,2,8,95,0,0
183079,-90.9090909090909,4,2,4,95,0,0
183782,-90.9090909090909,4,2,9,95,0,0
183899,-90.9090909090909,4,2,3,95,0,0
184719,-90.9090909090909,4,2,8,95,0,0
184836,-90.9090909090909,4,2,4,95,0,0
185657,-90.9090909090909,4,2,8,95,0,0
185774,-90.9090909090909,4,2,3,95,0,0
186594,-90.9090909090909,4,2,9,95,0,0
186829,-90.9090909090909,4,2,4,95,0,0
187532,-90.9090909090909,4,2,11,95,0,0
187649,-90.9090909090909,4,2,3,95,0,0
188469,-90.9090909090909,4,2,8,95,0,0
188704,-90.9090909090909,4,2,4,95,0,0
189172,-90.9090909090909,4,2,6,95,0,0
189407,-90.9090909090909,4,2,9,95,0,0
189524,-90.9090909090909,4,2,3,95,0,0
190344,-90.9090909090909,4,2,11,95,0,0
190461,-90.9090909090909,4,2,7,95,0,0
191282,-90.9090909090909,4,2,8,95,0,0
191516,-90.9090909090909,4,2,3,95,0,0
191750,-90.9090909090909,4,2,5,95,0,0
191985,-90.9090909090909,4,2,1,95,0,0
192219,-90.9090909090909,4,2,9,95,0,0
192454,-90.9090909090909,4,2,4,95,0,0
193157,-90.9090909090909,4,2,8,95,0,0
193274,-90.9090909090909,4,2,3,95,0,0
194094,-90.9090909090909,4,2,8,95,0,0
194329,-90.9090909090909,4,2,4,95,0,0
195032,-90.9090909090909,4,2,9,95,0,0
195266,-90.9090909090909,4,2,3,95,0,0
195500,-90.9090909090909,4,2,5,95,0,0
195970,-90.9090909090909,4,2,1,95,0,0
203938,-90.9090909090909,4,2,8,95,0,0

[Colours]
Combo1 : 255,117,117
Combo2 : 0,225,164
Combo3 : 192,192,192

[HitObjects]
30,31,15970,6,0,L|191:46,1,120,2|2,2:2|2:2,0:0:0:0:
226,134,16907,2,0,L|106:122,1,120,2|2,2:2|2:2,0:0:0:0:
7,191,17845,2,0,P|-15:247|34:322,1,120,2|2,2:2|2:2,0:0:0:0:
52,338,18548,1,2,2:2:0:0:
105,309,18782,2,0,B|165:289|165:289|224:348,1,120,2|2,2:3|2:2,0:0:0:0:
321,361,19720,6,0,L|479:337,1,120,2|2,2:2|2:2,0:0:0:0:
495,236,20657,2,0,L|376:254,1,120,2|2,2:2|2:2,0:0:0:0:
259,227,21595,2,0,B|244:204|244:204|269:95,1,120,2|2,2:1|2:2,0:0:0:0:
321,94,22298,1,2,2:2:0:0:
370,127,22532,2,0,B|452:111|407:85|511:77,1,120,8|2,2:1|2:2,0:0:0:0:
384,6,23470,22,0,P|262:21|220:30,1,120,2|2,2:3|2:2,0:0:0:0:
184,109,24407,2,0,P|243:99|303:94,1,120,2|2,2:2|2:2,0:0:0:0:
376,189,25345,6,0,P|370:234|361:318,1,120,10|6,2:3|2:3,0:0:0:0:
333,361,26048,1,2,2:2:0:0:
273,360,26282,2,0,B|245:374|245:374|121:349,1,120,2|2,2:2|2:2,0:0:0:0:
45,313,27220,22,0,P|25:228|1:166,1,120,2|2,2:1|2:2,0:0:0:0:
73,92,28157,2,0,P|145:103|160:159,1,120,2|2,2:1|2:2,0:0:0:0:
182,258,29095,2,0,P|246:239|273:240,1,60,2|2,1:2|1:2,0:0:0:0:
296,223,29563,2,0,P|325:229|352:241,1,60,2|2,1:2|1:2,0:0:0:0:
389,289,30032,1,2,1:2:0:0:
445,270,30266,2,0,L|515:290,2,60,2|6|2,1:2|2:3|2:2,0:0:0:0:
440,221,30970,6,0,P|427:124|415:52,1,138.000002632141,6|10,3:2|2:2,0:0:0:0:
267,12,31907,2,0,P|254:109|242:175,1,138.000002632141,2|10,3:2|2:2,0:0:0:0:
203,294,32845,2,0,B|154:295|154:295|115:252,1,103.500001974106,2|2,3:1|2:1,0:0:0:0:
168,152,33548,1,2,2:1:0:0:
90,21,34016,2,0,L|15:0,2,69.0000013160706,2|10|2,2:2|2:2|2:2,0:0:0:0:
116,92,34720,22,0,P|64:152|48:211,1,138.000002632141,2|10,3:2|2:2,0:0:0:0:
91,269,35423,1,0,0:0:0:0:
70,341,35657,2,0,P|111:355|216:384,1,138.000002632141,2|10,3:2|2:2,0:0:0:0:
286,254,36595,6,0,P|364:248|386:280,1,103.500001974106,2|2,3:1|2:1,0:0:0:0:
406,371,37298,2,0,P|483:335|481:274,1,138.000002632141,2|2,2:1|2:2,0:0:0:0:
465,217,38001,1,10,2:2:0:0:
497,148,38235,1,2,2:2:0:0:
462,80,38470,22,0,P|413:65|373:59,1,69.0000013160706,2|0,3:2|0:0,0:0:0:0:
354,125,38938,1,10,2:2:0:0:
224,45,39407,2,0,P|175:60|140:66,1,69.0000013160706,2|0,3:2|0:0,0:0:0:0:
85,39,39875,1,10,2:2:0:0:
55,187,40345,2,0,P|70:271|71:301,1,103.500001974106,2|2,3:1|2:1,0:0:0:0:
176,330,41048,1,2,2:1:0:0:
314,267,41516,1,2,2:2:0:0:
314,267,41751,2,0,L|403:258,1,69.0000013160706,10|2,2:2|2:2,0:0:0:0:
450,294,42220,6,0,B|490:266|490:266|464:172,1,138.000002632141,2|10,3:2|2:2,0:0:0:0:
382,53,43157,2,0,P|334:76|304:81,1,69.0000013160706,2|0,3:2|0:0,0:0:0:0:
258,125,43626,2,0,P|228:117|191:104,1,69.0000013160706,10|0,2:2|0:0,0:0:0:0:
133,56,44095,2,0,P|79:66|62:119,2,103.500001974106,2|2|2,3:1|2:1|2:1,0:0:0:0:
280,216,45501,1,8,2:2:0:0:
381,131,45970,22,0,P|411:57|438:13,1,132.00000402832,6|10,3:2|2:2,0:0:0:0:
500,128,46907,2,0,L|508:210,1,66.0000020141602,2|2,3:2|2:2,0:0:0:0:
495,258,47376,1,10,2:2:0:0:
433,234,47610,2,0,P|357:243|337:316,1,132.00000402832,2|0,2:2|0:0,0:0:0:0:
368,343,48313,1,10,2:2:0:0:
236,354,48782,2,0,L|155:371,2,66.0000020141602,2|2|10,3:2|2:2|2:2,0:0:0:0:
270,226,49720,6,0,P|278:178|312:75,1,132.00000402832,2|10,3:2|2:2,0:0:0:0:
172,36,50657,2,0,L|95:22,2,66.0000020141602,2|2|10,3:2|2:2|2:2,0:0:0:0:
235,18,51360,2,0,P|295:17|385:2,1,132.00000402832,2|0,2:2|0:0,0:0:0:0:
423,40,52063,1,10,2:2:0:0:
475,161,52532,2,0,L|497:226,2,66.0000020141602,2|2|10,3:2|2:2|2:2,0:0:0:0:
342,152,53470,22,0,P|302:177|313:272,1,132.00000402832,2|10,3:2|2:2,0:0:0:0:
391,349,54407,2,0,P|436:330|460:330,1,66.0000020141602,2|2,3:2|2:2,0:0:0:0:
498,282,54876,1,10,2:2:0:0:
449,237,55110,2,0,B|429:195|429:195|468:85,1,132.00000402832,2|0,2:2|0:0,0:0:0:0:
499,63,55813,1,10,2:2:0:0:
368,43,56282,6,0,L|295:28,1,66.0000020141602,2|2,3:2|2:2,0:0:0:0:
243,57,56751,1,10,2:2:0:0:
111,42,57220,22,0,P|77:73|77:161,1,132.00000402832,2|10,3:2|2:2,0:0:0:0:
203,175,58157,2,0,L|212:249,1,66.0000020141602,2|2,3:2|2:2,0:0:0:0:
254,290,58626,2,0,L|245:364,1,66.0000020141602,10|2,2:2|2:2,0:0:0:0:
183,377,59095,6,0,P|114:361|29:352,2,132.00000402832,0|8|0,3:3|2:2|3:3,0:0:0:0:
246,355,60266,1,2,1:2:0:0:
311,365,60501,2,0,P|368:378|398:388,1,66.0000020141602,10|6,2:2|2:3,0:0:0:0:
422,343,60970,22,0,P|469:285|514:277,1,120,2|10,3:2|2:2,0:0:0:0:
489,158,61907,2,0,P|442:100|397:92,1,120,2|10,3:2|2:2,0:0:0:0:
321,182,62845,2,0,P|251:203|215:216,2,90,2|2|2,3:1|2:1|2:1,0:0:0:0:
398,280,64016,1,2,2:2:0:0:
398,280,64251,2,0,P|416:353|416:359,1,60,10|2,2:2|2:2,0:0:0:0:
366,372,64720,6,0,P|246:354|232:351,1,120,2|10,3:2|2:2,0:0:0:0:
158,273,65657,2,0,P|38:255|24:252,1,120,2|10,3:2|2:2,0:0:0:0:
35,135,66595,2,0,L|9:39,2,90,2|2|2,3:1|2:1|2:1,0:0:0:0:
163,184,67766,1,2,1:2:0:0:
207,131,68001,1,10,2:2:0:0:
273,148,68235,1,2,2:2:0:0:
315,111,68470,22,0,P|392:118|401:197,1,138.000002632141,6|10,3:2|2:2,0:0:0:0:
283,272,69407,2,0,P|206:265|197:186,1,138.000002632141,2|10,3:2|2:2,0:0:0:0:
248,62,70345,2,0,P|178:70|129:83,1,103.500001974106,2|2,3:1|2:1,0:0:0:0:
51,158,71048,1,2,2:1:0:0:
145,293,71516,2,0,L|168:373,2,69.0000013160706,2|10|2,2:2|2:2|2:2,0:0:0:0:
205,235,72220,6,0,P|266:243|310:311,1,138.000002632141,2|10,3:2|2:2,0:0:0:0:
370,357,72923,1,0,0:0:0:0:
435,306,73157,2,0,P|458:231|498:163,1,138.000002632141,2|10,3:2|2:2,0:0:0:0:
451,16,74095,22,0,P|377:23|321:34,1,103.500001974106,2|2,3:1|1:1,0:0:0:0:
301,143,74798,1,2,1:1:0:0:
236,91,75032,2,0,B|169:81|169:81|119:138,1,138.000002632141,0|8,3:3|2:2,0:0:0:0:
178,240,75970,6,0,P|270:228|302:225,1,120,2|2,3:2|3:2,0:0:0:0:
374,316,76907,2,0,P|314:322|254:330,1,120,2|2,3:2|3:2,0:0:0:0:
144,384,77845,2,0,L|113:265,1,120,2|2,3:2|3:2,0:0:0:0:
73,223,78548,1,2,2:2:0:0:
90,165,78782,1,2,3:3:0:0:
46,53,79251,1,2,3:2:0:0:
162,25,79720,22,0,P|224:52|232:114,1,120,2|2,3:2|3:2,0:0:0:0:
313,190,80657,2,0,P|375:163|383:101,1,120,2|2,3:2|3:2,0:0:0:0:
471,30,81595,6,0,P|491:102|501:157,1,120,2|2,3:1|3:2,0:0:0:0:
483,204,82298,1,2,2:2:0:0:
500,261,82532,1,8,3:1:0:0:
414,351,83001,1,2,3:2:0:0:
312,286,83470,22,0,P|244:265|189:293,1,120,2|2,3:3|3:2,0:0:0:0:
165,330,84173,1,2,2:3:0:0:
111,302,84407,2,0,P|94:223|79:186,1,120,2|2,3:2|3:2,0:0:0:0:
44,71,85345,6,0,P|93:55|129:52,1,60,10|2,3:3|2:2,0:0:0:0:
159,67,85813,2,0,P|148:99|142:124,1,60,6|2,3:3|2:2,0:0:0:0:
168,178,86282,1,2,3:2:0:0:
287,166,86751,1,2,3:2:0:0:
406,154,87220,22,0,P|401:76|393:15,1,120,2|2,3:1|3:2,0:0:0:0:
280,2,88157,2,0,P|287:62|290:122,1,120,2|2,3:1|3:2,0:0:0:0:
241,231,89095,6,0,P|190:245|171:249,1,60,2|2,1:2|1:2,0:0:0:0:
128,271,89563,2,0,P|77:257|58:253,1,60,2|2,1:2|1:2,0:0:0:0:
47,199,90032,2,0,P|55:126|111:108,1,120,2|6,1:2|2:3,0:0:0:0:
207,139,90970,21,4,2:2:0:0:
70,73,98470,6,0,B|113:120|47:196|47:196|78:275|78:275|168:245|149:166,1,360,2|2,3:2|3:2,0:0:0:0:
267,207,100345,2,0,P|340:192|398:187,2,120,2|0|0,3:2|3:3|3:3,0:0:0:0:
213,314,101751,1,2,3:2:0:0:
329,342,102220,22,0,B|377:324|377:324|429:360|429:360|391:198|457:104,1,360,2|2,3:2|3:2,0:0:0:0:
383,18,104095,6,0,P|318:40|283:42,1,90,2|2,3:2|2:2,0:0:0:0:
211,14,104798,1,2,2:2:0:0:
151,118,105266,2,0,L|167:192,2,60,2|2|2,2:2|3:2|2:2,0:0:0:0:
107,85,105970,1,0,3:3:0:0:
256,192,117220,12,0,120032,0:2:0:0:
167,184,120970,21,6,3:2:0:0:
101,84,121438,1,2,3:2:0:0:
220,69,121907,2,0,L|289:62,2,60,10|2|2,2:2|2:2|2:2,0:0:0:0:
190,121,122610,2,0,P|221:211|230:248,1,120,10|8,2:2|2:2,0:0:0:0:
202,289,123313,1,2,3:2:0:0:
297,362,123782,2,0,L|373:382,2,60,10|2|2,2:2|3:2|2:2,0:0:0:0:
373,268,124720,6,0,P|366:179|328:154,1,120,2|2,3:2|3:2,0:0:0:0:
241,105,125657,2,0,P|191:117|157:124,1,60,10|2,2:2|2:2,0:0:0:0:
124,103,126126,1,2,2:2:0:0:
97,156,126360,2,0,P|91:216|86:287,1,120,10|8,2:2|2:2,0:0:0:0:
123,322,127063,1,2,3:2:0:0:
221,252,127532,2,0,L|286:237,2,60,10|2|2,2:2|3:2|2:2,0:0:0:0:
299,344,128470,22,0,P|344:348|398:288,1,120,2|2,3:2|2:2,0:0:0:0:
465,202,129407,2,0,P|457:127|470:65,1,120,10|2,2:2|2:2,0:0:0:0:
441,27,130110,2,0,P|401:37|314:45,1,120,10|8,2:2|2:2,0:0:0:0:
266,24,130813,1,2,2:2:0:0:
172,99,131282,2,0,L|161:160,2,60,10|2|2,2:2|3:2|2:2,0:0:0:0:
90,10,132220,6,0,P|38:40|38:115,2,120,2|2|10,3:2|3:2|2:2,0:0:0:0:
125,58,133391,2,0,L|139:116,1,60,2|2,2:2|3:2,0:0:0:0:
121,173,133860,1,10,2:2:0:0:
256,192,133977,12,2,135266,2:2:0:0:
102,356,135970,22,0,P|179:342|251:330,1,138.000002632141,6|10,3:2|2:2,0:0:0:0:
326,192,136907,2,0,P|258:203|190:216,1,138.000002632141,2|10,3:2|2:2,0:0:0:0:
36,153,137845,2,0,P|61:99|126:105,1,103.500001974106,2|2,3:1|2:1,0:0:0:0:
219,126,138548,1,2,2:1:0:0:
337,11,139016,2,0,L|424:2,1,69.0000013160706,2|10,2:2|2:2,0:0:0:0:
466,67,139485,1,2,2:2:0:0:
491,145,139720,6,0,P|457:233|454:279,1,138.000002632141,2|10,3:2|2:2,0:0:0:0:
419,351,140423,1,0,0:0:0:0:
346,312,140657,2,0,P|281:293|255:293,1,69.0000013160706,2|0,3:2|0:0,0:0:0:0:
216,345,141126,2,0,P|182:351|150:364,1,69.0000013160706,10|0,2:2|0:0,0:0:0:0:
82,315,141595,22,0,P|68:246|53:202,2,103.500001974106,2|2|2,3:1|2:1|2:1,0:0:0:0:
240,360,142766,1,2,2:2:0:0:
303,306,143001,1,10,2:2:0:0:
278,227,143235,1,2,2:2:0:0:
327,160,143470,6,0,P|340:101|352:66,1,69.0000013160706,2|0,3:2|0:0,0:0:0:0:
314,15,143938,1,10,2:2:0:0:
149,38,144407,22,0,P|136:97|124:132,1,69.0000013160706,2|0,3:2|0:0,0:0:0:0:
162,183,144875,1,10,2:2:0:0:
82,329,145345,6,0,P|153:349|186:351,1,103.500001974106,2|2,3:1|2:1,0:0:0:0:
264,257,146048,2,0,P|335:275|368:353,1,138.000002632141,2|2,2:1|2:2,0:0:0:0:
434,375,146751,1,10,2:2:0:0:
487,312,146985,1,2,2:2:0:0:
452,236,147220,22,0,P|426:152|429:92,1,138.000002632141,2|10,3:2|2:2,0:0:0:0:
292,6,148157,2,0,P|291:75|267:139,1,138.000002632141,2|10,3:2|2:2,0:0:0:0:
130,233,149095,6,0,P|83:213|81:156,2,103.500001974106,2|2|2,3:1|2:1|2:1,0:0:0:0:
203,270,150032,2,0,P|294:257|361:257,1,138.000002632141,0|8,3:3|2:2,0:0:0:0:
432,173,150970,6,0,B|459:115|459:115|429:51,2,120,4|8|2,3:2|1:2|3:1,0:0:0:0:
313,151,152376,1,8,2:1:0:0:
194,134,152845,2,0,P|123:123|67:118,1,120,0|8,3:3|2:2,0:0:0:0:
42,67,153548,1,0,1:1:0:0:
81,21,153782,1,2,3:3:0:0:
199,39,154251,1,8,1:1:0:0:
307,91,154720,22,0,P|274:132|241:208,1,120,0|8,3:3|2:2,0:0:0:0:
308,294,155657,2,0,P|333:240|370:192,1,120,2|8,3:1|2:1,0:0:0:0:
478,141,156595,1,0,3:3:0:0:
456,23,157063,1,8,1:2:0:0:
336,30,157532,1,4,3:1:0:0:
352,148,158001,1,8,2:1:0:0:
232,135,158470,6,0,P|178:153|108:180,1,120,2|8,3:3|2:2,0:0:0:0:
82,223,159173,2,0,P|96:292|105:352,1,120,2|0,1:3|0:0,0:0:0:0:
155,371,159876,1,8,1:1:0:0:
205,338,160110,2,0,L|280:353,1,60,4|8,2:3|3:3,0:0:0:0:
381,326,160813,1,12,2:3:0:0:
497,355,161282,2,0,P|481:295|489:203,1,120,2|8,3:1|2:1,0:0:0:0:
504,119,162220,22,0,P|486:108|404:173,1,120,0|8,3:3|1:2,0:0:0:0:
314,222,163157,1,0,3:3:0:0:
255,236,163391,1,0,1:1:0:0:
210,195,163626,1,8,2:1:0:0:
256,192,164095,12,8,165501,1:1:0:0:
353,33,165970,6,0,L|378:180,1,132.00000402832,2|10,3:2|2:2,0:0:0:0:
427,223,166673,1,2,2:2:0:0:
401,298,166907,2,0,P|371:326|330:320,1,66.0000020141602,2|2,3:2|2:2,0:0:0:0:
285,278,167376,1,8,1:1:0:0:
159,375,167845,22,0,P|98:346|1:329,1,132.00000402832,2|10,3:2|1:2,0:0:0:0:
12,255,168548,1,2,2:2:0:0:
47,184,168782,2,0,P|95:89|116:26,1,132.00000402832,2|8,3:3|2:1,0:0:0:0:
259,31,169720,6,0,P|317:73|302:140,1,132.00000402832,2|10,3:2|2:2,0:0:0:0:
244,168,170423,1,2,1:2:0:0:
189,224,170657,2,0,P|209:299|299:343,1,132.00000402832,2|8,3:2|1:1,0:0:0:0:
407,347,171595,22,0,P|472:312|512:309,1,66.0000020141602,2|2,3:2|1:2,0:0:0:0:
478,236,172063,2,0,P|465:206|445:179,1,66.0000020141602,10|2,2:2|2:2,0:0:0:0:
375,217,172532,1,4,3:1:0:0:
371,58,173001,1,8,2:1:0:0:
219,13,173470,6,0,L|62:62,1,132.00000402832,2|10,3:3|1:2,0:0:0:0:
42,113,174173,1,2,2:3:0:0:
42,113,174407,2,0,L|1:46,2,66.0000020141602,2|2|8,3:2|1:2|2:1,0:0:0:0:
39,192,175110,1,6,2:3:0:0:
108,230,175345,2,0,P|86:298|75:389,1,132.00000402832,10|14,3:3|2:3,0:0:0:0:
234,361,176282,1,2,3:2:0:0:
311,375,176516,1,2,2:2:0:0:
358,311,176751,1,8,1:1:0:0:
248,198,177220,22,0,P|226:125|216:67,1,132.00000402832,2|10,3:2|2:2,0:0:0:0:
261,4,177923,1,2,2:2:0:0:
311,65,178157,2,0,B|351:81|351:81|477:72,1,132.00000402832,2|8,3:2|2:1,0:0:0:0:
480,228,179095,6,0,P|460:339|457:390,1,132.00000402832,2|10,3:2|1:2,0:0:0:0:
299,357,180032,2,0,P|279:246|276:195,1,132.00000402832,2|8,3:2|2:1,0:0:0:0:
352,85,180970,21,2,3:2:0:0:
286,41,181204,1,2,2:2:0:0:
222,87,181438,2,0,L|70:114,1,132.00000402832,10|2,2:2|3:2,0:0:0:0:
38,259,182376,1,8,1:1:0:0:
157,363,182845,6,0,P|185:293|210:275,1,66.0000020141602,2|2,3:2|1:2,0:0:0:0:
233,245,183313,2,0,P|205:175|180:157,1,66.0000020141602,10|2,2:2|2:2,0:0:0:0:
163,121,183782,1,2,3:3:0:0:
294,33,184251,1,8,2:1:0:0:
433,108,184720,21,2,3:2:0:0:
459,182,184954,1,2,2:2:0:0:
414,247,185188,2,0,P|346:218|272:197,1,132.00000402832,10|2,1:2|3:2,0:0:0:0:
161,293,186126,1,8,2:1:0:0:
48,181,186595,6,0,P|37:107|28:44,1,132.00000402832,2|10,3:2|2:2,0:0:0:0:
102,20,187298,1,2,1:2:0:0:
156,77,187532,2,0,P|257:73|300:76,1,132.00000402832,4|8,3:1|1:1,0:0:0:0:
442,38,188470,22,0,P|473:118|463:143,1,66.0000020141602,2|2,3:3|1:2,0:0:0:0:
458,173,188938,1,10,2:2:0:0:
458,173,189173,1,0,0:0:0:0:
380,157,189407,2,0,B|333:202|333:202|382:270,1,132.00000402832,2|2,2:3|2:2,0:0:0:0:
380,339,190110,1,14,1:3:0:0:
380,339,190345,6,8,L|222:302,1,132.00000402832,10|14,3:3|1:3,0:0:0:0:
108,377,191282,2,0,L|78:248,1,132.00000402832,2|8,3:2|2:1,0:0:0:0:
44,176,191985,1,2,2:2:0:0:
92,113,192220,22,0,B|179:73|141:146|252:98,1,132.00000402832,2|10,3:2|2:2,0:0:0:0:
282,63,192923,1,2,1:2:0:0:
349,104,193157,1,2,3:2:0:0:
419,245,193626,1,8,1:1:0:0:
320,368,194095,2,0,P|218:352|182:348,1,132.00000402832,2|10,3:2|2:2,0:0:0:0:
96,220,195032,2,0,P|198:236|234:240,1,132.00000402832,2|8,3:2|2:1,0:0:0:0:
302,260,195735,1,0,1:1:0:0:
368,216,195970,5,4,0:0:0:0:
256,192,196087,12,0,203938,3:3:0:0:
