osu file format v14

[General]
AudioFilename: audio.mp3
AudioLeadIn: 0
PreviewTime: 135266
Countdown: 0
SampleSet: Soft
StackLeniency: 0.3
Mode: 0
LetterboxInBreaks: 0
WidescreenStoryboard: 1

[Editor]
Bookmarks: 266,970,31438,31790,31907,32141,32376,32493,50540,88157,120970,150970,151087,151438,151790,151907,152141,152376,152493,152845,153196,153313,153548,153782,153899,154251,154602,154720,154954,155188,155305,155657,156009,156126,156360,156595,156712,157063,157415,157532,157766,158001,158118,158470,158821,158938,159173,159407,159524,159876,160110,160227,160345,160579,160813,160930,161282,161634,161751,161985,162220,162337,162688,163040,163157,163391,163626,163743,164095,164446,164563,164798,165032,165149,165501,165852,165970,166321,166438,166555,166673,166907,167024,167141,167376,167610,167727,167845,168079,168313,168548,168782,169016,169134,169251,169368,169485,169720,169954,170188,170423,170657,170774,171009,171126,171360,171477,171595,171829,172063,172298,172532,172884,173001,173235,173470,173587,173704,173938,174173,174290,174407,174524,174641,174759,174876,175110,175345,175579,175813,176048,176282,176399,176516,176634,176751,176985,177102,177220,177454,177571,177688,177805,177923,178157,178274,178391,178509,178626,178860,178977,179095,179212,179329,179563,179680,179798,179915,180032,180266,180384,180501,195970,218235
DistanceSpacing: 1.2
BeatDivisor: 4
GridSize: 32
TimelineZoom: 2.900001

[Metadata]
Title:Miku
TitleUnicode:Miku
Artist:Anamanaguchi
ArtistUnicode:Anamanaguchi
Creator:Kuroise
Version:Insane
Source:
Tags:VMC0 vocaloid mapping competition contest VMC hatsune 初音ミク english electronic
BeatmapID:4119629
BeatmapSetID:1839623

[Difficulty]
HPDrainRate:4.5
CircleSize:4
OverallDifficulty:7.8
ApproachRate:8.6
SliderMultiplier:1.8
SliderTickRate:1

[Events]
//Background and Video events
0,0,"mikuanamana.jpg",0,0
//Break Periods
2,91170,97811
//Storyboard Layer 0 (Background)
//Storyboard Layer 1 (Fail)
//Storyboard Layer 2 (Pass)
//Storyboard Layer 3 (Foreground)
//Storyboard Layer 4 (Overlay)
//Storyboard Sound Samples

[TimingPoints]
970,468.75,4,2,1,60,1,0
2845,-250,4,2,1,60,0,0
4720,-100,4,2,1,60,0,0
6595,-250,4,2,1,60,0,0
8470,-90.9090909090909,4,2,1,60,0,0
10345,-200,4,2,1,60,0,0
12220,-100,4,2,1,60,0,0
14095,-250,4,2,1,60,0,0
15970,-100,4,2,1,70,0,0
22532,-100,4,2,2,70,0,0
24172,-100,4,2,1,70,0,0
25344,-100,4,2,3,70,0,0
27220,-83.3333333333333,4,2,3,75,0,0
28157,-66.6666666666667,4,2,3,80,0,0
29094,-66.6666666666667,4,2,1,85,0,0
30500,-66.6666666666667,4,2,3,85,0,0
30970,-50,4,2,2,90,0,0
31438,-50,4,2,1,90,0,0
32844,-50,4,2,2,90,0,0
33313,-43.4782608695652,4,2,1,90,0,0
33548,-55.5555555555556,4,2,2,90,0,0
34250,-55.5555555555556,4,2,1,90,0,0
34720,-50,4,2,1,90,0,0
36594,-50,4,2,2,90,0,0
37063,-43.4782608695652,4,2,1,90,0,0
37298,-55.5555555555556,4,2,2,90,0,0
38000,-55.5555555555556,4,2,1,90,0,0
38470,-43.4782608695652,4,2,1,90,0,0
38938,-100,4,2,1,90,0,0
39407,-43.4782608695652,4,2,1,90,0,0
39876,-100,4,2,1,90,0,0
40345,-66.6666666666667,4,2,2,90,0,0
40813,-43.4782608695652,4,2,1,90,0,0
41048,-55.5555555555556,4,2,2,90,0,0
41750,-55.5555555555556,4,2,1,90,0,0
42220,-50,4,2,1,90,0,0
44094,-50,4,2,2,90,0,0
44563,-43.4782608695652,4,2,1,90,0,0
44798,-55.5555555555556,4,2,2,90,0,0
45500,-55.5555555555556,4,2,1,90,0,0
45970,-76.9230769230769,4,2,2,85,0,0
46438,-76.9230769230769,4,2,1,85,0,0
48313,-55.5555555555556,4,2,1,85,0,0
48782,-76.9230769230769,4,2,1,85,0,0
52063,-100,4,2,1,85,0,0
52532,-125,4,2,1,85,0,0
53470,-76.9230769230769,4,2,1,85,0,0
55813,-55.5555555555556,4,2,1,85,0,0
56282,-76.9230769230769,4,2,1,85,0,0
60735,-76.9230769230769,4,2,3,85,0,0
60970,-83.3333333333333,4,2,1,80,0,0
62844,-83.3333333333333,4,2,2,80,0,0
63313,-83.3333333333333,4,2,1,80,0,0
63547,-83.3333333333333,4,2,2,80,0,0
64250,-83.3333333333333,4,2,1,80,0,0
66594,-83.3333333333333,4,2,2,80,0,0
67063,-83.3333333333333,4,2,1,80,0,0
67297,-83.3333333333333,4,2,2,80,0,0
67532,-83.3333333333333,4,2,2,90,0,0
68001,-66.6666666666667,4,2,1,90,0,0
68470,-55.5555555555556,4,2,2,90,0,0
68704,-45.4545454545455,4,2,2,90,0,0
68938,-66.6666666666667,4,2,1,90,0,0
69407,-55.5555555555556,4,2,1,90,0,0
69641,-45.4545454545455,4,2,1,90,0,0
69875,-66.6666666666667,4,2,1,90,0,0
70345,-55.5555555555556,4,2,2,90,0,0
70813,-43.4782608695652,4,2,1,90,0,0
71048,-55.5555555555556,4,2,2,90,0,0
71750,-55.5555555555556,4,2,1,90,0,0
72220,-55.5555555555556,4,2,1,90,0,0
72454,-45.4545454545455,4,2,1,90,0,0
72688,-66.6666666666667,4,2,1,90,0,0
73157,-55.5555555555556,4,2,1,90,0,0
73391,-45.4545454545455,4,2,1,90,0,0
73625,-66.6666666666667,4,2,1,90,0,0
74095,-55.5555555555556,4,2,2,90,0,0
74563,-55.5555555555556,4,2,1,90,0,0
74797,-55.5555555555556,4,2,2,90,0,0
75266,-55.5555555555556,4,2,1,90,0,0
75970,-100,4,2,4,75,0,0
81594,-100,4,2,3,75,0,0
82532,-100,4,2,4,75,0,0
83470,-83.3333333333333,4,2,5,80,0,0
83938,-83.3333333333333,4,2,4,80,0,0
85110,-83.3333333333333,4,2,3,80,0,0
85345,-100,4,2,3,80,0,0
87220,-83.3333333333333,4,2,3,80,0,0
88157,-66.6666666666667,4,2,3,80,0,0
89094,-66.6666666666667,4,2,1,80,0,0
90266,-66.6666666666667,4,2,3,80,0,0
90969,-66.6666666666667,4,2,2,80,0,0
98470,-100,4,2,2,40,0,0
99407,-100,4,2,2,50,0,0
100344,-100,4,2,2,60,0,0
101282,-100,4,2,2,70,0,0
102219,-100,4,2,2,80,0,0
105970,-133.333333333333,4,2,6,70,0,0
106907,-133.333333333333,4,2,2,70,0,0
108313,-133.333333333333,4,2,6,70,0,0
108782,-133.333333333333,4,2,2,70,0,0
109016,-133.333333333333,4,2,6,70,0,0
110657,-133.333333333333,4,2,2,70,0,0
112063,-133.333333333333,4,2,6,70,0,0
112532,-133.333333333333,4,2,2,70,0,0
112766,-133.333333333333,4,2,6,70,0,0
114407,-133.333333333333,4,2,2,70,0,0
116047,-133.333333333333,4,2,6,70,0,0
116282,-133.333333333333,4,2,2,70,0,0
116516,-133.333333333333,4,2,6,70,0,0
118157,-133.333333333333,4,2,2,70,0,0
118625,-133.333333333333,4,2,6,70,0,0
118860,-133.333333333333,4,2,2,70,0,0
120970,-90.9090909090909,4,2,7,80,0,0
121907,-90.9090909090909,4,2,3,80,0,0
123313,-90.9090909090909,4,2,7,80,0,0
123782,-90.9090909090909,4,2,3,80,0,0
124016,-90.9090909090909,4,2,7,80,0,0
125657,-90.9090909090909,4,2,3,80,0,0
127063,-90.9090909090909,4,2,7,80,0,0
127532,-90.9090909090909,4,2,3,80,0,0
127766,-90.9090909090909,4,2,7,80,0,0
129407,-90.9090909090909,4,2,3,80,0,0
131047,-90.9090909090909,4,2,7,80,0,0
131282,-90.9090909090909,4,2,3,80,0,0
131516,-90.9090909090909,4,2,7,80,0,0
133157,-90.9090909090909,4,2,3,80,0,0
133625,-90.9090909090909,4,2,7,80,0,0
133860,-90.9090909090909,4,2,3,80,0,0
135266,-250,4,2,3,80,0,0
135970,-50,4,2,2,90,0,0
136438,-50,4,2,1,90,0,0
137844,-50,4,2,2,90,0,0
138313,-43.4782608695652,4,2,1,90,0,0
138548,-55.5555555555556,4,2,2,90,0,0
139250,-55.5555555555556,4,2,1,90,0,0
139720,-50,4,2,1,90,0,0
141594,-50,4,2,2,90,0,0
142063,-43.4782608695652,4,2,1,90,0,0
142298,-55.5555555555556,4,2,2,90,0,0
143000,-55.5555555555556,4,2,1,90,0,0
143470,-43.4782608695652,4,2,1,90,0,0
143938,-100,4,2,1,90,0,0
144407,-43.4782608695652,4,2,1,90,0,0
144876,-100,4,2,1,90,0,0
145345,-66.6666666666667,4,2,2,90,0,0
145813,-43.4782608695652,4,2,1,90,0,0
146048,-55.5555555555556,4,2,2,90,0,0
146750,-55.5555555555556,4,2,1,90,0,0
147220,-50,4,2,1,90,0,0
149094,-50,4,2,2,90,0,0
149563,-43.4782608695652,4,2,1,90,0,0
149798,-55.5555555555556,4,2,2,90,0,0
150500,-55.5555555555556,4,2,1,90,0,0
150970,-90.9090909090909,4,2,8,80,0,0
151086,-90.9090909090909,4,2,4,80,0,0
151907,-90.9090909090909,4,2,8,80,0,0
152141,-90.9090909090909,4,2,3,80,0,0
152844,-90.9090909090909,4,2,9,80,0,0
153196,-90.9090909090909,4,2,4,80,0,0
153782,-90.9090909090909,4,2,8,80,0,0
153899,-90.9090909090909,4,2,3,80,0,0
154719,-90.9090909090909,4,2,8,80,0,0
154954,-90.9090909090909,4,2,4,80,0,0
155657,-90.9090909090909,4,2,9,80,0,0
156008,-90.9090909090909,4,2,3,80,0,0
156594,-90.9090909090909,4,2,8,80,0,0
156711,-90.9090909090909,4,2,4,80,0,0
157532,-90.9090909090909,4,2,8,80,0,0
157766,-90.9090909090909,4,2,3,80,0,0
158469,-90.9090909090909,4,2,9,80,0,0
158821,-90.9090909090909,4,2,4,80,0,0
159172,-90.9090909090909,4,2,6,80,0,0
159407,-90.9090909090909,4,2,8,80,0,0
159524,-90.9090909090909,4,2,3,80,0,0
160344,-90.9090909090909,4,2,8,80,0,0
160579,-90.9090909090909,4,2,7,80,0,0
161282,-90.9090909090909,4,2,9,80,0,0
161633,-90.9090909090909,4,2,3,80,0,0
162219,-90.9090909090909,4,2,8,80,0,0
162336,-90.9090909090909,4,2,4,80,0,0
163157,-90.9090909090909,4,2,8,80,0,0
163391,-90.9090909090909,4,2,3,80,0,0
164094,-90.9090909090909,4,2,9,80,0,0
164446,-90.9090909090909,4,2,4,80,0,0
165032,-90.9090909090909,4,2,8,80,0,0
165149,-90.9090909090909,4,2,3,80,0,0
165970,-71.4285714285714,4,2,8,90,0,0
166204,-71.4285714285714,4,2,4,90,0,0
166907,-71.4285714285714,4,2,9,90,0,0
167024,-71.4285714285714,4,2,3,90,0,0
167375,-71.4285714285714,4,2,5,90,0,0
167610,-71.4285714285714,4,2,3,90,0,0
167844,-71.4285714285714,4,2,8,90,0,0
167961,-71.4285714285714,4,2,4,90,0,0
168782,-71.4285714285714,4,2,8,90,0,0
169016,-71.4285714285714,4,2,3,90,0,0
169719,-71.4285714285714,4,2,9,90,0,0
169954,-71.4285714285714,4,2,4,90,0,0
170657,-71.4285714285714,4,2,8,90,0,0
170774,-71.4285714285714,4,2,3,90,0,0
171594,-71.4285714285714,4,2,8,90,0,0
171829,-71.4285714285714,4,2,4,90,0,0
172532,-71.4285714285714,4,2,10,90,0,0
172883,-71.4285714285714,4,2,3,90,0,0
173469,-71.4285714285714,4,2,8,90,0,0
173586,-71.4285714285714,4,2,4,90,0,0
174172,-71.4285714285714,4,2,6,90,0,0
174407,-71.4285714285714,4,2,8,90,0,0
174524,-71.4285714285714,4,2,3,90,0,0
175344,-71.4285714285714,4,2,10,90,0,0
175579,-71.4285714285714,4,2,7,90,0,0
176282,-71.4285714285714,4,2,8,90,0,0
176399,-71.4285714285714,4,2,3,90,0,0
177219,-71.4285714285714,4,2,8,90,0,0
177454,-71.4285714285714,4,2,4,90,0,0
178157,-71.4285714285714,4,2,9,90,0,0
178274,-71.4285714285714,4,2,3,90,0,0
179094,-71.4285714285714,4,2,8,90,0,0
179211,-71.4285714285714,4,2,4,90,0,0
180032,-71.4285714285714,4,2,8,90,0,0
180266,-71.4285714285714,4,2,3,90,0,0
180500,-71.4285714285714,4,2,5,90,0,0
180735,-40,4,2,5,90,0,0
180970,-62.5,4,2,9,95,0,0
181204,-40,4,2,4,95,0,0
181438,-62.5,4,2,4,95,0,0
181907,-62.5,4,2,8,95,0,0
182024,-62.5,4,2,3,95,0,0
182141,-40,4,2,3,95,0,0
182375,-62.5,4,2,3,95,0,0
182844,-62.5,4,2,8,95,0,0
183079,-62.5,4,2,4,95,0,0
183782,-62.5,4,2,9,95,0,0
183899,-62.5,4,2,3,95,0,0
184719,-62.5,4,2,8,95,0,0
184836,-62.5,4,2,4,95,0,0
184954,-40,4,2,4,95,0,0
185188,-62.5,4,2,4,95,0,0
185657,-62.5,4,2,8,95,0,0
185774,-62.5,4,2,3,95,0,0
185891,-40,4,2,3,95,0,0
186125,-62.5,4,2,3,95,0,0
186594,-62.5,4,2,9,95,0,0
186829,-62.5,4,2,4,95,0,0
187532,-62.5,4,2,11,95,0,0
187649,-62.5,4,2,3,95,0,0
188469,-62.5,4,2,8,95,0,0
188704,-62.5,4,2,4,95,0,0
189172,-62.5,4,2,6,95,0,0
189407,-62.5,4,2,9,95,0,0
189524,-62.5,4,2,3,95,0,0
190344,-62.5,4,2,11,95,0,0
190461,-62.5,4,2,7,95,0,0
191282,-62.5,4,2,8,95,0,0
191516,-62.5,4,2,3,95,0,0
191750,-62.5,4,2,5,95,0,0
191985,-62.5,4,2,1,95,0,0
192219,-62.5,4,2,9,95,0,0
192454,-62.5,4,2,4,95,0,0
193157,-62.5,4,2,8,95,0,0
193274,-62.5,4,2,3,95,0,0
194094,-62.5,4,2,8,95,0,0
194329,-62.5,4,2,4,95,0,0
195032,-62.5,4,2,9,95,0,0
195266,-62.5,4,2,3,95,0,0
195500,-62.5,4,2,5,95,0,0
195970,-62.5,4,2,1,95,0,0
203938,-62.5,4,2,8,95,0,0

[Colours]
Combo1 : 255,117,117
Combo2 : 0,225,164
Combo3 : 192,192,192

[HitObjects]
93,39,266,5,0,0:0:0:0:
130,89,500,1,0,0:0:0:0:
111,149,735,1,0,0:0:0:0:
6,151,970,6,0,P|95:173|187:242,1,180,6|0,2:2|0:0,0:0:0:0:
344,270,1907,2,0,P|255:292|163:361,1,180,2|0,2:2|0:0,0:0:0:0:
47,287,2845,22,0,L|27:231,2,54,2|2|2,2:2|2:2|2:2,0:0:0:0:
170,384,4016,5,0,0:0:0:0:
231,374,4250,1,0,0:0:0:0:
260,318,4485,1,0,0:0:0:0:
214,204,4720,22,0,P|270:208|334:324,1,180,2|0,2:2|0:0,0:0:0:0:
498,241,5657,2,0,P|442:237|378:121,1,180,2|0,2:2|0:0,0:0:0:0:
440,17,6595,6,0,L|494:32,2,54,2|2|2,2:2|2:2|2:2,0:0:0:0:
240,5,7766,21,0,0:0:0:0:
195,66,8000,1,0,0:0:0:0:
218,139,8235,1,0,0:0:0:0:
372,98,8470,6,0,P|360:187|356:323,1,198.000006042481,2|0,2:2|0:0,0:0:0:0:
237,384,9407,2,0,P|233:285|220:186,1,198.000006042481,2|0,2:2|0:0,0:0:0:0:
156,66,10345,22,0,P|110:46|100:30,2,67.5,2|2|2,2:2|2:2|2:2,0:0:0:0:
276,225,11516,5,0,0:0:0:0:
226,188,11750,1,0,0:0:0:0:
166,207,11985,1,0,0:0:0:0:
27,262,12220,22,0,P|119:290|233:334,1,180,2|0,2:2|0:0,0:0:0:0:
424,326,13157,2,0,P|337:352|253:383,1,180,2|0,2:2|0:0,0:0:0:0:
302,245,14095,6,0,P|297:197|297:180,2,54,2|2|2,2:2|2:2|2:2,0:0:0:0:
428,177,15266,21,0,0:0:0:0:
468,101,15501,1,0,0:0:0:0:
437,24,15735,1,0,0:0:0:0:
325,94,15970,5,2,2:2:0:0:
354,256,16438,1,2,2:2:0:0:
325,94,16907,21,2,2:2:0:0:
354,256,17375,1,2,2:2:0:0:
68,200,17845,5,2,2:2:0:0:
143,206,18079,1,0,0:0:0:0:
201,160,18313,1,2,2:2:0:0:
250,104,18548,1,2,2:2:0:0:
325,94,18782,21,2,2:3:0:0:
354,256,19251,2,0,P|308:284|275:331,1,90,2|0,2:2|0:0,0:0:0:0:
199,351,19720,5,2,2:2:0:0:
133,224,20188,1,2,2:2:0:0:
199,351,20657,21,2,2:2:0:0:
265,224,21125,1,2,2:2:0:0:
495,253,21595,5,2,2:1:0:0:
420,259,21829,1,0,0:0:0:0:
362,213,22063,1,2,2:2:0:0:
313,157,22298,1,2,2:2:0:0:
238,147,22532,22,0,B|199:133|199:133|84:183,1,135,8|0,2:1|0:0,0:0:0:0:
63,233,23001,2,0,P|86:295|87:330,1,90,2|0,2:2|0:0,0:0:0:0:
211,347,23470,6,0,L|284:361,1,45,2|0,2:3|0:0,0:0:0:0:
177,236,23938,1,2,2:2:0:0:
211,347,24173,2,0,L|284:361,1,45,2|0,2:3|0:0,0:0:0:0:
371,354,24407,22,0,P|355:293|391:220,1,135,2|0,2:2|0:0,0:0:0:0:
446,274,24876,1,2,2:2:0:0:
303,192,25110,1,4,2:3:0:0:
477,148,25345,5,10,2:3:0:0:
408,81,25579,1,2,2:2:0:0:
303,192,25813,1,6,2:3:0:0:
233,129,26048,1,2,2:2:0:0:
266,42,26282,21,2,2:2:0:0:
132,161,26751,2,0,P|144:105|150:43,1,90,2|0,2:2|0:0,0:0:0:0:
9,35,27220,6,0,P|37:123|57:225,1,161.999995056153,2|0,2:1|0:0,0:0:0:0:
15,256,27688,1,2,2:2:0:0:
170,379,28157,22,0,P|196:286|252:171,1,202.500007724762,2|0,2:1|0:0,0:0:0:0:
217,117,28626,1,2,2:2:0:0:
370,24,29095,6,0,L|459:41,3,67.5000025749208,2|0|2|0,1:2|1:1|1:2|1:1,0:0:0:0:
496,136,29563,2,0,L|407:119,3,67.5000025749208,2|0|2|0,1:2|1:1|1:2|1:1,0:0:0:0:
361,193,30032,1,2,1:2:0:0:
312,237,30149,1,0,1:1:0:0:
313,302,30266,22,0,P|383:328|408:349,1,67.5000025749208,2|0,1:2|1:1,0:0:0:0:
363,154,30501,2,0,P|353:121|350:88,1,67.5000025749208,6|0,2:3|0:0,0:0:0:0:
232,211,30735,2,0,P|209:235|181:255,1,67.5000025749208,2|0,2:2|0:0,0:0:0:0:
21,112,30970,6,0,B|-28:59|60:5|143:52|88:138|88:138|59:180|99:256,1,270,6|0,3:2|0:0,0:0:0:0:
130,333,31438,2,0,P|174:152|186:113,1,180,10|0,2:2|0:0,0:0:0:0:
229,64,31790,1,0,0:0:0:0:
229,64,31907,22,0,P|261:86|240:176,1,90,2|0,3:2|0:0,0:0:0:0:
239,253,32141,2,0,P|328:235|368:234,1,90
481,211,32376,2,0,B|464:249|464:249|428:181|338:100,1,180,10|0,2:2|0:0,0:0:0:0:
223,63,32845,6,0,P|309:36|392:2,1,180,2|0,3:1|0:0,0:0:0:0:
512,54,33196,1,2,2:1:0:0:
512,54,33313,2,0,B|462:50|462:50|437:98,1,103.500001974106,8|0,2:2|0:0,0:0:0:0:
341,144,33548,2,0,B|305:137|291:116|291:116|310:37|310:37|207:4|219:122,1,242.999992584229,2|0,2:1|0:0,0:0:0:0:
191,149,34016,22,0,P|154:132|140:95,1,80.9999975280763,2|0,2:2|0:0,0:0:0:0:
4,0,34251,2,0,P|15:79|37:157,1,161.999995056153,10|2,2:2|2:2,0:0:0:0:
26,346,34720,6,0,B|57:393|122:365|115:308|72:291|72:291|53:212|100:255|129:165,1,270,2|0,3:2|0:0,0:0:0:0:
222,62,35188,2,0,B|255:101|255:101|218:161|218:161|235:216,1,180,10|0,2:2|0:0,0:0:0:0:
295,289,35540,1,0,0:0:0:0:
295,289,35657,22,0,P|360:333|377:381,1,90,2|0,3:2|0:0,0:0:0:0:
478,362,35891,2,0,P|463:325|495:265,1,90
472,129,36126,2,0,P|440:189|290:190,1,180,10|0,2:2|0:0,0:0:0:0:
112,96,36595,6,0,P|242:124|354:155,1,180,2|0,3:1|0:0,0:0:0:0:
317,297,36946,1,2,2:1:0:0:
317,297,37063,2,0,B|356:262|356:262|337:215,1,103.500001974106,8|0,2:2|0:0,0:0:0:0:
222,206,37298,2,0,B|155:231|155:231|151:332|151:332|35:387,1,242.999992584229,2|0,2:1|0:0,0:0:0:0:
37,300,37766,22,0,P|30:260|13:223,1,80.9999975280763,2|0,2:2|0:0,0:0:0:0:
0,137,38001,2,0,P|17:100|23:60,1,80.9999975280763,10|0,2:2|0:0,0:0:0:0:
119,7,38235,2,0,P|136:43|142:83,1,80.9999975280763,2|0,2:2|0:0,0:0:0:0:
222,206,38470,6,0,B|258:236|326:212|304:117|221:101|218:51|322:-37|372:35|370:136,1,310.500005922318,2|0,3:2|0:0,0:0:0:0:
374,166,38938,2,0,P|312:139|246:123,1,135,10|0,2:2|0:0,0:0:0:0:
106,190,39407,22,0,B|105:243|194:317|186:224|226:108|255:224|239:314|290:320|339:290,1,310.500005922318,2|0,3:2|0:0,0:0:0:0:
444,228,39876,2,0,P|429:293|419:360,1,135,10|0,2:2|0:0,0:0:0:0:
275,384,40345,6,0,P|201:354|204:295,1,135.000005149842,2|0,3:1|0:0,0:0:0:0:
269,213,40696,1,2,2:1:0:0:
269,213,40813,2,0,B|267:163|267:163|195:130,1,103.500001974106,8|0,2:2|0:0,0:0:0:0:
100,227,41048,2,0,B|74:236|63:247|63:247|5:152|117:181|87:20,1,242.999992584229,2|0,2:1|0:0,0:0:0:0:
154,0,41516,22,0,P|195:21|207:68,1,80.9999975280763,2|0,2:2|0:0,0:0:0:0:
218,140,41751,2,0,P|314:103|374:103,1,161.999995056153,10|2,2:2|2:2,0:0:0:0:
430,199,42220,6,0,B|460:211|502:142|502:142|422:342|552:325,1,270,2|0,3:2|0:0,0:0:0:0:
423,377,42688,2,0,B|377:364|377:364|344:293|344:293|289:270,1,180,10|0,2:2|0:0,0:0:0:0:
241,187,43040,1,0,0:0:0:0:
241,187,43157,22,0,P|196:216|198:277,1,90,2|0,3:2|0:0,0:0:0:0:
170,351,43391,2,0,P|134:323|92:306,1,90
0,277,43626,6,0,P|20:189|28:99,1,180,10|0,2:2|0:0,0:0:0:0:
135,4,44095,22,0,B|165:24|203:19|203:19|184:68|198:126,1,180,2|0,3:1|0:0,0:0:0:0:
152,207,44446,1,2,2:1:0:0:
152,207,44563,2,0,B|100:226|100:226|75:329,1,103.500001974106,8|0,2:2|0:0,0:0:0:0:
154,352,44798,2,0,P|231:320|424:299,1,242.999992584229,2|0,2:1|0:0,0:0:0:0:
467,326,45266,6,0,B|480:283|480:283|455:224,1,80.9999975280763
444,153,45501,2,0,B|423:155|396:124|396:124|346:198|239:174,1,161.999995056153,8|0,2:2|0:0,0:0:0:0:
78,290,45970,22,0,L|125:116,1,175.499991966248,6|0,3:2|0:0,0:0:0:0:
219,83,46438,2,0,L|179:227,1,116.999994644165,10|0,2:2|0:0,0:0:0:0:
308,280,46907,5,2,3:2:0:0:
413,223,47141,1,2,2:2:0:0:
413,223,47259,1,0,0:0:0:0:
413,223,47376,1,10,2:2:0:0:
376,113,47610,22,0,P|363:87|362:28,1,58.4999973220826,2|0,2:2|0:0,0:0:0:0:
496,99,47845,2,0,P|457:181|441:308,1,175.499991966248,0|0,3:3|0:0,0:0:0:0:
398,346,48313,6,0,B|316:367|284:256|321:213|321:213|317:240|341:284,1,242.999992584229,10|0,2:2|0:0,0:0:0:0:
292,342,48782,21,2,3:2:0:0:
212,287,49016,1,2,2:2:0:0:
246,172,49251,2,0,P|220:88|204:2,1,175.499991966248,10|0,2:2|0:0,0:0:0:0:
87,66,49720,6,0,B|47:137|47:137|108:253,1,175.499991966248,2|0,3:2|0:0,0:0:0:0:
155,274,50188,2,0,B|182:220|182:220|154:171,1,116.999994644165,10|0,2:2|0:0,0:0:0:0:
185,4,50657,21,2,3:2:0:0:
280,119,50891,1,2,2:2:0:0:
365,78,51126,1,10,2:2:0:0:
453,177,51360,6,0,B|428:200|434:323|434:323|405:204|340:188,1,292.499986610413,2|0,2:2|0:0,0:0:0:0:
300,170,52063,22,0,P|253:227|267:284,1,135,10|0,2:2|0:0,0:0:0:0:
364,336,52532,2,0,P|417:323|447:322,1,72,2|2,3:2|2:2,0:0:0:0:
512,228,53001,2,0,P|498:159|497:147,1,72,10|0,2:2|0:0,0:0:0:0:
403,26,53470,6,0,P|337:27|324:136,1,175.499991966248,2|0,3:2|0:0,0:0:0:0:
266,196,53938,2,0,P|216:195|206:113,1,116.999994644165,10|0,2:2|0:0,0:0:0:0:
79,27,54407,21,2,3:2:0:0:
33,142,54641,1,2,2:2:0:0:
33,142,54876,1,10,2:2:0:0:
128,198,55110,6,0,P|152:234|171:247,1,58.4999973220826,2|0,2:2|0:0,0:0:0:0:
154,366,55345,2,0,P|188:289|274:184,1,175.499991966248,0|0,3:3|0:0,0:0:0:0:
327,268,55813,22,0,B|394:265|468:343|468:343|425:307|446:260,1,242.999992584229,10|0,2:2|0:0,0:0:0:0:
499,213,56282,5,2,3:2:0:0:
494,90,56516,1,2,2:2:0:0:
376,143,56751,2,0,B|320:171|300:116|274:53|194:101,1,175.499991966248,10|0,2:2|0:0,0:0:0:0:
173,167,57220,22,0,P|93:195|4:246,1,175.499991966248,2|0,3:2|0:0,0:0:0:0:
69,308,57688,2,0,P|126:275|188:254,1,116.999994644165,10|0,2:2|0:0,0:0:0:0:
284,188,58157,5,2,3:2:0:0:
375,234,58391,1,2,2:2:0:0:
415,328,58626,1,10,2:2:0:0:
500,357,58860,1,2,2:2:0:0:
491,214,59095,22,0,P|498:180|514:156,3,58.4999973220826,0|0|0|0,3:3|1:1|1:1|1:1,0:0:0:0:
447,92,59563,2,0,P|440:58|424:34,3,58.4999973220826,8|0|0|0,2:2|1:1|1:1|1:1,0:0:0:0:
317,8,60032,2,0,L|172:41,1,116.999994644165,0|2,3:3|1:2,0:0:0:0:
171,141,60384,1,0,1:1:0:0:
178,150,60501,5,10,2:2:0:0:
206,154,60618,1,0,1:1:0:0:
234,159,60735,1,6,2:3:0:0:
262,165,60852,1,4,2:3:0:0:
289,171,60970,22,0,P|283:281|280:365,1,161.999995056153,2|0,3:2|0:0,0:0:0:0:
348,383,61438,1,10,2:2:0:0:
348,383,61673,1,0,0:0:0:0:
439,267,61907,6,0,P|445:157|447:77,1,161.999995056153,2|0,3:2|0:0,0:0:0:0:
381,55,62375,1,10,2:2:0:0:
381,55,62610,1,2,2:2:0:0:
219,3,62845,22,0,P|147:31|56:80,1,161.999995056153,2|2,3:1|2:1,0:0:0:0:
94,145,63313,1,8,2:2:0:0:
45,224,63548,1,2,2:1:0:0:
110,341,64016,6,0,P|182:354|211:376,2,107.999996704102,2|10|2,2:2|2:2|2:2,0:0:0:0:
170,253,64720,22,0,P|212:244|300:250,1,107.999996704102,2|0,3:2|0:0,0:0:0:0:
363,302,65188,2,0,P|405:311|493:305,1,107.999996704102,10|0,2:2|0:0,0:0:0:0:
512,202,65657,6,0,P|470:193|382:199,1,107.999996704102,2|0,3:2|0:0,0:0:0:0:
330,124,66125,2,0,P|288:133|200:127,1,107.999996704102,10|0,2:2|0:0,0:0:0:0:
101,166,66595,22,0,P|98:91|177:42,2,161.999995056153,2|2|2,3:1|2:1|2:1,0:0:0:0:
162,234,67532,5,0,3:3:0:0:
168,260,67649,1,0,1:1:0:0:
174,286,67766,1,2,1:2:0:0:
180,312,67884,1,0,1:1:0:0:
192,356,68001,22,0,P|269:363|421:392,1,202.500007724762,10|0,2:2|0:0,0:0:0:0:
483,336,68470,6,0,P|458:243|463:217,1,80.9999975280763,6|0,3:2|0:0,0:0:0:0:
467,57,68704,2,0,P|424:79|414:126,1,99.0000030212403
348,213,68938,2,0,B|291:225|262:182|288:149|243:92|167:129,1,202.500007724762,10|0,2:2|0:0,0:0:0:0:
115,163,69407,22,0,B|107:205|107:205|174:287,1,80.9999975280763,2|0,3:2|0:0,0:0:0:0:
301,363,69641,2,0,B|344:335|344:335|292:250,1,99.0000030212403
207,193,69876,2,0,B|190:168|190:168|355:85,1,202.500007724762,10|0,2:2|0:0,0:0:0:0:
343,0,70345,6,0,P|245:52|157:82,1,161.999995056153,2|0,3:1|0:0,0:0:0:0:
127,23,70696,1,2,2:1:0:0:
127,23,70813,2,0,B|96:17|96:17|17:72,1,103.500001974106,8|0,2:2|0:0,0:0:0:0:
8,171,71048,22,0,B|57:195|87:146|87:146|158:150|51:215|149:280,1,242.999992584229,2|0,2:1|0:0,0:0:0:0:
183,336,71516,6,0,P|227:309|223:265,1,80.9999975280763,2|0,2:2|0:0,0:0:0:0:
228,183,71751,2,0,B|191:103|194:74|194:74|218:116|278:152,1,161.999995056153,10|2,2:2|2:2,0:0:0:0:
312,349,72220,22,0,P|409:316|450:315,1,80.9999975280763,2|0,3:2|0:0,0:0:0:0:
505,193,72454,2,0,P|478:153|430:147,1,99.0000030212403
344,233,72688,2,0,P|216:285|122:292,1,202.500007724762,10|0,2:2|0:0,0:0:0:0:
75,330,73157,6,0,P|56:237|41:208,1,80.9999975280763,2|0,3:2|0:0,0:0:0:0:
15,66,73391,2,0,B|47:56|47:56|104:100,1,99.0000030212403
187,212,73626,2,0,P|268:174|217:61,1,202.500007724762,10|0,2:2|0:0,0:0:0:0:
180,23,74095,22,0,L|63:-6,3,80.9999975280763,2|0|0|2,3:1|1:1|1:1|1:1,0:0:0:0:
99,97,74563,2,0,L|177:113,3,80.9999975280763,8|0|2|0,2:2|1:1|1:1|1:1,0:0:0:0:
246,177,75032,5,0,3:3:0:0:
256,215,75149,1,0,1:1:0:0:
267,253,75266,1,4,2:3:0:0:
277,292,75384,1,4,2:3:0:0:
281,332,75501,2,0,P|206:383|136:364,1,161.999995056153,8|0,2:2|0:0,0:0:0:0:
53,232,75970,21,2,3:2:0:0:
198,295,76438,1,2,3:2:0:0:
53,232,76907,5,2,3:2:0:0:
198,295,77375,1,2,3:2:0:0:
294,114,77845,21,2,3:2:0:0:
300,189,78079,1,0,0:0:0:0:
254,247,78313,1,2,3:2:0:0:
198,295,78548,1,2,2:2:0:0:
188,371,78782,6,0,L|261:385,1,45,2|0,3:3|0:0,0:0:0:0:
148,185,79251,2,0,P|168:97|190:66,1,90,2|0,3:2|0:0,0:0:0:0:
230,33,79720,21,2,3:2:0:0:
371,89,80188,1,2,3:2:0:0:
230,33,80657,5,2,3:2:0:0:
371,89,81125,1,2,3:2:0:0:
202,315,81595,21,2,3:1:0:0:
196,240,81829,1,0,0:0:0:0:
242,182,82063,1,2,3:2:0:0:
298,133,82298,1,2,2:2:0:0:
308,58,82532,6,0,B|322:19|322:19|197:37,1,135,8|0,3:1|0:0,0:0:0:0:
118,1,83001,2,0,P|148:66|175:161,1,135,2|0,3:2|0:0,0:0:0:0:
106,205,83470,21,2,3:3:0:0:
187,338,83704,2,0,P|197:272|212:244,1,53.9999983520508
235,211,83938,2,0,P|302:249|303:283,1,107.999996704102,2|2,3:2|2:3,0:0:0:0:
385,373,84407,5,2,3:2:0:0:
433,282,84641,2,0,P|501:257|513:257,1,53.9999983520508
491,185,84876,1,2,3:2:0:0:
378,150,85110,1,4,2:3:0:0:
445,96,85345,21,10,3:3:0:0:
416,22,85579,1,2,2:2:0:0:
304,95,85813,1,6,3:3:0:0:
230,39,86048,1,2,2:2:0:0:
161,94,86282,6,0,P|185:157|212:283,1,180,2|2,3:2|3:2,0:0:0:0:
413,316,87220,22,0,P|333:329|257:358,1,161.999995056153,2|0,3:1|0:0,0:0:0:0:
179,336,87688,1,2,3:2:0:0:
89,179,88157,6,0,P|202:198|310:238,1,202.500007724762,2|0,3:1|0:0,0:0:0:0:
357,186,88626,1,2,3:2:0:0:
106,29,89095,22,0,L|141:132,3,67.5000025749208,2|0|2|0,1:2|1:1|1:2|1:1,0:0:0:0:
89,179,89563,2,0,L|124:282,3,67.5000025749208,2|0|2|0,1:2|1:1|1:2|1:1,0:0:0:0:
169,309,90032,5,2,1:2:0:0:
233,324,90149,1,0,1:1:0:0:
292,294,90266,1,6,2:3:0:0:
318,234,90383,1,4,2:3:0:0:
300,170,90501,2,0,P|294:93|418:127,1,202.500007724762,6|0,2:3|0:0,0:0:0:0:
451,143,90970,21,4,2:2:0:0:
42,43,98470,6,0,L|74:259,3,180,2|2|2|2,3:2|3:2|3:2|3:2,0:0:0:0:
145,349,100345,1,2,3:2:0:0:
145,349,100813,1,0,3:3:0:0:
145,349,101282,1,0,3:3:0:0:
145,349,101751,1,2,3:2:0:0:
206,267,102220,22,0,P|271:267|322:388,1,180,2|2,3:2|3:2,0:0:0:0:
485,287,103157,2,0,P|420:287|369:166,1,180,2|2,3:2|3:2,0:0:0:0:
463,122,104095,1,2,3:2:0:0:
463,122,104563,1,0,3:3:0:0:
463,122,105032,1,0,3:3:0:0:
463,122,105501,2,0,L|446:7,1,90,2|2,3:2|2:2,0:0:0:0:
361,3,105970,6,0,P|299:27|306:94,1,135.000005149842,0|0,3:3|3:3,0:0:0:0:
361,198,106907,2,0,P|395:205|426:216,2,67.5000025749208,8|0|0,2:2|0:0|0:0,0:0:0:0:
284,169,107610,2,0,P|211:171|143:199,1,135.000005149842,8|8,2:2|2:2,0:0:0:0:
113,267,108313,22,0,B|113:301|113:301|144:343,1,67.5000025749208,0|0,3:3|3:3,0:0:0:0:
198,383,108782,1,8,2:2:0:0:
281,361,109016,1,0,3:3:0:0:
297,284,109251,1,0,0:0:0:0:
297,284,109720,6,0,P|274:197|263:124,1,135.000005149842,0|0,3:3|3:3,0:0:0:0:
297,18,110657,2,0,P|333:26|365:60,2,67.5000025749208,8|0|0,2:2|0:0|0:0,0:0:0:0:
226,69,111360,2,0,P|156:97|81:92,1,135.000005149842,8|8,2:2|2:2,0:0:0:0:
37,34,112063,21,0,3:3:0:0:
12,172,112532,1,8,2:2:0:0:
86,215,112766,1,0,3:3:0:0:
161,186,113001,1,0,0:0:0:0:
161,186,113470,6,0,P|94:177|26:171,2,135.000005149842,0|0|8,3:3|0:0|2:2,0:0:0:0:
134,260,114641,1,0,0:0:0:0:
197,310,114876,1,0,0:0:0:0:
254,252,115110,2,0,P|245:172|242:103,1,135.000005149842,8|8,2:2|2:2,0:0:0:0:
260,39,115813,22,0,P|311:55|332:58,1,67.5000025749208,0|0,0:0|3:3,0:0:0:0:
347,131,116282,1,8,2:2:0:0:
415,95,116516,1,0,3:3:0:0:
399,21,116751,1,0,0:0:0:0:
399,21,117220,6,0,P|420:123|431:176,1,135.000005149842,0|0,3:3|3:3,0:0:0:0:
391,352,118157,2,0,P|371:288|362:264,2,67.5000025749208,8|0|0,2:2|0:0|3:3,0:0:0:0:
469,367,118860,1,8,2:2:0:0:
256,192,119095,12,0,120735,0:0:0:0:
373,42,120970,22,0,P|256:51|213:68,1,148.50000453186,6|0,3:2|0:0,0:0:0:0:
201,150,121438,1,2,3:2:0:0:
201,150,121907,5,10,2:2:0:0:
160,240,122141,1,2,2:2:0:0:
70,198,122376,1,2,2:2:0:0:
112,109,122610,2,0,B|101:90|94:44|94:44|62:103|-26:155,1,198.000006042481,10|8,2:2|2:2,0:0:0:0:
59,221,123313,22,0,P|66:269|70:319,1,99.0000030212403,2|0,3:2|3:3,0:0:0:0:
171,384,123782,1,10,2:2:0:0:
171,384,124016,1,2,3:2:0:0:
243,272,124251,2,0,P|295:287|300:363,1,99.0000030212403,2|0,2:2|3:3,0:0:0:0:
418,286,124720,6,0,P|404:344|396:398,1,99.0000030212403,2|0,3:2|3:3,0:0:0:0:
510,311,125188,1,2,3:2:0:0:
510,311,125657,21,10,2:2:0:0:
479,233,125891,1,2,2:2:0:0:
500,145,126126,1,2,2:2:0:0:
465,68,126360,2,0,B|409:45|409:45|365:100|365:100|271:89,1,198.000006042481,10|8,2:2|2:2,0:0:0:0:
237,10,127063,2,0,P|196:55|215:121,1,99.0000030212403,2|0,3:2|3:3,0:0:0:0:
301,168,127532,5,10,2:2:0:0:
301,168,127766,1,2,3:2:0:0:
262,258,128001,2,0,P|259:299|265:372,1,99.0000030212403,2|0,2:2|3:3,0:0:0:0:
115,384,128470,22,0,P|84:331|123:281,1,99.0000030212403,2|0,3:2|3:3,0:0:0:0:
166,234,128938,2,0,P|197:181|158:131,1,99.0000030212403,2|0,2:2|3:3,0:0:0:0:
106,118,129407,6,0,P|43:138|-7:148,2,99.0000030212403,10|0|2,2:2|0:0|2:2,0:0:0:0:
229,49,130110,2,0,P|173:36|17:6,1,198.000006042481,10|8,2:2|2:2,0:0:0:0:
0,96,130813,22,0,P|25:140|50:212,1,99.0000030212403,2|0,2:2|3:3,0:0:0:0:
26,270,131282,1,10,2:2:0:0:
26,270,131516,1,2,3:2:0:0:
59,384,131751,2,0,P|156:344|187:341,1,99.0000030212403,2|0,2:2|3:3,0:0:0:0:
250,260,132220,6,0,B|293:282|293:282|305:361|305:361|378:388,1,198.000006042481,2|2,3:2|3:2,0:0:0:0:
493,300,133157,1,10,2:2:0:0:
504,228,133391,1,2,2:2:0:0:
461,171,133626,1,2,3:2:0:0:
314,187,133860,22,0,B|278:171|278:171|270:181|270:181|239:179|239:179|241:167|241:167|228:171|228:171|224:164|223:164|208:168|208:168|208:159|208:159|195:113|195:113|236:77|236:77|236:105|236:106|236:106|262:103|262:103|267:89|267:89|281:113|281:113|316:117|316:117|356:98|356:98|394:117|394:117|440:98,1,495.000015106202,10|0,2:2|0:0,0:0:0:0:
398,36,135266,6,0,L|406:-22,2,36,2|2|2,2:2|2:2|2:2,0:0:0:0:
314,187,135970,22,0,P|203:191|229:59,1,270,6|0,3:2|0:0,0:0:0:0:
307,3,136438,2,0,B|427:30|327:85|502:128,1,180,10|0,2:2|0:0,0:0:0:0:
499,189,136790,1,0,0:0:0:0:
499,189,136907,6,0,P|489:211|467:300,1,90,2|0,3:2|0:0,0:0:0:0:
359,287,137141,2,0,P|369:265|391:176,1,90
256,130,137376,2,0,B|189:134|174:205|174:205|217:212|231:269,1,180,10|0,2:2|0:0,0:0:0:0:
174,363,137845,22,0,P|158:274|133:187,1,180,2|0,3:1|0:0,0:0:0:0:
38,98,138196,1,2,2:1:0:0:
38,98,138313,2,0,B|23:46|23:46|132:-31,1,103.500001974106,8|0,2:2|0:0,0:0:0:0:
159,78,138548,2,0,B|229:125|263:37|250:24|301:-46|418:23,1,242.999992584229,2|0,2:1|0:0,0:0:0:0:
443,50,139016,6,0,P|417:90|394:152,1,80.9999975280763,2|0,2:2|0:0,0:0:0:0:
405,242,139251,2,0,B|397:270|454:294|454:294|494:212|456:218,1,161.999995056153,10|2,2:2|2:2,0:0:0:0:
308,146,139720,22,0,P|202:169|2:217,1,270,2|0,3:2|0:0,0:0:0:0:
35,334,140188,2,0,B|98:346|154:364|154:364|127:350|102:291,1,180,10|0,2:2|0:0,0:0:0:0:
188,253,140540,1,0,0:0:0:0:
188,253,140657,6,0,P|252:304|244:336,1,90,2|0,3:2|0:0,0:0:0:0:
317,384,140891,2,0,P|381:333|373:301,1,90
320,223,141126,2,0,P|288:94|286:-12,1,180,10|0,2:2|0:0,0:0:0:0:
430,183,141595,22,0,B|449:193|468:236|468:236|469:151|504:73,1,180,2|0,3:1|0:0,0:0:0:0:
438,11,141946,1,2,2:1:0:0:
438,11,142063,2,0,B|390:1|390:1|340:66,1,103.500001974106,8|0,2:2|0:0,0:0:0:0:
273,138,142298,2,0,B|174:118|196:28|219:3|219:3|225:38|268:75,1,242.999992584229,2|0,2:1|0:0,0:0:0:0:
357,158,142766,6,0,P|328:243|326:280,1,80.9999975280763,2|0,2:2|0:0,0:0:0:0:
296,309,143001,2,0,P|306:348|323:384,1,80.9999975280763,10|0,2:2|0:0,0:0:0:0:
445,345,143235,2,0,P|423:306|344:296,1,80.9999975280763,2|0,2:2|0:0,0:0:0:0:
246,243,143470,22,0,B|191:186|154:215|147:260|130:322|156:417|47:376|-9:319|36:238,1,310.500005922318,2|0,3:2|0:0,0:0:0:0:
75,231,143938,2,0,P|87:123|97:77,1,135,10|0,2:2|0:0,0:0:0:0:
186,32,144407,6,0,B|224:56|312:84|312:84|270:95|187:124|187:124|232:149|267:182,1,310.500005922318,2|0,3:2|0:0,0:0:0:0:
304,198,144876,2,0,P|324:265|253:317,1,135,10|0,2:2|0:0,0:0:0:0:
215,369,145345,22,0,B|178:346|178:346|181:293|181:293|123:251,1,135.000005149842,2|0,3:1|0:0,0:0:0:0:
52,199,145696,1,2,2:1:0:0:
52,199,145813,2,0,B|22:165|22:165|143:107,1,103.500001974106,8|0,2:2|0:0,0:0:0:0:
178,194,146048,2,0,P|258:234|420:297,1,242.999992584229,2|0,2:1|0:0,0:0:0:0:
476,247,146516,6,0,P|486:208|444:166,1,80.9999975280763,2|0,2:2|0:0,0:0:0:0:
399,70,146751,2,0,B|385:52|343:25|343:25|416:51|493:55,1,161.999995056153,10|2,2:2|2:2,0:0:0:0:
347,159,147220,22,0,P|220:116|277:-8,1,270,2|0,3:2|0:0,0:0:0:0:
298,83,147688,2,0,B|260:110|260:110|76:69,1,180,10|0,2:2|0:0,0:0:0:0:
13,31,148040,1,0,0:0:0:0:
13,31,148157,6,0,P|32:74|42:131,1,90,2|0,3:2|0:0,0:0:0:0:
107,185,148391,2,0,P|97:228|79:269,1,90
3,340,148626,2,0,P|111:314|281:320,1,270,10|0,2:2|0:0,0:0:0:0:
359,384,149095,22,0,P|386:331|315:240,1,180,2|0,3:1|0:0,0:0:0:0:
220,201,149446,1,2,2:1:0:0:
220,201,149563,2,0,B|222:166|222:166|323:113,1,103.500001974106,8|0,2:2|0:0,0:0:0:0:
394,81,149798,2,0,B|446:56|500:127|489:166|430:184|385:180|369:214|371:308|460:329,1,323.999990112305,2|0,2:1|0:0,0:0:0:0:
485,242,150501,6,0,B|399:241|436:281|332:293,1,161.999995056153,8|0,2:2|0:0,0:0:0:0:
159,338,150970,5,4,3:2:0:0:
159,338,151087,2,0,P|143:231|130:167,2,148.50000453186,0|8|0,1:1|1:2|1:1,0:0:0:0:
226,384,151907,1,2,3:1:0:0:
321,331,152141,1,0,1:1:0:0:
282,223,152376,21,8,2:1:0:0:
282,223,152493,2,0,B|397:200,1,99.0000030212403,0|0,1:1|0:0,0:0:0:0:
444,137,152845,6,0,P|418:68|339:72,1,148.50000453186,0|0,3:3|1:1,0:0:0:0:
298,116,153313,1,8,2:2:0:0:
223,38,153548,1,0,1:1:0:0:
130,87,153782,21,2,3:3:0:0:
130,87,153899,2,0,P|160:166|172:216,1,99.0000030212403,0|0,1:1|0:0,0:0:0:0:
231,224,154251,2,0,P|201:303|189:353,1,99.0000030212403,8|0,1:1|0:0,0:0:0:0:
148,384,154602,5,0,1:1:0:0:
148,384,154720,1,0,3:3:0:0:
48,333,154954,1,0,1:1:0:0:
48,242,155188,1,8,2:2:0:0:
48,242,155305,2,0,P|136:221|177:210,1,99.0000030212403,0|0,1:1|0:0,0:0:0:0:
205,159,155657,22,0,P|293:198|291:262,1,148.50000453186,2|0,3:1|1:1,0:0:0:0:
250,304,156126,1,8,2:1:0:0:
346,358,156360,1,0,1:1:0:0:
434,303,156595,5,0,3:3:0:0:
434,303,156712,1,0,1:1:0:0:
372,147,157063,1,8,1:2:0:0:
493,252,157415,21,0,1:1:0:0:
493,252,157532,1,4,3:1:0:0:
469,161,157766,1,0,1:1:0:0:
508,47,158001,1,8,2:1:0:0:
508,47,158118,2,0,B|453:56|468:70|393:92,1,99.0000030212403,0|0,1:1|0:0,0:0:0:0:
344,44,158470,6,0,P|246:24|218:19,1,99.0000030212403,2|0,3:3|0:0,0:0:0:0:
191,84,158821,1,0,1:1:0:0:
191,84,158938,1,8,2:2:0:0:
20,147,159173,22,0,P|44:151|68:156,1,49.5000015106202,2|0,1:3|0:0,0:0:0:0:
131,219,159407,1,2,3:1:0:0:
131,219,159524,1,0,1:1:0:0:
296,151,159876,1,8,1:1:0:0:
381,240,160110,6,0,L|457:224,1,49.5000015106202,4|0,2:3|1:1,0:0:0:0:
466,302,160345,2,0,L|353:323,1,99.0000030212403,8|0,3:3|1:1,0:0:0:0:
259,239,160813,1,12,2:3:0:0:
259,239,160930,2,0,P|214:268|210:323,1,99.0000030212403,0|0,1:1|0:0,0:0:0:0:
151,371,161282,22,0,P|71:345|78:275,1,148.50000453186,2|0,3:1|1:1,0:0:0:0:
139,245,161751,1,8,2:1:0:0:
164,161,161985,1,0,1:1:0:0:
95,88,162220,5,0,3:3:0:0:
95,88,162337,2,0,P|177:70|225:61,1,99.0000030212403,0|0,1:1|0:0,0:0:0:0:
243,8,162688,2,0,P|291:17|339:28,1,99.0000030212403,8|0,1:2|0:0,0:0:0:0:
387,96,163040,21,0,1:1:0:0:
387,96,163157,1,0,3:3:0:0:
504,114,163391,1,0,1:1:0:0:
483,216,163626,1,8,2:1:0:0:
483,216,163743,6,0,P|464:266|445:355,1,99.0000030212403,0|0,1:1|0:0,0:0:0:0:
398,361,164095,21,0,3:3:0:0:
200,318,164446,1,0,1:1:0:0:
200,318,164563,1,8,2:2:0:0:
301,273,164798,1,0,1:1:0:0:
234,208,165032,5,0,3:3:0:0:
234,208,165149,2,0,P|247:131|260:81,1,99.0000030212403,0|0,1:1|0:0,0:0:0:0:
309,31,165501,2,0,P|338:118|364:198,1,148.50000453186,8|0,1:1|1:1,0:0:0:0:
406,254,165970,22,0,P|473:227|462:138,1,125.999996154785,2|2,3:2|1:2,0:0:0:0:
512,109,166321,1,2,1:2:0:0:
507,84,166438,1,10,2:2:0:0:
503,59,166555,1,2,1:2:0:0:
498,34,166673,2,0,P|453:45|384:59,1,62.9999980773926,2|0,2:2|0:0,0:0:0:0:
358,90,166907,2,0,P|327:83|296:75,1,62.9999980773926,2|0,3:2|1:1,0:0:0:0:
252,0,167141,1,2,2:2:0:0:
321,176,167376,6,0,P|249:156|148:148,1,125.999996154785,8|2,1:1|1:2,0:0:0:0:
134,201,167727,1,0,1:1:0:0:
134,201,167845,2,0,L|142:280,1,62.9999980773926,2|0,3:2|1:1,0:0:0:0:
71,349,168079,2,0,L|64:286,1,62.9999980773926,2|0,2:2|0:0,0:0:0:0:
5,204,168313,2,0,B|12:166|12:166|41:140|41:140|52:72,1,125.999996154785,10|2,1:2|2:2,0:0:0:0:
171,7,168782,22,0,P|233:33|236:96,1,125.999996154785,2|0,3:3|1:1,0:0:0:0:
176,142,169134,1,0,1:1:0:0:
178,166,169251,1,8,2:1:0:0:
192,186,169368,1,0,1:1:0:0:
214,201,169485,2,0,P|280:187|318:184,1,62.9999980773926,2|0,1:2|0:0,0:0:0:0:
343,127,169720,6,0,P|423:142|497:159,1,125.999996154785,2|2,3:2|2:2,0:0:0:0:
484,236,170071,1,0,1:1:0:0:
484,236,170188,2,0,B|507:293|507:293|463:344,1,125.999996154785,10|2,2:2|1:2,0:0:0:0:
338,287,170657,1,2,3:2:0:0:
338,287,170774,22,0,P|231:323|189:325,1,125.999996154785,2|2,1:2|2:2,0:0:0:0:
147,278,171126,2,0,P|143:226|163:204,1,62.9999980773926,8|0,1:1|0:0,0:0:0:0:
240,133,171360,1,2,2:2:0:0:
240,133,171477,1,0,1:1:0:0:
240,133,171595,6,0,P|177:106|145:102,1,62.9999980773926,2|0,3:2|0:0,0:0:0:0:
75,113,171829,2,0,P|45:123|17:138,1,62.9999980773926,2|0,1:2|0:0,0:0:0:0:
5,260,172063,21,10,2:2:0:0:
5,260,172180,1,0,1:1:0:0:
5,260,172298,1,2,2:2:0:0:
159,384,172532,2,0,P|126:311|102:238,1,125.999996154785,4|0,3:1|0:0,0:0:0:0:
171,197,172884,1,0,1:1:0:0:
171,197,173001,6,0,B|259:219|181:247|323:276,1,125.999996154785,8|0,2:1|1:1,0:0:0:0:
427,342,173470,21,2,3:3:0:0:
427,342,173587,2,0,P|446:270|432:222,1,125.999996154785,0|0,1:1|1:1,0:0:0:0:
370,153,173938,2,0,L|441:135,1,62.9999980773926,10|0,1:2|0:0,0:0:0:0:
446,51,174173,2,0,L|384:66,1,62.9999980773926,2|0,2:3|1:1,0:0:0:0:
300,107,174407,5,2,3:2:0:0:
275,101,174524,1,0,1:1:0:0:
250,95,174641,1,2,1:2:0:0:
225,88,174759,1,2,2:2:0:0:
200,81,174876,1,8,2:1:0:0:
61,21,175110,22,0,L|80:98,1,62.9999980773926,6|0,2:3|1:1,0:0:0:0:
147,142,175345,2,0,B|159:201|159:201|101:288,1,125.999996154785,10|2,3:3|1:2,0:0:0:0:
30,307,175696,1,0,1:1:0:0:
30,307,175813,2,0,P|85:343|95:364,1,62.9999980773926,14|0,2:3|1:1,0:0:0:0:
152,384,176048,2,0,P|175:362|204:351,1,62.9999980773926,2|0,1:2|0:0,0:0:0:0:
304,381,176282,6,0,B|332:342|332:342|308:210,1,125.999996154785,2|2,3:2|2:2,0:0:0:0:
249,203,176634,1,2,1:2:0:0:
249,203,176751,1,8,1:1:0:0:
172,86,176985,22,0,L|184:4,1,62.9999980773926,2|0,1:2|1:1,0:0:0:0:
277,0,177220,2,0,L|363:23,1,62.9999980773926,2|0,3:2|0:0,0:0:0:0:
408,67,177454,5,2,1:2:0:0:
401,91,177571,1,0,1:1:0:0:
394,115,177688,1,10,2:2:0:0:
387,139,177805,1,0,1:1:0:0:
381,163,177923,2,0,P|432:174|466:174,1,62.9999980773926,2|0,0:0|0:0,0:0:0:0:
508,249,178157,22,0,P|446:255|364:270,1,125.999996154785,2|2,3:2|2:2,0:0:0:0:
316,316,178509,1,2,1:2:0:0:
316,316,178626,1,0,0:0:0:0:
155,312,178860,1,2,1:2:0:0:
155,312,178977,1,0,1:1:0:0:
155,312,179095,6,0,P|159:227|161:212,1,62.9999980773926,2|0,3:2|1:1,0:0:0:0:
192,168,179329,2,0,P|196:83|198:68,1,62.9999980773926,2|0,2:2|0:0,0:0:0:0:
257,13,179563,21,10,1:2:0:0:
296,178,179798,1,2,2:2:0:0:
407,12,180032,6,0,P|393:88|381:148,1,125.999996154785,2|2,3:2|1:2,0:0:0:0:
435,277,180501,21,8,2:1:0:0:
296,178,180735,6,2,B|237:170|237:170|175:254,1,112.5,0|0,0:0|0:0,0:1:0:0:
157,293,180970,22,0,P|120:294|71:252,1,72,2|0,3:2|0:0,0:0:0:0:
26,194,181204,2,2,B|10:151|10:151|62:31,1,112.5,2|0,2:2|1:1,0:1:0:0:
81,7,181438,2,0,P|186:33|205:33,1,72,10|0,2:2|0:2,0:0:0:0:
191,103,181673,2,0,P|286:79|306:79,1,72,2|0,1:2|0:0,0:0:0:0:
372,93,181907,5,2,3:2:0:0:
372,93,182024,1,2,1:2:0:0:
372,93,182141,2,2,B|403:107|403:107|420:229,1,112.5,0|2,0:0|2:2,0:1:0:0:
376,275,182376,1,8,1:0:0:0:
242,177,182610,22,0,P|206:184|172:195,1,72,2|0,2:2|1:1,0:0:0:0:
113,248,182845,2,0,P|95:277|77:315,1,72,2|0,3:2|0:0,0:0:0:0:
162,350,183079,2,0,P|194:365|225:384,1,72,2|0,1:2|0:0,0:0:0:0:
345,384,183313,1,10,2:2:0:0:
345,384,183430,1,0,1:1:0:0:
345,384,183548,2,0,P|438:351|450:351,1,72,2|0,2:2|0:0,0:0:0:0:
477,255,183782,5,2,3:3:0:0:
482,226,183899,1,2,2:2:0:0:
473,198,184016,1,0,0:0:0:0:
456,174,184134,1,2,1:2:0:0:
431,158,184251,2,0,B|364:117|366:191|257:147,1,144,8|2,2:1|1:2,0:0:0:0:
152,34,184720,22,0,P|172:30|215:55,1,72,2|0,3:2|1:1,0:0:0:0:
103,196,184954,2,2,B|80:218|80:218|-3:212,1,112.5,2|0,2:2|1:1,0:1:0:0:
0,89,185188,2,0,P|71:99|139:121,1,144,10|2,1:2|1:2,0:0:0:0:
185,230,185540,5,0,1:1:0:0:
212,237,185657,1,2,3:2:0:0:
239,245,185774,1,2,1:2:0:0:
268,246,185891,2,2,B|295:222|295:222|297:111,1,112.5,0|2,1:1|2:2,0:1:0:0:
319,64,186126,21,8,0:1:0:0:
139,121,186360,1,2,2:2:0:0:
139,121,186477,1,0,1:1:0:0:
139,121,186595,6,0,P|104:188|10:209,1,144,2|2,3:2|1:2,0:0:0:0:
10,301,186946,1,0,1:1:0:0:
10,301,187063,2,0,P|54:317|104:335,1,72,10|0,2:2|1:1,0:0:0:0:
157,376,187298,1,0,0:0:0:0:
279,273,187532,22,0,P|355:315|348:391,1,144,4|2,3:1|2:2,0:0:0:0:
196,312,187884,1,2,1:2:0:0:
196,312,188001,2,0,P|214:223|244:142,1,144,8|2,1:1|1:2,0:0:0:0:
283,70,188470,6,0,L|356:85,1,72,2|0,3:3|0:0,0:0:0:0:
438,136,188704,1,2,1:2:0:0:
433,164,188821,1,0,1:1:0:0:
427,192,188938,1,10,2:2:0:0:
421,220,189055,1,0,1:1:0:0:
414,248,189173,22,0,L|532:273,1,72,2|0,2:3|0:0,0:0:0:0:
392,350,189407,1,2,3:2:0:0:
392,350,189524,2,0,L|298:330,1,72,0|2,1:1|2:2,0:0:0:0:
283,257,189759,1,2,1:2:0:0:
283,257,189876,1,8,2:1:0:0:
152,377,190110,6,0,L|116:278,1,72,6|0,1:3|1:1,0:0:0:0:
57,254,190345,1,10,3:3:0:0:
57,254,190462,2,0,B|77:207|77:207|169:212,1,144,0|0,1:1|0:0,0:0:0:0:
263,246,190813,2,0,P|344:231|377:227,1,72,14|0,1:3|0:0,0:0:0:0:
375,162,191048,2,0,P|456:147|489:143,1,72,2|0,2:2|1:1,0:0:0:0:
372,20,191282,22,0,P|297:45|312:120,1,144,2|2,3:2|1:2,0:0:0:0:
296,182,191634,1,0,1:1:0:0:
267,178,191751,1,8,2:1:0:0:
238,174,191868,1,0,1:1:0:0:
209,171,191985,1,2,2:2:0:0:
59,110,192220,6,0,P|98:189|118:281,1,144,2|2,3:2|2:2,0:0:0:0:
62,310,192571,1,0,1:1:0:0:
62,310,192688,2,0,P|111:339|135:376,1,72,10|0,2:2|0:0,0:0:0:0:
201,382,192923,2,0,P|226:357|259:342,1,72,2|0,1:2|0:0,0:0:0:0:
401,378,193157,22,0,L|329:367,1,72,2|0,3:2|1:1,0:0:0:0:
268,260,193391,1,2,2:2:0:0:
268,260,193509,1,2,2:2:0:0:
268,260,193626,1,8,1:1:0:0:
399,163,193860,1,0,0:0:0:0:
399,163,193977,1,0,1:1:0:0:
399,163,194095,6,0,P|479:136|507:138,1,72,2|0,3:2|0:0,0:0:0:0:
489,35,194329,2,0,P|409:62|381:60,1,72,2|0,1:2|1:1,0:0:0:0:
322,48,194563,22,0,P|248:33|123:6,1,144,10|2,2:2|2:2,0:0:0:0:
104,57,194915,1,0,0:0:0:0:
104,57,195032,6,0,P|148:136|165:192,1,144,2|2,3:2|1:2,0:0:0:0:
97,252,195384,1,0,1:1:0:0:
93,280,195501,1,8,2:1:0:0:
89,308,195618,1,0,1:1:0:0:
87,336,195735,1,0,1:1:0:0:
215,261,195970,21,4,0:0:0:0:
256,192,196087,12,0,203938,3:3:0:0:
