osu file format v14

[General]
AudioFilename: echobo.mp3
AudioLeadIn: 0
PreviewTime: 24933
Countdown: 0
SampleSet: None
StackLeniency: 0.4
Mode: 0
LetterboxInBreaks: 0
WidescreenStoryboard: 1

[Editor]
Bookmarks: -22,20219,25008,46566,53001,60928,65722,80085,84875,106428,125584,144740,163899,183056
DistanceSpacing: 1.1
BeatDivisor: 4
GridSize: 32
TimelineZoom: 2.4

[Metadata]
Title:Echobo
TitleUnicode:Echobo
Artist:Anamanaguchi
ArtistUnicode:Anamanaguchi
Creator:pkhg
Version:Extra
Source:
Tags:
BeatmapID:1191545
BeatmapSetID:563517

[Difficulty]
HPDrainRate:6
CircleSize:4
OverallDifficulty:8.6
ApproachRate:9.2
SliderMultiplier:1.8
SliderTickRate:1

[Events]
//Background and Video events
0,0,"VxXYlot.jpg",0,0
//Break Periods
2,52896,93883
//Storyboard Layer 0 (Background)
//Storyboard Layer 1 (Fail)
//Storyboard Layer 2 (Pass)
//Storyboard Layer 3 (Foreground)
//Storyboard Sound Samples

[TimingPoints]
5851,299.333981890294,4,2,1,70,1,0
15429,-142.857142857143,4,2,1,70,0,0
25008,-100,4,2,1,70,0,1
44165,-100,4,2,1,70,0,0
46560,-111.111111111111,4,2,1,70,0,0
60928,-125,4,2,1,70,0,0
63323,-117.647058823529,4,2,1,70,0,0
65717,-111.111111111111,4,2,1,70,0,0
80085,-117.647058823529,4,2,1,70,0,0
82480,-125,4,2,1,70,0,0
84875,-200,4,2,1,70,0,0
85174,-100,4,2,1,70,0,1
94453,-200,4,2,1,70,0,0
94753,-100,4,2,1,70,0,1
104032,-100,4,2,1,70,0,0
106427,-105.263157894737,4,2,1,70,0,0
120795,-125,4,2,1,70,0,0
125584,-142.857142857143,4,2,1,70,0,0
135163,-133.333333333333,4,2,1,70,0,0
139952,-117.647058823529,4,2,1,70,0,0
142347,-105.263157894737,4,2,1,70,0,0
144741,-95.2380952380952,4,2,1,70,0,1
154320,-90.9090909090909,4,2,1,70,0,1
163899,-105.263157894737,4,2,1,70,0,0
168688,-117.64705882353,4,2,1,70,0,0
173478,-133.333333333334,4,2,1,70,0,0
178267,-153.846153846155,4,2,1,70,0,0

[Colours]
Combo1 : 82,86,133
Combo2 : 72,194,230
Combo3 : 65,68,207
Combo4 : 186,187,220

[HitObjects]
129,261,15429,6,0,P|160:260|191:265,1,62.9999980773926
273,333,15729,1,0,0:0:0:0:
353,245,15878,2,0,P|359:182|362:119,1,125.999996154785
315,1,16327,1,0,0:0:0:0:
423,73,16477,6,0,P|360:79|297:82,1,125.999996154785
211,30,16926,1,0,0:0:0:0:
144,122,17076,2,0,P|137:184|134:247,1,125.999996154785
182,346,17525,1,0,0:0:0:0:
182,346,17674,1,0,0:0:0:0:
282,280,17824,6,0,P|313:275|344:275,1,62.9999980773926
438,322,18123,1,0,0:0:0:0:
500,219,18273,2,0,P|496:156|490:93,1,125.999996154785
423,10,18722,1,0,0:0:0:0:
368,110,18872,6,0,P|319:147|259:134,1,125.999996154785
220,42,19321,1,0,0:0:0:0:
136,118,19470,2,0,B|120:150|136:178|136:178|152:206|135:238,1,125.999996154785
61,309,19919,1,0,0:0:0:0:
61,309,20069,1,0,0:0:0:0:
200,296,20219,6,0,P|231:295|262:300,1,62.9999980773926
348,367,20518,1,0,0:0:0:0:
421,279,20668,2,0,B|441:233|441:233|430:157,1,125.999996154785
396,42,21117,1,0,0:0:0:0:
490,114,21266,6,0,B|458:98|430:114|430:114|402:130|370:113,1,125.999996154785
286,36,21715,1,0,0:0:0:0:
216,134,21865,2,0,B|205:210|205:210|225:256,1,125.999996154785
294,339,22314,1,0,0:0:0:0:
294,339,22464,1,0,0:0:0:0:
395,261,22613,6,0,L|463:252,1,62.9999980773926
295,171,22913,2,0,L|363:180,1,62.9999980773926
229,260,23212,5,0,0:0:0:0:
229,260,23362,1,0,0:0:0:0:
127,157,23511,1,0,0:0:0:0:
127,157,23661,1,0,0:0:0:0:
268,110,23811,5,0,0:0:0:0:
144,240,23960,1,0,0:0:0:0:
285,193,24110,1,0,0:0:0:0:
127,157,24260,1,0,0:0:0:0:
268,110,24409,5,0,0:0:0:0:
299,109,24483,1,0,0:0:0:0:
329,118,24558,1,0,0:0:0:0:
353,138,24633,1,0,0:0:0:0:
369,165,24708,1,0,0:0:0:0:
373,196,24783,1,0,0:0:0:0:
366,226,24858,1,0,0:0:0:0:
349,252,24932,1,0,0:0:0:0:
323,270,25008,6,0,P|278:276|233:278,1,90
87,115,25307,2,0,P|131:117|176:122,1,90,8|0,0:1|0:0,0:0:0:0:
285,193,25607,1,8,0:0:0:0:
148,272,25756,1,8,0:0:0:0:
148,114,25906,1,8,0:1:0:0:
244,286,26056,6,0,B|292:310|332:286|332:286|372:262|420:286,1,180,8|0,0:0|0:0,0:0:0:0:
289,217,26505,1,8,0:1:0:0:
376,355,26654,1,8,0:0:0:0:
283,207,26804,1,0,0:0:0:0:
288,376,26954,1,8,0:0:0:0:
425,274,27103,2,0,P|430:229|432:184,1,90,8|0,0:1|0:0,0:0:0:0:
338,48,27403,5,8,0:0:0:0:
470,92,27552,1,8,0:0:0:0:
321,144,27702,1,8,0:1:0:0:
481,90,27851,1,0,0:0:0:0:
323,41,28001,1,0,0:0:0:0:
422,164,28150,1,8,0:0:0:0:
265,188,28300,1,8,0:1:0:0:
448,83,28450,6,0,P|492:118|473:232,1,180,8|8,0:0|0:0,0:0:0:0:
331,129,28899,1,8,0:1:0:0:
389,282,29049,1,0,0:0:0:0:
448,83,29199,1,8,0:1:0:0:
390,266,29348,1,8,0:0:0:0:
331,129,29498,1,8,0:1:0:0:
305,92,29572,1,8,0:1:0:0:
265,73,29647,1,8,0:1:0:0:
221,76,29722,1,8,0:1:0:0:
184,101,29797,6,0,P|179:146|177:191,1,90,12|8,0:0|0:0,0:0:0:0:
349,257,30097,2,0,P|346:212|342:167,1,90,8|0,0:1|0:0,0:0:0:0:
265,73,30396,1,8,0:0:0:0:
177,190,30546,1,8,0:0:0:0:
342,167,30695,1,8,0:1:0:0:
141,108,30845,6,0,P|97:143|116:257,1,180,8|8,0:0|0:0,0:0:0:0:
231,324,31294,1,0,0:0:0:0:
266,182,31444,2,0,P|221:184|176:189,1,90
40,302,31743,1,0,0:0:0:0:
190,384,31893,2,0,P|187:339|183:294,1,90
80,175,32192,5,0,0:0:0:0:
40,302,32342,1,0,0:0:0:0:
172,203,32491,1,8,0:1:0:0:
270,348,32641,1,0,0:0:0:0:
124,278,32791,1,0,0:0:0:0:
254,182,32940,1,0,0:0:0:0:
176,359,33090,1,8,0:1:0:0:
352,267,33240,6,0,P|346:177|338:87,1,180
256,217,33689,1,0,0:0:0:0:
336,69,33838,1,0,0:0:0:0:
444,200,33988,1,0,0:0:0:0:
333,49,34138,1,0,0:0:0:0:
332,238,34287,1,0,0:0:0:0:
306,275,34361,1,0,0:0:0:0:
266,294,34436,1,0,0:0:0:0:
222,291,34511,1,0,0:0:0:0:
185,266,34587,6,0,P|140:261|95:259,1,90
280,163,34886,2,0,P|325:158|370:156,1,90
198,231,35185,1,0,0:0:0:0:
234,81,35335,1,0,0:0:0:0:
293,265,35485,1,0,0:0:0:0:
153,140,35634,6,0,P|71:111|6:167,1,180
158,247,36083,1,0,0:0:0:0:
246,94,36233,2,0,P|250:138|252:183,1,90
211,330,36532,1,0,0:0:0:0:
331,241,36682,1,0,0:0:0:0:
163,182,36832,1,0,0:0:0:0:
350,248,36981,5,0,0:0:0:0:
211,330,37131,1,0,0:0:0:0:
359,236,37281,2,0,P|363:191|365:146,1,90
248,37,37580,1,0,0:0:0:0:
229,179,37730,1,0,0:0:0:0:
363,122,37879,1,0,0:0:0:0:
165,115,38029,6,0,P|136:197|192:262,1,180
359,236,38478,1,0,0:0:0:0:
229,179,38628,1,0,0:0:0:0:
142,326,38777,1,0,0:0:0:0:
272,269,38927,1,0,0:0:0:0:
107,243,39077,1,0,0:0:0:0:
81,206,39151,1,0,0:0:0:0:
77,162,39226,1,0,0:0:0:0:
96,121,39301,1,0,0:0:0:0:
133,96,39376,6,0,P|177:91|222:89,1,90
406,161,39675,2,0,P|362:156|317:154,1,90
191,261,39975,1,0,0:0:0:0:
349,237,40124,1,0,0:0:0:0:
224,148,40274,1,0,0:0:0:0:
375,318,40424,6,0,P|431:252|402:171,1,180
224,148,40873,1,0,0:0:0:0:
324,29,41022,2,0,P|321:73|318:118,1,90
246,248,41322,1,0,0:0:0:0:
402,171,41471,2,0,P|446:166|491:164,1,90
262,240,41771,5,0,0:0:0:0:
318,118,41920,1,0,0:0:0:0:
398,257,42070,1,0,0:0:0:0:
232,149,42220,2,0,P|188:144|143:142,1,90
334,198,42519,5,0,0:0:0:0:
420,90,42669,1,0,0:0:0:0:
245,31,42818,2,0,P|241:75|239:120,1,90
296,308,43118,5,0,0:0:0:0:
399,172,43267,1,0,0:0:0:0:
240,220,43417,1,0,0:0:0:0:
410,151,43567,5,0,0:0:0:0:
296,308,43716,1,0,0:0:0:0:
213,137,43866,1,8,0:1:0:0:
176,163,43940,1,8,0:1:0:0:
157,203,44015,1,8,0:1:0:0:
160,247,44090,1,8,0:1:0:0:
185,284,44165,5,8,0:0:0:0:
185,284,44465,1,8,0:0:0:0:
185,284,44764,1,8,0:0:0:0:
185,284,45063,1,8,0:0:0:0:
185,284,45363,5,8,0:0:0:0:
327,264,45512,1,0,0:0:0:0:
165,260,45662,5,8,0:1:0:0:
345,286,45811,1,0,0:0:0:0:
139,290,45961,5,8,0:1:0:0:
373,257,46110,1,0,0:0:0:0:
106,251,46260,5,8,0:1:0:0:
403,294,46409,1,8,0:1:0:0:
249,124,46560,6,0,P|244:164|242:204,1,80.9999975280763
384,272,46859,2,0,P|382:231|376:191,1,80.9999975280763
327,58,47159,1,0,0:0:0:0:
254,166,47308,1,0,0:0:0:0:
415,98,47458,1,0,0:0:0:0:
310,230,47608,6,0,P|235:251|175:200,1,161.999995056153
176,52,48057,1,0,0:0:0:0:
86,151,48206,2,0,P|80:191|78:231,1,80.9999975280763
138,345,48506,1,0,0:0:0:0:
175,200,48655,1,0,0:0:0:0:
236,318,48805,1,0,0:0:0:0:
78,231,48955,5,0,0:0:0:0:
138,345,49104,1,0,0:0:0:0:
175,200,49254,1,0,0:0:0:0:
277,317,49404,2,0,P|275:276|269:236,1,80.9999975280763
201,108,49703,1,0,0:0:0:0:
134,229,49853,1,0,0:0:0:0:
279,149,50002,6,0,P|319:143|359:141,1,80.9999975280763
221,213,50302,1,0,0:0:0:0:
274,60,50451,1,0,0:0:0:0:
216,221,50601,1,0,0:0:0:0:
359,140,50751,5,0,0:0:0:0:
201,108,50900,1,0,0:0:0:0:
387,62,51050,1,0,0:0:0:0:
420,85,51124,1,0,0:0:0:0:
438,122,51199,1,0,0:0:0:0:
436,162,51274,1,0,0:0:0:0:
417,196,51349,6,0,P|411:236|409:276,1,80.9999975280763
307,384,51649,2,0,P|305:343|298:303,1,80.9999975280763
193,204,51948,1,0,0:0:0:0:
282,304,52098,1,0,0:0:0:0:
324,176,52247,1,0,0:0:0:0:
165,128,52397,6,0,P|114:187|135:262,1,161.999995056153
373,121,94453,6,0,L|301:112,1,67.5
157,194,94753,6,0,L|246:182,1,90
