osu file format v14

[General]
AudioFilename: audio.mp3
AudioLeadIn: 0
PreviewTime: 47406
Countdown: 0
SampleSet: Normal
StackLeniency: 0.7
Mode: 3
LetterboxInBreaks: 0
SpecialStyle: 0
WidescreenStoryboard: 0

[Editor]
DistanceSpacing: 0.8
BeatDivisor: 2
GridSize: 4
TimelineZoom: 1

[Metadata]
Title:Airbrushed
TitleUnicode:Airbrushed
Artist:Anamanaguchi
ArtistUnicode:Anamanaguchi
Creator:Proxian
Version:Normal
Source:
Tags:
BeatmapID:1279627
BeatmapSetID:605664

[Difficulty]
HPDrainRate:8
CircleSize:4
OverallDifficulty:9
ApproachRate:5
SliderMultiplier:1.4
SliderTickRate:1

[Events]
//Background and Video events
0,0,"4UoH8s.png",0,0
//Break Periods
//Storyboard Layer 0 (Background)
//Storyboard Layer 1 (Fail)
//Storyboard Layer 2 (Pass)
//Storyboard Layer 3 (Foreground)
//Storyboard Sound Samples

[TimingPoints]
65,319.148936170213,4,1,0,40,1,0
11554,320.855614973262,4,1,0,40,1,0
21821,319.148936170213,4,1,0,40,1,0
26927,320.855614973262,4,1,0,40,1,0
37194,319.148936170213,4,1,0,40,1,0
47406,320.855614973262,4,1,0,40,1,0
57673,319.148936170213,4,1,0,40,1,0
67885,320.855614973262,4,1,0,40,1,0
78152,319.148936170213,4,1,0,40,1,0
88364,320.855614973262,4,1,0,40,1,0

[HitObjects]
448,192,1341,5,0,0:0:0:0:
320,192,1660,1,0,0:0:0:0:
192,192,1660,1,0,0:0:0:0:
64,192,1979,1,0,0:0:0:0:
192,192,2139,1,0,0:0:0:0:
320,192,2299,1,0,0:0:0:0:
448,192,2299,1,0,0:0:0:0:
320,192,2618,1,0,0:0:0:0:
448,192,2777,1,0,0:0:0:0:
192,192,2937,1,0,0:0:0:0:
64,192,2937,1,0,0:0:0:0:
448,192,3096,1,0,0:0:0:0:
320,192,3416,1,0,0:0:0:0:
192,192,3575,1,0,0:0:0:0:
448,192,3575,1,0,0:0:0:0:
320,192,3735,1,0,0:0:0:0:
64,192,3735,1,0,0:0:0:0:
192,192,4054,1,0,0:0:0:0:
448,192,4213,1,0,0:0:0:0:
64,192,4213,1,0,0:0:0:0:
320,192,4533,1,0,0:0:0:0:
192,192,4692,1,0,0:0:0:0:
320,192,4852,1,0,0:0:0:0:
448,192,4852,1,0,0:0:0:0:
192,192,5171,1,0,0:0:0:0:
448,192,5330,1,0,0:0:0:0:
192,192,5490,1,0,0:0:0:0:
64,192,5490,1,0,0:0:0:0:
320,192,5650,1,0,0:0:0:0:
448,192,5809,1,0,0:0:0:0:
192,192,5809,1,0,0:0:0:0:
320,192,6128,1,0,0:0:0:0:
64,192,6128,1,0,0:0:0:0:
192,192,6447,1,0,0:0:0:0:
320,192,6447,1,0,0:0:0:0:
448,192,6767,1,0,0:0:0:0:
64,192,6767,1,0,0:0:0:0:
320,192,7086,1,0,0:0:0:0:
64,192,7245,1,0,0:0:0:0:
192,192,7405,1,0,0:0:0:0:
448,192,7405,1,0,0:0:0:0:
320,192,7724,1,0,0:0:0:0:
192,192,7884,1,0,0:0:0:0:
64,192,8043,1,0,0:0:0:0:
448,192,8043,1,0,0:0:0:0:
320,192,8203,1,0,0:0:0:0:
64,192,8522,1,0,0:0:0:0:
320,192,8682,1,0,0:0:0:0:
448,192,8682,1,0,0:0:0:0:
192,192,8841,1,0,0:0:0:0:
64,192,8841,1,0,0:0:0:0:
320,192,9160,1,0,0:0:0:0:
192,192,9320,1,0,0:0:0:0:
448,192,9320,1,0,0:0:0:0:
64,192,9639,1,0,0:0:0:0:
448,192,9799,1,0,0:0:0:0:
320,192,9958,1,0,0:0:0:0:
192,192,9958,1,0,0:0:0:0:
64,192,10277,1,0,0:0:0:0:
192,192,10437,1,0,0:0:0:0:
448,192,10596,1,0,0:0:0:0:
320,192,10596,1,0,0:0:0:0:
192,192,10756,1,0,0:0:0:0:
320,192,10916,1,0,0:0:0:0:
64,192,10916,1,0,0:0:0:0:
320,192,11235,1,0,0:0:0:0:
448,192,11235,1,0,0:0:0:0:
64,192,11554,1,0,0:0:0:0:
448,192,11874,1,0,0:0:0:0:
320,192,11874,1,0,0:0:0:0:
192,192,12195,1,0,0:0:0:0:
320,192,12516,1,0,0:0:0:0:
64,192,12516,1,0,0:0:0:0:
192,192,12837,1,0,0:0:0:0:
320,192,13158,1,0,0:0:0:0:
448,192,13158,1,0,0:0:0:0:
64,192,13479,1,0,0:0:0:0:
448,192,13639,1,0,0:0:0:0:
64,192,13799,1,0,0:0:0:0:
320,192,13799,1,0,0:0:0:0:
192,192,13960,1,0,0:0:0:0:
448,192,13960,1,0,0:0:0:0:
64,192,14281,1,0,0:0:0:0:
192,192,14441,1,0,0:0:0:0:
320,192,14441,1,0,0:0:0:0:
448,192,14762,1,0,0:0:0:0:
320,192,15083,1,0,0:0:0:0:
64,192,15083,1,0,0:0:0:0:
192,192,15404,1,0,0:0:0:0:
320,192,15725,1,0,0:0:0:0:
448,192,15725,1,0,0:0:0:0:
64,192,15885,1,0,0:0:0:0:
192,192,16045,1,0,0:0:0:0:
448,192,16045,1,0,0:0:0:0:
320,192,16366,1,0,0:0:0:0:
64,192,16366,1,0,0:0:0:0:
64,192,16687,1,0,0:0:0:0:
448,192,16687,1,0,0:0:0:0:
320,192,17008,1,0,0:0:0:0:
192,192,17008,1,0,0:0:0:0:
64,192,17329,1,0,0:0:0:0:
192,192,17650,1,0,0:0:0:0:
448,192,17650,1,0,0:0:0:0:
320,192,17971,1,0,0:0:0:0:
448,192,18291,1,0,0:0:0:0:
64,192,18291,1,0,0:0:0:0:
320,192,18612,1,0,0:0:0:0:
192,192,18933,1,0,0:0:0:0:
320,192,18933,1,0,0:0:0:0:
448,192,19094,1,0,0:0:0:0:
64,192,19094,1,0,0:0:0:0:
320,192,19414,1,0,0:0:0:0:
192,192,19575,1,0,0:0:0:0:
448,192,19575,1,0,0:0:0:0:
320,192,19896,1,0,0:0:0:0:
192,192,20217,1,0,0:0:0:0:
64,192,20217,1,0,0:0:0:0:
320,192,20537,1,0,0:0:0:0:
192,192,20858,1,0,0:0:0:0:
448,192,20858,1,0,0:0:0:0:
64,192,21019,1,0,0:0:0:0:
192,192,21179,1,0,0:0:0:0:
320,192,21179,1,0,0:0:0:0:
448,192,21500,1,0,0:0:0:0:
320,192,21500,1,0,0:0:0:0:
192,192,21821,1,0,0:0:0:0:
64,192,21821,1,0,0:0:0:0:
320,192,21980,1,0,0:0:0:0:
448,192,22140,1,0,0:0:0:0:
64,192,22299,1,0,0:0:0:0:
448,192,22459,1,0,0:0:0:0:
320,192,22459,1,0,0:0:0:0:
192,192,22618,1,0,0:0:0:0:
64,192,22778,1,0,0:0:0:0:
192,192,22938,1,0,0:0:0:0:
448,192,23097,1,0,0:0:0:0:
64,192,23097,1,0,0:0:0:0:
320,192,23257,1,0,0:0:0:0:
64,192,23416,1,0,0:0:0:0:
320,192,23576,1,0,0:0:0:0:
448,192,23735,1,0,0:0:0:0:
192,192,23735,1,0,0:0:0:0:
64,192,23895,1,0,0:0:0:0:
448,192,24055,1,0,0:0:0:0:
192,192,24214,1,0,0:0:0:0:
64,192,24374,1,0,0:0:0:0:
320,192,24374,1,0,0:0:0:0:
448,192,24533,1,0,0:0:0:0:
64,192,24693,1,0,0:0:0:0:
320,192,24693,1,0,0:0:0:0:
192,192,24852,1,0,0:0:0:0:
448,192,25012,1,0,0:0:0:0:
320,192,25012,1,0,0:0:0:0:
192,192,25172,1,0,0:0:0:0:
320,192,25331,1,0,0:0:0:0:
64,192,25331,1,0,0:0:0:0:
448,192,25491,1,0,0:0:0:0:
192,192,25650,1,0,0:0:0:0:
64,192,25650,1,0,0:0:0:0:
448,192,25810,1,0,0:0:0:0:
320,192,25969,1,0,0:0:0:0:
192,192,25969,1,0,0:0:0:0:
64,192,26129,1,0,0:0:0:0:
448,192,26289,1,0,0:0:0:0:
320,192,26289,1,0,0:0:0:0:
64,192,26448,1,0,0:0:0:0:
448,192,26608,1,0,0:0:0:0:
320,192,26608,1,0,0:0:0:0:
192,192,26767,1,0,0:0:0:0:
64,192,26927,1,0,0:0:0:0:
320,192,27247,1,0,0:0:0:0:
448,192,27247,1,0,0:0:0:0:
192,192,27568,1,0,0:0:0:0:
320,192,27889,1,0,0:0:0:0:
64,192,27889,1,0,0:0:0:0:
448,192,28210,1,0,0:0:0:0:
320,192,28531,1,0,0:0:0:0:
192,192,28531,1,0,0:0:0:0:
448,192,28852,1,0,0:0:0:0:
320,192,29172,1,0,0:0:0:0:
192,192,29172,1,0,0:0:0:0:
448,192,29333,1,0,0:0:0:0:
64,192,29333,1,0,0:0:0:0:
448,192,29654,1,0,0:0:0:0:
320,192,29814,1,0,0:0:0:0:
64,192,29814,1,0,0:0:0:0:
192,192,30135,1,0,0:0:0:0:
320,192,30456,1,0,0:0:0:0:
448,192,30456,1,0,0:0:0:0:
64,192,30777,1,0,0:0:0:0:
192,192,31098,1,0,0:0:0:0:
320,192,31098,1,0,0:0:0:0:
448,192,31258,1,0,0:0:0:0:
64,192,31418,1,0,0:0:0:0:
192,192,31418,1,0,0:0:0:0:
192,192,31739,1,0,0:0:0:0:
320,192,31739,1,0,0:0:0:0:
448,192,32060,1,0,0:0:0:0:
192,192,32381,1,0,0:0:0:0:
64,192,32381,1,0,0:0:0:0:
448,192,32541,1,0,0:0:0:0:
320,192,32702,1,0,0:0:0:0:
192,192,33023,1,0,0:0:0:0:
448,192,33023,1,0,0:0:0:0:
320,192,33183,1,0,0:0:0:0:
64,192,33344,1,0,0:0:0:0:
192,192,33664,1,0,0:0:0:0:
320,192,33664,1,0,0:0:0:0:
64,192,33825,1,0,0:0:0:0:
448,192,33985,1,0,0:0:0:0:
192,192,34306,1,0,0:0:0:0:
64,192,34306,1,0,0:0:0:0:
320,192,34467,1,0,0:0:0:0:
448,192,34467,1,0,0:0:0:0:
192,192,34787,1,0,0:0:0:0:
320,192,34948,1,0,0:0:0:0:
64,192,34948,1,0,0:0:0:0:
192,192,35108,1,0,0:0:0:0:
448,192,35269,1,0,0:0:0:0:
320,192,35590,1,0,0:0:0:0:
192,192,35590,1,0,0:0:0:0:
448,192,35750,1,0,0:0:0:0:
64,192,35910,1,0,0:0:0:0:
192,192,36231,1,0,0:0:0:0:
448,192,36231,1,0,0:0:0:0:
320,192,36392,1,0,0:0:0:0:
192,192,36552,1,0,0:0:0:0:
64,192,36552,1,0,0:0:0:0:
192,192,36873,1,0,0:0:0:0:
448,192,36873,1,0,0:0:0:0:
320,192,37194,1,0,0:0:0:0:
64,192,37513,1,0,0:0:0:0:
448,192,37513,1,0,0:0:0:0:
192,192,37832,1,0,0:0:0:0:
320,192,37991,1,0,0:0:0:0:
448,192,38151,1,0,0:0:0:0:
192,192,38151,1,0,0:0:0:0:
64,192,38470,1,0,0:0:0:0:
192,192,38630,1,0,0:0:0:0:
320,192,38789,1,0,0:0:0:0:
448,192,38789,1,0,0:0:0:0:
192,192,38949,1,0,0:0:0:0:
448,192,39108,1,0,0:0:0:0:
64,192,39268,1,0,0:0:0:0:
192,192,39428,1,0,0:0:0:0:
320,192,39428,1,0,0:0:0:0:
448,192,39587,1,0,0:0:0:0:
64,192,39587,1,0,0:0:0:0:
320,192,39906,1,0,0:0:0:0:
192,192,40066,1,0,0:0:0:0:
64,192,40066,1,0,0:0:0:0:
448,192,40385,1,0,0:0:0:0:
320,192,40545,1,0,0:0:0:0:
192,192,40704,1,0,0:0:0:0:
448,192,40704,1,0,0:0:0:0:
320,192,41023,1,0,0:0:0:0:
64,192,41183,1,0,0:0:0:0:
192,192,41342,1,0,0:0:0:0:
448,192,41342,1,0,0:0:0:0:
320,192,41502,1,0,0:0:0:0:
192,192,41662,1,0,0:0:0:0:
64,192,41662,1,0,0:0:0:0:
448,192,41981,1,0,0:0:0:0:
64,192,41981,1,0,0:0:0:0:
320,192,42300,1,0,0:0:0:0:
192,192,42459,1,0,0:0:0:0:
448,192,42619,1,0,0:0:0:0:
64,192,42619,1,0,0:0:0:0:
192,192,42779,1,0,0:0:0:0:
64,192,42938,1,0,0:0:0:0:
320,192,43098,1,0,0:0:0:0:
448,192,43257,1,0,0:0:0:0:
192,192,43257,1,0,0:0:0:0:
320,192,43417,1,0,0:0:0:0:
448,192,43576,1,0,0:0:0:0:
320,192,43736,1,0,0:0:0:0:
192,192,43896,1,0,0:0:0:0:
64,192,43896,1,0,0:0:0:0:
448,192,44055,1,0,0:0:0:0:
192,192,44215,1,0,0:0:0:0:
320,192,44374,1,0,0:0:0:0:
448,192,44534,1,0,0:0:0:0:
192,192,44534,1,0,0:0:0:0:
320,192,44694,1,0,0:0:0:0:
448,192,44853,1,0,0:0:0:0:
320,192,45013,1,0,0:0:0:0:
192,192,45172,1,0,0:0:0:0:
64,192,45172,1,0,0:0:0:0:
320,192,45332,1,0,0:0:0:0:
192,192,45491,1,0,0:0:0:0:
448,192,45651,1,0,0:0:0:0:
320,192,45811,1,0,0:0:0:0:
192,192,45811,1,0,0:0:0:0:
64,192,45970,1,0,0:0:0:0:
192,192,46130,1,0,0:0:0:0:
320,192,46130,1,0,0:0:0:0:
448,192,46289,1,0,0:0:0:0:
320,192,46449,1,0,0:0:0:0:
64,192,46449,1,0,0:0:0:0:
448,192,46608,1,0,0:0:0:0:
192,192,46768,1,0,0:0:0:0:
320,192,46768,1,0,0:0:0:0:
448,192,46928,1,0,0:0:0:0:
64,192,47087,1,0,0:0:0:0:
320,192,47087,1,0,0:0:0:0:
192,192,47247,1,0,0:0:0:0:
448,192,47406,1,0,0:0:0:0:
192,192,47726,1,0,0:0:0:0:
64,192,47726,1,0,0:0:0:0:
320,192,48047,1,0,0:0:0:0:
64,192,48208,1,0,0:0:0:0:
320,192,48368,1,0,0:0:0:0:
448,192,48368,1,0,0:0:0:0:
64,192,48689,1,0,0:0:0:0:
320,192,48849,1,0,0:0:0:0:
192,192,49010,1,0,0:0:0:0:
64,192,49010,1,0,0:0:0:0:
320,192,49331,1,0,0:0:0:0:
192,192,49491,1,0,0:0:0:0:
448,192,49651,1,0,0:0:0:0:
64,192,49651,1,0,0:0:0:0:
320,192,49812,1,0,0:0:0:0:
192,192,49812,1,0,0:0:0:0:
448,192,50133,1,0,0:0:0:0:
64,192,50293,1,0,0:0:0:0:
320,192,50293,1,0,0:0:0:0:
192,192,50614,1,0,0:0:0:0:
320,192,50774,1,0,0:0:0:0:
192,192,50935,1,0,0:0:0:0:
448,192,50935,1,0,0:0:0:0:
192,192,51256,1,0,0:0:0:0:
448,192,51416,1,0,0:0:0:0:
320,192,51577,1,0,0:0:0:0:
192,192,51577,1,0,0:0:0:0:
64,192,51737,1,0,0:0:0:0:
448,192,51897,1,0,0:0:0:0:
192,192,51897,1,0,0:0:0:0:
320,192,52218,1,0,0:0:0:0:
64,192,52218,1,0,0:0:0:0:
192,192,52539,1,0,0:0:0:0:
320,192,52539,1,0,0:0:0:0:
448,192,52860,1,0,0:0:0:0:
64,192,52860,1,0,0:0:0:0:
320,192,53181,1,0,0:0:0:0:
192,192,53341,1,0,0:0:0:0:
448,192,53502,1,0,0:0:0:0:
320,192,53502,1,0,0:0:0:0:
64,192,53823,1,0,0:0:0:0:
320,192,53983,1,0,0:0:0:0:
192,192,54143,1,0,0:0:0:0:
448,192,54143,1,0,0:0:0:0:
64,192,54464,1,0,0:0:0:0:
448,192,54625,1,0,0:0:0:0:
320,192,54785,1,0,0:0:0:0:
64,192,54785,1,0,0:0:0:0:
192,192,54946,1,0,0:0:0:0:
448,192,54946,1,0,0:0:0:0:
64,192,55266,1,0,0:0:0:0:
320,192,55427,1,0,0:0:0:0:
448,192,55427,1,0,0:0:0:0:
192,192,55748,1,0,0:0:0:0:
448,192,55908,1,0,0:0:0:0:
64,192,56069,1,0,0:0:0:0:
320,192,56069,1,0,0:0:0:0:
192,192,56389,1,0,0:0:0:0:
448,192,56550,1,0,0:0:0:0:
320,192,56710,1,0,0:0:0:0:
192,192,56710,1,0,0:0:0:0:
64,192,56871,1,0,0:0:0:0:
448,192,57031,1,0,0:0:0:0:
192,192,57031,1,0,0:0:0:0:
448,192,57352,1,0,0:0:0:0:
64,192,57352,1,0,0:0:0:0:
320,192,57673,1,0,0:0:0:0:
192,192,57673,1,0,0:0:0:0:
448,192,57992,1,0,0:0:0:0:
64,192,57992,1,0,0:0:0:0:
320,192,58311,1,0,0:0:0:0:
64,192,58470,1,0,0:0:0:0:
192,192,58630,1,0,0:0:0:0:
448,192,58630,1,0,0:0:0:0:
64,192,58949,1,0,0:0:0:0:
192,192,59109,1,0,0:0:0:0:
320,192,59268,1,0,0:0:0:0:
448,192,59268,1,0,0:0:0:0:
192,192,59587,1,0,0:0:0:0:
64,192,59747,1,0,0:0:0:0:
192,192,59907,1,0,0:0:0:0:
448,192,59907,1,0,0:0:0:0:
320,192,60066,1,0,0:0:0:0:
64,192,60066,1,0,0:0:0:0:
192,192,60385,1,0,0:0:0:0:
320,192,60545,1,0,0:0:0:0:
448,192,60545,1,0,0:0:0:0:
64,192,60864,1,0,0:0:0:0:
448,192,61024,1,0,0:0:0:0:
320,192,61183,1,0,0:0:0:0:
192,192,61183,1,0,0:0:0:0:
448,192,61502,1,0,0:0:0:0:
64,192,61662,1,0,0:0:0:0:
320,192,61821,1,0,0:0:0:0:
448,192,61821,1,0,0:0:0:0:
192,192,61981,1,0,0:0:0:0:
320,192,62141,1,0,0:0:0:0:
64,192,62141,1,0,0:0:0:0:
320,192,62460,1,0,0:0:0:0:
448,192,62460,1,0,0:0:0:0:
64,192,62779,1,0,0:0:0:0:
320,192,62779,1,0,0:0:0:0:
192,192,63098,1,0,0:0:0:0:
448,192,63098,1,0,0:0:0:0:
320,192,63417,1,0,0:0:0:0:
192,192,63417,1,0,0:0:0:0:
448,192,63736,1,0,0:0:0:0:
64,192,63736,1,0,0:0:0:0:
64,192,64055,1,0,0:0:0:0:
192,192,64055,1,0,0:0:0:0:
192,192,64375,1,0,0:0:0:0:
320,192,64375,1,0,0:0:0:0:
448,192,64694,1,0,0:0:0:0:
192,192,64694,1,0,0:0:0:0:
320,192,65013,1,0,0:0:0:0:
64,192,65013,1,0,0:0:0:0:
192,192,65332,1,0,0:0:0:0:
320,192,65492,1,0,0:0:0:0:
448,192,65651,1,0,0:0:0:0:
192,192,65651,1,0,0:0:0:0:
64,192,65811,1,0,0:0:0:0:
448,192,65970,1,0,0:0:0:0:
192,192,66130,1,0,0:0:0:0:
448,192,66290,1,0,0:0:0:0:
64,192,66290,1,0,0:0:0:0:
192,192,66449,1,0,0:0:0:0:
320,192,66449,1,0,0:0:0:0:
448,192,66928,128,0,67247:0:0:0:0:
320,192,67247,128,0,67566:0:0:0:0:
192,192,67566,128,0,67885:0:0:0:0:
64,192,67885,1,0,0:0:0:0:
448,192,67885,1,0,0:0:0:0:
320,192,68205,1,0,0:0:0:0:
192,192,68205,1,0,0:0:0:0:
448,192,68526,1,0,0:0:0:0:
320,192,68687,1,0,0:0:0:0:
192,192,68847,1,0,0:0:0:0:
64,192,68847,1,0,0:0:0:0:
448,192,69007,1,0,0:0:0:0:
64,192,69328,1,0,0:0:0:0:
192,192,69489,1,0,0:0:0:0:
320,192,69489,1,0,0:0:0:0:
448,192,69649,1,0,0:0:0:0:
320,192,69970,1,0,0:0:0:0:
448,192,70130,1,0,0:0:0:0:
64,192,70130,1,0,0:0:0:0:
192,192,70451,1,0,0:0:0:0:
448,192,70451,1,0,0:0:0:0:
320,192,70772,1,0,0:0:0:0:
64,192,70772,1,0,0:0:0:0:
448,192,70933,1,0,0:0:0:0:
192,192,71093,1,0,0:0:0:0:
448,192,71253,1,0,0:0:0:0:
320,192,71414,1,0,0:0:0:0:
192,192,71414,1,0,0:0:0:0:
64,192,71574,1,0,0:0:0:0:
64,192,71895,1,0,0:0:0:0:
320,192,72056,1,0,0:0:0:0:
448,192,72056,1,0,0:0:0:0:
192,192,72216,1,0,0:0:0:0:
448,192,72376,1,0,0:0:0:0:
192,192,72537,1,0,0:0:0:0:
448,192,72697,1,0,0:0:0:0:
64,192,72697,1,0,0:0:0:0:
448,192,73018,1,0,0:0:0:0:
192,192,73018,1,0,0:0:0:0:
64,192,73179,1,0,0:0:0:0:
320,192,73339,1,0,0:0:0:0:
192,192,73339,1,0,0:0:0:0:
448,192,73499,1,0,0:0:0:0:
192,192,73660,1,0,0:0:0:0:
320,192,73820,1,0,0:0:0:0:
448,192,73981,1,0,0:0:0:0:
192,192,73981,1,0,0:0:0:0:
320,192,74141,1,0,0:0:0:0:
320,192,74462,1,0,0:0:0:0:
192,192,74622,1,0,0:0:0:0:
64,192,74622,1,0,0:0:0:0:
448,192,74783,1,0,0:0:0:0:
192,192,74943,1,0,0:0:0:0:
320,192,75104,1,0,0:0:0:0:
448,192,75264,1,0,0:0:0:0:
192,192,75264,1,0,0:0:0:0:
320,192,75585,1,0,0:0:0:0:
64,192,75585,1,0,0:0:0:0:
448,192,75745,1,0,0:0:0:0:
192,192,75906,1,0,0:0:0:0:
64,192,75906,1,0,0:0:0:0:
448,192,76066,1,0,0:0:0:0:
320,192,76227,1,0,0:0:0:0:
448,192,76387,1,0,0:0:0:0:
320,192,76548,1,0,0:0:0:0:
192,192,76548,1,0,0:0:0:0:
448,192,76708,1,0,0:0:0:0:
320,192,76868,1,0,0:0:0:0:
64,192,76868,1,0,0:0:0:0:
448,192,77029,1,0,0:0:0:0:
192,192,77189,1,0,0:0:0:0:
320,192,77189,1,0,0:0:0:0:
64,192,77350,1,0,0:0:0:0:
448,192,77510,1,0,0:0:0:0:
192,192,77510,1,0,0:0:0:0:
320,192,77671,1,0,0:0:0:0:
192,192,77831,1,0,0:0:0:0:
64,192,77831,1,0,0:0:0:0:
320,192,77991,1,0,0:0:0:0:
448,192,78152,1,0,0:0:0:0:
192,192,78152,1,0,0:0:0:0:
64,192,78471,1,0,0:0:0:0:
320,192,78471,1,0,0:0:0:0:
192,192,78790,1,0,0:0:0:0:
320,192,78949,1,0,0:0:0:0:
448,192,79109,1,0,0:0:0:0:
192,192,79109,1,0,0:0:0:0:
64,192,79428,1,0,0:0:0:0:
448,192,79588,1,0,0:0:0:0:
320,192,79747,1,0,0:0:0:0:
192,192,79747,1,0,0:0:0:0:
64,192,79907,1,0,0:0:0:0:
448,192,80226,1,0,0:0:0:0:
64,192,80386,1,0,0:0:0:0:
320,192,80386,1,0,0:0:0:0:
192,192,80545,1,0,0:0:0:0:
448,192,80545,1,0,0:0:0:0:
320,192,80864,1,0,0:0:0:0:
192,192,81024,1,0,0:0:0:0:
64,192,81024,1,0,0:0:0:0:
320,192,81343,1,0,0:0:0:0:
64,192,81503,1,0,0:0:0:0:
448,192,81662,1,0,0:0:0:0:
192,192,81662,1,0,0:0:0:0:
320,192,81981,1,0,0:0:0:0:
192,192,82141,1,0,0:0:0:0:
448,192,82300,1,0,0:0:0:0:
64,192,82300,1,0,0:0:0:0:
320,192,82460,1,0,0:0:0:0:
192,192,82620,1,0,0:0:0:0:
64,192,82620,1,0,0:0:0:0:
320,192,82939,1,0,0:0:0:0:
448,192,82939,1,0,0:0:0:0:
320,192,83258,1,0,0:0:0:0:
192,192,83258,1,0,0:0:0:0:
64,192,83577,1,0,0:0:0:0:
448,192,83577,1,0,0:0:0:0:
192,192,83896,1,0,0:0:0:0:
448,192,84056,1,0,0:0:0:0:
320,192,84215,1,0,0:0:0:0:
64,192,84215,1,0,0:0:0:0:
448,192,84534,1,0,0:0:0:0:
320,192,84694,1,0,0:0:0:0:
192,192,84854,1,0,0:0:0:0:
64,192,84854,1,0,0:0:0:0:
320,192,85013,1,0,0:0:0:0:
64,192,85332,1,0,0:0:0:0:
448,192,85492,1,0,0:0:0:0:
320,192,85492,1,0,0:0:0:0:
192,192,85652,1,0,0:0:0:0:
64,192,85652,1,0,0:0:0:0:
320,192,85971,1,0,0:0:0:0:
448,192,86130,1,0,0:0:0:0:
192,192,86130,1,0,0:0:0:0:
320,192,86449,1,0,0:0:0:0:
64,192,86609,1,0,0:0:0:0:
192,192,86769,1,0,0:0:0:0:
448,192,86769,1,0,0:0:0:0:
64,192,87088,1,0,0:0:0:0:
192,192,87247,1,0,0:0:0:0:
320,192,87407,1,0,0:0:0:0:
448,192,87407,1,0,0:0:0:0:
192,192,87566,1,0,0:0:0:0:
320,192,87726,1,0,0:0:0:0:
64,192,87726,1,0,0:0:0:0:
320,192,88045,1,0,0:0:0:0:
448,192,88045,1,0,0:0:0:0:
192,192,88364,1,0,0:0:0:0:
320,192,88684,1,0,0:0:0:0:
64,192,88684,1,0,0:0:0:0:
192,192,89005,1,0,0:0:0:0:
320,192,89326,1,0,0:0:0:0:
448,192,89326,1,0,0:0:0:0:
64,192,89647,1,0,0:0:0:0:
192,192,89968,1,0,0:0:0:0:
320,192,89968,1,0,0:0:0:0:
64,192,90289,1,0,0:0:0:0:
192,192,90609,1,0,0:0:0:0:
320,192,90609,1,0,0:0:0:0:
448,192,90770,1,0,0:0:0:0:
64,192,90770,1,0,0:0:0:0:
320,192,91091,1,0,0:0:0:0:
192,192,91251,1,0,0:0:0:0:
448,192,91251,1,0,0:0:0:0:
64,192,91572,1,0,0:0:0:0:
320,192,91893,1,0,0:0:0:0:
192,192,91893,1,0,0:0:0:0:
448,192,92214,1,0,0:0:0:0:
320,192,92535,1,0,0:0:0:0:
64,192,92535,1,0,0:0:0:0:
448,192,92695,1,0,0:0:0:0:
192,192,92855,1,0,0:0:0:0:
320,192,92855,1,0,0:0:0:0:
448,192,93176,1,0,0:0:0:0:
64,192,93176,1,0,0:0:0:0:
320,192,93497,1,0,0:0:0:0:
192,192,93818,1,0,0:0:0:0:
64,192,93818,1,0,0:0:0:0:
320,192,94139,1,0,0:0:0:0:
448,192,94460,1,0,0:0:0:0:
192,192,94460,1,0,0:0:0:0:
64,192,94781,1,0,0:0:0:0:
192,192,95101,1,0,0:0:0:0:
448,192,95101,1,0,0:0:0:0:
320,192,95422,1,0,0:0:0:0:
448,192,95743,1,0,0:0:0:0:
64,192,95743,1,0,0:0:0:0:
192,192,95904,1,0,0:0:0:0:
320,192,95904,1,0,0:0:0:0:
64,192,96224,1,0,0:0:0:0:
320,192,96385,1,0,0:0:0:0:
448,192,96385,1,0,0:0:0:0:
192,192,96706,1,0,0:0:0:0:
320,192,97027,1,0,0:0:0:0:
448,192,97027,1,0,0:0:0:0:
192,192,97347,1,0,0:0:0:0:
64,192,97347,1,0,0:0:0:0:
320,192,97668,1,0,0:0:0:0:
448,192,97668,1,0,0:0:0:0:
320,192,97989,1,0,0:0:0:0:
192,192,97989,1,0,0:0:0:0:
448,192,98150,1,0,0:0:0:0:
64,192,98150,1,0,0:0:0:0:
192,192,98310,128,0,98631:0:0:0:0:
320,192,98310,128,0,98631:0:0:0:0:
