osu file format v14

[General]
AudioFilename: audio.mp3
AudioLeadIn: 0
PreviewTime: 37611
Countdown: 0
SampleSet: Soft
StackLeniency: 0.3
Mode: 0
LetterboxInBreaks: 0
WidescreenStoryboard: 1

[Editor]
Bookmarks: 9979,28509,37793,39832,65908,75395
DistanceSpacing: 0.3
BeatDivisor: 4
GridSize: 32
TimelineZoom: 2.76

[Metadata]
Title:Speed
TitleUnicode:スピード
Artist:Analogfish
ArtistUnicode:アナログフィッシュ
Creator:Irohas
Version:schoolboy's Extra
Source:NARUTO -ナルト-
Tags:mugiwarasekai milan- ending schoolboy komore
BeatmapID:1829718
BeatmapSetID:797982

[Difficulty]
HPDrainRate:4
CircleSize:4
OverallDifficulty:9
ApproachRate:9.5
SliderMultiplier:1.7
SliderTickRate:2

[Events]
//Background and Video events
0,0,"BG.jpg",0,0
//Break Periods
//Storyboard Layer 0 (Background)
//Storyboard Layer 1 (Fail)
//Storyboard Layer 2 (Pass)
//Storyboard Layer 3 (Foreground)
//Storyboard Sound Samples

[TimingPoints]
-590,293.613897724492,4,2,1,70,1,0
290,-200,4,2,1,70,0,0
511,-200,4,2,1,5,0,0
584,-100,4,2,1,55,0,0
1758,297.029702970297,4,2,1,55,1,0
2352,291.26213592233,4,2,1,55,1,0
2934,297.029702970297,4,2,1,55,1,0
4122,289.855072463768,4,2,1,55,1,0
5281,295.566502463054,4,2,1,55,1,0
5871,291.26213592233,4,2,1,55,1,0
6453,294.117647058824,4,2,1,55,1,0
7041,289.855072463768,4,2,1,55,1,0
7620,294.117647058824,4,2,1,55,1,0
8208,285.714285714286,4,2,1,55,1,0
8636,307.692307692308,4,2,1,55,1,0
9097,298.507462686567,4,2,1,55,1,0
9694,285.714285714286,4,2,1,55,1,0
9979,291.26213592233,4,2,1,55,1,0
9979,-125,4,2,1,50,0,0
12309,292.682926829268,4,2,1,55,1,0
12309,-125,4,2,1,55,0,0
13479,289.855072463768,4,2,1,55,1,0
13479,-125,4,2,1,55,0,0
16957,294.117647058824,4,2,1,55,1,0
16957,-125,4,2,1,55,0,0
18133,285.714285714286,4,2,1,55,1,0
18704,289.855072463768,4,2,1,55,1,0
19283,289.855072463768,4,2,1,55,1,0
19283,-125,4,2,1,55,0,0
23344,285.374554102259,4,2,1,50,1,0
23914,283.018867924528,4,2,1,50,1,0
23914,-125,4,2,1,50,0,0
24480,289.855072463768,4,2,1,50,1,0
24480,-125,4,2,1,50,0,0
25059,289.855072463768,4,2,1,50,1,0
25059,-125,4,2,1,50,0,0
25638,283.018867924528,4,2,1,50,1,0
25638,-125,4,2,1,50,0,0
26205,-117.647058823529,4,2,1,50,0,0
26770,290.205562273277,4,2,1,50,1,0
27060,-117.647058823529,4,2,1,50,0,0
27350,289.855072463768,4,2,1,50,1,0
27350,-111.111111111111,4,2,1,50,0,0
28509,295.566502463054,4,2,1,50,1,0
28509,-111.111111111111,4,2,1,50,0,0
29100,298.507462686567,4,2,1,50,1,0
29100,-111.111111111111,4,2,1,50,0,0
29323,-111.111111111111,4,2,1,5,0,0
29398,-111.111111111111,4,2,1,50,0,0
29547,288.461538461538,4,2,1,50,1,0
29547,-111.111111111111,4,2,1,50,0,0
30268,279.06976744186,4,2,1,50,1,0
30826,284.36018957346,4,2,1,50,1,0
30826,-111.111111111111,4,2,1,50,0,0
31963,282.818760311101,4,2,1,50,1,0
32245,-111.111111111111,4,2,1,50,0,0
33094,289.855072463768,4,2,1,50,1,0
33094,-111.111111111111,4,2,1,50,0,0
35122,270.27027027027,4,2,1,50,1,0
35122,-111.111111111111,4,2,1,50,0,0
35391,291.26213592233,4,2,1,50,1,0
37721,-83.3333333333333,4,2,1,40,0,0
37793,-83.3333333333333,4,2,1,5,0,0
38012,-83.3333333333333,4,2,1,40,0,0
38085,-83.3333333333333,4,2,1,5,0,0
38303,-83.3333333333333,4,2,1,40,0,0
38376,-83.3333333333333,4,2,1,5,0,0
38594,-83.3333333333333,4,2,1,40,0,0
38667,-83.3333333333333,4,2,1,5,0,0
38886,-83.3333333333333,4,2,1,50,0,0
39104,-83.3333333333333,4,2,1,5,0,0
39177,-83.3333333333333,4,2,1,50,0,0
39250,-83.3333333333333,4,2,1,5,0,0
39323,287.081339712919,4,2,1,50,1,0
39323,-125,4,2,1,50,0,0
39759,-100,4,2,1,50,0,0
40043,291.26213592233,4,2,1,70,1,1
40043,-100,4,2,1,70,0,1
40188,-83.3333333333333,4,2,1,60,0,1
42373,300,4,2,1,70,1,1
42373,-83.3333333333333,4,2,1,70,0,1
42973,291.26213592233,4,2,1,70,1,1
43264,-83.3333333333333,4,2,1,70,0,1
43555,291.26213592233,4,2,1,70,1,1
43555,-83.3333333333333,4,2,1,70,0,1
46467,295.566502463054,4,2,1,70,1,1
46614,-83.3333333333333,4,2,1,70,0,1
47058,294.117647058824,4,2,1,70,1,1
47058,-83.3333333333333,4,2,1,60,0,1
48234,292.326431181486,4,2,1,70,1,1
48672,-83.3333333333333,4,2,1,65,0,1
48964,-83.3333333333333,4,2,1,75,0,1
49257,-83.3333333333333,4,2,1,80,0,0
49403,291.26213592233,4,2,1,60,1,1
49403,-83.3333333333333,4,2,1,60,0,1
50568,294.840294840295,4,2,1,60,1,1
50568,-83.3333333333333,4,2,1,60,0,1
51747,294.840294840295,4,2,1,60,1,1
51747,-83.3333333333333,4,2,1,60,0,1
52926,298.507462686567,4,2,1,60,1,1
52926,-83.3333333333333,4,2,1,60,0,1
54120,296.296296296296,4,2,1,60,1,1
54120,-83.3333333333333,4,2,1,60,0,1
55157,300,4,2,1,60,1,1
55157,-83.3333333333333,4,2,1,60,0,1
55907,294.840294840295,4,2,1,60,1,1
56054,-83.3333333333333,4,2,1,60,0,1
56496,297.619047619048,4,2,1,60,1,1
56496,-83.3333333333333,4,2,1,60,0,1
57686,295.566502463054,4,2,1,60,1,1
57686,-83.3333333333333,4,2,1,60,0,1
58572,288.461538461538,4,2,1,60,1,0
58572,-83.3333333333333,4,2,1,60,0,0
58860,294.840294840295,4,2,1,60,1,0
58860,-83.3333333333333,4,2,1,60,0,1
60039,292.682926829268,4,2,1,60,1,1
60039,-83.3333333333333,4,2,1,60,0,1
61502,-83.3333333333333,4,2,1,60,0,1
62087,-83.3333333333333,4,2,1,60,0,1
62380,-83.3333333333333,4,2,1,60,0,0
63549,300,4,2,1,60,1,0
63549,-83.3333333333333,4,2,1,60,0,1
64149,294.117647058824,4,2,1,60,1,0
64590,315.789473684211,4,2,1,60,1,0
64590,-83.3333333333333,4,2,1,60,0,1
64905,285.714285714286,4,2,1,60,1,1
65047,-83.3333333333333,4,2,1,60,0,1
65190,-80,4,2,1,60,0,1
65333,285.714285714286,4,2,1,60,1,1
65904,294.117647058824,4,2,1,60,1,0
65908,-100,4,2,1,55,0,0
68256,295.566502463054,4,2,1,60,1,0
69438,301.507537688442,4,2,1,55,1,0
69438,-100,4,2,1,55,0,0
70644,-76.9230769230769,4,2,1,60,0,1
71247,298.507462686567,4,2,1,60,1,1
71247,-76.9230769230769,4,2,1,60,0,1
71844,295.566502463054,4,2,1,60,1,1
71844,-76.9230769230769,4,2,1,60,0,1
74208,296.882731321128,4,2,1,60,1,1
74208,-76.9230769230769,4,2,1,60,0,1
75395,-588.235294117647,4,2,1,60,0,0
75469,-588.235294117647,4,2,1,5,0,0

[Colours]
Combo1 : 251,202,153
Combo2 : 147,224,240
Combo3 : 254,107,86

[HitObjects]
103,288,290,6,0,P|109:258|118:218,1,63.75,8|0,0:2|0:0,0:0:0:0:
8,335,584,6,0,B|109:306|72:379|169:355,2,170,4|8|0,3:2|0:0|3:0,0:0:0:0:
187,207,1318,1,0,3:1:0:0:
44,137,1465,2,0,P|52:180|61:232,1,85,8|2,0:0|0:3,0:0:0:0:
177,353,1758,6,0,P|249:302|331:318,1,170,0|8,3:0|0:0,0:0:0:0:
490,131,2203,1,0,0:0:0:0:
510,250,2352,2,0,P|468:240|424:230,1,85,0|0,3:1|3:0,0:0:0:0:
309,38,2643,2,0,P|318:82|325:125,1,85,8|2,0:0|0:0,0:0:0:0:
261,189,2861,1,0,0:0:0:0:
249,201,2934,6,0,B|151:227|188:152|84:182,2,170,4|8|0,3:2|0:0|3:1,0:0:0:0:
446,131,3676,1,0,3:0:0:0:
347,331,3825,2,0,P|354:287|362:240,1,85,8|2,0:0|0:3,0:0:0:0:
206,113,4122,6,0,P|117:134|30:156,1,170,0|8,3:0|0:0,0:0:0:0:
88,49,4556,1,0,0:0:0:0:
200,219,4701,2,0,L|112:240,1,85,0|0,3:1|3:0,0:0:0:0:
327,101,4991,2,0,P|399:98|442:133,1,127.5,8|0,0:0|0:0,0:0:0:0:
366,187,5281,6,0,P|386:99|413:24,2,170,2|8|0,3:2|0:0|3:1,0:0:0:0:
428,367,6016,1,0,3:0:0:0:
256,319,6162,2,0,P|296:301|340:300,1,85,8|2,0:0|3:2,0:0:0:0:
174,166,6453,6,0,P|104:220|21:209,2,170,0|8|0,0:0|0:0|3:0,0:0:0:0:
74,110,7185,1,0,3:0:0:0:
156,376,7330,2,0,P|165:331|174:290,1,85,8|0,0:0|0:0,0:0:0:0:
337,189,7620,6,0,B|438:160|401:233|498:209,2,170,2|8|2,3:2|0:0|3:0,0:0:0:0:
466,102,8350,1,2,3:0:0:0:
338,341,8493,5,8,0:0:0:0:
245,175,8636,2,0,B|261:111|261:111|250:76|250:76|270:-2,1,170,4|0,3:2|3:0,0:0:0:0:
140,241,9097,5,8,0:0:0:0:
337,190,9246,1,0,0:0:0:0:
85,168,9395,5,8,0:0:0:0:
392,261,9544,1,0,0:0:0:0:
75,307,9694,5,8,0:0:0:0:
265,116,9836,1,2,0:0:0:0:
265,116,9908,1,2,0:0:0:0:
265,116,9979,6,0,P|327:74|399:88,1,136,4|8,0:0|0:0,0:0:0:0:
512,225,10414,1,2,0:0:0:0:
432,264,10560,2,0,L|456:122,1,136,0|8,3:0|0:0,0:0:0:0:
492,329,10998,1,2,0:0:0:0:
408,361,11144,6,0,B|345:343|343:392|275:379,1,136,0|8,3:0|0:0,0:0:0:0:
110,297,11580,1,2,0:0:0:0:
190,238,11726,2,0,L|206:316,1,68,0|0,3:0|3:0,0:0:0:0:
15,275,12017,2,0,L|31:355,1,68,8|2,0:0|0:0,0:0:0:0:
95,190,12309,6,0,P|107:120|121:43,1,136,0|8,3:0|0:0,0:0:0:0:
261,236,12748,1,2,0:0:0:0:
203,304,12894,2,0,P|160:330|75:298,1,136,0|8,3:0|0:0,0:0:0:0:
266,372,13333,1,2,0:0:0:0:
342,324,13479,6,0,P|349:289|356:248,1,68,0|0,3:0|0:0,0:0:0:0:
249,170,13768,2,0,L|261:244,1,68,8|0,0:0|0:0,0:0:0:0:
450,307,14058,1,2,3:2:0:0:
476,197,14203,1,0,3:0:0:0:
448,320,14348,1,10,0:0:0:0:
380,125,14493,1,2,0:0:0:0:
259,237,14638,6,0,P|194:247|146:202,1,136,4|8,0:0|0:0,0:0:0:0:
4,323,15073,1,2,0:0:0:0:
76,370,15218,2,0,B|140:381|141:339|207:351,1,136,0|8,3:0|0:0,0:0:0:0:
369,384,15652,1,2,0:0:0:0:
317,308,15797,6,0,P|329:241|345:153,1,136,0|8,3:0|0:0,0:0:0:0:
187,80,16231,1,2,0:0:0:0:
266,25,16377,2,0,P|271:58|277:104,1,68,0|0,3:0|0:0,0:0:0:0:
144,219,16667,2,0,P|138:185|132:141,1,68,8|2,0:0|0:0,0:0:0:0:
317,308,16957,6,0,P|382:294|442:334,1,136,0|8,3:0|0:0,0:0:0:0:
512,110,17398,1,0,0:0:0:0:
439,160,17545,2,0,P|428:189|418:232,1,68,0|0,3:0|3:0,0:0:0:0:
512,110,17839,1,8,0:0:0:0:
337,173,17986,1,2,0:0:0:0:
496,268,18133,5,0,3:0:0:0:
379,94,18275,1,0,3:0:0:0:
276,244,18418,1,8,0:0:0:0:
439,160,18561,1,0,0:0:0:0:
244,80,18704,1,0,3:0:0:0:
337,173,18847,1,0,3:0:0:0:
386,83,18993,1,8,0:0:0:0:
223,174,19138,1,2,0:0:0:0:
276,244,19283,6,0,L|413:228,1,136,0|8,3:0|0:0,0:0:0:0:
291,382,19717,1,2,0:0:0:0:
218,331,19862,2,0,P|153:314|85:349,1,136,0|8,3:0|0:0,0:0:0:0:
3,130,20297,1,2,0:0:0:0:
68,195,20442,6,0,B|132:206|133:164|201:176,1,136,0|8,3:0|0:0,0:0:0:0:
350,67,20877,1,2,0:0:0:0:
272,24,21022,2,0,L|196:38,1,68,0|0,3:0|3:0,0:0:0:0:
433,118,21311,2,0,P|446:84|469:36,1,68,8|2,0:0|0:0,0:0:0:0:
314,166,21601,6,0,L|331:307,1,136,0|8,3:0|0:0,0:0:0:0:
168,384,22036,1,2,0:0:0:0:
99,329,22181,2,0,P|129:304|227:316,1,136,0|8,3:0|0:0,0:0:0:0:
375,205,22616,1,2,0:0:0:0:
293,164,22761,6,0,L|223:182,1,68,0|0,3:0|3:0,0:0:0:0:
439,94,23051,2,0,L|507:111,1,68,8|0,0:0|0:0,0:0:0:0:
323,67,23340,1,2,3:2:0:0:
375,205,23486,1,0,3:0:0:0:
407,0,23629,1,10,0:0:0:0:
231,88,23772,1,2,0:0:0:0:
375,205,23914,6,0,P|432:169|507:182,1,136,0|8,3:0|0:0,0:0:0:0:
310,272,24338,1,2,0:0:0:0:
245,208,24480,2,0,L|264:54,1,136,0|8,3:0|0:0,0:0:0:0:
310,272,24914,1,2,0:0:0:0:
236,323,25059,6,0,B|173:305|171:356|100:342,1,136,0|8,3:0|0:0,0:0:0:0:
13,213,25493,1,2,0:0:0:0:
99,189,25638,2,0,L|86:267,1,68,0|0,3:0|0:0,0:0:0:0:
0,89,25921,2,0,L|14:8,1,68,8|2,0:0|0:0,0:0:0:0:
219,160,26204,5,4,3:1:0:0:
94,79,26345,1,0,0:0:0:0:
249,31,26487,1,12,0:1:0:0:
81,89,26628,1,2,0:0:0:0:
310,165,26770,1,4,3:1:0:0:
180,81,26915,1,0,3:0:0:0:
87,256,27060,2,0,L|104:352,1,72.2500013780594,12|0,0:1|0:0,0:0:0:0:
312,378,27350,5,4,3:1:0:0:
341,263,27494,1,0,3:0:0:0:
249,307,27639,1,12,0:1:0:0:
399,360,27784,1,2,0:0:0:0:
284,163,27929,5,4,3:1:0:0:
512,273,28074,1,0,3:0:0:0:
312,378,28219,1,12,0:1:0:0:
401,143,28364,1,2,0:0:0:0:
150,296,28509,6,0,P|66:314|10:262,1,152.999995330811,4|8,0:0|0:0,0:0:0:0:
224,193,28952,1,0,0:0:0:0:
312,378,29100,2,0,L|336:238,1,114.749996498108,2|0,3:3|0:0,0:0:0:0:
354,250,29398,1,8,0:0:0:0:
172,17,29547,6,0,P|137:83|155:156,1,152.999995330811,12|2,0:0|3:2,0:0:0:0:
374,101,29979,2,0,L|281:85,1,76.4999976654053,4|0,3:1|0:0,0:0:0:0:
137,243,30268,1,8,0:0:0:0:
321,189,30407,1,8,0:0:0:0:
148,136,30547,1,0,3:3:0:0:
286,332,30686,1,8,0:3:0:0:
447,179,30826,6,0,P|459:102|476:20,1,152.999995330811,6|14,3:2|0:1,0:0:0:0:
286,171,31252,1,0,0:0:0:0:
387,290,31394,2,0,P|437:264|495:268,1,114.749996498108,2|0,3:0|0:0,0:0:0:0:
512,291,31679,1,8,0:0:0:0:
272,372,31821,6,0,B|193:387|212:330|124:349,1,152.999995330811,12|0,0:0|0:0,0:0:0:0:
225,167,32245,2,0,P|232:200|237:256,1,76.4999976654053,0|0,3:0|0:0,0:0:0:0:
36,370,32528,1,8,0:0:0:0:
142,210,32670,1,8,0:0:0:0:
214,374,32811,1,0,3:3:0:0:
27,227,32952,1,8,3:3:0:0:
316,318,33094,6,0,P|382:327|434:246,2,152.999995330811,4|4|2,0:0|3:1|3:3,0:0:0:0:
60,101,33963,1,8,0:0:0:0:
0,199,34108,6,0,P|75:185|150:170,1,152.999995330811,12|0,0:0|3:0,0:0:0:0:
252,17,34543,2,0,P|241:53|237:91,1,76.4999976654053,4|0,3:1|0:0,0:0:0:0:
391,321,34833,2,0,P|401:284|405:246,1,76.4999976654053,8|0,0:0|0:0,0:0:0:0:
303,269,35050,1,2,3:1:0:0:
303,269,35122,2,0,L|204:284,1,76.4999976654053,8|8,0:0|0:0,0:0:0:0:
3,140,35391,6,0,P|47:103|130:121,1,127.5,4|0,3:2|0:0,0:0:0:0:
138,130,35682,1,12,0:1:0:0:
287,27,35827,2,0,P|246:33|198:38,1,85,0|4,0:0|3:1,0:0:0:0:
394,181,36119,2,0,P|434:174|483:170,1,85,0|12,3:0|0:1,0:0:0:0:
248,352,36410,6,0,P|182:301|100:312,1,170,2|0,0:0|0:0,0:0:0:0:
220,135,36847,2,0,L|234:237,1,85,12|2,0:1|0:0,0:0:0:0:
115,192,37138,1,4,3:1:0:0:
281,45,37284,1,2,3:2:0:0:
321,279,37429,5,12,0:1:0:0:
116,55,37575,1,12,0:0:0:0:
81,357,37721,6,0,L|149:345,1,50.9999984436036,2|0,3:1|0:0,0:0:0:0:
321,279,38012,6,0,L|253:267,1,50.9999984436036,2|0,3:1|0:0,0:0:0:0:
53,182,38303,6,0,L|121:170,1,50.9999984436036,2|0,3:1|0:0,0:0:0:0:
346,46,38594,6,0,L|278:34,1,50.9999984436036,2|0,3:1|0:0,0:0:0:0:
429,384,38886,6,0,L|452:248,1,101.999996887207,4|0,0:0|0:0,0:0:0:0:
283,132,39177,1,2,3:1:0:0:
188,301,39323,6,0,P|239:293|294:286,1,102,8|0,3:3|0:0,0:0:0:0:
364,330,39610,5,0,3:0:0:0:
175,86,39753,1,12,0:0:0:0:
67,268,39897,5,2,0:0:0:0:
67,268,40043,1,4,3:3:0:0:
217,188,40188,1,2,0:0:0:0:
25,116,40334,1,12,0:1:0:0:
241,19,40479,1,0,0:0:0:0:
160,346,40625,2,0,P|147:308|146:238,1,101.999996887207,4|0,3:1|3:0,0:0:0:0:
348,11,40916,2,0,P|361:49|362:119,1,101.999996887207,12|0,0:1|0:0,0:0:0:0:
510,356,41208,6,0,P|441:295|359:316,1,152.999995330811,4|0,3:1|0:0,0:0:0:0:
312,358,41499,1,12,0:1:0:0:
144,246,41644,2,0,P|158:145|173:44,1,203.999993774414,2|0,3:2|3:2,0:0:0:0:
220,321,42081,2,0,P|155:355|66:312,1,152.999995330811,12|0,0:1|0:0,0:0:0:0:
144,246,42373,6,0,B|266:210|218:300|342:268,2,203.999993774414,4|12|4,3:1|0:1|3:1,0:0:0:0:
201,36,43118,1,0,3:0:0:0:
0,165,43264,2,0,P|50:156|100:146,1,101.999996887207,12|0,0:1|0:0,0:0:0:0:
381,353,43555,6,0,P|305:342|229:333,1,152.999995330811,4|0,3:1|0:0,0:0:0:0:
143,378,43846,1,12,0:1:0:0:
345,194,43991,2,0,P|442:178|508:251,1,203.999993774414,2|0,0:0|3:2,0:0:0:0:
239,151,44428,2,0,P|228:81|214:-7,1,152.999995330811,12|0,0:1|0:0,0:0:0:0:
134,69,44720,6,0,P|85:81|23:93,1,101.999996887207,4|0,3:1|3:0,0:0:0:0:
376,307,45011,2,0,P|425:295|487:283,1,101.999996887207,12|0,0:1|0:0,0:0:0:0:
147,239,45302,1,4,3:1:0:0:
339,161,45448,1,2,3:0:0:0:
241,384,45593,1,12,0:1:0:0:
290,74,45739,6,0,P|391:74|440:155,1,203.999993774414,6|0,3:2|3:0,0:0:0:0:
194,25,46176,1,12,0:1:0:0:
323,261,46321,2,0,P|331:210|338:160,1,101.999996887207,2|4,0:2|3:1,0:0:0:0:
97,366,46614,2,0,P|88:315|81:265,1,101.999996887207,2|12,0:0|0:1,0:0:0:0:
217,291,46910,1,2,0:0:0:0:
245,36,47058,5,4,3:1:0:0:
332,236,47205,1,0,3:2:0:0:
98,158,47352,2,0,P|151:148|208:138,1,101.999996887207,12|2,0:1|0:0,0:0:0:0:
469,380,47646,5,4,3:1:0:0:
217,291,47793,1,0,3:2:0:0:
384,127,47940,2,0,P|375:180|365:247,1,101.999996887207,12|2,0:1|0:0,0:0:0:0:
333,371,48234,5,4,3:1:0:0:
217,291,48380,1,12,0:2:0:0:
201,293,48452,1,8,0:0:0:0:
185,295,48526,1,8,0:0:0:0:
368,227,48672,1,10,0:0:0:0:
189,154,48818,1,8,0:0:0:0:
398,82,48964,1,8,0:0:0:0:
166,0,49110,1,8,0:0:0:0:
272,202,49257,5,10,0:0:0:0:
272,202,49403,1,4,0:0:0:0:
302,51,49548,1,0,0:0:0:0:
102,241,49694,1,12,0:1:0:0:
403,326,49839,1,0,0:0:0:0:
182,11,49985,2,0,P|179:58|169:116,1,101.999996887207,4|0,3:1|3:0,0:0:0:0:
497,380,50276,2,0,P|500:333|509:274,1,101.999996887207,12|2,0:1|0:0,0:0:0:0:
366,109,50568,5,6,3:1:0:0:
322,351,50715,1,0,3:0:0:0:
368,98,50862,1,12,0:1:0:0:
194,255,51010,2,0,B|87:288|110:199|0:240,1,203.999993774414,0|0,3:0|3:0,0:0:0:0:
246,0,51452,2,0,P|232:75|220:150,1,152.999995330811,12|0,0:1|0:0,0:0:0:0:
296,211,51747,6,0,P|394:143|476:158,2,203.999993774414,4|12|4,3:1|0:1|3:1,0:0:0:0:
69,125,52484,1,0,3:0:0:0:
213,0,52631,2,0,P|206:50|198:105,1,101.999996887207,12|2,0:1|0:0,0:0:0:0:
5,309,52926,6,0,P|60:260|135:265,1,152.999995330811,4|0,3:1|0:0,0:0:0:0:
204,327,53224,1,12,0:1:0:0:
352,195,53373,2,0,B|321:90|397:104|361:-7,1,203.999993774414,2|0,0:0|3:0,0:0:0:0:
512,255,53821,2,0,P|436:245|405:310,1,152.999995330811,12|0,0:1|0:0,0:0:0:0:
334,371,54120,6,0,P|284:357|234:357,1,101.999996887207,4|0,3:2|3:0,0:0:0:0:
0,228,54416,2,0,P|47:237|101:214,1,101.999996887207,12|0,0:1|0:0,0:0:0:0:
269,106,54712,1,4,3:1:0:0:
158,315,54860,1,2,3:0:0:0:
31,72,55008,1,12,0:1:0:0:
307,208,55157,6,0,P|407:188|507:170,1,203.999993774414,4|0,0:2|3:0,0:0:0:0:
340,71,55607,1,12,0:1:0:0:
385,384,55757,2,0,P|392:328|407:256,1,101.999996887207,2|4,0:0|3:1,0:0:0:0:
215,21,56054,2,0,P|208:77|193:149,1,101.999996887207,2|12,0:0|0:1,0:0:0:0:
307,208,56349,1,2,0:0:0:0:
249,344,56496,5,4,3:1:0:0:
441,217,56644,1,0,3:0:0:0:
199,121,56793,2,0,P|150:131|99:142,1,101.999996887207,12|2,0:1|0:0,0:0:0:0:
31,93,57016,1,0,0:0:0:0:
40,79,57091,5,4,3:1:0:0:
307,208,57240,1,0,3:0:0:0:
120,359,57388,2,0,P|129:307|140:249,1,101.999996887207,12|0,0:1|0:0,0:0:0:0:
318,98,57686,5,4,3:1:0:0:
424,261,57833,1,0,3:0:0:0:
217,193,57981,1,12,0:1:0:0:
425,112,58129,1,8,0:1:0:0:
339,336,58277,5,4,3:1:0:0:
234,85,58424,1,8,3:3:0:0:
489,191,58572,1,12,0:0:0:0:
223,360,58716,5,2,0:0:0:0:
223,360,58860,1,4,0:0:0:0:
326,123,59007,1,0,0:0:0:0:
90,245,59154,1,12,0:1:0:0:
339,336,59302,1,2,0:0:0:0:
182,44,59449,2,0,P|189:93|198:152,1,101.999996887207,6|0,3:1|3:0,0:0:0:0:
469,377,59744,2,0,P|476:328|485:269,1,101.999996887207,12|2,0:1|0:0,0:0:0:0:
222,360,60039,6,0,P|172:362|121:371,1,101.999996887207,4|0,3:1|3:0,0:0:0:0:
288,110,60331,1,12,0:1:0:0:
12,255,60478,2,0,B|120:283|99:194|211:232,1,203.999993774414,0|0,3:0|3:0,0:0:0:0:
418,73,60917,2,0,P|360:119|287:109,1,152.999995330811,12|0,0:1|0:0,0:0:0:0:
208,37,61209,2,0,P|256:24|306:11,1,101.999996887207,4|0,0:0|0:0,0:0:0:0:
496,301,61502,5,12,0:1:0:0:
205,230,61648,1,0,0:0:0:0:
452,195,61795,5,12,0:1:0:0:
148,328,61941,1,0,3:0:0:0:
382,382,62087,5,12,0:0:0:0:
382,382,62234,1,0,3:0:0:0:
318,98,62380,5,4,0:0:0:0:
263,315,62526,1,0,3:0:0:0:
263,315,62673,1,8,0:0:0:0:
219,0,62819,5,8,0:0:0:0:
274,217,62965,1,0,3:0:0:0:
274,217,63112,1,0,3:0:0:0:
0,177,63258,6,0,P|51:123|124:131,1,152.999995330811,12|0,0:0|0:0,0:0:0:0:
222,90,63549,2,0,P|212:139|203:199,1,101.999996887207,4|0,0:0|0:0,0:0:0:0:
406,384,63849,2,0,P|416:335|425:275,1,101.999996887207,12|2,0:1|0:0,0:0:0:0:
331,115,64149,1,2,3:0:0:0:
304,318,64296,1,2,3:0:0:0:
512,175,64443,1,8,0:0:0:0:
198,274,64590,6,0,B|91:307|119:220|4:259,1,203.999993774414,4|0,0:0|3:0,0:0:0:0:
21,165,64976,1,8,0:0:0:0:
31,143,65047,1,8,0:0:0:0:
321,253,65190,1,8,0:0:0:0:
108,379,65333,1,8,0:0:0:0:
243,166,65475,1,8,0:0:0:0:
326,358,65618,1,8,0:0:0:0:
198,274,65761,1,8,0:0:0:0:
375,149,65904,6,0,P|457:144|494:232,2,170,4|12|4,0:0|0:1|3:1,0:0:0:0:
195,223,66639,1,2,3:2:0:0:
256,37,66786,2,0,P|261:75|270:140,1,85,12|0,0:1|0:0,0:0:0:0:
169,333,67080,6,0,B|73:305|101:376|8:353,1,170,6|12,3:1|0:1,0:0:0:0:
195,223,67521,2,0,P|251:239|325:162,1,170,2|2,3:2|3:2,0:0:0:0:
149,49,67962,2,0,P|154:89|161:134,1,85,12|2,0:1|0:0,0:0:0:0:
301,281,68256,6,0,P|386:248|475:267,2,170,4|12|4,3:1|0:0|3:1,0:0:0:0:
161,133,68994,1,2,3:2:0:0:
115,243,69142,2,0,L|222:232,1,85,12|0,0:1|0:0,0:0:0:0:
349,35,69438,5,4,3:1:0:0:
161,133,69588,1,0,0:0:0:0:
361,194,69739,1,12,0:1:0:0:
169,26,69890,2,0,P|87:46|-9:68,1,170,2|2,3:2|0:0,0:0:0:0:
217,193,70342,2,0,P|243:249|226:309,1,127.5,12|0,0:1|0:0,0:0:0:0:
142,361,70644,6,0,P|87:353|16:349,1,110.499994941712,12|0,0:1|3:0,0:0:0:0:
382,134,70945,2,0,P|437:142|508:146,1,110.499994941712,12|0,0:1|3:0,0:0:0:0:
178,0,71247,6,0,P|170:56|157:114,1,110.499994941712,12|0,0:1|3:0,0:0:0:0:
315,384,71545,2,0,P|323:328|336:270,1,110.499994941712,12|0,0:1|3:0,0:0:0:0:
141,224,71844,5,12,0:1:0:0:
381,145,71991,1,0,3:0:0:0:
95,150,72139,5,12,0:1:0:0:
419,221,72287,1,0,3:0:0:0:
117,307,72435,6,0,P|62:315|-10:329,1,110.499994941712,12|0,0:1|3:0,0:0:0:0:
404,72,72730,2,0,P|459:64|531:50,1,110.499994941712,12|0,0:1|3:0,0:0:0:0:
184,9,73026,6,0,P|168:70|169:122,1,110.499994941712,12|0,0:1|3:0,0:0:0:0:
373,384,73321,2,0,P|389:323|388:271,1,110.499994941712,12|0,0:1|3:0,0:0:0:0:
286,74,73617,5,12,0:1:0:0:
270,317,73765,1,0,3:0:0:0:
287,61,73912,5,12,0:1:0:0:
268,330,74060,1,0,3:0:0:0:
116,177,74208,6,0,P|125:124|139:40,1,110.499994941712,12|0,0:1|3:0,0:0:0:0:
42,99,74430,1,0,0:0:0:0:
24,94,74504,1,8,0:0:0:0:
223,255,74653,1,8,0:0:0:0:
14,355,74801,1,10,3:1:0:0:
256,160,74950,1,8,3:0:0:0:
498,355,75098,1,8,3:3:0:0:
498,355,75395,6,0,B|365:248|369:35|486:53|526:116|557:172|465:238|350:299|242:266|179:212|274:138|324:167|344:263,1,693.600004233399,4|0,0:0|0:0,0:0:0:0:
