osu file format v14

[General]
AudioFilename: audio.mp3
AudioLeadIn: 0
PreviewTime: -1
Countdown: 0
SampleSet: Soft
StackLeniency: 0.9
Mode: 3
LetterboxInBreaks: 0
SpecialStyle: 1
WidescreenStoryboard: 1

[Editor]
DistanceSpacing: 4
BeatDivisor: 2
GridSize: 16
TimelineZoom: 1.7

[Metadata]
Title:Click
TitleUnicode:Click
Artist:Anahi Ft Bryan Amadeus Y Ale Sergi
ArtistUnicode:Anahi Ft Bryan Amadeus Y Ale Sergi
Creator:Stupendo92
Version:Dlin-Dlin
Source:MTV PopLand
Tags:MTV PopLand Video Official gnocche porche colombiane
BeatmapID:1118640
BeatmapSetID:526092

[Difficulty]
HPDrainRate:7
CircleSize:4
OverallDifficulty:6
ApproachRate:9
SliderMultiplier:1
SliderTickRate:2

[Events]
//Background and Video events
0,0,"00-popland-05.jpg",0,0
//Break Periods
//Storyboard Layer 0 (Background)
//Storyboard Layer 1 (Fail)
//Storyboard Layer 2 (Pass)
//Storyboard Layer 3 (Foreground)
//Storyboard Sound Samples

[TimingPoints]
0,461.538461538462,4,1,0,60,1,0
0,-100,4,2,0,60,0,0
69230,-100,4,3,1,60,0,0
70615,-100,4,2,1,60,0,0

[Colours]
Combo1 : 225,222,157
Combo2 : 129,114,112
Combo3 : 191,89,64
Combo4 : 47,81,53
Combo5 : 67,64,104

[HitObjects]
448,192,7846,5,4,0:0:0:0:
64,192,7846,1,4,0:0:0:0:
448,192,8076,1,4,0:0:0:0:
64,192,8076,1,4,0:0:0:0:
320,192,8307,1,4,0:0:0:0:
192,192,8307,1,4,0:0:0:0:
448,192,8538,1,4,0:0:0:0:
64,192,8538,1,4,0:0:0:0:
320,192,8769,1,4,0:0:0:0:
192,192,8769,1,4,0:0:0:0:
64,192,9000,1,4,0:0:0:0:
448,192,9000,1,4,0:0:0:0:
448,192,9230,1,4,0:0:0:0:
320,192,9230,1,4,0:0:0:0:
192,192,9230,1,4,0:0:0:0:
64,192,9230,1,4,0:0:0:0:
64,192,9461,128,4,9692:0:0:0:0:
448,192,9461,128,4,9692:0:0:0:0:
192,192,9692,1,4,0:0:0:0:
320,192,9692,1,4,0:0:0:0:
320,192,9923,128,4,10153:0:0:0:0:
192,192,10153,128,4,10384:0:0:0:0:
64,192,10384,128,4,10615:0:0:0:0:
192,192,10615,1,4,0:0:0:0:
448,192,10615,1,4,0:0:0:0:
320,192,10615,1,4,0:0:0:0:
64,192,10846,1,4,0:0:0:0:
192,192,10846,1,4,0:0:0:0:
64,192,11076,1,4,0:0:0:0:
192,192,11076,1,4,0:0:0:0:
64,192,11307,1,4,0:0:0:0:
192,192,11307,1,4,0:0:0:0:
448,192,11538,1,4,0:0:0:0:
320,192,11769,1,4,0:0:0:0:
448,192,12000,1,4,0:0:0:0:
320,192,12230,1,4,0:0:0:0:
448,192,12461,128,4,12692:0:0:0:0:
192,192,12461,1,4,0:0:0:0:
320,192,12692,128,4,12923:0:0:0:0:
64,192,12692,1,4,0:0:0:0:
192,192,12923,1,4,0:0:0:0:
192,192,13153,128,4,13384:0:0:0:0:
448,192,13153,1,4,0:0:0:0:
64,192,13384,128,4,13846:0:0:0:0:
320,192,13384,1,4,0:0:0:0:
192,192,13615,1,4,0:0:0:0:
192,192,13846,128,4,14076:0:0:0:0:
320,192,14307,1,4,0:0:0:0:
448,192,14307,1,4,0:0:0:0:
192,192,14538,1,4,0:0:0:0:
64,192,14538,1,4,0:0:0:0:
192,192,14769,1,4,0:0:0:0:
64,192,14769,1,4,0:0:0:0:
64,192,15000,1,4,0:0:0:0:
192,192,15000,1,4,0:0:0:0:
320,192,15230,128,4,15461:0:0:0:0:
192,192,15461,128,4,15692:0:0:0:0:
64,192,15692,1,4,0:0:0:0:
448,192,15923,1,4,0:0:0:0:
320,192,16153,1,4,0:0:0:0:
192,192,16384,128,4,16615:0:0:0:0:
64,192,16615,128,4,16846:0:0:0:0:
320,192,16846,128,4,17076:0:0:0:0:
192,192,17076,128,4,17307:0:0:0:0:
448,192,17307,128,4,17538:0:0:0:0:
64,192,17538,128,4,17769:0:0:0:0:
192,192,17538,128,4,17769:0:0:0:0:
320,192,18000,1,4,0:0:0:0:
448,192,18000,1,4,0:0:0:0:
320,192,18230,1,4,0:0:0:0:
448,192,18230,1,4,0:0:0:0:
320,192,18461,1,4,0:0:0:0:
448,192,18461,1,4,0:0:0:0:
192,192,18692,1,4,0:0:0:0:
64,192,18692,1,4,0:0:0:0:
64,192,18923,1,4,0:0:0:0:
192,192,18923,1,4,0:0:0:0:
64,192,19153,128,4,22153:0:0:0:0:
448,192,19153,1,4,0:0:0:0:
320,192,19384,1,4,0:0:0:0:
192,192,19615,1,4,0:0:0:0:
448,192,19846,1,4,0:0:0:0:
192,192,20076,1,4,0:0:0:0:
192,192,20307,1,4,0:0:0:0:
448,192,20307,1,4,0:0:0:0:
448,192,20538,1,4,0:0:0:0:
192,192,20538,1,4,0:0:0:0:
320,192,20769,1,4,0:0:0:0:
192,192,21000,1,4,0:0:0:0:
320,192,21230,1,4,0:0:0:0:
448,192,21461,128,4,22153:0:0:0:0:
320,192,21461,128,4,22153:0:0:0:0:
192,192,21461,128,4,22153:0:0:0:0:
64,192,22384,1,12,0:0:0:0:
192,192,22384,1,12,0:0:0:0:
320,192,22384,1,12,0:0:0:0:
448,192,22384,1,12,0:0:0:0:
192,192,22615,1,4,0:0:0:0:
448,192,22615,1,4,0:0:0:0:
448,192,22846,128,4,25615:0:0:0:0:
320,192,22846,128,4,25615:0:0:0:0:
64,192,23076,1,6,0:0:0:0:
192,192,23307,1,6,0:0:0:0:
64,192,23538,1,6,0:0:0:0:
192,192,23769,1,6,0:0:0:0:
64,192,24000,1,6,0:0:0:0:
192,192,24230,1,6,0:0:0:0:
64,192,24461,1,6,0:0:0:0:
192,192,24692,128,4,24923:0:0:0:0:
64,192,24923,128,4,25384:0:0:0:0:
192,192,25615,128,4,26192:0:0:0:0:
64,192,25615,128,4,26192:0:0:0:0:
320,192,25846,1,4,0:0:0:0:
448,192,25846,1,4,0:0:0:0:
320,192,26076,1,4,0:0:0:0:
448,192,26076,1,4,0:0:0:0:
320,192,26423,128,4,26769:0:0:0:0:
192,192,26423,128,4,26769:0:0:0:0:
64,192,27000,1,4,0:0:0:0:
192,192,27230,1,4,0:0:0:0:
448,192,27461,1,4,0:0:0:0:
192,192,27692,1,4,0:0:0:0:
448,192,27923,1,4,0:0:0:0:
448,192,28153,128,4,28384:0:0:0:0:
192,192,28384,128,4,28846:0:0:0:0:
64,192,28384,128,4,28846:0:0:0:0:
448,192,28615,1,4,0:0:0:0:
192,192,29076,1,4,0:0:0:0:
64,192,29076,1,4,0:0:0:0:
320,192,29307,1,4,0:0:0:0:
448,192,29307,1,4,0:0:0:0:
64,192,29538,128,6,29769:0:0:0:0:
192,192,29538,128,6,29769:0:0:0:0:
320,192,29538,128,6,29769:0:0:0:0:
448,192,29538,128,6,29769:0:0:0:0:
320,192,30000,1,4,0:0:0:0:
320,192,30230,128,12,30692:0:0:0:0:
64,192,30461,1,4,0:0:0:0:
64,192,30692,128,12,31153:0:0:0:0:
320,192,30923,1,4,0:0:0:0:
320,192,31153,1,12,0:0:0:0:
192,192,31384,1,4,0:0:0:0:
448,192,31384,1,4,0:0:0:0:
320,192,31615,128,4,31846:0:0:0:0:
64,192,31615,128,4,31846:0:0:0:0:
192,192,32076,128,12,32538:0:0:0:0:
448,192,32076,1,12,0:0:0:0:
448,192,32307,1,12,0:0:0:0:
448,192,32538,128,12,33000:0:0:0:0:
320,192,32769,1,12,0:0:0:0:
64,192,32769,1,12,0:0:0:0:
320,192,33000,1,12,0:0:0:0:
64,192,33000,1,12,0:0:0:0:
320,192,33230,128,4,33461:0:0:0:0:
64,192,33230,128,4,33461:0:0:0:0:
192,192,33461,1,4,0:0:0:0:
448,192,33461,1,4,0:0:0:0:
192,192,33692,1,4,0:0:0:0:
448,192,33692,1,4,0:0:0:0:
320,192,33923,1,12,0:0:0:0:
64,192,34153,1,4,0:0:0:0:
448,192,34384,1,4,0:0:0:0:
192,192,34615,1,4,0:0:0:0:
320,192,34846,1,12,0:0:0:0:
320,192,35076,1,4,0:0:0:0:
192,192,35307,128,4,35769:0:0:0:0:
320,192,35538,1,4,0:0:0:0:
448,192,35538,1,4,0:0:0:0:
320,192,35769,1,8,0:0:0:0:
448,192,35769,1,8,0:0:0:0:
448,192,36000,128,4,36923:0:0:0:0:
64,192,36000,1,4,0:0:0:0:
192,192,36000,1,4,0:0:0:0:
320,192,36000,128,4,36923:0:0:0:0:
192,192,36230,1,4,0:0:0:0:
64,192,36230,1,4,0:0:0:0:
64,192,36461,1,8,0:0:0:0:
192,192,36461,1,8,0:0:0:0:
64,192,36692,1,8,0:0:0:0:
192,192,36692,1,8,0:0:0:0:
64,192,36923,128,6,37846:0:0:0:0:
192,192,36923,128,6,37846:0:0:0:0:
320,192,37153,1,4,0:0:0:0:
448,192,37384,1,4,0:0:0:0:
320,192,37615,1,12,0:0:0:0:
320,192,37846,1,0,0:0:0:0:
448,192,37846,1,0,0:0:0:0:
320,192,38076,1,4,0:0:0:0:
192,192,38076,1,4,0:0:0:0:
64,192,38307,1,4,0:0:0:0:
448,192,38307,1,4,0:0:0:0:
192,192,38538,128,12,38769:0:0:0:0:
320,192,38538,128,12,38769:0:0:0:0:
64,192,38769,1,12,0:0:0:0:
448,192,38769,1,12,0:0:0:0:
320,192,39000,1,4,0:0:0:0:
192,192,39000,1,4,0:0:0:0:
64,192,39230,128,4,40615:0:0:0:0:
448,192,39230,128,4,40615:0:0:0:0:
192,192,39230,1,4,0:0:0:0:
320,192,39461,1,12,0:0:0:0:
192,192,39692,1,4,0:0:0:0:
320,192,39923,1,4,0:0:0:0:
192,192,40153,1,4,0:0:0:0:
320,192,40384,1,12,0:0:0:0:
192,192,40384,1,12,0:0:0:0:
192,192,40615,128,4,40846:0:0:0:0:
320,192,40615,128,4,40846:0:0:0:0:
64,192,40846,1,4,0:0:0:0:
448,192,40846,1,4,0:0:0:0:
448,192,41076,1,4,0:0:0:0:
64,192,41076,1,4,0:0:0:0:
192,192,41307,1,12,0:0:0:0:
320,192,41538,1,4,0:0:0:0:
192,192,41769,1,4,0:0:0:0:
320,192,42000,1,4,0:0:0:0:
192,192,42230,1,12,0:0:0:0:
192,192,42461,128,4,42923:0:0:0:0:
448,192,42461,128,4,42923:0:0:0:0:
64,192,42692,1,4,0:0:0:0:
320,192,42692,1,4,0:0:0:0:
320,192,43153,1,12,0:0:0:0:
64,192,43153,1,12,0:0:0:0:
192,192,43384,1,12,0:0:0:0:
448,192,43384,1,4,0:0:0:0:
320,192,43615,1,4,0:0:0:0:
64,192,43615,1,4,0:0:0:0:
192,192,43846,1,4,0:0:0:0:
448,192,43846,1,4,0:0:0:0:
192,192,44076,128,14,44538:0:0:0:0:
448,192,44076,128,14,44538:0:0:0:0:
320,192,44769,1,4,0:0:0:0:
320,192,45000,1,4,0:0:0:0:
192,192,45230,1,4,0:0:0:0:
192,192,45461,1,6,0:0:0:0:
448,192,45692,1,4,0:0:0:0:
448,192,45923,1,4,0:0:0:0:
192,192,46153,1,4,0:0:0:0:
192,192,46384,1,6,0:0:0:0:
64,192,46615,1,4,0:0:0:0:
64,192,46846,1,4,0:0:0:0:
320,192,47076,1,4,0:0:0:0:
320,192,47307,1,6,0:0:0:0:
192,192,47538,1,4,0:0:0:0:
192,192,47769,1,4,0:0:0:0:
448,192,48000,1,4,0:0:0:0:
448,192,48230,1,6,0:0:0:0:
320,192,48230,1,6,0:0:0:0:
320,192,48461,1,4,0:0:0:0:
320,192,48692,1,4,0:0:0:0:
320,192,48923,1,6,0:0:0:0:
192,192,49153,1,4,0:0:0:0:
192,192,49384,1,4,0:0:0:0:
192,192,49615,1,4,0:0:0:0:
192,192,49846,1,6,0:0:0:0:
448,192,50076,1,4,0:0:0:0:
448,192,50307,1,4,0:0:0:0:
448,192,50538,1,4,0:0:0:0:
448,192,50769,1,4,0:0:0:0:
448,192,51000,1,6,0:0:0:0:
192,192,51230,1,4,0:0:0:0:
192,192,51461,1,4,0:0:0:0:
192,192,51692,1,2,0:0:0:0:
64,192,51923,1,12,0:0:0:0:
448,192,51923,1,12,0:0:0:0:
192,192,51923,1,12,0:0:0:0:
320,192,51923,1,12,0:0:0:0:
192,192,52153,1,6,0:0:0:0:
320,192,52384,1,6,0:0:0:0:
192,192,52615,1,6,0:0:0:0:
448,192,52846,1,6,0:0:0:0:
64,192,52846,1,6,0:0:0:0:
320,192,53076,1,6,0:0:0:0:
192,192,53307,1,14,0:0:0:0:
320,192,53307,1,14,0:0:0:0:
192,192,53538,128,6,53769:0:0:0:0:
320,192,53538,128,6,53769:0:0:0:0:
448,192,53769,128,6,54000:0:0:0:0:
192,192,54000,1,6,0:0:0:0:
320,192,54230,128,6,54923:0:0:0:0:
192,192,54461,1,6,0:0:0:0:
448,192,54461,1,6,0:0:0:0:
64,192,54692,1,6,0:0:0:0:
448,192,54923,1,6,0:0:0:0:
64,192,54923,1,6,0:0:0:0:
448,192,55153,1,14,0:0:0:0:
64,192,55153,1,14,0:0:0:0:
192,192,55384,1,6,0:0:0:0:
320,192,55384,1,6,0:0:0:0:
320,192,55615,1,6,0:0:0:0:
192,192,55615,1,6,0:0:0:0:
192,192,55846,1,6,0:0:0:0:
64,192,56076,1,14,0:0:0:0:
320,192,56307,1,6,0:0:0:0:
192,192,56538,1,6,0:0:0:0:
448,192,56538,1,6,0:0:0:0:
64,192,56769,1,6,0:0:0:0:
320,192,56769,1,6,0:0:0:0:
192,192,57000,1,14,0:0:0:0:
448,192,57000,1,14,0:0:0:0:
320,192,57230,1,6,0:0:0:0:
192,192,57230,1,6,0:0:0:0:
448,192,57461,128,6,57692:0:0:0:0:
192,192,57692,128,6,57923:0:0:0:0:
320,192,57923,128,6,58153:0:0:0:0:
64,192,58153,128,6,58615:0:0:0:0:
448,192,58153,128,6,58615:0:0:0:0:
320,192,58384,1,6,0:0:0:0:
192,192,58384,1,6,0:0:0:0:
192,192,58615,128,6,59538:0:0:0:0:
320,192,58615,128,6,59538:0:0:0:0:
64,192,58846,1,14,0:0:0:0:
448,192,58846,1,14,0:0:0:0:
64,192,59076,1,6,0:0:0:0:
448,192,59076,1,6,0:0:0:0:
64,192,59307,1,6,0:0:0:0:
448,192,59307,1,6,0:0:0:0:
448,192,59538,128,6,60692:0:0:0:0:
64,192,59538,1,6,0:0:0:0:
192,192,59769,1,12,0:0:0:0:
320,192,60000,1,4,0:0:0:0:
192,192,60230,1,4,0:0:0:0:
64,192,60461,1,4,0:0:0:0:
192,192,60692,128,12,62076:0:0:0:0:
64,192,60923,1,4,0:0:0:0:
320,192,61153,1,4,0:0:0:0:
64,192,61384,1,4,0:0:0:0:
320,192,61615,1,12,0:0:0:0:
448,192,61846,1,4,0:0:0:0:
64,192,62076,128,4,62538:0:0:0:0:
448,192,62076,128,4,62538:0:0:0:0:
320,192,62076,128,4,62538:0:0:0:0:
192,192,62307,1,4,0:0:0:0:
192,192,62538,1,12,0:0:0:0:
64,192,62769,1,6,0:0:0:0:
320,192,62769,1,6,0:0:0:0:
448,192,62769,1,6,0:0:0:0:
320,192,63000,1,6,0:0:0:0:
64,192,63000,1,6,0:0:0:0:
448,192,63000,1,6,0:0:0:0:
192,192,63230,1,4,0:0:0:0:
64,192,63461,128,4,64384:0:0:0:0:
448,192,63461,128,12,64384:0:0:0:0:
192,192,63692,1,4,0:0:0:0:
320,192,63923,1,4,0:0:0:0:
192,192,64153,1,4,0:0:0:0:
320,192,64384,128,12,64615:0:0:0:0:
192,192,64615,128,4,64846:0:0:0:0:
64,192,64846,128,4,65769:0:0:0:0:
320,192,65076,1,4,0:0:0:0:
448,192,65307,1,4,0:0:0:0:
320,192,65538,1,4,0:0:0:0:
320,192,65769,128,4,66000:0:0:0:0:
448,192,66230,1,14,0:0:0:0:
64,192,66230,1,14,0:0:0:0:
64,192,66461,1,6,0:0:0:0:
448,192,66461,1,6,0:0:0:0:
320,192,66692,1,6,0:0:0:0:
192,192,66692,1,6,0:0:0:0:
320,192,66923,1,6,0:0:0:0:
64,192,66923,128,6,67384:0:0:0:0:
448,192,67153,1,14,0:0:0:0:
192,192,67153,1,6,0:0:0:0:
320,192,67384,128,6,67846:0:0:0:0:
192,192,67615,1,14,0:0:0:0:
192,192,67846,1,6,0:0:0:0:
448,192,68076,1,14,0:0:0:0:
192,192,68076,128,14,68769:0:0:0:0:
64,192,68307,1,6,0:0:0:0:
448,192,68538,1,14,0:0:0:0:
320,192,68769,1,6,0:0:0:0:
192,192,69000,1,6,0:0:0:0:
448,192,69000,1,6,0:0:0:0:
64,192,69230,128,4,69923:0:0:0:0:
320,192,69230,128,4,69923:0:0:0:0:
192,192,69461,1,4,0:0:0:0:
448,192,69461,1,4,0:0:0:0:
448,192,69923,1,4,0:0:0:0:
192,192,69923,1,4,0:0:0:0:
192,192,70153,1,4,0:0:0:0:
448,192,70153,1,4,0:0:0:0:
448,192,70384,1,4,0:0:0:0:
192,192,70384,1,4,0:0:0:0:
448,192,70615,128,4,72692:0:0:0:0:
64,192,70730,1,6,0:0:0:0:
192,192,70846,1,14,0:0:0:0:
320,192,70961,1,6,0:0:0:0:
64,192,71076,1,6,0:0:0:0:
192,192,71192,1,6,0:0:0:0:
320,192,71307,1,14,0:0:0:0:
192,192,71423,1,6,0:0:0:0:
64,192,71538,1,6,0:0:0:0:
320,192,71653,1,6,0:0:0:0:
192,192,71653,1,6,0:0:0:0:
64,192,71769,128,14,72000:0:0:0:0:
320,192,72000,128,6,72230:0:0:0:0:
192,192,72230,128,14,72461:0:0:0:0:
64,192,72461,128,6,72692:0:0:0:0:
320,192,72692,1,14,0:0:0:0:
192,192,72692,1,14,0:0:0:0:
192,192,72923,128,4,73153:0:0:0:0:
320,192,72923,128,4,73153:0:0:0:0:
192,192,73384,1,12,0:0:0:0:
320,192,73384,1,12,0:0:0:0:
448,192,73615,1,4,0:0:0:0:
64,192,73615,1,4,0:0:0:0:
320,192,73846,128,4,74307:0:0:0:0:
192,192,73846,128,4,74307:0:0:0:0:
64,192,74538,1,12,0:0:0:0:
320,192,74538,128,12,75000:0:0:0:0:
64,192,74769,1,12,0:0:0:0:
64,192,75000,128,12,75230:0:0:0:0:
448,192,75000,1,12,0:0:0:0:
320,192,75230,128,4,75461:0:0:0:0:
448,192,75461,128,4,76153:0:0:0:0:
192,192,75461,128,4,75692:0:0:0:0:
64,192,75692,128,4,76153:0:0:0:0:
192,192,75923,1,4,0:0:0:0:
320,192,75923,1,4,0:0:0:0:
320,192,76153,1,4,0:0:0:0:
192,192,76153,1,4,0:0:0:0:
192,192,76384,128,12,76846:0:0:0:0:
320,192,76384,128,12,76846:0:0:0:0:
64,192,76615,1,12,0:0:0:0:
448,192,76615,1,12,0:0:0:0:
448,192,76846,128,4,77307:0:0:0:0:
64,192,76846,128,4,77307:0:0:0:0:
192,192,77076,1,12,0:0:0:0:
320,192,77076,1,12,0:0:0:0:
320,192,77307,1,12,0:0:0:0:
192,192,77307,1,12,0:0:0:0:
64,192,77538,1,14,0:0:0:0:
448,192,77538,1,14,0:0:0:0:
192,192,77769,1,6,0:0:0:0:
320,192,78000,1,6,0:0:0:0:
448,192,78230,128,14,78461:0:0:0:0:
64,192,78461,128,6,78692:0:0:0:0:
320,192,78692,1,6,0:0:0:0:
320,192,78923,1,6,0:0:0:0:
192,192,79153,1,14,0:0:0:0:
64,192,79384,1,6,0:0:0:0:
192,192,79615,1,6,0:0:0:0:
320,192,79846,128,6,80307:0:0:0:0:
64,192,80076,1,6,0:0:0:0:
192,192,80076,1,6,0:0:0:0:
64,192,80307,1,14,0:0:0:0:
192,192,80307,1,14,0:0:0:0:
320,192,80538,1,4,0:0:0:0:
192,192,80538,1,4,0:0:0:0:
448,192,80769,1,12,0:0:0:0:
320,192,80769,1,12,0:0:0:0:
64,192,81000,1,4,0:0:0:0:
192,192,81000,1,4,0:0:0:0:
192,192,81230,128,6,81692:0:0:0:0:
64,192,81230,128,6,81692:0:0:0:0:
320,192,81461,1,6,0:0:0:0:
448,192,81692,1,6,0:0:0:0:
320,192,81923,1,14,0:0:0:0:
64,192,81923,1,8,0:0:0:0:
192,192,82153,1,6,0:0:0:0:
448,192,82384,1,6,0:0:0:0:
320,192,82615,1,6,0:0:0:0:
64,192,82615,1,6,0:0:0:0:
192,192,82846,128,14,83076:0:0:0:0:
448,192,82846,128,14,83076:0:0:0:0:
64,192,83076,128,6,83307:0:0:0:0:
320,192,83076,128,6,83307:0:0:0:0:
192,192,83307,1,6,0:0:0:0:
448,192,83307,1,6,0:0:0:0:
64,192,83538,1,4,0:0:0:0:
320,192,83538,1,4,0:0:0:0:
192,192,83769,1,4,0:0:0:0:
448,192,84000,128,4,84461:0:0:0:0:
192,192,84000,1,4,0:0:0:0:
64,192,84230,1,4,0:0:0:0:
64,192,84461,1,4,0:0:0:0:
64,192,84692,128,12,84923:0:0:0:0:
192,192,84692,128,12,84923:0:0:0:0:
320,192,84923,128,4,85615:0:0:0:0:
192,192,85153,1,4,0:0:0:0:
448,192,85384,1,4,0:0:0:0:
64,192,85384,1,4,0:0:0:0:
64,192,85615,1,12,0:0:0:0:
448,192,85615,1,12,0:0:0:0:
192,192,85846,128,4,86076:0:0:0:0:
320,192,85846,128,4,86076:0:0:0:0:
64,192,86076,128,4,86769:0:0:0:0:
320,192,86307,1,4,0:0:0:0:
448,192,86538,1,12,0:0:0:0:
192,192,86538,1,12,0:0:0:0:
192,192,86769,1,4,0:0:0:0:
320,192,86769,1,4,0:0:0:0:
448,192,86769,1,4,0:0:0:0:
192,192,87000,1,4,0:0:0:0:
448,192,87000,1,4,0:0:0:0:
320,192,87230,1,4,0:0:0:0:
64,192,87230,1,4,0:0:0:0:
192,192,87461,128,6,87923:0:0:0:0:
448,192,87923,128,6,88153:0:0:0:0:
64,192,88153,128,4,88846:0:0:0:0:
192,192,88153,128,4,88384:0:0:0:0:
320,192,88384,128,12,88615:0:0:0:0:
448,192,88615,128,4,88846:0:0:0:0:
320,192,89076,1,4,0:0:0:0:
64,192,89076,1,4,0:0:0:0:
192,192,89307,128,12,89769:0:0:0:0:
448,192,89307,128,12,89769:0:0:0:0:
320,192,89769,128,12,90230:0:0:0:0:
64,192,89769,128,12,90230:0:0:0:0:
192,192,90000,1,12,0:0:0:0:
448,192,90000,1,12,0:0:0:0:
192,192,90230,1,8,0:0:0:0:
448,192,90230,1,8,0:0:0:0:
192,192,90461,1,12,0:0:0:0:
320,192,90461,1,12,0:0:0:0:
448,192,90692,1,4,0:0:0:0:
320,192,90923,1,4,0:0:0:0:
192,192,91153,1,12,0:0:0:0:
64,192,91384,1,4,0:0:0:0:
192,192,91615,1,4,0:0:0:0:
320,192,91846,1,4,0:0:0:0:
64,192,92076,1,12,0:0:0:0:
448,192,92076,1,12,0:0:0:0:
192,192,92307,1,4,0:0:0:0:
320,192,92307,1,4,0:0:0:0:
192,192,92538,128,4,93000:0:0:0:0:
320,192,92538,128,4,93000:0:0:0:0:
64,192,92769,1,4,0:0:0:0:
448,192,92769,1,4,0:0:0:0:
64,192,93000,1,12,0:0:0:0:
448,192,93000,1,12,0:0:0:0:
192,192,93230,1,4,0:0:0:0:
320,192,93230,1,4,0:0:0:0:
448,192,93461,1,4,0:0:0:0:
320,192,93461,1,4,0:0:0:0:
448,192,93692,1,4,0:0:0:0:
64,192,93692,1,4,0:0:0:0:
64,192,93923,1,12,0:0:0:0:
192,192,93923,1,12,0:0:0:0:
320,192,94153,128,4,94384:0:0:0:0:
448,192,94384,128,4,94615:0:0:0:0:
64,192,94615,1,4,0:0:0:0:
192,192,94846,1,12,0:0:0:0:
320,192,95076,1,4,0:0:0:0:
192,192,95307,1,4,0:0:0:0:
192,192,95538,1,4,0:0:0:0:
448,192,95769,128,12,96000:0:0:0:0:
192,192,96000,128,4,96230:0:0:0:0:
320,192,96230,128,4,96692:0:0:0:0:
192,192,96461,1,4,0:0:0:0:
64,192,96692,128,12,97153:0:0:0:0:
192,192,96923,1,4,0:0:0:0:
448,192,96923,1,4,0:0:0:0:
320,192,97153,128,4,97384:0:0:0:0:
192,192,97384,1,4,0:0:0:0:
64,192,97384,1,4,0:0:0:0:
64,192,97615,1,12,0:0:0:0:
192,192,97615,1,12,0:0:0:0:
448,192,97846,128,4,98076:0:0:0:0:
64,192,98076,1,4,0:0:0:0:
320,192,98076,128,4,98538:0:0:0:0:
192,192,98307,1,4,0:0:0:0:
64,192,98538,128,12,98769:0:0:0:0:
448,192,98769,128,4,99000:0:0:0:0:
64,192,99000,1,4,0:0:0:0:
192,192,99230,1,4,0:0:0:0:
320,192,99461,1,12,0:0:0:0:
448,192,99692,1,12,0:0:0:0:
192,192,99692,1,12,0:0:0:0:
64,192,99692,1,12,0:0:0:0:
320,192,99923,1,4,0:0:0:0:
320,192,100153,1,4,0:0:0:0:
64,192,100384,1,4,0:0:0:0:
192,192,100384,1,4,0:0:0:0:
192,192,100615,1,4,0:0:0:0:
192,192,100846,1,4,0:0:0:0:
448,192,101076,1,4,0:0:0:0:
64,192,101076,1,4,0:0:0:0:
192,192,101307,1,4,0:0:0:0:
320,192,101307,1,4,0:0:0:0:
64,192,101538,128,4,101769:0:0:0:0:
320,192,101769,128,4,102000:0:0:0:0:
192,192,102000,128,4,102230:0:0:0:0:
448,192,102230,128,4,102692:0:0:0:0:
64,192,102230,128,4,102461:0:0:0:0:
320,192,102230,128,4,102461:0:0:0:0:
192,192,102461,128,4,102692:0:0:0:0:
320,192,102692,128,4,103153:0:0:0:0:
448,192,102923,1,4,0:0:0:0:
192,192,102923,1,4,0:0:0:0:
64,192,102923,1,4,0:0:0:0:
64,192,103153,128,4,103384:0:0:0:0:
192,192,103153,128,4,103384:0:0:0:0:
448,192,103153,128,4,103384:0:0:0:0:
320,192,103384,128,4,103846:0:0:0:0:
64,192,103615,1,4,0:0:0:0:
192,192,103615,1,4,0:0:0:0:
448,192,103615,1,4,0:0:0:0:
192,192,103846,1,4,0:0:0:0:
64,192,103846,1,4,0:0:0:0:
448,192,103846,1,4,0:0:0:0:
64,192,104076,1,4,0:0:0:0:
320,192,104307,1,4,0:0:0:0:
448,192,104538,128,4,104769:0:0:0:0:
192,192,104538,1,4,0:0:0:0:
64,192,105000,128,4,105461:0:0:0:0:
320,192,105000,1,4,0:0:0:0:
448,192,105230,1,4,0:0:0:0:
320,192,105461,1,4,0:0:0:0:
192,192,105692,1,4,0:0:0:0:
448,192,105692,1,4,0:0:0:0:
320,192,105923,1,4,0:0:0:0:
64,192,105923,1,4,0:0:0:0:
64,192,106153,128,4,106615:0:0:0:0:
320,192,106153,128,4,106615:0:0:0:0:
192,192,106384,1,4,0:0:0:0:
448,192,106384,1,6,0:0:0:0:
192,192,106846,1,4,0:0:0:0:
448,192,106846,1,4,0:0:0:0:
320,192,107076,128,4,107538:0:0:0:0:
64,192,107076,1,4,0:0:0:0:
192,192,107307,1,4,0:0:0:0:
448,192,107307,1,4,0:0:0:0:
192,192,107538,128,4,107769:0:0:0:0:
448,192,107538,128,4,107769:0:0:0:0:
320,192,107769,1,4,0:0:0:0:
64,192,107769,1,4,0:0:0:0:
192,192,108000,1,4,0:0:0:0:
320,192,108230,128,6,108461:0:0:0:0:
320,192,108692,1,4,0:0:0:0:
448,192,108692,1,4,0:0:0:0:
192,192,108923,128,4,109153:0:0:0:0:
64,192,108923,128,4,109153:0:0:0:0:
320,192,109153,128,4,109384:0:0:0:0:
192,192,109384,1,4,0:0:0:0:
448,192,109384,1,4,0:0:0:0:
320,192,109615,1,4,0:0:0:0:
64,192,109615,1,4,0:0:0:0:
448,192,109846,1,4,0:0:0:0:
192,192,109846,1,4,0:0:0:0:
320,192,110076,1,4,0:0:0:0:
320,192,110307,1,4,0:0:0:0:
64,192,110538,128,4,110769:0:0:0:0:
320,192,110769,128,4,111230:0:0:0:0:
64,192,111000,1,4,0:0:0:0:
64,192,111230,128,4,111461:0:0:0:0:
320,192,111461,128,4,111692:0:0:0:0:
192,192,111692,128,4,111923:0:0:0:0:
448,192,111923,128,4,112153:0:0:0:0:
64,192,112384,128,6,112615:0:0:0:0:
192,192,112384,128,6,112615:0:0:0:0:
320,192,112384,128,6,112615:0:0:0:0:
448,192,112384,128,6,112615:0:0:0:0:
64,192,112846,1,4,0:0:0:0:
192,192,112846,1,4,0:0:0:0:
448,192,112846,1,4,0:0:0:0:
320,192,113076,1,4,0:0:0:0:
192,192,113076,1,4,0:0:0:0:
64,192,113076,1,4,0:0:0:0:
192,192,113307,1,4,0:0:0:0:
320,192,113307,1,4,0:0:0:0:
448,192,113307,1,4,0:0:0:0:
64,192,113538,128,4,114000:0:0:0:0:
320,192,113538,128,4,114000:0:0:0:0:
448,192,113538,128,4,114000:0:0:0:0:
192,192,114000,128,4,114461:0:0:0:0:
448,192,114230,1,0,0:0:0:0:
64,192,114230,1,0,0:0:0:0:
320,192,114230,1,0,0:0:0:0:
64,192,114461,1,0,0:0:0:0:
448,192,114461,1,6,0:0:0:0:
320,192,114461,1,0,0:0:0:0:
192,192,114692,1,4,0:0:0:0:
64,192,114923,128,4,115384:0:0:0:0:
320,192,114923,1,4,0:0:0:0:
320,192,115153,1,4,0:0:0:0:
320,192,115384,1,4,0:0:0:0:
448,192,115615,1,4,0:0:0:0:
448,192,115846,128,4,116076:0:0:0:0:
192,192,116076,1,4,0:0:0:0:
64,192,116076,1,4,0:0:0:0:
192,192,116307,128,4,116769:0:0:0:0:
64,192,116307,128,4,116769:0:0:0:0:
448,192,116307,1,4,0:0:0:0:
320,192,116538,1,4,0:0:0:0:
448,192,116769,1,4,0:0:0:0:
320,192,117000,1,12,0:0:0:0:
448,192,117000,1,12,0:0:0:0:
192,192,117230,1,4,0:0:0:0:
320,192,117230,1,4,0:0:0:0:
192,192,117461,1,4,0:0:0:0:
320,192,117461,1,4,0:0:0:0:
320,192,117692,128,4,117923:0:0:0:0:
448,192,117923,128,12,118153:0:0:0:0:
192,192,118153,128,4,118846:0:0:0:0:
64,192,118384,1,4,0:0:0:0:
320,192,118615,1,4,0:0:0:0:
448,192,118615,1,4,0:0:0:0:
448,192,118846,128,12,119076:0:0:0:0:
320,192,118846,128,12,119076:0:0:0:0:
64,192,118846,128,12,119076:0:0:0:0:
192,192,119307,1,4,0:0:0:0:
192,192,119538,1,4,0:0:0:0:
320,192,119769,1,12,0:0:0:0:
448,192,119769,1,12,0:0:0:0:
64,192,119769,1,12,0:0:0:0:
192,192,120000,128,4,120230:0:0:0:0:
448,192,120230,128,4,120461:0:0:0:0:
64,192,120461,128,4,120692:0:0:0:0:
320,192,120692,128,12,120923:0:0:0:0:
192,192,120923,128,4,121153:0:0:0:0:
448,192,121153,128,4,121384:0:0:0:0:
320,192,121384,128,4,121615:0:0:0:0:
64,192,121615,128,12,121846:0:0:0:0:
192,192,121846,128,4,122076:0:0:0:0:
320,192,122076,128,4,122307:0:0:0:0:
448,192,122076,128,4,122307:0:0:0:0:
64,192,122538,1,12,0:0:0:0:
192,192,122538,1,12,0:0:0:0:
320,192,122538,1,12,0:0:0:0:
448,192,122538,1,12,0:0:0:0:
320,192,122769,1,4,0:0:0:0:
320,192,123000,1,4,0:0:0:0:
320,192,123230,1,4,0:0:0:0:
64,192,123461,1,12,0:0:0:0:
192,192,123461,1,12,0:0:0:0:
448,192,123461,1,12,0:0:0:0:
320,192,123692,128,4,123923:0:0:0:0:
192,192,123923,128,4,124153:0:0:0:0:
320,192,124384,1,12,0:0:0:0:
64,192,124384,1,12,0:0:0:0:
192,192,124615,1,4,0:0:0:0:
448,192,124615,1,4,0:0:0:0:
64,192,124846,1,4,0:0:0:0:
320,192,124846,1,4,0:0:0:0:
64,192,125076,1,4,0:0:0:0:
320,192,125076,1,4,0:0:0:0:
448,192,125307,128,12,125538:0:0:0:0:
192,192,125538,128,4,125769:0:0:0:0:
320,192,125769,128,4,126000:0:0:0:0:
64,192,126000,1,4,0:0:0:0:
448,192,126000,1,4,0:0:0:0:
64,192,126230,128,12,126692:0:0:0:0:
448,192,126230,128,12,126692:0:0:0:0:
192,192,126461,128,4,126692:0:0:0:0:
320,192,126461,128,4,126692:0:0:0:0:
192,192,126923,1,12,0:0:0:0:
320,192,126923,1,12,0:0:0:0:
64,192,127153,1,12,0:0:0:0:
448,192,127153,1,12,0:0:0:0:
320,192,127384,128,4,127615:0:0:0:0:
192,192,127615,128,4,127846:0:0:0:0:
320,192,127846,128,4,128076:0:0:0:0:
448,192,128076,128,4,128307:0:0:0:0:
320,192,128307,128,4,128538:0:0:0:0:
192,192,128538,128,4,128769:0:0:0:0:
64,192,128769,128,4,129000:0:0:0:0:
192,192,129000,128,4,129230:0:0:0:0:
320,192,129230,128,4,129692:0:0:0:0:
448,192,129230,128,4,129692:0:0:0:0:
192,192,129461,1,4,0:0:0:0:
64,192,129461,1,4,0:0:0:0:
64,192,129692,1,4,0:0:0:0:
192,192,129692,1,4,0:0:0:0:
448,192,129923,1,4,0:0:0:0:
320,192,129923,1,4,0:0:0:0:
320,192,130153,1,4,0:0:0:0:
192,192,130153,1,4,0:0:0:0:
192,192,130384,128,4,130846:0:0:0:0:
64,192,130384,128,4,130846:0:0:0:0:
320,192,130615,1,4,0:0:0:0:
448,192,130615,1,4,0:0:0:0:
320,192,130846,1,4,0:0:0:0:
448,192,130846,1,4,0:0:0:0:
192,192,131076,128,6,131538:0:0:0:0:
448,192,131538,1,4,0:0:0:0:
320,192,131538,1,4,0:0:0:0:
64,192,131538,1,4,0:0:0:0:
64,192,131769,1,12,0:0:0:0:
192,192,131769,1,12,0:0:0:0:
448,192,131769,1,12,0:0:0:0:
64,192,132230,1,8,0:0:0:0:
320,192,132230,1,8,0:0:0:0:
448,192,132230,1,8,0:0:0:0:
192,192,132461,128,4,132923:0:0:0:0:
320,192,132692,1,4,0:0:0:0:
448,192,132692,1,4,0:0:0:0:
320,192,132923,128,4,133384:0:0:0:0:
448,192,132923,128,4,133384:0:0:0:0:
64,192,132923,1,4,0:0:0:0:
192,192,133153,1,4,0:0:0:0:
192,192,133384,128,4,133615:0:0:0:0:
64,192,133615,128,12,133846:0:0:0:0:
320,192,133846,128,4,134538:0:0:0:0:
192,192,134076,1,4,0:0:0:0:
64,192,134307,1,12,0:0:0:0:
64,192,134538,1,12,0:0:0:0:
192,192,134538,1,12,0:0:0:0:
448,192,134538,1,12,0:0:0:0:
320,192,134769,128,4,135000:0:0:0:0:
64,192,135000,128,4,135230:0:0:0:0:
320,192,135230,128,4,135461:0:0:0:0:
192,192,135461,128,12,136153:0:0:0:0:
448,192,135692,1,4,0:0:0:0:
320,192,135923,1,4,0:0:0:0:
64,192,136153,1,4,0:0:0:0:
320,192,136384,128,12,136615:0:0:0:0:
448,192,136384,128,12,136615:0:0:0:0:
64,192,136615,1,4,0:0:0:0:
192,192,136615,1,4,0:0:0:0:
192,192,136846,128,4,137307:0:0:0:0:
320,192,136846,128,4,137307:0:0:0:0:
64,192,137307,128,12,137538:0:0:0:0:
448,192,137307,128,12,137538:0:0:0:0:
192,192,137538,1,4,0:0:0:0:
320,192,137538,1,4,0:0:0:0:
192,192,137769,1,4,0:0:0:0:
320,192,137769,1,4,0:0:0:0:
192,192,138000,1,4,0:0:0:0:
320,192,138000,1,4,0:0:0:0:
448,192,138230,1,12,0:0:0:0:
320,192,138230,1,12,0:0:0:0:
192,192,138230,1,12,0:0:0:0:
64,192,138230,1,12,0:0:0:0:
192,192,138461,1,4,0:0:0:0:
320,192,138692,1,4,0:0:0:0:
448,192,138923,1,4,0:0:0:0:
320,192,139153,1,12,0:0:0:0:
192,192,139384,1,4,0:0:0:0:
64,192,139615,1,4,0:0:0:0:
192,192,139846,1,4,0:0:0:0:
320,192,140076,1,12,0:0:0:0:
448,192,140307,128,4,140769:0:0:0:0:
192,192,140307,1,4,0:0:0:0:
64,192,140538,1,4,0:0:0:0:
192,192,140769,1,4,0:0:0:0:
320,192,141000,1,12,0:0:0:0:
192,192,141000,1,12,0:0:0:0:
64,192,141000,1,12,0:0:0:0:
64,192,141230,128,4,141692:0:0:0:0:
192,192,141230,128,4,141692:0:0:0:0:
320,192,141230,128,4,141692:0:0:0:0:
448,192,141692,1,4,0:0:0:0:
448,192,141923,1,12,0:0:0:0:
448,192,142153,128,4,142384:0:0:0:0:
192,192,142384,128,4,142615:0:0:0:0:
320,192,142615,128,4,142846:0:0:0:0:
64,192,142846,128,12,143076:0:0:0:0:
192,192,143076,1,4,0:0:0:0:
320,192,143076,1,4,0:0:0:0:
64,192,143307,1,4,0:0:0:0:
448,192,143307,1,4,0:0:0:0:
320,192,143538,1,4,0:0:0:0:
192,192,143538,1,4,0:0:0:0:
192,192,143769,1,12,0:0:0:0:
320,192,144000,128,4,144461:0:0:0:0:
192,192,144461,128,4,144692:0:0:0:0:
64,192,144692,128,12,144923:0:0:0:0:
192,192,144923,128,4,145384:0:0:0:0:
64,192,145384,1,4,0:0:0:0:
320,192,145384,1,4,0:0:0:0:
448,192,145384,1,4,0:0:0:0:
64,192,145615,1,12,0:0:0:0:
192,192,145615,1,12,0:0:0:0:
448,192,145615,1,12,0:0:0:0:
64,192,145846,128,4,146307:0:0:0:0:
192,192,145846,128,4,146307:0:0:0:0:
320,192,145846,128,4,146307:0:0:0:0:
448,192,146538,128,12,147000:0:0:0:0:
192,192,146538,1,12,0:0:0:0:
192,192,146769,1,4,0:0:0:0:
192,192,147000,128,4,147461:0:0:0:0:
448,192,147230,1,4,0:0:0:0:
448,192,147461,1,12,0:0:0:0:
448,192,147692,128,4,148153:0:0:0:0:
192,192,147923,1,4,0:0:0:0:
320,192,148153,1,4,0:0:0:0:
64,192,148153,1,4,0:0:0:0:
192,192,148384,128,12,148615:0:0:0:0:
320,192,148615,128,4,148846:0:0:0:0:
448,192,148846,128,4,149076:0:0:0:0:
320,192,149076,128,4,149307:0:0:0:0:
192,192,149307,128,12,149538:0:0:0:0:
64,192,149538,128,4,149769:0:0:0:0:
192,192,149769,128,4,150230:0:0:0:0:
64,192,150230,1,12,0:0:0:0:
320,192,150230,1,12,0:0:0:0:
448,192,150230,1,12,0:0:0:0:
192,192,150461,1,4,0:0:0:0:
192,192,150692,1,4,0:0:0:0:
192,192,150923,1,4,0:0:0:0:
320,192,151153,1,12,0:0:0:0:
448,192,151153,1,12,0:0:0:0:
192,192,151153,1,12,0:0:0:0:
64,192,151153,1,12,0:0:0:0:
320,192,151384,128,4,152076:0:0:0:0:
448,192,151384,128,4,152076:0:0:0:0:
64,192,151615,1,4,0:0:0:0:
192,192,151615,1,4,0:0:0:0:
64,192,151846,1,4,0:0:0:0:
192,192,151846,1,4,0:0:0:0:
192,192,152076,1,12,0:0:0:0:
64,192,152076,1,12,0:0:0:0:
320,192,152307,1,4,0:0:0:0:
192,192,152538,1,4,0:0:0:0:
192,192,152769,1,4,0:0:0:0:
320,192,153000,1,12,0:0:0:0:
448,192,153230,1,4,0:0:0:0:
320,192,153461,128,4,153923:0:0:0:0:
192,192,153923,1,12,0:0:0:0:
448,192,153923,1,12,0:0:0:0:
64,192,154153,128,4,154615:0:0:0:0:
320,192,154153,128,4,154615:0:0:0:0:
192,192,154384,1,4,0:0:0:0:
448,192,154384,1,4,0:0:0:0:
192,192,154615,1,4,0:0:0:0:
448,192,154615,1,4,0:0:0:0:
192,192,154846,1,12,0:0:0:0:
448,192,154846,1,12,0:0:0:0:
320,192,155076,128,4,155307:0:0:0:0:
192,192,155307,128,4,155538:0:0:0:0:
64,192,155307,128,4,155538:0:0:0:0:
320,192,155538,128,4,155769:0:0:0:0:
448,192,155538,128,4,155769:0:0:0:0:
192,192,155769,128,12,156000:0:0:0:0:
320,192,156000,128,4,156230:0:0:0:0:
64,192,156230,128,4,156461:0:0:0:0:
448,192,156461,128,4,156692:0:0:0:0:
320,192,156692,1,12,0:0:0:0:
192,192,156692,1,12,0:0:0:0:
64,192,156692,1,12,0:0:0:0:
320,192,156923,128,6,157153:0:0:0:0:
64,192,156923,128,6,157153:0:0:0:0:
192,192,156923,128,6,157153:0:0:0:0:
192,192,157384,1,4,0:0:0:0:
64,192,157384,1,4,0:0:0:0:
448,192,157615,1,12,0:0:0:0:
320,192,157615,1,12,0:0:0:0:
320,192,157846,1,4,0:0:0:0:
192,192,157846,1,4,0:0:0:0:
192,192,158076,1,4,0:0:0:0:
320,192,158076,1,4,0:0:0:0:
64,192,158307,1,4,0:0:0:0:
192,192,158307,1,4,0:0:0:0:
64,192,158538,128,12,159000:0:0:0:0:
192,192,158538,128,12,159000:0:0:0:0:
