osu file format v14

[General]
AudioFilename: audio.mp3
AudioLeadIn: 0
PreviewTime: -1
Countdown: 0
SampleSet: Soft
StackLeniency: 0.9
Mode: 0
LetterboxInBreaks: 0
WidescreenStoryboard: 1

[Editor]
Bookmarks: 70615,71769,79615,80538,114569,129461
DistanceSpacing: 5
BeatDivisor: 4
GridSize: 16
TimelineZoom: 3.299999

[Metadata]
Title:Click
TitleUnicode:Click
Artist:Anahi Ft Bryan Amadeus Y Ale Sergi
ArtistUnicode:Anahi Ft Bryan Amadeus Y Ale Sergi
Creator:Stupendo92
Version:Click-Click
Source:MTV PopLand
Tags:MTV PopLand Video Official gnocche porche colombiane
BeatmapID:1116426
BeatmapSetID:526092

[Difficulty]
HPDrainRate:5.8
CircleSize:4.2
OverallDifficulty:7
ApproachRate:9.3
SliderMultiplier:1
SliderTickRate:2

[Events]
//Background and Video events
0,0,"00-popland-05.jpg",0,0
//Break Periods
2,44507,51583
//Storyboard Layer 0 (Background)
//Storyboard Layer 1 (Fail)
//Storyboard Layer 2 (Pass)
//Storyboard Layer 3 (Foreground)
//Storyboard Sound Samples

[TimingPoints]
0,461.538461538462,4,1,0,60,1,0
0,-100,4,2,1,60,0,0
70615,400,4,2,1,60,1,0
72000,461.538461538462,4,2,1,60,1,0
72100,-100,4,2,1,60,0,0
79615,428.571428571429,4,2,1,60,1,0
81230,461.538461538462,4,2,1,60,1,0
81330,-100,4,2,1,60,0,0
113769,400,4,1,0,60,1,0
114692,461.538461538462,4,2,1,60,1,0
114692,-100,4,2,1,60,0,0
129461,400,4,1,0,60,1,0
130615,461.538461538462,4,2,1,60,1,0
130615,-100,4,2,1,60,0,0
151384,400,4,2,1,60,1,0
152105,461.538461538462,4,2,1,60,1,0
152105,-100,4,2,1,60,0,0
152538,461.538461538462,4,2,1,60,1,0
154153,400,4,2,1,60,1,0
155076,461.538461538462,4,2,1,60,1,0
155076,-100,4,2,1,60,0,0
160383,428.571428571429,4,2,1,60,1,0

[Colours]
Combo1 : 225,222,157
Combo2 : 129,114,112
Combo3 : 191,89,64
Combo4 : 47,81,53
Combo5 : 67,64,104

[HitObjects]
48,144,7846,5,4,0:0:0:0:
96,64,8076,1,4,0:0:0:0:
160,144,8307,1,4,0:0:0:0:
256,144,8538,1,4,0:0:0:0:
160,144,8769,1,4,0:0:0:0:
208,48,9000,1,4,0:0:0:0:
304,48,9230,1,4,0:0:0:0:
400,48,9461,2,0,B|432:48|448:48|464:48|480:48|512:48|512:48|512:48|464:112|464:112|400:176,1,250
416,288,11538,5,4,0:0:0:0:
416,192,11769,1,4,0:0:0:0:
320,240,12000,1,4,0:0:0:0:
240,192,12230,1,4,0:0:0:0:
160,128,12461,1,4,0:0:0:0:
240,192,12692,1,4,0:0:0:0:
160,256,12923,1,4,0:0:0:0:
80,320,13153,1,4,0:0:0:0:
80,224,13384,6,4,L|80:112,1,100
368,48,15230,1,4,0:0:0:0:
448,112,15461,1,4,0:0:0:0:
368,176,15692,1,4,0:0:0:0:
448,240,15923,1,4,0:0:0:0:
368,304,16153,1,4,0:0:0:0:
448,240,16384,1,4,0:0:0:0:
352,240,16615,1,4,0:0:0:0:
256,240,16846,1,4,0:0:0:0:
256,144,17076,1,4,0:0:0:0:
256,240,17307,1,4,0:0:0:0:
160,240,17538,6,4,B|128:240|112:240|96:240|96:240|96:144,1,150
400,176,18923,1,4,0:0:0:0:
357,85,19153,1,4,0:0:0:0:
448,43,19384,1,4,0:0:0:0:
490,133,19615,1,4,0:0:0:0:
448,43,19846,1,4,0:0:0:0:
352,48,20076,1,4,0:0:0:0:
352,144,20307,1,4,0:0:0:0:
256,192,20538,1,4,0:0:0:0:
352,144,20769,1,4,0:0:0:0:
256,192,21000,6,4,B|224:160|192:128|192:128|192:128|128:208|128:208|80:144,1,250
80,48,22615,1,0,0:0:0:0:
160,176,22846,1,0,0:0:0:0:
240,48,23076,1,0,0:0:0:0:
336,176,23307,1,0,0:0:0:0:
240,304,23538,1,0,0:0:0:0:
384,304,23769,1,0,0:0:0:0:
240,304,24000,1,0,0:0:0:0:
144,192,24230,1,0,0:0:0:0:
240,80,24461,1,0,0:0:0:0:
384,80,24692,1,0,0:0:0:0:
240,80,24923,6,0,B|176:80|160:80|144:80|144:80|144:160,1,150
32,272,26307,1,0,0:0:0:0:
112,112,26538,1,0,0:0:0:0:
192,304,26769,1,0,0:0:0:0:
400,224,27000,1,0,0:0:0:0:
224,48,27230,1,0,0:0:0:0:
480,48,27461,1,0,0:0:0:0:
272,192,27692,1,0,0:0:0:0:
480,336,27923,1,0,0:0:0:0:
272,192,28153,1,0,0:0:0:0:
48,288,28384,1,0,0:0:0:0:
112,48,28615,2,0,L|112:144,1,75
176,224,29076,5,0,0:0:0:0:
176,224,29192,1,0,0:0:0:0:
176,224,29307,1,0,0:0:0:0:
272,224,29538,2,0,L|336:144,1,100
432,80,30230,2,0,L|480:80,2,25
334,145,30576,2,0,L|302:145,2,25
448,208,30923,1,0,0:0:0:0:
352,320,31153,1,0,0:0:0:0:
208,320,31384,2,0,B|144:320|144:320|112:288,1,100
64,208,32076,6,0,L|32:208,2,25
160,160,32423,2,0,L|192:160,2,25
32,208,33230,1,0,0:0:0:0:
176,192,33461,1,0,0:0:0:0:
32,208,33692,1,0,0:0:0:0:
96,80,33923,1,0,0:0:0:0:
176,240,34153,1,0,0:0:0:0:
240,48,34384,1,0,0:0:0:0:
336,256,34615,1,0,0:0:0:0:
416,16,34846,1,0,0:0:0:0:
464,288,35076,1,0,0:0:0:0:
320,256,35307,2,8,B|304:304|240:304|208:256,1,100
96,176,36923,5,0,0:0:0:0:
224,64,37153,1,0,0:0:0:0:
96,176,37384,1,0,0:0:0:0:
272,176,37615,1,0,0:0:0:0:
96,176,37846,1,0,0:0:0:0:
224,304,38076,1,0,0:0:0:0:
96,176,38307,1,0,0:0:0:0:
272,176,38538,1,0,0:0:0:0:
368,32,38769,1,0,0:0:0:0:
464,176,39000,1,0,0:0:0:0:
368,320,39230,1,0,0:0:0:0:
256,176,39461,1,0,0:0:0:0:
96,240,39692,1,0,0:0:0:0:
64,64,39923,2,8,B|96:112|96:112|80:128|80:128|64:144|64:144|48:160,1,100
32,240,40615,5,0,0:0:0:0:
160,112,40846,1,0,0:0:0:0:
240,272,41076,1,0,0:0:0:0:
384,160,41307,1,0,0:0:0:0:
240,272,41538,1,0,0:0:0:0:
240,96,41769,1,0,0:0:0:0:
416,48,42000,1,0,0:0:0:0:
416,224,42230,1,0,0:0:0:0:
416,48,42461,2,8,L|416:160,1,100
256,192,43153,12,8,44307,0:0:0:0:
160,48,52153,5,0,0:0:0:0:
320,112,52384,1,0,0:0:0:0:
160,176,52615,1,0,0:0:0:0:
320,112,52846,1,0,0:0:0:0:
320,288,53076,1,0,0:0:0:0:
464,176,53307,1,0,0:0:0:0:
288,176,53538,1,0,0:0:0:0:
112,176,53769,1,0,0:0:0:0:
288,176,54000,1,0,0:0:0:0:
176,48,54230,1,0,0:0:0:0:
80,192,54461,2,8,B|112:224|128:240|128:240|160:208|176:192|192:176|192:176,1,150,0|0,0:0|0:0,0:0:0:0:
192,112,55846,5,0,0:0:0:0:
352,48,56076,1,0,0:0:0:0:
288,208,56307,1,0,0:0:0:0:
464,160,56538,1,0,0:0:0:0:
288,208,56769,1,0,0:0:0:0:
416,336,57000,1,0,0:0:0:0:
240,336,57230,1,0,0:0:0:0:
112,208,57461,1,0,0:0:0:0:
256,64,57692,1,0,0:0:0:0:
352,240,57923,1,0,0:0:0:0:
464,64,58153,2,0,L|464:176,1,100
368,320,59538,5,0,0:0:0:0:
400,128,59769,1,0,0:0:0:0:
240,256,60000,1,0,0:0:0:0:
272,64,60230,1,0,0:0:0:0:
112,176,60461,1,0,0:0:0:0:
272,64,60692,1,0,0:0:0:0:
272,272,60923,1,0,0:0:0:0:
448,176,61153,1,0,0:0:0:0:
240,176,61384,1,0,0:0:0:0:
384,32,61615,1,0,0:0:0:0:
384,240,61846,1,0,0:0:0:0:
240,112,62076,2,8,L|336:192,1,100
432,336,63230,5,0,0:0:0:0:
224,336,63461,1,0,0:0:0:0:
384,192,63692,1,0,0:0:0:0:
224,336,63923,1,0,0:0:0:0:
224,128,64153,1,0,0:0:0:0:
64,272,64384,1,0,0:0:0:0:
64,64,64615,1,0,0:0:0:0:
272,64,64846,1,0,0:0:0:0:
272,272,65076,1,0,0:0:0:0:
480,272,65307,1,0,0:0:0:0:
272,272,65538,1,0,0:0:0:0:
416,112,65769,2,8,B|448:80|464:64|464:48|464:48|448:48|432:48|416:48|416:48,1,100
352,64,66923,5,0,0:0:0:0:
144,64,67153,1,0,0:0:0:0:
352,64,67384,1,0,0:0:0:0:
160,176,67615,1,0,0:0:0:0:
352,64,67846,1,0,0:0:0:0:
256,256,68076,1,0,0:0:0:0:
352,64,68307,1,0,0:0:0:0:
160,176,68538,1,0,0:0:0:0:
16,336,68769,1,0,0:0:0:0:
224,336,69000,1,0,0:0:0:0:
432,272,69230,2,8,B|448:256|480:224|480:224|480:208|480:192|480:176|480:128,1,150
416,64,70153,5,0,0:0:0:0:
320,64,70384,1,0,0:0:0:0:
224,64,70615,1,0,0:0:0:0:
199,61,70715,1,0,0:0:0:0:
174,62,70815,1,0,0:0:0:0:
149,67,70915,1,0,0:0:0:0:
126,75,71015,1,0,0:0:0:0:
104,88,71115,5,0,0:0:0:0:
87,106,71215,5,0,0:0:0:0:
73,127,71315,1,0,0:0:0:0:
65,151,71415,1,0,0:0:0:0:
62,175,71515,5,0,0:0:0:0:
62,200,71615,5,0,0:0:0:0:
62,225,71715,1,0,0:0:0:0:
64,256,71815,1,0,0:0:0:0:
112,288,72000,5,0,0:0:0:0:
240,272,72230,1,0,0:0:0:0:
368,192,72461,1,0,0:0:0:0:
464,48,72692,1,0,0:0:0:0:
288,48,72923,6,0,L|208:80,1,75
160,128,73384,5,0,0:0:0:0:
160,128,73500,1,0,0:0:0:0:
160,128,73615,1,0,0:0:0:0:
80,192,73846,2,0,B|80:208|80:240|80:240|96:256|112:272|128:288|128:288,1,100
256,272,74538,6,0,L|288:304,2,25
224,176,74884,2,0,L|192:144,2,25
304,112,75230,5,0,0:0:0:0:
496,32,75461,1,0,0:0:0:0:
496,240,75692,2,0,B|464:240|448:240|448:240|432:256|400:288,1,100
288,288,76384,6,0,L|256:320,2,25
288,160,76730,2,0,L|320:128,2,25
96,240,77538,5,0,0:0:0:0:
224,48,77769,1,0,0:0:0:0:
304,288,78000,1,0,0:0:0:0:
464,96,78230,1,0,0:0:0:0:
224,192,78461,1,0,0:0:0:0:
464,256,78692,1,0,0:0:0:0:
224,192,78923,1,0,0:0:0:0:
32,32,79153,1,0,0:0:0:0:
288,64,79384,1,0,0:0:0:0:
432,64,79615,1,0,0:0:0:0:
429,86,79722,1,0,0:0:0:0:
423,107,79829,1,0,0:0:0:0:
414,127,79936,1,0,0:0:0:0:
403,147,80043,1,0,0:0:0:0:
390,164,80150,1,0,0:0:0:0:
375,180,80257,1,0,0:0:0:0:
358,195,80365,1,0,0:0:0:0:
339,207,80472,1,0,0:0:0:0:
320,218,80579,1,0,0:0:0:0:
176,256,81230,5,0,0:0:0:0:
272,32,81461,1,0,0:0:0:0:
336,272,81692,1,0,0:0:0:0:
144,112,81923,1,0,0:0:0:0:
400,128,82153,1,0,0:0:0:0:
160,224,82384,1,0,0:0:0:0:
336,48,82615,1,0,0:0:0:0:
304,304,82846,1,0,0:0:0:0:
192,80,83076,1,0,0:0:0:0:
416,192,83307,1,0,0:0:0:0:
176,240,83538,1,0,0:0:0:0:
64,144,83769,5,0,0:0:0:0:
64,144,84000,2,8,B|80:128|96:112|112:96|112:96|144:96|160:96|176:96|192:96,1,100
256,192,84923,5,0,0:0:0:0:
448,48,85153,1,0,0:0:0:0:
256,192,85384,1,0,0:0:0:0:
512,192,85615,1,0,0:0:0:0:
256,192,85846,1,0,0:0:0:0:
448,352,86076,1,0,0:0:0:0:
256,192,86307,1,0,0:0:0:0:
64,32,86538,1,0,0:0:0:0:
64,32,86769,2,8,L|112:128,1,100
192,224,87461,6,0,L|192:272,2,25
320,144,87807,2,0,L|320:112,2,25
320,272,88153,5,0,0:0:0:0:
320,272,88384,1,0,0:0:0:0:
416,336,88615,2,8,B|464:320|464:304|480:288|480:272|480:256,1,100
432,128,89307,6,0,L|464:96,2,25
288,144,89653,6,0,L|256:160,2,25
256,48,90461,5,0,0:0:0:0:
176,288,90692,1,0,0:0:0:0:
224,48,90923,1,0,0:0:0:0:
304,288,91153,1,0,0:0:0:0:
256,48,91384,1,0,0:0:0:0:
176,288,91615,1,0,0:0:0:0:
208,48,91846,1,0,0:0:0:0:
272,288,92076,1,0,0:0:0:0:
176,48,92307,1,0,0:0:0:0:
128,288,92538,2,8,L|112:176,1,100
80,48,94153,5,0,0:0:0:0:
352,112,94384,1,0,0:0:0:0:
80,176,94615,1,0,0:0:0:0:
352,112,94846,1,0,0:0:0:0:
160,304,95076,1,0,0:0:0:0:
432,272,95307,1,0,0:0:0:0:
336,16,95538,1,0,0:0:0:0:
256,272,95769,1,0,0:0:0:0:
144,16,96000,1,0,0:0:0:0:
80,288,96230,1,0,0:0:0:0:
320,160,96461,1,0,0:0:0:0:
448,64,96692,1,0,0:0:0:0:
448,64,96923,2,8,B|512:80|512:80|464:144,1,100
464,192,97846,5,0,0:0:0:0:
192,144,98076,1,0,0:0:0:0:
464,80,98307,1,0,0:0:0:0:
208,192,98538,1,0,0:0:0:0:
480,256,98769,1,0,0:0:0:0:
224,160,99000,1,0,0:0:0:0:
480,48,99230,1,0,0:0:0:0:
480,160,99461,1,0,0:0:0:0:
480,160,99692,2,8,P|448:224|384:240,1,100
304,256,100384,5,0,0:0:0:0:
304,256,100615,1,0,0:0:0:0:
192,176,100846,1,0,0:0:0:0:
192,176,101076,2,8,L|96:176,1,50
32,176,101538,5,0,0:0:0:0:
32,176,101769,1,0,0:0:0:0:
272,32,102000,1,0,0:0:0:0:
176,288,102230,1,0,0:0:0:0:
448,288,102461,1,0,0:0:0:0:
448,288,102692,2,8,B|496:240|496:240|480:224|464:208|448:192,1,100
384,144,103384,5,0,0:0:0:0:
240,80,103615,1,0,0:0:0:0:
48,160,103846,1,0,0:0:0:0:
240,80,104076,1,0,0:0:0:0:
144,336,104307,1,0,0:0:0:0:
256,272,104538,1,0,0:0:0:0:
277,259,104653,1,0,0:0:0:0:
298,246,104768,1,0,0:0:0:0:
432,160,105000,5,0,0:0:0:0:
432,160,105230,1,0,0:0:0:0:
320,48,105461,1,0,0:0:0:0:
48,48,105692,1,0,0:0:0:0:
48,320,105923,1,0,0:0:0:0:
320,320,106153,1,0,0:0:0:0:
320,320,106384,2,8,L|384:256,1,50
448,176,106846,5,0,0:0:0:0:
368,48,107076,1,0,0:0:0:0:
348,63,107191,1,0,0:0:0:0:
328,78,107306,1,0,0:0:0:0:
208,176,107538,1,0,0:0:0:0:
96,64,107769,1,0,0:0:0:0:
208,176,108000,1,0,0:0:0:0:
96,272,108230,1,0,0:0:0:0:
121,272,108345,1,0,0:0:0:0:
146,272,108460,1,0,0:0:0:0:
304,272,108692,5,0,0:0:0:0:
304,272,108923,1,0,0:0:0:0:
448,224,109153,1,0,0:0:0:0:
448,224,109384,1,0,0:0:0:0:
320,160,109615,1,0,0:0:0:0:
464,96,109846,1,0,0:0:0:0:
320,32,110076,1,0,0:0:0:0:
256,176,110307,1,0,0:0:0:0:
192,32,110538,1,0,0:0:0:0:
128,176,110769,1,0,0:0:0:0:
128,176,111000,1,0,0:0:0:0:
32,288,111230,2,0,P|48:320|96:320,1,50
208,272,111692,2,0,P|240:256|240:208,1,50
256,96,112153,2,8,B|272:48|320:48|352:48,1,100
480,48,112846,5,0,0:0:0:0:
464,192,113076,1,0,0:0:0:0:
368,304,113307,1,0,0:0:0:0:
224,320,113538,1,0,0:0:0:0:
80,272,113769,5,0,0:0:0:0:
79,249,113869,5,0,0:0:0:0:
83,227,113969,5,0,0:0:0:0:
95,209,114069,1,0,0:0:0:0:
115,198,114169,5,0,0:0:0:0:
126,179,114269,5,0,0:0:0:0:
130,158,114369,1,0,0:0:0:0:
114,144,114469,1,0,0:0:0:0:
80,48,114692,5,0,0:0:0:0:
272,80,114923,1,0,0:0:0:0:
80,48,115153,1,0,0:0:0:0:
240,208,115384,1,0,0:0:0:0:
80,48,115615,1,0,0:0:0:0:
96,304,115846,1,0,0:0:0:0:
96,304,116076,5,0,0:0:0:0:
208,304,116307,6,0,L|272:304,1,50
416,304,116768,5,0,0:0:0:0:
416,304,116999,5,0,0:0:0:0:
416,176,117230,6,8,L|416:240,1,50
304,208,117692,5,0,0:0:0:0:
304,208,117923,1,0,0:0:0:0:
304,96,118153,2,0,L|304:160,1,50
448,96,118615,5,0,0:0:0:0:
448,96,118846,1,8,0:0:0:0:
336,320,119076,1,0,0:0:0:0:
192,272,119307,1,0,0:0:0:0:
192,272,119538,1,0,0:0:0:0:
80,48,119769,1,8,0:0:0:0:
192,64,120000,5,0,0:0:0:0:
304,144,120230,1,0,0:0:0:0:
384,288,120461,1,0,0:0:0:0:
480,144,120692,1,8,0:0:0:0:
384,288,120923,1,0,0:0:0:0:
208,304,121153,1,0,0:0:0:0:
64,176,121384,1,0,0:0:0:0:
272,48,121615,1,8,0:0:0:0:
480,176,121846,2,0,P|480:240|416:272,1,100
336,288,122538,5,8,0:0:0:0:
336,288,122769,1,0,0:0:0:0:
96,256,123000,1,0,0:0:0:0:
112,144,123230,1,0,0:0:0:0:
112,144,123461,1,8,0:0:0:0:
352,48,123692,1,0,0:0:0:0:
288,288,123923,1,0,0:0:0:0:
352,48,124153,1,0,0:0:0:0:
176,224,124384,1,0,0:0:0:0:
352,48,124615,1,0,0:0:0:0:
112,112,124846,1,0,0:0:0:0:
352,48,125076,5,0,0:0:0:0:
480,112,125307,5,0,0:0:0:0:
480,112,125538,1,0,0:0:0:0:
352,208,125769,1,0,0:0:0:0:
352,208,126000,1,0,0:0:0:0:
480,304,126230,1,0,0:0:0:0:
352,208,126461,2,0,B|304:208|304:208|304:208|304:208|304:208|304:176|304:176|304:176|272:176|272:176|272:144|272:144,1,100
240,176,127153,1,8,0:0:0:0:
80,352,127384,5,0,0:0:0:0:
368,288,127615,1,0,0:0:0:0:
80,208,127846,1,0,0:0:0:0:
368,144,128076,1,0,0:0:0:0:
80,80,128307,1,0,0:0:0:0:
160,368,128538,1,0,0:0:0:0:
256,80,128769,1,0,0:0:0:0:
352,368,129000,1,0,0:0:0:0:
448,80,129230,1,0,0:0:0:0:
336,208,129461,1,0,0:0:0:0:
317,208,129561,1,0,0:0:0:0:
298,208,129661,1,0,0:0:0:0:
279,208,129761,1,0,0:0:0:0:
260,208,129861,1,0,0:0:0:0:
241,208,129961,1,0,0:0:0:0:
222,208,130061,1,0,0:0:0:0:
203,208,130161,1,0,0:0:0:0:
184,208,130261,1,0,0:0:0:0:
48,320,130615,1,0,0:0:0:0:
336,256,130846,1,0,0:0:0:0:
64,144,131076,2,0,L|160:192,1,100
336,256,131769,6,0,L|320:288,2,25
432,48,132115,2,0,L|448:16,2,25
288,64,132461,5,0,0:0:0:0:
48,240,132692,2,0,B|32:256|16:272|16:272|48:304|64:320|80:336,1,100
352,320,133384,1,0,0:0:0:0:
352,320,133615,1,0,0:0:0:0:
448,32,133846,2,0,B|464:48|480:64|480:64|464:80|448:96|432:112,1,100
416,128,134538,1,0,0:0:0:0:
320,48,134769,5,0,0:0:0:0:
208,320,135000,1,0,0:0:0:0:
144,32,135230,1,0,0:0:0:0:
384,224,135461,1,0,0:0:0:0:
80,192,135692,1,0,0:0:0:0:
368,80,135923,1,0,0:0:0:0:
160,304,136153,1,0,0:0:0:0:
224,16,136384,1,0,0:0:0:0:
400,256,136615,1,0,0:0:0:0:
128,128,136846,2,8,L|224:176,1,100
400,256,137538,1,0,0:0:0:0:
432,288,137769,5,0,0:0:0:0:
432,112,138000,1,0,0:0:0:0:
464,96,138230,5,0,0:0:0:0:
176,192,138461,1,0,0:0:0:0:
224,288,138692,1,0,0:0:0:0:
176,192,138923,1,0,0:0:0:0:
368,256,139153,1,0,0:0:0:0:
176,192,139384,1,0,0:0:0:0:
464,112,139615,1,0,0:0:0:0:
176,192,139846,1,0,0:0:0:0:
80,16,140076,1,0,0:0:0:0:
160,304,140307,1,0,0:0:0:0:
448,240,140538,1,0,0:0:0:0:
256,16,140769,1,0,0:0:0:0:
96,272,141000,1,0,0:0:0:0:
400,256,141230,1,0,0:0:0:0:
192,48,141461,2,0,B|208:80|224:112|224:112|272:112|272:112|288:128|288:128,1,100
416,96,142153,5,0,0:0:0:0:
288,368,142384,1,0,0:0:0:0:
192,144,142615,1,0,0:0:0:0:
80,320,142846,1,0,0:0:0:0:
224,272,143076,1,0,0:0:0:0:
320,256,143307,1,0,0:0:0:0:
224,272,143538,1,0,0:0:0:0:
320,144,143769,1,0,0:0:0:0:
448,64,144000,2,0,P|464:96|448:128,1,50
432,256,144461,5,0,0:0:0:0:
412,241,144576,1,0,0:0:0:0:
392,226,144691,1,0,0:0:0:0:
272,128,144923,6,0,L|208:112,1,50
80,160,145384,1,0,0:0:0:0:
80,160,145615,1,0,0:0:0:0:
176,336,145846,2,0,B|208:304|208:304|240:320|240:320|265:293|265:293|272:304|272:304,1,100
432,224,146538,5,0,0:0:0:0:
407,219,146653,1,0,0:0:0:0:
382,214,146768,1,0,0:0:0:0:
240,64,147000,1,0,0:0:0:0:
264,70,147115,1,0,0:0:0:0:
288,76,147230,1,0,0:0:0:0:
153,69,147692,5,0,0:0:0:0:
310,41,147923,1,0,0:0:0:0:
413,164,148153,1,0,0:0:0:0:
358,314,148384,1,0,0:0:0:0:
201,342,148615,1,0,0:0:0:0:
98,219,148846,1,0,0:0:0:0:
201,342,149076,1,0,0:0:0:0:
256,96,149307,1,0,0:0:0:0:
432,272,149538,1,0,0:0:0:0:
192,192,149769,2,8,P|144:176|96:128,1,100
272,80,150461,6,0,L|292:57,2,28.1249991416931
288,208,150922,2,0,L|269:228,2,28.1249991416931
402,111,151384,1,0,0:0:0:0:
422,114,151484,1,0,0:0:0:0:
439,126,151584,1,0,0:0:0:0:
454,140,151684,1,0,0:0:0:0:
458,161,151784,1,0,0:0:0:0:
454,181,151884,1,0,0:0:0:0:
445,200,151984,1,0,0:0:0:0:
400,256,152105,2,8,B|395:279|395:279|379:283|379:283|379:283|379:283|379:283|365:288|365:288|360:290|360:290|359:289|359:289,1,61.8749981117249
272,272,152538,1,0,0:0:0:0:
272,240,152653,1,0,0:0:0:0:
272,208,152769,2,0,B|272:176|304:176|304:144,1,44.999998626709
464,112,153230,1,0,0:0:0:0:
288,48,153461,1,0,0:0:0:0:
176,192,153692,1,0,0:0:0:0:
256,240,153923,2,0,B|240:272|240:272|208:288,1,44.999998626709
192,295,154153,1,0,0:0:0:0:
154,278,154253,1,0,0:0:0:0:
114,295,154353,1,0,0:0:0:0:
74,305,154453,1,0,0:0:0:0:
36,286,154553,1,0,0:0:0:0:
38,250,154653,1,0,0:0:0:0:
74,226,154753,1,0,0:0:0:0:
84,191,154853,1,0,0:0:0:0:
47,176,154953,1,0,0:0:0:0:
160,64,155076,1,0,0:0:0:0:
384,80,155307,1,0,0:0:0:0:
160,96,155537,1,0,0:0:0:0:
384,48,155768,1,0,0:0:0:0:
176,128,155999,1,0,0:0:0:0:
400,112,156230,1,0,0:0:0:0:
192,176,156461,1,0,0:0:0:0:
400,80,156691,1,0,0:0:0:0:
464,160,156922,6,0,L|432:256,1,89.9999972534181
304,288,157614,5,0,0:0:0:0:
304,288,157845,1,0,0:0:0:0:
96,192,158076,1,0,0:0:0:0:
96,192,158307,1,0,0:0:0:0:
256,192,158537,12,8,159230,0:0:0:0:
