osu file format v14

[General]
AudioFilename: audio.mp3
AudioLeadIn: 0
PreviewTime: -1
Countdown: 1
SampleSet: Normal
StackLeniency: 0.7
Mode: 0
LetterboxInBreaks: 0
WidescreenStoryboard: 0

[Editor]
Bookmarks: 83065,93653,136006,149418,199300,205888
DistanceSpacing: 0.8
BeatDivisor: 3
GridSize: 32
TimelineZoom: 1

[Metadata]
Title:Quien Como Tu
TitleUnicode:Quién Como Tú
Artist:Ana Gabriel
ArtistUnicode:Ana Gabriel
Creator:Soula Evans
Version:Hard
Source:
Tags:ana gabriel quien como tu
BeatmapID:1577617
BeatmapSetID:748922

[Difficulty]
HPDrainRate:5
CircleSize:5
OverallDifficulty:5
ApproachRate:6
SliderMultiplier:1.1
SliderTickRate:3

[Events]
//Background and Video events
0,0,"Beautiful-lonely-girl-awaiting-looking-through-glass-window.jpg",0,0
//Break Periods
2,83265,92453
2,136206,148453
//Storyboard Layer 0 (Background)
//Storyboard Layer 1 (Fail)
//Storyboard Layer 2 (Pass)
//Storyboard Layer 3 (Foreground)
//Storyboard Sound Samples

[TimingPoints]
11771.2352941176,705.882352941176,4,2,0,20,1,0
25182,-100,4,3,0,20,0,0
38594,-100,4,3,0,50,0,0
52712,-100,4,1,1,100,0,1
64712,-100,4,3,0,20,0,0
67535,-100,4,1,1,100,0,1
78124,-100,4,1,1,50,0,0
82359,-100,4,2,0,20,0,0
93653,-100,4,2,0,20,0,0
107065,-100,4,3,0,20,0,0
113653,-100,4,3,0,50,0,0
120477,-100,4,1,1,100,0,1
132477,-100,4,3,0,20,0,0
149418,-100,4,3,0,50,0,0
151535,-100,4,1,1,100,0,1
157888,-100,4,1,1,100,0,0
166594,-100,4,1,1,100,0,1
189653,-100,4,2,0,20,0,0

[Colours]
Combo1 : 255,128,192
Combo2 : 0,0,255
Combo3 : 255,128,0
Combo4 : 255,255,255

[HitObjects]
192,96,11771,6,0,P|128:160|128:192,1,110
160,192,12712,1,0,0:0:0:0:
160,192,12947,1,0,0:0:0:0:
160,192,13182,1,0,0:0:0:0:
192,224,13418,2,0,P|288:160|288:128,1,146.666666666667
288,96,14830,5,0,0:0:0:0:
288,96,15065,1,0,0:0:0:0:
288,96,15300,1,0,0:0:0:0:
288,96,15535,2,0,L|384:96,1,73.3333333333333
320,192,16241,2,0,P|384:192|512:192,1,183.333333333333
288,288,18124,6,0,P|224:288|160:256,1,110
128,256,19065,1,8,0:0:0:0:
128,192,19300,1,0,0:0:0:0:
128,128,19535,2,0,P|160:96|224:64,1,110
288,64,20477,1,8,0:0:0:0:
352,64,20712,1,0,0:0:0:0:
384,128,20947,2,0,P|384:192|256:288,2,220
320,160,24241,1,0,0:0:0:0:
192,96,25182,5,8,0:0:0:0:
160,160,25418,2,0,P|128:128|128:96,1,73.3333333333333
96,160,26124,2,0,L|96:224,1,73.3333333333333
128,256,26830,1,0,0:0:0:0:
128,256,27065,1,0,0:0:0:0:
128,256,27300,1,0,0:0:0:0:
192,256,27535,2,0,P|160:192|160:160,2,73.3333333333333
224,192,28712,2,0,P|224:128|352:128,1,220
128,224,31535,6,0,P|96:160|96:128,1,73.3333333333333
128,128,32241,1,0,0:0:0:0:
160,128,32477,1,0,0:0:0:0:
192,128,32712,1,0,0:0:0:0:
256,160,32947,2,0,L|224:256,1,73.3333333333333
256,288,33653,1,0,0:0:0:0:
288,288,33888,1,0,0:0:0:0:
320,288,34124,1,0,0:0:0:0:
352,288,34359,2,0,L|416:224,1,73.3333333333333
416,160,35065,2,0,L|352:224,1,73.3333333333333
320,192,35771,2,0,B|288:224|256:288|160:288,1,183.333333333333
160,256,37182,1,0,0:0:0:0:
224,128,37888,5,4,0:0:0:0:
384,160,38594,6,0,L|384:96,2,36.6666666666667
288,224,39300,2,0,L|352:256,1,36.6666666666667
416,224,39770,1,0,0:0:0:0:
448,192,40006,1,0,0:0:0:0:
480,160,40241,1,4,0:0:0:0:
384,128,40712,2,0,L|320:192,1,73.3333333333333
256,160,41418,2,0,L|192:224,1,73.3333333333333
128,192,42124,2,0,P|160:128|224:128,1,110
160,224,43535,1,0,0:0:0:0:
128,96,44241,1,0,0:0:0:0:
320,128,44947,1,0,0:0:0:0:
192,224,45418,6,0,L|160:256,2,36.6666666666667
192,160,46124,1,0,0:0:0:0:
192,96,46359,1,0,0:0:0:0:
256,128,46594,2,0,L|320:128,2,36.6666666666667
288,160,47300,1,0,0:0:0:0:
288,160,47535,1,0,0:0:0:0:
288,160,47771,1,0,0:0:0:0:
320,224,48006,2,0,L|384:224,2,36.6666666666667
288,256,48712,1,0,0:0:0:0:
256,288,48947,1,0,0:0:0:0:
224,288,49182,1,0,0:0:0:0:
256,192,49418,12,0,50594,0:0:0:0:
128,224,51300,5,0,0:0:0:0:
160,128,51535,1,0,0:0:0:0:
160,128,51771,1,0,0:0:0:0:
192,160,52006,2,0,P|256:160|288:128,1,110,0|4,0:0|0:0,0:0:0:0:
288,128,53418,5,0,0:0:0:0:
288,128,53653,1,0,0:0:0:0:
256,128,53888,2,0,L|192:128,2,36.6666666666667
192,160,54594,1,0,0:0:0:0:
160,192,54830,1,0,0:0:0:0:
128,224,55065,1,0,0:0:0:0:
64,256,55300,2,0,P|64:192|96:128,1,110
96,128,56241,5,4,0:0:0:0:
256,160,56477,1,0,0:0:0:0:
384,96,56712,1,0,0:0:0:0:
384,96,56947,1,0,0:0:0:0:
288,160,57182,2,2,P|352:224|448:192,1,183.333333333333
384,160,59065,2,0,L|448:128,2,36.6666666666667
320,160,59771,1,0,0:0:0:0:
320,160,60006,1,0,0:0:0:0:
320,160,60241,1,0,0:0:0:0:
288,192,60477,2,0,P|256:256|224:288,1,110
96,256,61888,5,4,0:0:0:0:
96,224,62124,2,0,L|96:128,1,73.3333333333333
128,96,62830,1,4,0:0:0:0:
160,128,63300,2,0,L|256:128,1,73.3333333333333
256,160,64006,1,0,0:0:0:0:
288,160,64241,1,0,0:0:0:0:
320,160,64477,1,0,0:0:0:0:
352,160,64712,2,0,P|352:224|224:320,1,220
288,224,66594,1,0,0:0:0:0:
288,224,66830,1,0,0:0:0:0:
288,224,67065,1,0,0:0:0:0:
288,224,67300,1,0,0:0:0:0:
224,288,67535,5,4,0:0:0:0:
160,288,67771,2,0,L|192:160,2,110
128,288,69418,2,0,L|64:288,1,36.6666666666667
128,224,69888,2,0,L|64:224,1,36.6666666666667
128,160,70359,2,0,L|64:160,2,36.6666666666667
160,128,71065,1,0,0:0:0:0:
160,128,71300,1,0,0:0:0:0:
160,128,71535,2,0,L|256:96,1,73.3333333333333
256,128,72241,5,0,0:0:0:0:
256,160,72477,2,0,L|320:160,2,36.6666666666667
192,160,73182,1,4,0:0:0:0:
128,192,73888,2,0,L|192:256,1,73.3333333333333
224,256,74594,1,0,0:0:0:0:
256,256,74830,1,0,0:0:0:0:
288,256,75065,1,0,0:0:0:0:
320,224,75300,2,2,L|352:192,1,36.6666666666667
384,160,75771,1,0,0:0:0:0:
384,128,76006,2,0,L|320:128,1,36.6666666666667
320,96,76477,1,0,0:0:0:0:
224,96,76712,2,0,L|256:160,1,36.6666666666667
192,192,77182,1,0,0:0:0:0:
192,192,77418,1,0,0:0:0:0:
192,192,77653,1,0,0:0:0:0:
128,192,77888,6,0,P|160:160|192:128,1,73.3333333333333,2|0,0:0|0:0,0:0:0:0:
192,160,78830,1,0,0:0:0:0:
192,160,79065,1,0,0:0:0:0:
192,160,79300,1,0,0:0:0:0:
256,192,79535,12,0,82359,0:0:0:0:
256,224,82594,5,0,0:0:0:0:
256,224,82830,1,0,0:0:0:0:
256,224,83065,1,0,0:0:0:0:
192,224,93653,5,0,0:0:0:0:
192,160,93888,1,0,0:0:0:0:
224,96,94124,1,0,0:0:0:0:
320,64,94359,2,0,P|352:96|352:160,1,110
320,224,95300,2,0,L|384:288,1,73.3333333333333,0|8,0:0|0:0,0:0:0:0:
192,160,96477,5,0,0:0:0:0:
160,128,96712,2,0,L|128:192,2,36.6666666666667
128,96,97418,1,0,0:0:0:0:
128,96,97653,1,0,0:0:0:0:
96,64,97888,2,0,L|64:128,1,36.6666666666667
32,128,98359,2,0,L|64:192,1,36.6666666666667
64,192,98830,2,0,L|160:192,1,73.3333333333333
256,320,100006,6,0,L|192:320,2,36.6666666666667
288,288,100712,1,0,0:0:0:0:
288,288,100947,1,0,0:0:0:0:
288,288,101182,1,0,0:0:0:0:
288,288,101418,2,0,P|352:256|352:192,1,110,8|0,0:0|0:0,0:0:0:0:
352,192,102359,2,0,L|416:192,2,36.6666666666667
320,160,103065,2,0,P|288:96|64:96,1,293.333333333333
64,96,105182,1,4,0:0:0:0:
320,288,107065,5,0,0:0:0:0:
320,288,107300,1,0,0:0:0:0:
320,288,107535,2,0,L|320:224,2,36.6666666666667
352,288,108241,2,0,P|384:256|384:128,1,146.666666666667
352,128,109418,1,0,0:0:0:0:
320,96,109653,1,8,0:0:0:0:
288,64,109888,1,0,0:0:0:0:
224,64,110124,2,0,L|96:64,2,110
224,128,111771,1,0,0:0:0:0:
224,128,112006,1,0,0:0:0:0:
224,128,112241,2,0,L|224:224,1,73.3333333333333
192,224,112947,1,0,0:0:0:0:
192,256,113182,1,0,0:0:0:0:
192,288,113418,1,0,0:0:0:0:
288,256,113653,6,0,L|288:320,2,36.6666666666667
288,224,114359,1,0,0:0:0:0:
322,212,114594,1,0,0:0:0:0:
357,200,114829,1,0,0:0:0:0:
384,192,115065,2,2,B|448:160|448:160|448:96,1,110
448,96,116006,1,0,0:0:0:0:
416,64,116241,1,0,0:0:0:0:
352,64,116477,2,0,B|200:-22|330:215|287:64|287:85|-58:85|244:150|287:128|287:171|179:193|179:193|179:128,1,403.333333333333
160,160,119535,5,0,0:0:0:0:
224,160,119771,2,0,L|320:160,1,73.3333333333333
352,224,120477,5,4,0:0:0:0:
288,192,121182,2,0,L|288:96,1,73.3333333333333
288,64,121888,1,0,0:0:0:0:
224,96,122124,1,0,0:0:0:0:
192,160,122359,1,0,0:0:0:0:
224,224,122594,2,0,L|160:256,2,36.6666666666667
256,224,123300,1,0,0:0:0:0:
256,224,123535,1,0,0:0:0:0:
256,224,123770,1,0,0:0:0:0:
256,224,124006,2,0,L|192:320,1,110
160,288,124947,1,0,0:0:0:0:
128,256,125182,1,0,0:0:0:0:
128,256,125417,1,0,0:0:0:0:
96,224,125653,1,4,0:0:0:0:
96,192,125888,2,0,P|96:96|160:96,1,146.666666666667
192,96,127300,6,0,L|256:64,1,36.6666666666667
256,96,127770,2,0,L|288:128,1,36.6666666666667
320,160,128242,2,0,L|384:160,1,36.6666666666667
384,192,128712,2,0,L|384:256,2,36.6666666666667
384,192,129418,1,0,0:0:0:0:
224,288,130124,5,0,0:0:0:0:
224,288,130359,2,0,L|160:288,2,36.6666666666667
160,256,131065,1,4,0:0:0:0:
160,256,131300,2,0,P|224:256|288:160,1,183.333333333333
256,192,132712,12,0,135771,0:0:0:0:
320,160,136006,5,4,0:0:0:0:
192,192,149653,5,4,0:0:0:0:
384,320,150594,1,0,0:0:0:0:
384,320,150830,1,0,0:0:0:0:
384,320,151065,1,0,0:0:0:0:
384,192,151535,6,4,P|352:128|288:96,1,110
288,128,152477,1,0,0:0:0:0:
288,128,152712,1,0,0:0:0:0:
256,128,152947,2,0,L|192:128,2,36.6666666666667
192,160,153653,1,0,0:0:0:0:
160,192,153889,1,0,0:0:0:0:
128,224,154124,1,0,0:0:0:0:
64,256,154359,2,0,P|64:192|96:128,1,110
96,128,155300,5,4,0:0:0:0:
192,64,155536,1,0,0:0:0:0:
288,160,155771,1,0,0:0:0:0:
288,160,156006,1,0,0:0:0:0:
192,224,156241,2,2,P|256:288|352:256,1,183.333333333333
128,160,158124,6,0,L|64:128,2,36.6666666666667
192,160,158830,1,0,0:0:0:0:
160,192,159065,1,0,0:0:0:0:
192,224,159300,1,0,0:0:0:0:
64,256,159536,2,0,P|96:320|128:352,1,110
416,256,160947,5,4,0:0:0:0:
416,224,161183,2,0,L|416:128,1,73.3333333333333
384,96,161889,1,4,0:0:0:0:
352,128,162359,2,0,L|256:128,1,73.3333333333333
256,160,163065,1,0,0:0:0:0:
224,160,163300,1,0,0:0:0:0:
192,160,163536,1,0,0:0:0:0:
160,160,163771,2,0,P|160:224|288:320,1,220
224,224,165653,5,0,0:0:0:0:
224,224,165889,1,0,0:0:0:0:
224,224,166124,1,0,0:0:0:0:
224,224,166359,1,0,0:0:0:0:
288,288,166594,5,4,0:0:0:0:
352,288,166830,2,0,L|320:160,2,110
384,288,168477,2,0,L|448:288,1,36.6666666666667
352,224,168947,2,0,L|416:224,1,36.6666666666667
320,160,169418,6,0,L|384:160,2,36.6666666666667
352,128,170124,1,0,0:0:0:0:
288,128,170359,1,0,0:0:0:0:
256,192,170594,2,0,L|160:160,1,73.3333333333333
256,128,171300,5,0,0:0:0:0:
256,160,171536,2,0,L|192:160,2,36.6666666666667
320,160,172241,1,4,0:0:0:0:
256,256,172477,2,0,L|320:256,1,36.6666666666667
192,224,172947,2,0,L|192:160,1,36.6666666666667
128,128,173418,1,0,0:0:0:0:
128,128,173653,1,0,0:0:0:0:
128,128,173888,1,0,0:0:0:0:
160,128,174124,2,0,L|160:224,1,73.3333333333333
160,224,174830,2,0,L|256:224,1,73.3333333333333
256,224,175535,1,8,0:0:0:0:
352,224,175771,5,0,0:0:0:0:
352,160,176241,1,0,0:0:0:0:
352,160,176477,1,0,0:0:0:0:
224,96,176947,1,4,0:0:0:0:
192,96,177182,2,0,P|128:128|64:224,1,183.333333333333
96,224,178594,2,0,B|128:320|128:320|128:256|192:288|224:192|224:192|288:224|256:288,1,366.666666666667
224,256,181182,1,0,0:0:0:0:
256,256,181418,1,0,0:0:0:0:
288,256,181653,1,0,0:0:0:0:
320,256,181888,1,0,0:0:0:0:
256,192,182359,12,0,185418,0:0:0:0:
256,128,186124,6,0,P|320:160|352:224,1,110
320,288,187065,2,0,P|288:320|160:288,1,183.333333333333
320,224,189888,5,0,0:0:0:0:
224,256,190124,1,0,0:0:0:0:
160,256,190359,2,0,P|128:128|160:96,1,183.333333333333
320,160,192006,2,0,L|256:224,1,73.3333333333333,4|0,0:0|0:0,0:0:0:0:
192,256,192712,1,0,0:0:0:0:
256,288,192947,1,0,0:0:0:0:
320,256,193182,1,0,0:0:0:0:
320,160,193418,2,0,L|512:160,1,183.333333333333
384,96,195065,2,0,L|256:224,2,146.666666666667,4|0|0,0:0|0:0|0:0,0:0:0:0:
288,64,197182,6,0,P|288:160|320:224,1,146.666666666667
288,256,198359,1,0,0:0:0:0:
224,256,198594,2,0,L|192:192,1,36.6666666666667
288,192,199065,1,4,0:0:0:0:
256,192,199300,12,0,200947,0:0:0:0:
