osu file format v14

[General]
AudioFilename: audio.mp3
AudioLeadIn: 0
PreviewTime: -1
Countdown: 1
SampleSet: Soft
StackLeniency: 0.7
Mode: 0
LetterboxInBreaks: 0
WidescreenStoryboard: 1

[Editor]
Bookmarks: 83065,93653,136006,149418,199300,205888
DistanceSpacing: 0.8
BeatDivisor: 2
GridSize: 32
TimelineZoom: 1

[Metadata]
Title:Quien Como Tu
TitleUnicode:Quién Como Tú
Artist:Ana Gabriel
ArtistUnicode:Ana Gabriel
Creator:Soula Evans
Version:Normal
Source:
Tags:ana gabriel quien como tu
BeatmapID:1577619
BeatmapSetID:748922

[Difficulty]
HPDrainRate:3
CircleSize:4
OverallDifficulty:3
ApproachRate:5
SliderMultiplier:1.1
SliderTickRate:3

[Events]
//Background and Video events
0,0,"Beautiful-lonely-girl-awaiting-looking-through-glass-window.jpg",0,0
//Break Periods
2,83065,92453
2,136006,148218
//Storyboard Layer 0 (Background)
//Storyboard Layer 1 (Fail)
//Storyboard Layer 2 (Pass)
//Storyboard Layer 3 (Foreground)
//Storyboard Sound Samples

[TimingPoints]
11771.2352941176,705.882352941176,4,2,0,20,1,0
25182,-100,4,3,0,20,0,0
38594,-100,4,3,0,50,0,0
52712,-100,4,1,1,100,0,1
64712,-100,4,3,0,20,0,0
67535,-100,4,1,1,100,0,1
78124,-100,4,1,1,50,0,0
82359,-100,4,2,0,20,0,0
93653,-100,4,2,0,20,0,0
107065,-100,4,3,0,20,0,0
113653,-100,4,3,0,50,0,0
120477,-100,4,1,1,100,0,1
132477,-100,4,3,0,20,0,0
149418,-100,4,3,0,50,0,0
151535,-100,4,1,1,100,0,1
157888,-100,4,1,1,100,0,0
166594,-100,4,1,1,100,0,1
189653,-100,4,2,0,20,0,0

[Colours]
Combo1 : 255,128,192
Combo2 : 0,0,255
Combo3 : 255,128,0
Combo4 : 255,255,255

[HitObjects]
192,288,11771,6,0,L|96:288,2,73.3333333333333
192,256,12947,2,0,L|192:96,1,146.666666666667
288,128,14594,1,0,0:0:0:0:
288,128,14947,1,0,0:0:0:0:
288,128,15300,2,0,L|384:128,2,55
288,160,16359,2,0,P|288:256|192:288,1,165
192,224,18124,6,0,L|64:192,1,110
64,160,19182,1,0,0:0:0:0:
64,160,19535,1,8,0:0:0:0:
64,128,19888,2,0,L|224:128,1,110
256,128,20947,1,8,0:0:0:0:
288,128,21300,1,0,0:0:0:0:
256,160,21653,2,0,B|320:96|416:96|448:128|480:192|448:256|384:288|320:288|320:288|288:320|256:352|192:352,1,550
160,256,25888,6,0,P|224:288|288:288,1,110
288,256,26947,2,0,P|352:224|416:224,1,110
416,224,28006,2,0,P|480:192|480:128,2,110
384,128,30124,1,4,0:0:0:0:
256,192,30830,1,0,0:0:0:0:
192,256,31535,6,0,L|96:256,2,55
192,224,32594,1,0,0:0:0:0:
192,224,32947,1,0,0:0:0:0:
224,192,33653,2,0,P|224:128|256:96,1,110
320,128,34712,1,0,0:0:0:0:
352,160,35065,2,0,P|352:224|128:320,1,330
128,256,37888,1,4,0:0:0:0:
192,192,38594,6,0,L|256:160,1,55
288,160,39300,2,0,L|352:160,1,55
384,160,40006,2,0,L|448:192,2,55
352,96,41065,2,0,P|320:160|288:224,3,110
320,192,43535,1,4,0:0:0:0:
256,288,44241,1,0,0:0:0:0:
160,256,45653,5,0,0:0:0:0:
160,256,46006,1,0,0:0:0:0:
160,256,46359,1,0,0:0:0:0:
96,224,46712,2,0,L|96:160,1,55
128,160,47418,2,0,L|192:160,2,55
160,96,48477,1,0,0:0:0:0:
224,128,48830,2,0,P|320:128|480:256,1,275
384,288,51300,6,0,L|288:256,1,55
288,288,52006,1,0,0:0:0:0:
288,288,52359,1,0,0:0:0:0:
224,224,52712,5,4,0:0:0:0:
192,160,53418,2,0,L|320:160,2,110
160,128,55182,1,0,0:0:0:0:
160,128,55535,1,0,0:0:0:0:
128,128,55888,2,0,P|192:64|288:64,1,165
288,96,57300,1,4,0:0:0:0:
416,160,58359,6,0,L|320:256,2,110
448,192,60124,1,0,0:0:0:0:
448,192,60477,1,0,0:0:0:0:
448,192,60830,1,0,0:0:0:0:
416,224,61182,2,0,L|320:320,2,110
416,224,62947,1,4,0:0:0:0:
256,192,64712,12,4,67535,0:0:0:0:
192,256,68947,6,0,L|64:224,2,110
320,128,71065,1,0,0:0:0:0:
320,128,71418,1,0,0:0:0:0:
320,128,71771,1,0,0:0:0:0:
384,128,72124,2,0,L|384:224,1,55
352,288,72830,2,0,L|192:224,1,165,4|0,0:0|0:0,0:0:0:0:
96,256,74241,2,0,L|160:288,2,55
64,224,75300,1,0,0:0:0:0:
32,192,75653,1,0,0:0:0:0:
96,128,76006,2,2,P|160:96|224:128,1,110
192,160,77065,2,0,P|224:224|288:256,1,110
288,192,78124,1,4,0:0:0:0:
256,256,78830,6,0,L|160:256,1,55
192,224,79535,2,0,L|192:128,1,55
192,128,80241,2,0,P|64:128|64:320,1,330
192,96,93653,6,0,L|96:96,2,73.3333333333333
192,128,94829,2,0,L|192:288,1,146.666666666667
288,256,96476,1,0,0:0:0:0:
288,256,96829,1,0,0:0:0:0:
288,256,97182,2,0,L|384:256,2,55
288,224,98241,2,0,P|288:128|192:96,1,165
192,160,100006,6,0,L|64:192,1,110
64,224,101064,1,0,0:0:0:0:
64,224,101417,1,8,0:0:0:0:
64,256,101770,2,0,L|224:256,1,110
256,256,102829,1,8,0:0:0:0:
288,256,103182,1,0,0:0:0:0:
256,192,103535,12,0,107064,0:0:0:0:
160,128,107770,6,0,P|224:96|288:96,1,110
288,128,108829,2,0,P|352:160|416:160,1,110
416,160,109888,2,0,P|480:192|480:256,2,110
384,256,112006,1,4,0:0:0:0:
192,128,113417,6,0,L|96:128,2,55
192,160,114476,1,0,0:0:0:0:
192,160,114829,1,0,0:0:0:0:
224,192,115535,2,0,P|224:256|256:288,1,110
320,256,116594,1,0,0:0:0:0:
352,224,116947,2,0,P|352:160|128:64,1,330
128,128,119770,1,4,0:0:0:0:
192,192,120476,6,0,L|256:224,1,55
288,224,121182,1,4,0:0:0:0:
384,224,121888,2,0,L|448:192,2,55
352,288,122947,2,0,P|320:224|288:160,3,110
320,192,125417,1,0,0:0:0:0:
256,96,126123,1,4,0:0:0:0:
160,128,127535,5,0,0:0:0:0:
160,128,127888,1,0,0:0:0:0:
160,128,128241,1,0,0:0:0:0:
96,160,128594,2,0,L|96:224,1,55
128,224,129300,2,0,L|192:224,2,55
160,288,130359,1,0,0:0:0:0:
224,256,130712,2,0,P|320:256|480:128,1,275,4|0,0:0|0:0,0:0:0:0:
384,128,132830,2,0,P|224:96|64:256,1,385
192,192,149418,5,4,0:0:0:0:
320,128,150124,2,0,L|320:192,1,55
352,256,151535,1,4,0:0:0:0:
192,192,152947,6,0,L|128:256,2,55
256,192,154006,1,0,0:0:0:0:
288,192,154359,1,0,0:0:0:0:
288,160,154712,1,0,0:0:0:0:
288,128,155065,2,0,P|352:128|384:160,1,110
384,192,156124,1,0,0:0:0:0:
384,224,156477,1,4,0:0:0:0:
192,160,157888,6,0,L|256:160,2,55
128,128,158947,1,0,0:0:0:0:
96,96,159300,1,0,0:0:0:0:
64,128,159653,1,0,0:0:0:0:
128,160,160006,2,0,L|256:160,1,110
256,160,161065,1,0,0:0:0:0:
256,160,161418,1,4,0:0:0:0:
192,160,162124,2,0,B|192:224|192:224|256:224|256:224|288:320|288:320|320:224|320:224|384:224|384:224|384:160|384:160|448:160,1,495
384,160,165653,6,0,L|288:128,2,55
256,128,166712,5,4,0:0:0:0:
256,128,167771,2,0,L|192:192,1,55
192,192,168477,2,0,L|160:288,1,55
160,256,169183,2,0,L|160:320,2,55
128,224,170241,2,2,P|64:160|96:64,1,165
128,64,172006,1,4,0:0:0:0:
320,64,173418,2,0,L|320:128,2,55
384,64,174477,2,0,L|448:96,1,55
448,160,175182,2,0,L|352:192,1,55
320,192,175888,1,0,0:0:0:0:
320,192,176241,1,0,0:0:0:0:
320,192,176594,1,0,0:0:0:0:
320,192,176947,1,4,0:0:0:0:
416,256,178359,6,0,P|352:288|256:288,1,165
224,224,180830,1,0,0:0:0:0:
160,224,181182,1,0,0:0:0:0:
128,160,181535,1,0,0:0:0:0:
202,138,181888,2,0,B|202:85|256:85|282:112|282:112|309:165|335:192|335:192|362:165|415:112|415:112|468:112|494:138|494:192|468:245|415:298|335:298|309:324,2,605
256,192,190359,2,0,L|128:256,1,110
128,192,191418,2,0,L|-32:192,1,110
32,160,192477,1,4,0:0:0:0:
96,160,193182,2,0,P|128:224|256:320,1,220
224,256,195300,1,0,0:0:0:0:
384,256,195653,1,4,0:0:0:0:
352,192,196006,6,0,P|288:128|96:160,1,275
160,192,198124,1,0,0:0:0:0:
128,224,198477,1,0,0:0:0:0:
128,224,198830,1,0,0:0:0:0:
96,256,199182,2,0,L|160:320,3,55
110,275,200594,2,0,B|182:275|206:130|254:82|326:227|349:322|421:298,1,385
