osu file format v14

[General]
AudioFilename: audio.mp3
AudioLeadIn: 0
PreviewTime: -1
Countdown: 1
SampleSet: Soft
StackLeniency: 0.7
Mode: 0
LetterboxInBreaks: 0
WidescreenStoryboard: 1

[Editor]
Bookmarks: 83065,93653,136006,149418,199300,205888
DistanceSpacing: 0.8
BeatDivisor: 3
GridSize: 32
TimelineZoom: 1

[Metadata]
Title:Quien Como Tu
TitleUnicode:Quién Como Tú
Artist:Ana Gabriel
ArtistUnicode:Ana Gabriel
Creator:Soula Evans
Version:Insane
Source:
Tags:ana gabriel quien como tu
BeatmapID:1577618
BeatmapSetID:748922

[Difficulty]
HPDrainRate:7
CircleSize:5.5
OverallDifficulty:7
ApproachRate:8
SliderMultiplier:1.1
SliderTickRate:3

[Events]
//Background and Video events
0,0,"Beautiful-lonely-girl-awaiting-looking-through-glass-window.jpg",0,0
//Break Periods
2,83265,85138
2,86559,88668
2,90088,92903
//Storyboard Layer 0 (Background)
//Storyboard Layer 1 (Fail)
//Storyboard Layer 2 (Pass)
//Storyboard Layer 3 (Foreground)
//Storyboard Sound Samples

[TimingPoints]
11771.2352941176,705.882352941176,4,2,0,20,1,0
25182,-100,4,3,0,20,0,0
38594,-100,4,3,0,50,0,0
52712,-100,4,1,1,100,0,1
64712,-100,4,3,0,20,0,0
67535,-100,4,1,1,100,0,1
78124,-100,4,1,1,50,0,0
82359,-100,4,2,0,20,0,0
93653,-100,4,2,0,20,0,0
107065,-100,4,3,0,20,0,0
113653,-100,4,3,0,50,0,0
120477,-100,4,1,1,100,0,1
132477,-100,4,3,0,20,0,0
149418,-100,4,3,0,50,0,0
151535,-100,4,1,1,100,0,1
157888,-100,4,1,1,100,0,0
166594,-100,4,1,1,100,0,1
189653,-100,4,2,0,20,0,0

[Colours]
Combo1 : 255,128,192
Combo2 : 0,0,255
Combo3 : 255,128,0
Combo4 : 255,255,255

[HitObjects]
192,96,11771,6,0,L|128:192,1,110
192,224,12712,1,0,0:0:0:0:
192,224,12947,1,0,0:0:0:0:
224,256,13182,1,0,0:0:0:0:
256,224,13418,2,0,P|320:256|352:320,1,110
352,320,14359,1,8,0:0:0:0:
384,256,14594,5,0,0:0:0:0:
384,256,14830,1,0,0:0:0:0:
384,256,15065,1,0,0:0:0:0:
416,256,15300,2,0,L|544:256,1,110
480,192,16241,2,0,L|480:96,1,73.3333333333333,0|4,0:0|0:0,0:0:0:0:
320,128,18124,6,0,L|256:128,1,36.6666666666667
288,192,18594,2,0,L|352:192,1,36.6666666666667
256,128,19065,1,8,0:0:0:0:
256,128,19300,1,0,0:0:0:0:
160,160,19535,2,0,L|96:160,1,36.6666666666667
160,96,20006,2,0,L|224:96,1,36.6666666666667
192,160,20477,1,8,0:0:0:0:
192,160,20712,1,0,0:0:0:0:
160,192,20947,2,2,P|192:256|256:256,2,110
288,128,23065,1,0,0:0:0:0:
320,256,23535,1,0,0:0:0:0:
192,256,24006,1,0,0:0:0:0:
320,288,25182,6,0,L|384:288,2,36.6666666666667
288,320,25888,2,8,P|256:256|288:192,1,146.666666666667
320,192,27065,1,0,0:0:0:0:
352,160,27300,1,0,0:0:0:0:
320,128,27535,1,0,0:0:0:0:
288,128,27771,2,0,P|224:128|160:160,1,110
160,160,28712,2,0,P|128:224|128:288,1,110
128,288,29653,1,0,0:0:0:0:
224,352,30124,1,4,0:0:0:0:
352,256,30830,1,0,0:0:0:0:
288,160,31535,2,8,L|352:160,2,36.6666666666667
224,160,32241,2,0,L|128:192,1,73.3333333333333
128,224,32947,1,2,0:0:0:0:
192,128,33182,2,8,L|192:64,2,36.6666666666667
256,192,33888,2,0,L|320:256,1,73.3333333333333
352,288,34594,1,0,0:0:0:0:
416,256,34830,1,0,0:0:0:0:
448,192,35065,1,0,0:0:0:0:
416,160,35300,2,0,B|349:131|334:165|368:179|368:179|354:212|287:184|273:217|306:231|306:231|292:265|258:251|244:284|278:298,1,293.333333333333
256,288,37888,1,4,0:0:0:0:
256,128,38594,6,8,L|224:96,1,36.6666666666667
192,160,39065,2,8,L|160:128,1,36.6666666666667
128,192,39535,2,8,L|96:160,1,36.6666666666667
64,224,40006,1,8,0:0:0:0:
64,224,40241,1,8,0:0:0:0:
64,224,40477,1,8,0:0:0:0:
64,192,40712,2,0,P|96:128|128:128,1,110
160,192,41653,1,0,0:0:0:0:
224,160,41888,1,0,0:0:0:0:
256,96,42124,1,0,0:0:0:0:
320,96,42359,2,0,P|384:128|384:160,1,110
320,192,43300,2,0,P|352:256|384:256,1,110
416,256,44241,1,0,0:0:0:0:
128,256,44712,1,0,0:0:0:0:
160,288,45653,6,8,L|160:224,1,36.6666666666667
192,192,46124,2,8,L|192:128,1,36.6666666666667
256,96,46594,2,8,L|256:32,2,36.6666666666667
256,128,47300,1,0,0:0:0:0:
288,192,47535,1,0,0:0:0:0:
256,256,47771,1,0,0:0:0:0:
256,352,48006,2,0,P|320:352|352:320,1,110
256,256,48947,2,0,P|192:256|256:96,1,330
288,192,51299,5,0,0:0:0:0:
352,192,51535,2,0,L|352:256,3,36.6666666666667
288,224,52477,1,4,0:0:0:0:
288,288,52712,6,0,L|224:288,1,36.6666666666667
128,256,53182,2,0,L|192:256,1,36.6666666666667
192,192,53653,1,0,0:0:0:0:
128,160,53888,1,0,0:0:0:0:
160,96,54124,1,0,0:0:0:0:
256,128,54359,2,0,L|256:192,2,36.6666666666667
160,160,55065,1,0,0:0:0:0:
224,224,55300,1,0,0:0:0:0:
128,224,55535,1,0,0:0:0:0:
64,288,55771,2,0,L|160:320,1,73.3333333333333
128,320,56477,1,0,0:0:0:0:
288,320,56712,1,0,0:0:0:0:
288,320,56947,1,0,0:0:0:0:
352,224,57182,1,4,0:0:0:0:
288,192,57418,6,0,L|320:128,1,36.6666666666667
352,128,57888,2,0,L|384:192,1,36.6666666666667
416,224,58359,2,0,L|480:224,2,36.6666666666667
416,128,59065,1,0,0:0:0:0:
416,288,59300,1,0,0:0:0:0:
352,128,59535,1,0,0:0:0:0:
352,256,59771,1,0,0:0:0:0:
256,288,60006,2,0,L|192:288,1,36.6666666666667
224,224,60477,2,0,L|160:224,1,36.6666666666667
96,224,60947,2,2,P|64:160|96:128,1,110
96,128,61888,1,0,0:0:0:0:
128,128,62124,1,0,0:0:0:0:
128,128,62359,1,0,0:0:0:0:
160,160,62594,2,0,P|192:192|256:192,2,110
160,192,64241,2,0,P|192:224|320:288,1,183.333333333333
288,192,66124,5,0,0:0:0:0:
352,128,66594,2,0,L|384:96,1,36.6666666666667
448,128,67065,1,0,0:0:0:0:
416,192,67300,1,0,0:0:0:0:
352,224,67535,1,4,0:0:0:0:
192,288,67771,2,0,L|256:224,1,73.3333333333333
192,192,68477,1,0,0:0:0:0:
128,160,68712,1,0,0:0:0:0:
128,96,68947,1,0,0:0:0:0:
192,64,69182,1,0,0:0:0:0:
224,96,69418,2,0,L|288:96,2,36.6666666666667
288,160,70124,2,0,L|352:160,2,36.6666666666667
192,192,70830,2,0,L|224:256,1,36.6666666666667
256,256,71300,2,0,L|288:288,1,36.6666666666667
384,288,72006,1,4,0:0:0:0:
384,192,72241,1,0,0:0:0:0:
384,192,72477,1,0,0:0:0:0:
256,96,72712,5,4,0:0:0:0:
256,96,72947,2,0,P|192:96|96:128,1,146.666666666667
32,160,74359,2,0,L|32:224,1,36.6666666666667
128,224,74830,2,0,L|128:288,1,36.6666666666667
256,288,75300,2,0,L|320:288,2,36.6666666666667
256,224,76006,2,0,L|352:224,1,73.3333333333333
416,224,76947,1,0,0:0:0:0:
352,128,77182,1,0,0:0:0:0:
352,128,77418,1,0,0:0:0:0:
224,160,77653,1,0,0:0:0:0:
192,256,77888,1,4,0:0:0:0:
224,288,78124,2,0,P|288:320|352:320,1,110
256,192,79535,12,0,82359,0:0:0:0:
160,224,82594,5,0,0:0:0:0:
160,192,82830,1,0,0:0:0:0:
160,160,83065,1,0,0:0:0:0:
384,224,85888,5,0,0:0:0:0:
384,256,86124,1,0,0:0:0:0:
384,288,86359,1,0,0:0:0:0:
96,224,89418,5,0,0:0:0:0:
128,224,89653,1,0,0:0:0:0:
160,224,89888,1,0,0:0:0:0:
256,160,93653,5,8,0:0:0:0:
224,224,93888,2,0,L|288:224,2,36.6666666666667
160,192,94594,2,0,P|192:160|224:160,1,73.3333333333333
320,256,95300,2,0,P|384:224|416:224,1,73.3333333333333,0|8,0:0|0:0,0:0:0:0:
96,160,96477,2,0,P|96:96|160:64,1,110
160,128,97418,1,0,0:0:0:0:
224,160,97653,1,0,0:0:0:0:
96,192,97888,2,0,P|128:256|192:288,1,110
224,256,98830,2,4,L|224:160,1,73.3333333333333
416,96,100006,6,0,L|320:96,1,73.3333333333333
352,160,100712,1,0,0:0:0:0:
256,160,100947,1,0,0:0:0:0:
192,96,101182,1,0,0:0:0:0:
96,96,101418,2,0,L|96:160,1,36.6666666666667,8|0,0:0|0:0,0:0:0:0:
160,192,101888,1,0,0:0:0:0:
96,256,102124,1,0,0:0:0:0:
192,288,102359,1,0,0:0:0:0:
224,192,102594,2,0,P|256:224|256:256,1,73.3333333333333,8|0,0:0|0:0,0:0:0:0:
320,288,103300,1,0,0:0:0:0:
384,224,103535,2,0,P|320:224|256:256,2,110
320,160,105418,1,8,0:0:0:0:
288,128,105653,2,0,L|288:64,2,36.6666666666667
288,192,106359,1,0,0:0:0:0:
128,256,107065,5,0,0:0:0:0:
96,192,107300,1,0,0:0:0:0:
128,128,107535,1,0,0:0:0:0:
224,128,107771,2,0,L|224:64,1,36.6666666666667
288,160,108241,1,0,0:0:0:0:
288,256,108477,1,0,0:0:0:0:
224,320,108712,1,0,0:0:0:0:
224,256,108947,2,0,L|160:256,1,36.6666666666667
256,192,109418,2,0,L|320:192,1,36.6666666666667
288,128,109888,2,0,L|160:128,2,110
352,192,112006,1,8,0:0:0:0:
384,288,112712,1,4,0:0:0:0:
448,256,113418,6,0,L|512:256,1,36.6666666666667
448,192,113888,2,0,L|512:192,1,36.6666666666667
448,128,114359,2,0,L|512:128,1,36.6666666666667
448,64,114830,1,0,0:0:0:0:
448,64,115065,1,0,0:0:0:0:
448,64,115300,1,0,0:0:0:0:
416,96,115535,1,0,0:0:0:0:
384,128,115771,1,0,0:0:0:0:
352,160,116006,1,0,0:0:0:0:
320,192,116241,2,0,P|288:256|160:224,2,220
96,160,119771,5,0,0:0:0:0:
96,128,120006,2,0,L|128:192,2,36.6666666666667
128,96,120712,1,4,0:0:0:0:
224,96,120947,6,0,L|288:96,1,36.6666666666667
384,128,121417,2,0,L|320:128,1,36.6666666666667
320,192,121888,1,0,0:0:0:0:
384,224,122123,1,0,0:0:0:0:
352,288,122359,1,0,0:0:0:0:
256,256,122594,2,0,L|256:192,2,36.6666666666667
352,224,123300,1,0,0:0:0:0:
288,160,123535,1,0,0:0:0:0:
384,160,123770,1,0,0:0:0:0:
448,96,124006,2,0,L|352:64,1,73.3333333333333
384,64,124712,1,0,0:0:0:0:
224,64,124947,1,0,0:0:0:0:
224,64,125182,1,0,0:0:0:0:
160,160,125417,1,4,0:0:0:0:
224,192,125653,6,0,L|192:256,1,36.6666666666667
160,256,126123,2,0,L|128:192,1,36.6666666666667
96,160,126594,2,0,L|32:160,2,36.6666666666667
96,256,127300,1,0,0:0:0:0:
96,96,127535,1,0,0:0:0:0:
160,256,127770,1,0,0:0:0:0:
160,96,128006,1,0,0:0:0:0:
256,96,128241,2,0,L|320:96,1,36.6666666666667
288,160,128712,2,0,L|352:160,1,36.6666666666667
416,160,129182,2,2,P|448:224|416:256,1,110
416,256,130123,1,0,0:0:0:0:
384,256,130359,1,0,0:0:0:0:
384,256,130594,1,0,0:0:0:0:
352,224,130829,2,0,P|320:192|256:192,2,110
352,192,132476,2,0,P|320:160|192:96,1,183.333333333333
224,192,134359,5,0,0:0:0:0:
160,256,134829,2,0,L|128:288,1,36.6666666666667
64,256,135300,1,0,0:0:0:0:
96,192,135535,1,0,0:0:0:0:
160,160,135770,1,4,0:0:0:0:
320,96,136006,2,0,L|256:160,1,73.3333333333333
320,192,136712,1,0,0:0:0:0:
384,224,136947,1,0,0:0:0:0:
384,288,137182,1,0,0:0:0:0:
320,320,137417,1,0,0:0:0:0:
288,288,137653,2,0,L|224:288,2,36.6666666666667
224,224,138359,2,0,L|160:224,2,36.6666666666667
320,192,139065,2,0,L|288:128,1,36.6666666666667
256,128,139535,2,0,L|224:96,1,36.6666666666667
128,96,140241,1,4,0:0:0:0:
128,192,140476,1,0,0:0:0:0:
128,192,140712,1,0,0:0:0:0:
256,288,140947,5,4,0:0:0:0:
256,288,141182,2,0,P|320:288|416:256,1,146.666666666667
384,224,142359,2,0,L|480:192,1,73.3333333333333
384,128,143065,2,0,L|480:96,1,73.3333333333333
416,64,143771,1,0,0:0:0:0:
352,96,144006,2,4,L|256:128,1,73.3333333333333
224,128,144712,1,0,0:0:0:0:
192,160,144947,1,0,0:0:0:0:
160,192,145182,2,0,L|160:288,1,73.3333333333333
160,288,145888,1,0,0:0:0:0:
160,288,146124,1,0,0:0:0:0:
224,224,146359,1,0,0:0:0:0:
160,160,146594,1,0,0:0:0:0:
64,128,146830,2,0,L|96:96,2,36.6666666666667
32,192,147535,2,0,P|96:288|256:288,1,256.666666666667
224,160,149653,5,4,0:0:0:0:
320,160,150124,2,0,L|320:256,1,73.3333333333333
160,256,151065,1,4,0:0:0:0:
192,224,151535,2,0,L|256:224,1,36.6666666666667
128,160,152006,2,0,L|64:160,1,36.6666666666667
96,96,152477,1,0,0:0:0:0:
160,96,152712,1,0,0:0:0:0:
224,96,152947,1,0,0:0:0:0:
224,160,153182,2,0,L|224:224,1,36.6666666666667
224,256,153653,2,0,L|224:320,1,36.6666666666667
128,256,154124,1,0,0:0:0:0:
192,224,154359,2,0,L|256:224,1,36.6666666666667
128,160,154830,1,0,0:0:0:0:
192,128,155065,2,0,L|256:128,1,36.6666666666667
288,192,155535,1,8,0:0:0:0:
416,128,155771,1,0,0:0:0:0:
416,128,156006,1,0,0:0:0:0:
352,256,156241,6,4,L|288:256,1,36.6666666666667
288,288,156712,2,0,L|192:256,2,73.3333333333333
224,256,157888,1,0,0:0:0:0:
192,224,158124,1,0,0:0:0:0:
160,256,158359,1,0,0:0:0:0:
128,224,158594,2,0,L|128:128,1,73.3333333333333
128,96,159300,1,0,0:0:0:0:
192,96,159535,2,0,L|288:96,1,73.3333333333333
320,192,160241,1,0,0:0:0:0:
256,256,160477,1,0,0:0:0:0:
206,280,160712,6,0,L|163:232,1,36.6666666666667
122,139,161182,2,0,L|165:187,1,36.6666666666667
213,144,161653,1,0,0:0:0:0:
194,75,161888,1,0,0:0:0:0:
263,56,162124,1,0,0:0:0:0:
288,64,162359,2,0,P|352:96|448:288,1,293.333333333333
320,288,164947,1,0,0:0:0:0:
256,256,165418,2,0,L|288:224,3,36.6666666666667
256,160,166359,1,0,0:0:0:0:
303,149,166594,6,0,L|256:192,2,36.6666666666667,0|4|0,0:0|0:0|0:0,0:0:0:0:
215,99,167300,1,0,0:0:0:0:
210,189,167535,1,0,0:0:0:0:
146,118,167770,1,0,0:0:0:0:
64,96,168006,2,0,L|104:188,1,73.3333333333333
0,128,168712,1,0,0:0:0:0:
32,192,168947,1,0,0:0:0:0:
96,224,169182,1,0,0:0:0:0:
160,192,169417,1,0,0:0:0:0:
224,128,169653,6,0,L|292:108,1,36.6666666666667
224,224,170123,2,0,L|197:290,1,36.6666666666667
320,288,170594,2,0,L|362:335,2,36.6666666666667
352,256,171300,1,0,0:0:0:0:
289,108,171535,1,0,0:0:0:0:
410,230,171770,1,0,0:0:0:0:
360,113,172006,1,4,0:0:0:0:
352,224,172241,2,0,L|309:176,1,36.6666666666667
288,288,172712,2,0,L|245:240,1,36.6666666666667
160,288,173182,2,0,P|186:221|352:256,1,256.666666666667
384,192,175065,2,0,L|448:192,1,36.6666666666667
288,128,175535,2,0,L|224:128,1,36.6666666666667
192,96,176006,5,4,0:0:0:0:
224,96,176241,2,0,L|288:96,2,36.6666666666667
288,160,176947,2,0,L|352:160,2,36.6666666666667
192,192,177653,2,0,L|224:256,1,36.6666666666667
256,256,178123,2,0,L|288:288,1,36.6666666666667
288,320,178594,2,0,P|352:320|448:256,1,183.333333333333
416,224,180006,2,0,B|416:160|384:64|288:32|224:32,1,293.333333333333
224,96,182124,2,0,B|128:96|64:128,1,146.666666666667
128,160,183300,1,0,0:0:0:0:
128,160,183535,2,0,P|96:224|128:320,1,146.666666666667
160,288,184712,1,0,0:0:0:0:
160,288,184947,1,0,0:0:0:0:
160,288,185182,2,0,P|224:320|320:320,1,146.666666666667
288,288,186594,2,0,P|352:224|256:128,1,256.666666666667
224,192,189653,6,0,L|192:128,3,36.6666666666667
256,160,190594,1,0,0:0:0:0:
288,160,190830,1,0,0:0:0:0:
320,128,191065,1,0,0:0:0:0:
384,128,191300,2,0,L|448:128,4,36.6666666666667
288,160,192477,5,8,0:0:0:0:
256,160,192712,1,0,0:0:0:0:
224,160,192947,1,0,0:0:0:0:
192,160,193182,1,0,0:0:0:0:
128,160,193418,2,0,L|64:224,1,73.3333333333333
160,256,194124,2,0,L|256:256,1,73.3333333333333
192,192,194829,1,0,0:0:0:0:
160,192,195064,1,0,0:0:0:0:
128,192,195299,1,0,0:0:0:0:
96,192,195535,1,0,0:0:0:0:
32,224,195771,2,0,L|32:288,1,36.6666666666667
96,256,196241,2,0,L|96:320,1,36.6666666666667
160,256,196712,2,0,L|160:320,1,36.6666666666667
224,192,197182,2,0,L|224:256,3,36.6666666666667
128,160,198124,5,0,0:0:0:0:
192,160,198359,2,0,L|224:96,2,36.6666666666667
256,192,199065,12,0,205182,0:0:0:0:
