osu file format v14

[General]
AudioFilename: audio.mp3
AudioLeadIn: 0
PreviewTime: 126952
Countdown: 0
SampleSet: Normal
StackLeniency: 0.7
Mode: 1
LetterboxInBreaks: 0
WidescreenStoryboard: 1

[Editor]
Bookmarks: 2490,21690,31290,40890,50490,60090,69690,88890,108090,127290,132090,136890,141690,146490,156090,165690,175290,184890,201690,205290,214890,219690,222090,224490,238890,241290,243690,253290,262890
DistanceSpacing: 1
BeatDivisor: 4
GridSize: 32
TimelineZoom: 1.8

[Metadata]
Title:Amrita
TitleUnicode:Amrita
Artist:An feat. Baru
ArtistUnicode:An feat. バル
Creator:KatK1
Version:Oni
Source:
Tags:CHIAROSCURO ACAL-0003 ACAL 0003 C84 comiket 84 AcuticNotes Acutic Notes artcore drumstep dnb drum n and bass electronic japanese
BeatmapID:3816663
BeatmapSetID:1857031

[Difficulty]
HPDrainRate:5
CircleSize:4
OverallDifficulty:6
ApproachRate:8
SliderMultiplier:1.4
SliderTickRate:1

[Events]
//Background and Video events
0,0,"0 (4).jpg",0,110
//Break Periods
//Storyboard Layer 0 (Background)
//Storyboard Layer 1 (Fail)
//Storyboard Layer 2 (Pass)
//Storyboard Layer 3 (Foreground)
//Storyboard Layer 4 (Overlay)
//Storyboard Sound Samples

[TimingPoints]
1290,300,4,1,0,30,1,8
1290,-166.666666666667,4,1,0,30,0,8
2490,300,4,1,0,30,1,0
2490,-166.66666,4,1,0,30,0,0
3390,-166.55907,4,1,0,30,0,0
3540,-166.51094,4,1,0,30,0,0
3690,-166.45218,4,1,0,30,0,0
3990,-166.30057,4,1,0,30,0,0
4140,-166.20674,4,1,0,30,0,0
4440,-165.98083,4,1,0,30,0,0
4590,-165.84799,4,1,0,30,0,0
4740,-165.70142,4,1,0,30,0,0
4890,-165.5408,4,1,0,30,0,0
5790,-164.2675,4,1,0,30,0,0
5940,-164.00171,4,1,0,30,0,0
6090,-163.72018,4,1,0,30,0,0
6390,-163.10945,4,1,0,30,0,0
6540,-162.78008,4,1,0,30,0,0
6840,-162.07298,4,1,0,30,0,0
7140,-161.30127,4,1,0,30,0,0
7290,-160.89119,4,1,0,30,0,0
8190,-158.09445,4,1,0,30,0,0
8490,-157.03635,4,1,0,30,0,0
9090,-154.73831,4,1,0,30,0,0
9540,-152.86186,4,1,0,30,0,0
9690,-152.20848,4,1,0,30,0,0
10890,-146.51833,4,1,0,30,0,0
11190,-144.97832,4,1,0,33,0,0
11490,-143.39659,4,1,0,35,0,0
11640,-142.59091,4,1,0,36,0,0
11790,-141.77588,4,1,0,38,0,0
11940,-140.95181,4,1,0,39,0,0
12090,-140.11908,4,1,0,40,0,0
12240,-139.27802,4,1,0,40,0,0
12315,-138.85449,4,1,0,40,0,0
12390,-138.42902,4,1,0,40,0,0
12540,-137.57243,4,1,0,40,0,0
12990,-134.96085,4,1,0,40,0,0
13140,-134.07758,4,1,0,40,0,0
13290,-133.18855,4,1,0,40,0,0
13440,-132.29413,4,1,0,40,0,0
13515,-131.845,4,1,0,40,0,0
13590,-131.39468,4,1,0,40,0,0
13740,-130.49054,4,1,0,40,0,0
14040,-128.66962,4,1,0,40,0,0
14190,-127.753555,4,1,0,40,0,0
14340,-126.83418,4,1,0,40,0,0
14490,-125.91187,4,1,0,40,0,0
14640,-124.98695,4,1,0,40,0,0
14715,-124.52361,4,1,0,40,0,0
14790,-124.059746,4,1,0,40,0,0
14940,-123.13058,4,1,0,40,0,0
15390,-120.3345,4,1,0,40,0,0
15540,-119.40066,4,1,0,40,0,0
15690,-118.466385,4,1,0,40,0,0
15840,-117.53198,4,1,0,40,0,0
15915,-117.06483,4,1,0,40,0,0
15990,-116.59774,4,1,0,40,0,0
16140,-115.66395,4,1,0,40,0,0
16440,-113.79872,4,1,0,40,0,0
16740,-111.93839,4,1,0,40,0,0
16890,-111.0107,4,1,0,40,0,0
17040,-110.084946,4,1,0,40,0,0
17115,-109.62288,4,1,0,40,0,0
17190,-109.16139,4,1,0,40,0,0
17340,-108.240234,4,1,0,40,0,0
17640,-106.406044,4,1,0,40,0,0
17940,-104.58398,4,1,0,40,0,0
18090,-103.67798,4,1,0,40,0,0
18240,-102.77558,4,1,0,40,0,0
18315,-102.325775,4,1,0,40,0,0
18390,-101.876945,4,1,0,40,0,0
18540,-100.98227,4,1,0,40,0,0
18840,-99.20535,4,1,0,40,0,0
18990,-98.32343,4,1,0,40,0,0
19140,-97.44606,4,1,0,40,0,0
19290,-96.57336,4,1,0,40,0,0
20490,-89.77431,4,1,0,40,0,0
20940,-71.4285714285714,4,1,0,80,0,0
21690,-83.33333,4,1,0,80,0,0
21840,-86.95652,4,1,0,80,0,0
21990,-88.1815,4,1,0,80,0,0
22140,-89.094185,4,1,0,80,0,0
22290,-89.8517,4,1,0,80,0,0
22365,-90.19204,4,1,0,80,0,0
22440,-90.5127,4,1,0,80,0,0
22590,-91.106514,4,1,0,80,0,0
22740,-91.65024,4,1,0,80,0,0
22890,-92.15484,4,1,0,80,0,0
23040,-92.62786,4,1,0,80,0,0
23190,-93.074715,4,1,0,80,0,0
23340,-93.49944,4,1,0,80,0,0
23490,-93.90518,4,1,0,80,0,0
23565,-94.101715,4,1,0,80,0,0
23640,-94.29438,4,1,0,80,0,0
23790,-94.669014,4,1,0,80,0,0
24090,-95.38087,4,1,0,80,0,0
24240,-95.72055,4,1,0,80,0,0
24315,-95.88677,4,1,0,80,0,0
24390,-96.05074,4,1,0,80,0,0
24540,-96.37228,4,1,0,80,0,0
24690,-96.68587,4,1,0,80,0,0
24765,-96.83989,4,1,0,80,0,0
24840,-96.99216,4,1,0,80,0,0
24990,-97.291664,4,1,0,80,0,0
25140,-97.58489,4,1,0,80,0,0
25290,-97.872284,4,1,0,80,0,0
25440,-98.154205,4,1,0,80,0,0
25515,-98.29322,4,1,0,80,0,0
25590,-98.431,4,1,0,80,0,0
25740,-98.70301,4,1,0,80,0,0
25890,-98.97049,4,1,0,80,0,0
25965,-99.102615,4,1,0,80,0,0
26040,-99.2337,4,1,0,80,0,0
26190,-99.49288,4,1,0,80,0,0
26490,-100,4,1,0,80,0,0
26640,-99.99939,4,1,0,80,0,0
26790,-99.99511,4,1,0,80,0,0
26940,-99.98353,4,1,0,80,0,0
27090,-99.96095,4,1,0,80,0,0
27165,-99.944405,4,1,0,80,0,0
27240,-99.92377,4,1,0,80,0,0
27390,-99.86834,4,1,0,80,0,0
27540,-99.791084,4,1,0,80,0,0
27690,-99.68848,4,1,0,80,0,0
27840,-99.55702,4,1,0,80,0,0
27990,-99.39335,4,1,0,80,0,0
28140,-99.19417,4,1,0,80,0,0
28290,-98.956314,4,1,0,80,0,0
28365,-98.82195,4,1,0,80,0,0
28440,-98.6768,4,1,0,80,0,0
28590,-98.35278,4,1,0,80,0,0
28890,-97.560974,4,1,0,80,0,0
29340,-95.98181,4,1,0,80,0,0
29790,-93.89757,4,1,0,80,0,0
30090,-92.21902,4,1,0,80,0,0
30240,-91.293564,4,1,0,80,0,0
30540,-89.27491,4,1,0,80,0,0
31290,-83.33333,4,1,0,80,0,0
31740,-92.38796,4,1,0,76,0,0
32190,-95.71068,4,1,0,73,0,0
32490,-97.47635,4,1,0,70,0,0
32640,-98.28099,4,1,0,69,0,0
32940,-99.7768,4,1,0,66,0,0
33390,-101.81129,4,1,0,63,0,0
33690,-103.06512,4,1,0,60,0,0
33990,-104.25598,4,1,0,60,0,0
34140,-104.83141,4,1,0,60,0,0
34440,-105.9478,4,1,0,60,0,0
34590,-106.490585,4,1,0,60,0,0
34740,-107.02412,4,1,0,60,0,0
34890,-107.54908,4,1,0,60,0,0
35040,-108.06606,4,1,0,60,0,0
35190,-108.57559,4,1,0,60,0,0
35340,-109.07817,4,1,0,60,0,0
35790,-110.54825,4,1,0,60,0,0
36090,-111.500534,4,1,0,60,0,0
36540,-112.893135,4,1,0,60,0,0
36990,-114.24842,4,1,0,60,0,0
37290,-115.13381,4,1,0,60,0,0
37440,-115.57157,4,1,0,60,0,0
37740,-116.43796,4,1,0,60,0,0
38190,-117.716644,4,1,0,60,0,0
38490,-118.556526,4,1,0,60,0,0
38790,-119.387276,4,1,0,60,0,0
38940,-119.79947,4,1,0,60,0,0
39240,-120.61787,4,1,0,60,0,0
39390,-121.024254,4,1,0,60,0,0
39540,-121.428825,4,1,0,60,0,0
39690,-121.8317,4,1,0,60,0,0
39840,-122.2329,4,1,0,60,0,0
39990,-122.63252,4,1,0,60,0,0
40140,-123.0306,4,1,0,60,0,0
40590,-124.21624,4,1,0,60,0,0
40815,-83.33333,4,1,0,70,0,0
41340,-95.710686,4,1,0,70,0,0
41790,-100.479004,4,1,0,70,0,0
42090,-103.065125,4,1,0,70,0,0
42240,-104.25598,4,1,0,70,0,0
42540,-106.490585,4,1,0,70,0,0
42990,-109.57421,4,1,0,70,0,0
43290,-111.500534,4,1,0,70,0,0
43590,-113.34876,4,1,0,70,0,0
43740,-114.24842,4,1,0,70,0,0
44040,-116.00624,4,1,0,70,0,0
44340,-117.716644,4,1,0,70,0,0
44490,-118.55653,4,1,0,70,0,0
44640,-119.387276,4,1,0,70,0,0
44790,-120.20964,4,1,0,70,0,0
44940,-121.024254,4,1,0,70,0,0
45390,-123.42722,4,1,0,70,0,0
45690,-125,4,1,0,70,0,0
45990,-124.37546,4,1,0,70,0,0
46140,-123.81061,4,1,0,70,0,0
46590,-121.46278,4,1,0,70,0,0
46890,-119.48636,4,1,0,70,0,0
47040,-118.4033,4,1,0,70,0,0
47340,-116.083885,4,1,0,70,0,0
47790,-112.31165,4,1,0,70,0,0
48090,-109.6603,4,1,0,70,0,0
48390,-106.93879,4,1,0,70,0,0
48540,-105.56059,4,1,0,70,0,0
48840,-102.78459,4,1,0,70,0,0
48990,-101.39216,4,1,0,70,0,0
49065,-83.3333333333333,4,1,0,80,0,0
49290,-100,4,1,0,70,0,0
49890,-100,4,1,0,70,0,0
50040,-105.916985,4,1,0,70,0,0
50115,-108.82838,4,1,0,70,0,0
50190,-111.81953,4,1,0,70,0,0
50415,-83.33333,4,1,0,65,0,0
50940,-86.83039,4,1,0,65,0,0
51090,-87.52236,4,1,0,65,0,0
51390,-88.751144,4,1,0,65,0,0
51540,-89.31381,4,1,0,65,0,0
51690,-89.8517,4,1,0,65,0,0
51915,-90.621605,4,1,0,65,0,0
52140,-91.356255,4,1,0,65,0,0
52290,-91.83008,4,1,0,65,0,0
52590,-92.74644,4,1,0,65,0,0
52740,-93.19134,4,1,0,65,0,0
52890,-93.62865,4,1,0,65,0,0
53340,-94.902084,4,1,0,65,0,0
53490,-95.31566,4,1,0,65,0,0
53790,-96.12912,4,1,0,65,0,0
53940,-96.52977,4,1,0,65,0,0
54090,-96.92677,4,1,0,65,0,0
54315,-97.51603,4,1,0,65,0,0
54540,-98.09853,4,1,0,65,0,0
54690,-98.483475,4,1,0,65,0,0
54840,-98.865944,4,1,0,65,0,0
54990,-99.24606,4,1,0,65,0,0
55290,-100,4,1,0,65,0,0
55440,-99.79425,4,1,0,65,0,0
55515,-99.637596,4,1,0,65,0,0
55590,-99.45885,4,1,0,65,0,0
55740,-99.04928,4,1,0,65,0,0
55890,-98.58445,4,1,0,65,0,0
56040,-98.075356,4,1,0,65,0,0
56190,-97.529526,4,1,0,65,0,0
56490,-96.34905,4,1,0,65,0,0
56715,-95.401665,4,1,0,65,0,0
56940,-94.41258,4,1,0,65,0,0
57090,-93.7341,4,1,0,65,0,0
57240,-93.04279,4,1,0,65,0,0
57390,-92.34045,4,1,0,65,0,0
57690,-90.90909,4,1,0,65,0,0
58140,-99.896416,4,1,0,65,0,0
58590,-107.79402,4,1,0,65,0,0
58890,-113.23674,4,1,0,65,0,0
59040,-116.05308,4,1,0,65,0,0
59340,-121.925575,4,1,0,65,0,0
59490,-125,4,1,0,65,0,0
59790,-112.732574,4,1,0,70,0,0
60090,-83.33333,4,1,0,75,0,0
60240,-84.71714,4,1,0,75,0,0
60315,-85.106384,4,1,0,75,0,0
60390,-85.448906,4,1,0,75,0,0
60540,-86.05059,4,1,0,75,0,0
60690,-86.58248,4,1,0,75,0,0
60840,-87.06883,4,1,0,75,0,0
60990,-87.52236,4,1,0,75,0,0
61140,-87.95079,4,1,0,75,0,0
61290,-88.359184,4,1,0,75,0,0
61440,-88.751144,4,1,0,75,0,0
61515,-88.941795,4,1,0,75,0,0
61590,-89.12928,4,1,0,75,0,0
61740,-89.49561,4,1,0,75,0,0
61890,-89.8517,4,1,0,75,0,0
62040,-90.198814,4,1,0,75,0,0
62115,-90.369316,4,1,0,75,0,0
62190,-90.53796,4,1,0,75,0,0
62340,-90.87,4,1,0,75,0,0
62490,-91.19564,4,1,0,75,0,0
62640,-91.51549,4,1,0,75,0,0
62715,-91.673416,4,1,0,75,0,0
62790,-91.83008,4,1,0,75,0,0
62940,-92.13984,4,1,0,75,0,0
63090,-92.44518,4,1,0,75,0,0
63240,-92.74644,4,1,0,75,0,0
63390,-93.04393,4,1,0,75,0,0
63540,-93.337906,4,1,0,75,0,0
63690,-93.62865,4,1,0,75,0,0
63840,-93.91634,4,1,0,75,0,0
63915,-94.05912,4,1,0,75,0,0
63990,-94.20121,4,1,0,75,0,0
64140,-94.48341,4,1,0,75,0,0
64290,-94.76312,4,1,0,75,0,0
64440,-95.0405,4,1,0,75,0,0
64515,-95.178345,4,1,0,75,0,0
64590,-95.31566,4,1,0,75,0,0
64740,-95.588745,4,1,0,75,0,0
64890,-95.859856,4,1,0,75,0,0
65040,-96.12912,4,1,0,75,0,0
65115,-96.2631,4,1,0,75,0,0
65190,-96.39664,4,1,0,76,0,0
65340,-96.66249,4,1,0,76,0,0
65490,-96.92677,4,1,0,76,0,0
65640,-97.18955,4,1,0,77,0,0
65790,-97.450905,4,1,0,77,0,0
65940,-97.710915,4,1,0,77,0,0
66090,-97.96965,4,1,0,78,0,0
66240,-98.22714,4,1,0,78,0,0
66315,-98.35545,4,1,0,78,0,0
66390,-98.483475,4,1,0,78,0,0
66540,-98.73872,4,1,0,78,0,0
66690,-98.992905,4,1,0,79,0,0
66840,-99.24606,4,1,0,79,0,0
66915,-99.372284,4,1,0,79,0,0
66990,-99.498276,4,1,0,79,0,0
67140,-99.74957,4,1,0,80,0,0
67215,-99.87489,4,1,0,80,0,0
67290,-83.333336,4,1,0,85,0,0
69390,-125,4,1,0,60,0,0
69690,-83.33333,4,1,0,80,0,0
69840,-86.95652,4,1,0,80,0,0
69990,-88.1815,4,1,0,80,0,0
70140,-89.094185,4,1,0,80,0,0
70290,-89.8517,4,1,0,80,0,0
70365,-90.19204,4,1,0,80,0,0
70440,-90.5127,4,1,0,80,0,0
70590,-91.106514,4,1,0,80,0,0
70740,-91.65024,4,1,0,80,0,0
70890,-92.15484,4,1,0,80,0,0
71040,-92.62786,4,1,0,80,0,0
71190,-93.074715,4,1,0,80,0,0
71340,-93.49944,4,1,0,80,0,0
71490,-93.90518,4,1,0,80,0,0
71565,-94.101715,4,1,0,80,0,0
71640,-94.29438,4,1,0,80,0,0
71790,-94.669014,4,1,0,80,0,0
71940,-95.03073,4,1,0,80,0,0
72090,-95.38087,4,1,0,80,0,0
72240,-95.72055,4,1,0,80,0,0
72315,-95.88677,4,1,0,80,0,0
72390,-96.05074,4,1,0,80,0,0
72540,-96.37228,4,1,0,80,0,0
72690,-96.68587,4,1,0,80,0,0
72765,-96.83989,4,1,0,80,0,0
72840,-96.99216,4,1,0,80,0,0
72990,-97.291664,4,1,0,80,0,0
73140,-97.58489,4,1,0,80,0,0
73290,-97.872284,4,1,0,80,0,0
73440,-98.154205,4,1,0,80,0,0
73515,-98.29322,4,1,0,80,0,0
73590,-98.431,4,1,0,80,0,0
73740,-98.70301,4,1,0,80,0,0
73890,-98.97049,4,1,0,80,0,0
73965,-99.102615,4,1,0,80,0,0
74040,-99.2337,4,1,0,80,0,0
74115,-99.363785,4,1,0,80,0,0
74190,-99.49288,4,1,0,80,0,0
74490,-100,4,1,0,80,0,0
74640,-99.990234,4,1,0,80,0,0
74790,-99.96095,4,1,0,80,0,0
74940,-99.912186,4,1,0,80,0,0
75015,-99.880516,4,1,0,80,0,0
75090,-99.843994,4,1,0,80,0,0
75165,-99.802635,4,1,0,80,0,0
75240,-99.756454,4,1,0,80,0,0
75390,-99.64967,4,1,0,80,0,0
75540,-99.52376,4,1,0,80,0,0
75690,-99.37888,4,1,0,80,0,0
75840,-99.215195,4,1,0,80,0,0
75990,-99.03288,4,1,0,80,0,0
76065,-98.93481,4,1,0,80,0,0
76140,-98.83216,4,1,0,80,0,0
76290,-98.61325,4,1,0,80,0,0
76365,-98.497055,4,1,0,80,0,0
76440,-98.3764,4,1,0,80,0,0
76590,-98.12189,4,1,0,80,0,0
76740,-97.849976,4,1,0,80,0,0
76890,-97.560974,4,1,0,80,0,0
77040,-97.255196,4,1,0,80,0,0
77115,-97.09612,4,1,0,80,0,0
77190,-96.932976,4,1,0,80,0,0
77340,-96.594666,4,1,0,80,0,0
77490,-96.2406,4,1,0,80,0,0
77565,-96.057785,4,1,0,80,0,0
77640,-95.87118,4,1,0,80,0,0
77790,-95.486755,4,1,0,80,0,0
77940,-95.08775,4,1,0,80,0,0
78090,-94.67456,4,1,0,80,0,0
78240,-94.24758,4,1,0,80,0,0
78315,-94.02906,4,1,0,80,0,0
78390,-93.80726,4,1,0,80,0,0
78465,-93.582214,4,1,0,80,0,0
78540,-93.354,4,1,0,80,0,0
78690,-92.888245,4,1,0,80,0,0
78765,-92.65082,4,1,0,80,0,0
78840,-92.41043,4,1,0,80,0,0
78915,-92.16714,4,1,0,80,0,0
78990,-91.921005,4,1,0,80,0,0
79290,-83.33333,4,1,0,80,0,0
79440,-86.95652,4,1,0,80,0,0
79590,-88.1815,4,1,0,80,0,0
79740,-89.094185,4,1,0,80,0,0
79890,-89.8517,4,1,0,80,0,0
79965,-90.19204,4,1,0,80,0,0
80040,-90.5127,4,1,0,80,0,0
80190,-91.106514,4,1,0,80,0,0
80340,-91.65024,4,1,0,80,0,0
80490,-92.15484,4,1,0,80,0,0
80640,-92.62786,4,1,0,80,0,0
80790,-93.074715,4,1,0,80,0,0
80940,-93.49944,4,1,0,80,0,0
81090,-93.90518,4,1,0,80,0,0
81165,-94.101715,4,1,0,80,0,0
81240,-94.29438,4,1,0,80,0,0
81390,-94.669014,4,1,0,80,0,0
81540,-95.03073,4,1,0,80,0,0
81690,-95.38087,4,1,0,80,0,0
81840,-95.72055,4,1,0,80,0,0
81915,-95.88677,4,1,0,80,0,0
81990,-96.05074,4,1,0,80,0,0
82140,-96.37228,4,1,0,80,0,0
82290,-96.68587,4,1,0,80,0,0
82365,-96.83989,4,1,0,80,0,0
82440,-96.99216,4,1,0,80,0,0
82590,-97.291664,4,1,0,80,0,0
82740,-97.58489,4,1,0,80,0,0
82890,-97.872284,4,1,0,80,0,0
83040,-98.154205,4,1,0,80,0,0
83115,-98.29322,4,1,0,80,0,0
83190,-98.431,4,1,0,80,0,0
83340,-98.70301,4,1,0,80,0,0
83490,-98.97049,4,1,0,80,0,0
83565,-99.102615,4,1,0,80,0,0
83640,-99.2337,4,1,0,80,0,0
83715,-99.363785,4,1,0,80,0,0
83790,-99.49288,4,1,0,80,0,0
84090,-71.4285708673469,4,1,0,80,0,0
84240,-100,4,1,0,80,0,0
84540,-74.0740740740741,4,1,0,80,0,0
84690,-100,4,1,0,80,0,0
85140,-76.9230769230769,4,1,0,80,0,0
85290,-100,4,1,0,80,0,0
85740,-80,4,1,0,80,0,0
85890,-100,4,1,0,80,0,0
86340,-83.3333333333333,4,1,0,80,0,0
86415,-100,4,1,0,20,0,0
87690,-97.560974,4,1,0,20,0,0
88515,-90.9090909090909,4,1,0,80,0,0
88890,-83.33333,4,1,0,80,0,0
89190,-89.8517,4,1,0,80,0,0
89340,-91.106514,4,1,0,80,0,0
89640,-93.074715,4,1,0,80,0,0
89790,-93.90518,4,1,0,80,0,0
89940,-94.669014,4,1,0,80,0,0
90090,-95.38087,4,1,0,80,0,0
90240,-96.05074,4,1,0,80,0,0
90315,-96.37228,4,1,0,80,0,0
90390,-96.68587,4,1,0,80,0,0
90540,-97.291664,4,1,0,80,0,0
90690,-97.872284,4,1,0,80,0,0
90765,-98.154205,4,1,0,80,0,0
90840,-98.431,4,1,0,80,0,0
90990,-98.97049,4,1,0,80,0,0
91290,-125,4,1,0,60,0,0
91440,-124.95974,4,1,0,61,0,0
91515,-124.893524,4,1,0,62,0,0
91590,-124.78782,4,1,0,63,0,0
91740,-124.44011,4,1,0,64,0,0
91815,-124.19108,4,1,0,64,0,0
91890,-123.88821,4,1,0,65,0,0
92040,-123.11252,4,1,0,66,0,0
92190,-122.10044,4,1,0,68,0,0
92340,-120.845505,4,1,0,69,0,0
92415,-120.12654,4,1,0,69,0,0
92490,-119.347,4,1,0,70,0,0
92640,-117.60946,4,1,0,71,0,0
92715,-116.653824,4,1,0,72,0,0
92790,-115.64231,4,1,0,73,0,0
92940,-113.45924,4,1,0,74,0,0
93015,-112.292046,4,1,0,74,0,0
93090,-111.07762,4,1,0,75,0,0
93240,-108.51774,4,1,0,76,0,0
93315,-107.17792,4,1,0,77,0,0
93390,-105.80211,4,1,0,78,0,0
93540,-102.95465,4,1,0,79,0,0
93690,-83.33333,4,1,0,80,0,0
93990,-89.8517,4,1,0,80,0,0
94140,-91.106514,4,1,0,80,0,0
94440,-93.074715,4,1,0,80,0,0
94590,-93.90518,4,1,0,80,0,0
94740,-94.669014,4,1,0,80,0,0
94890,-95.38087,4,1,0,80,0,0
95040,-96.05074,4,1,0,80,0,0
95115,-96.37228,4,1,0,80,0,0
95190,-96.68587,4,1,0,80,0,0
95340,-97.291664,4,1,0,80,0,0
95490,-97.872284,4,1,0,80,0,0
95565,-98.154205,4,1,0,80,0,0
95640,-98.431,4,1,0,80,0,0
95790,-98.97049,4,1,0,80,0,0
96090,-125,4,1,0,60,0,0
96240,-124.95974,4,1,0,61,0,0
96315,-124.893524,4,1,0,62,0,0
96390,-124.78782,4,1,0,63,0,0
96540,-124.44011,4,1,0,64,0,0
96615,-124.19108,4,1,0,64,0,0
96690,-123.88821,4,1,0,65,0,0
96840,-123.11252,4,1,0,66,0,0
96990,-122.10044,4,1,0,68,0,0
97140,-120.845505,4,1,0,69,0,0
97215,-120.12654,4,1,0,69,0,0
97290,-119.347,4,1,0,70,0,0
97440,-117.60946,4,1,0,71,0,0
97515,-116.653824,4,1,0,72,0,0
97590,-115.64231,4,1,0,73,0,0
97740,-113.45924,4,1,0,74,0,0
97815,-112.292046,4,1,0,74,0,0
97890,-111.07762,4,1,0,75,0,0
98040,-108.51774,4,1,0,76,0,0
98115,-107.17792,4,1,0,77,0,0
98190,-105.80211,4,1,0,78,0,0
98340,-102.95465,4,1,0,79,0,0
98490,-83.33333,4,1,0,80,0,0
98790,-89.8517,4,1,0,80,0,0
98940,-91.106514,4,1,0,80,0,0
99240,-93.074715,4,1,0,80,0,0
99390,-93.90518,4,1,0,80,0,0
99540,-94.669014,4,1,0,80,0,0
99690,-95.38087,4,1,0,80,0,0
99840,-96.05074,4,1,0,80,0,0
99915,-96.37228,4,1,0,80,0,0
99990,-96.68587,4,1,0,80,0,0
100140,-97.291664,4,1,0,80,0,0
100290,-97.872284,4,1,0,80,0,0
100365,-98.154205,4,1,0,80,0,0
100440,-98.431,4,1,0,80,0,0
100590,-98.97049,4,1,0,80,0,0
100890,-125,4,1,0,60,0,0
101040,-124.95974,4,1,0,61,0,0
101115,-124.893524,4,1,0,62,0,0
101190,-124.78782,4,1,0,63,0,0
101340,-124.44011,4,1,0,64,0,0
101415,-124.19108,4,1,0,64,0,0
101490,-123.88821,4,1,0,65,0,0
101640,-123.11252,4,1,0,66,0,0
101790,-122.10044,4,1,0,68,0,0
101940,-120.845505,4,1,0,69,0,0
102015,-120.12654,4,1,0,69,0,0
102090,-119.347,4,1,0,70,0,0
102240,-117.60946,4,1,0,71,0,0
102315,-116.653824,4,1,0,72,0,0
102390,-115.64231,4,1,0,73,0,0
102540,-113.45924,4,1,0,74,0,0
102615,-112.292046,4,1,0,74,0,0
102690,-111.07762,4,1,0,75,0,0
102840,-108.51774,4,1,0,76,0,0
102915,-107.17792,4,1,0,77,0,0
102990,-105.80211,4,1,0,78,0,0
103140,-102.95465,4,1,0,79,0,0
103290,-83.33333,4,1,0,80,0,0
103590,-89.8517,4,1,0,80,0,0
103740,-91.106514,4,1,0,80,0,0
104040,-93.074715,4,1,0,80,0,0
104190,-93.90518,4,1,0,80,0,0
104340,-94.669014,4,1,0,80,0,0
104490,-95.38087,4,1,0,80,0,0
104640,-96.05074,4,1,0,80,0,0
104715,-96.37228,4,1,0,80,0,0
104790,-96.68587,4,1,0,80,0,0
104940,-97.291664,4,1,0,80,0,0
105090,-97.872284,4,1,0,80,0,0
105165,-98.154205,4,1,0,80,0,0
105240,-98.431,4,1,0,80,0,0
105390,-98.97049,4,1,0,80,0,0
105690,-125,4,1,0,60,0,0
105840,-124.95974,4,1,0,62,0,0
105915,-124.893524,4,1,0,63,0,0
105990,-124.78782,4,1,0,64,0,0
106140,-124.44011,4,1,0,66,0,0
106215,-124.19108,4,1,0,67,0,0
106290,-123.88821,4,1,0,68,0,0
106440,-123.11252,4,1,0,69,0,0
106590,-122.10044,4,1,0,71,0,0
106740,-120.845505,4,1,0,73,0,0
106815,-120.12654,4,1,0,74,0,0
106890,-119.347,4,1,0,75,0,0
106965,-119.347,4,1,0,73,0,0
107040,-119.347,4,1,0,71,0,0
107115,-119.347,4,1,0,68,0,0
107190,-119.347,4,1,0,66,0,0
107265,-119.347,4,1,0,64,0,0
107340,-119.347,4,1,0,62,0,0
107415,-119.347,4,1,0,60,0,0
107490,-119.347,4,1,0,58,0,0
107565,-119.347,4,1,0,55,0,0
107640,-119.347,4,1,0,53,0,0
107715,-119.347,4,1,0,51,0,0
107790,-119.347,4,1,0,49,0,0
107865,-119.347,4,1,0,47,0,0
107940,-119.347,4,1,0,44,0,0
108015,-83.33333,4,1,0,80,0,0
108240,-97.390434,4,1,0,60,0,0
109140,-98.72477,4,1,0,60,0,0
109215,-99.36892,4,1,0,60,0,0
109290,-100,4,1,0,60,0,0
109440,-101.2281,4,1,0,60,0,0
109590,-102.417755,4,1,0,60,0,0
109740,-103.57551,4,1,0,60,0,0
109890,-104.70644,4,1,0,60,0,0
110040,-105.81462,4,1,0,60,0,0
110190,-106.9033,4,1,0,60,0,0
110490,-109.032555,4,1,0,60,0,0
110940,-112.13537,4,1,0,60,0,0
111090,-113.15132,4,1,0,60,0,0
111390,-115.16258,4,1,0,60,0,0
111690,-117.15228,4,1,0,60,0,0
111840,-118.14094,4,1,0,60,0,0
111990,-119.12634,4,1,0,60,0,0
112140,-120.10908,4,1,0,60,0,0
112440,-122.06862,4,1,0,60,0,0
112590,-123.04639,4,1,0,60,0,0
112890,-125,4,1,0,60,0,0
113340,-124.725945,4,1,0,60,0,0
113790,-123.910934,4,1,0,60,0,0
114090,-123.07692,4,1,0,60,0,0
114165,-122.83332,4,1,0,60,0,0
114240,-122.57601,4,1,0,60,0,0
114540,-121.41332,4,1,0,60,0,0
114990,-119.2917,4,1,0,60,0,0
115290,-117.64706,4,1,0,60,0,0
115740,-114.87547,4,1,0,60,0,0
116040,-112.8499,4,1,0,60,0,0
116190,-111.79039,4,1,0,60,0,0
116490,-109.589035,4,1,0,60,0,0
116640,-108.4516,4,1,0,60,0,0
116790,-107.292534,4,1,0,60,0,0
116940,-106.11399,4,1,0,60,0,0
117240,-103.7067,4,1,0,60,0,0
117390,-102.48199,4,1,0,60,0,0
117540,-101.2458,4,1,0,60,0,0
117615,-83.33333,4,1,0,80,0,0
117840,-88.751144,4,1,0,75,0,0
118740,-89.31381,4,1,0,75,0,0
118815,-89.58555,4,1,0,75,0,0
118890,-89.8517,4,1,0,75,0,0
119040,-90.369316,4,1,0,75,0,0
119190,-90.87,4,1,0,75,0,0
119340,-91.356255,4,1,0,75,0,0
119490,-91.83008,4,1,0,75,0,0
119640,-92.293045,4,1,0,75,0,0
119790,-92.74644,4,1,0,75,0,0
120090,-93.62865,4,1,0,75,0,0
120540,-94.902084,4,1,0,75,0,0
120690,-95.31566,4,1,0,75,0,0
120990,-96.12912,4,1,0,75,0,0
121290,-96.92677,4,1,0,75,0,0
121440,-97.320404,4,1,0,75,0,0
121590,-97.710915,4,1,0,75,0,0
121740,-98.09853,4,1,0,75,0,0
122040,-98.865944,4,1,0,75,0,0
122190,-99.24606,4,1,0,75,0,0
122490,-100,4,1,0,75,0,0
122940,-99.78878,4,1,0,75,0,0
123390,-99.26835,4,1,0,75,0,0
123690,-98.77808,4,1,0,75,0,0
123765,-98.63911,4,1,0,75,0,0
123840,-98.493866,4,1,0,75,0,0
124140,-97.85266,4,1,0,75,0,0
124590,-96.723694,4,1,0,75,0,0
124890,-95.2381,4,1,0,75,0,0
125190,-94.12913,4,1,0,78,0,0
125340,-93.447205,4,1,0,80,0,0
125640,-91.98397,4,1,0,83,0,0
125790,-91.22169,4,1,0,84,0,0
125940,-90.44663,4,1,0,86,0,0
126090,-89.66268,4,1,0,88,0,0
126240,-88.8728,4,1,0,89,0,0
126390,-88.079414,4,1,0,91,0,0
126540,-87.284454,4,1,0,92,0,0
126840,-85.69586,4,1,0,95,0,0
126990,-84.90469,4,1,0,97,0,0
127290,-80,4,1,0,100,0,1
127365,-80.5785,4,1,0,100,0,1
127440,-81.01266,4,1,0,100,0,1
127515,-81.4075,4,1,0,100,0,1
127590,-81.77984,4,1,0,100,0,1
127740,-82.48297,4,1,0,100,0,1
127815,-82.82034,4,1,0,100,0,1
127890,-83.150826,4,1,0,100,0,1
128040,-83.79584,4,1,0,100,0,1
128115,-84.112045,4,1,0,100,0,1
128190,-84.42488,4,1,0,100,0,1
128340,-85.04224,4,1,0,100,0,1
128490,-85.65085,4,1,0,100,0,1
128640,-86.25284,4,1,0,100,0,1
128715,-86.55187,4,1,0,100,0,1
128790,-86.84982,4,1,0,100,0,1
128940,-87.443016,4,1,0,100,0,1
129090,-88.03346,4,1,0,100,0,1
129165,-88.3279,4,1,0,100,0,1
129240,-88.621956,4,1,0,100,0,1
129315,-88.915695,4,1,0,100,0,1
129390,-89.209206,4,1,0,100,0,1
129540,-89.795784,4,1,0,100,0,1
129690,-90.38218,4,1,0,100,0,1
129765,-90.67547,4,1,0,100,0,1
129840,-90.96887,4,1,0,100,0,1
129915,-91.262436,4,1,0,100,0,1
129990,-91.55622,4,1,0,100,0,1
130140,-92.144585,4,1,0,100,0,1
130215,-92.43924,4,1,0,100,0,1
130290,-92.734276,4,1,0,100,0,1
130440,-93.32558,4,1,0,100,0,1
130515,-93.62192,4,1,0,100,0,1
130590,-93.918755,4,1,0,100,0,1
130740,-94.51405,4,1,0,100,0,1
130890,-95.11169,4,1,0,100,0,1
131040,-95.71187,4,1,0,100,0,1
131115,-96.01298,4,1,0,100,0,1
131190,-96.314804,4,1,0,100,0,1
131340,-96.92067,4,1,0,100,0,1
131490,-97.52965,4,1,0,100,0,1
131565,-97.83536,4,1,0,100,0,1
131640,-98.14191,4,1,0,100,0,1
131715,-98.449326,4,1,0,100,0,1
131790,-98.757614,4,1,0,100,0,0
131940,-99.37692,4,1,0,100,0,0
132090,-83.33333,4,1,0,100,0,0
132240,-88.1815,4,1,0,100,0,0
132390,-89.8517,4,1,0,100,0,0
132540,-91.106514,4,1,0,100,0,0
132690,-92.15484,4,1,0,100,0,0
132765,-92.62786,4,1,0,100,0,0
132840,-93.074715,4,1,0,100,0,0
132990,-93.90518,4,1,0,100,0,0
133140,-94.669014,4,1,0,100,0,0
133290,-95.38087,4,1,0,100,0,0
133440,-96.05074,4,1,0,100,0,0
133590,-96.68587,4,1,0,100,0,0
133890,-97.872284,4,1,0,100,0,0
134040,-98.431,4,1,0,100,0,0
134115,-98.70301,4,1,0,100,0,0
134190,-98.97049,4,1,0,100,0,0
134490,-100,4,1,0,100,0,0
134640,-99.974236,4,1,0,100,0,0
134790,-99.86416,4,1,0,100,0,0
134940,-99.64135,4,1,0,100,0,0
135090,-99.28718,4,1,0,100,0,0
135165,-99.05652,4,1,0,100,0,0
135240,-98.78835,4,1,0,100,0,0
135390,-98.13563,4,1,0,100,0,0
135540,-97.32334,4,1,0,100,0,0
135690,-96.34905,4,1,0,100,0,0
135840,-95.213455,4,1,0,100,0,0
135990,-93.920044,4,1,0,100,0,0
136140,-92.47497,4,1,0,100,0,0
136290,-90.88667,4,1,0,100,0,0
136440,-89.165634,4,1,0,100,0,0
136515,-88.25907,4,1,0,100,0,0
136590,-87.32398,4,1,0,100,0,0
136740,-85.37512,4,1,0,100,0,0
136890,-76.92308,4,1,0,100,0,1
137040,-78.04878,4,1,0,100,0,1
137190,-78.904526,4,1,0,100,0,1
137265,-79.30377,4,1,0,100,0,1
137340,-79.69106,4,1,0,100,0,1
137415,-80.069214,4,1,0,100,0,1
137490,-80.44013,4,1,0,100,0,1
137640,-81.165405,4,1,0,100,0,1
137715,-81.52163,4,1,0,100,0,1
137790,-81.874466,4,1,0,100,0,1
137940,-82.57205,4,1,0,100,0,1
138090,-83.26138,4,1,0,100,0,1
138165,-83.60372,4,1,0,100,0,1
138240,-83.94483,4,1,0,100,0,1
138390,-84.62417,4,1,0,100,0,1
138540,-85.30077,4,1,0,100,0,1
138615,-85.63842,4,1,0,100,0,1
138690,-85.9758,4,1,0,100,0,1
138840,-86.65014,4,1,0,100,0,1
138915,-86.98732,4,1,0,100,0,1
138990,-87.3246,4,1,0,100,0,1
139140,-87.99983,4,1,0,100,0,1
139290,-88.676445,4,1,0,100,0,1
139365,-89.01542,4,1,0,100,0,1
139440,-89.35492,4,1,0,100,0,1
139515,-89.69501,4,1,0,100,0,1
139590,-90.035736,4,1,0,100,0,1
139740,-90.719315,4,1,0,100,0,1
139815,-91.06225,4,1,0,100,0,1
139890,-91.40601,4,1,0,100,0,1
140040,-92.09621,4,1,0,100,0,1
140115,-92.4427,4,1,0,100,0,1
140190,-92.7902,4,1,0,100,0,1
140265,-93.138725,4,1,0,100,0,1
140340,-93.48831,4,1,0,100,0,1
140490,-94.19082,4,1,0,100,0,1
140640,-94.897995,4,1,0,100,0,1
140715,-95.253426,4,1,0,100,0,1
140790,-95.610115,4,1,0,100,0,1
140940,-96.32741,4,1,0,100,0,1
141015,-96.68809,4,1,0,100,0,1
141090,-97.05015,4,1,0,100,0,1
141240,-97.77854,4,1,0,100,0,1
141390,-98.51283,4,1,0,100,0,1
141465,-98.88227,4,1,0,100,0,1
141540,-99.25324,4,1,0,100,0,1
141615,-99.62582,4,1,0,100,0,1
141690,-100,4,1,0,100,0,0
141840,-99.56059,4,1,0,100,0,0
141990,-98.99625,4,1,0,100,0,0
142140,-98.37738,4,1,0,100,0,0
142290,-97.7236,4,1,0,100,0,0
142365,-97.38704,4,1,0,100,0,0
142440,-97.045296,4,1,0,100,0,0
142590,-96.34905,4,1,0,100,0,0
142740,-95.63955,4,1,0,100,0,0
143040,-94.193825,4,1,0,100,0,0
143190,-93.46247,4,1,0,100,0,0
143490,-91.99166,4,1,0,100,0,0
143640,-91.254906,4,1,0,100,0,0
143790,-90.518684,4,1,0,100,0,0
144090,-89.051346,4,1,0,100,0,0
144240,-88.321625,4,1,0,100,0,0
144390,-87.59535,4,1,0,100,0,0
144540,-86.873,4,1,0,100,0,0
144615,-86.513435,4,1,0,100,0,0
144690,-86.15501,4,1,0,100,0,0
144840,-85.441734,4,1,0,100,0,0
144990,-84.73352,4,1,0,100,0,0
145140,-84.03064,4,1,0,100,0,0
145290,-83.33333,4,1,0,100,0,0
145365,-85.6898029134533,4,1,0,100,0,0
145440,-86.95651,4,1,0,100,0,0
145665,-93.023254,4,1,0,100,0,0
145890,-100,4,1,0,100,0,0
146040,-105.26316,4,1,0,100,0,0
146115,-108.10811,4,1,0,100,0,0
146190,-111.111115,4,1,0,100,0,0
146340,-117.64706,4,1,0,100,0,0
146490,-83.33333,4,1,0,100,0,0
146790,-95.2381,4,1,0,90,0,0
147090,-99.79305,4,1,0,80,0,0
147390,-103.38875,4,1,0,70,0,0
147540,-104.99587,4,1,0,65,0,0
147690,-106.51501,4,1,0,60,0,0
147840,-107.963844,4,1,0,60,0,0
147990,-109.355125,4,1,0,60,0,0
148890,-116.90567,4,1,0,60,0,0
149190,-119.22272,4,1,0,60,0,0
149490,-121.47465,4,1,0,60,0,0
149790,-123.67433,4,1,0,60,0,0
149940,-124.75778,4,1,0,60,0,0
150090,-125.83175,4,1,0,60,0,0
150240,-126.89713,4,1,0,60,0,0
150390,-127.95482,4,1,0,60,0,0
151290,-134.17685,4,1,0,60,0,0
151590,-136.21687,4,1,0,60,0,0
151890,-138.24579,4,1,0,60,0,0
152190,-140.26653,4,1,0,60,0,0
152340,-141.2746,4,1,0,60,0,0
152490,-142.28154,4,1,0,60,0,0
152640,-143.28761,4,1,0,60,0,0
152790,-144.29308,4,1,0,60,0,0
153690,-150.32639,4,1,0,60,0,0
153990,-152.34259,4,1,0,60,0,0
154290,-154.36385,4,1,0,60,0,0
154590,-156.39146,4,1,0,60,0,0
154740,-157.40807,4,1,0,60,0,0
154890,-158.42671,4,1,0,60,0,0
155040,-159.44756,4,1,0,60,0,0
155190,-160.47075,4,1,0,60,0,0
156015,-83.33333,4,1,0,80,0,0
156390,-87.73512,4,1,0,60,0,0
156990,-91.309525,4,1,0,60,0,0
157290,-93.62865,4,1,0,60,0,0
157440,-94.785706,4,1,0,60,0,0
157890,-98.28099,4,1,0,60,0,0
158340,-101.85156,4,1,0,60,0,0
158490,-103.065125,4,1,0,60,0,0
158790,-105.5342,4,1,0,60,0,0
159240,-109.35797,4,1,0,60,0,0
159690,-113.34876,4,1,0,60,0,0
160140,-117.53164,4,1,0,60,0,0
160590,-121.93216,4,1,0,60,0,0
160890,-125,4,1,0,60,0,0
161340,-121.45393,4,1,0,62,0,0
161790,-117.14247,4,1,0,64,0,0
162090,-114.18317,4,1,0,65,0,0
162240,-112.70256,4,1,0,66,0,0
162690,-108.30933,4,1,0,68,0,0
163140,-104.04367,4,1,0,69,0,0
163290,-102.6578,4,1,0,70,0,0
163590,-99.945755,4,1,0,71,0,0
164040,-96.03454,4,1,0,73,0,0
164490,-92.31682,4,1,0,75,0,0
164940,-88.792244,4,1,0,77,0,0
165390,-85.456154,4,1,0,79,0,0
165690,-83.33333,4,1,0,80,0,0
165840,-85.106384,4,1,0,80,0,0
165915,-85.608055,4,1,0,80,0,0
165990,-86.05059,4,1,0,80,0,0
166140,-86.83039,4,1,0,80,0,0
166290,-87.52236,4,1,0,80,0,0
166365,-87.845726,4,1,0,80,0,0
166440,-88.157234,4,1,0,80,0,0
166590,-88.751144,4,1,0,80,0,0
166740,-89.31381,4,1,0,80,0,0
166890,-89.8517,4,1,0,80,0,0
167040,-90.369316,4,1,0,80,0,0
167115,-90.621605,4,1,0,80,0,0
167190,-90.87,4,1,0,80,0,0
167340,-91.356255,4,1,0,80,0,0
167490,-91.83008,4,1,0,80,0,0
167640,-92.293045,4,1,0,80,0,0
167715,-92.52086,4,1,0,80,0,0
167790,-92.74644,4,1,0,80,0,0
167940,-93.19134,4,1,0,80,0,0
168090,-93.62865,4,1,0,80,0,0
168165,-93.84469,4,1,0,80,0,0
168240,-94.05912,4,1,0,80,0,0
168315,-94.271996,4,1,0,80,0,0
168390,-94.48341,4,1,0,80,0,0
168540,-94.902084,4,1,0,80,0,0
168690,-95.31566,4,1,0,80,0,0
168765,-95.52066,4,1,0,80,0,0
168840,-95.72455,4,1,0,80,0,0
168990,-96.12912,4,1,0,80,0,0
169140,-96.52977,4,1,0,80,0,0
169290,-96.92677,4,1,0,80,0,0
169440,-97.320404,4,1,0,80,0,0
169515,-97.51603,4,1,0,80,0,0
169590,-97.710915,4,1,0,80,0,0
169740,-98.09853,4,1,0,80,0,0
169890,-98.483475,4,1,0,80,0,0
170040,-98.865944,4,1,0,80,0,0
170340,-99.62404,4,1,0,80,0,0
170415,-99.812256,4,1,0,80,0,0
170490,-100,4,1,0,80,0,0
174090,-100,4,1,0,80,0,0
174240,-99.766174,4,1,0,80,0,0
174315,-99.47542,4,1,0,80,0,0
174390,-99.07121,4,1,0,80,0,0
174540,-97.934204,4,1,0,80,0,0
174690,-96.38554,4,1,0,80,0,0
174840,-94.46494,4,1,0,80,0,0
175140,-83.33333,4,1,0,80,0,0
175215,-84.16859,4,1,0,80,0,0
175290,-84.79847,4,1,0,80,0,0
175440,-85.91795,4,1,0,80,0,0
175515,-86.44194,4,1,0,80,0,0
175590,-86.95129,4,1,0,80,0,0
175740,-87.9393,4,1,0,80,0,0
175890,-88.89962,4,1,0,80,0,0
175965,-89.372604,4,1,0,80,0,0
176040,-89.841965,4,1,0,80,0,0
176190,-90.77247,4,1,0,80,0,0
176340,-91.695305,4,1,0,80,0,0
176490,-92.613556,4,1,0,80,0,0
176640,-93.52953,4,1,0,80,0,0
176715,-93.98727,4,1,0,80,0,0
176790,-94.4451,4,1,0,80,0,0
176940,-95.36176,4,1,0,80,0,0
177090,-96.28076,4,1,0,80,0,0
177240,-97.20321,4,1,0,80,0,0
177315,-97.666016,4,1,0,80,0,0
177390,-98.13003,4,1,0,80,0,0
177540,-99.062035,4,1,0,80,0,0
177690,-90.9090909090909,4,1,0,80,0,0
177765,-94.117645,4,1,0,80,0,0
177840,-95.86251,4,1,0,80,0,0
177915,-97.32307,4,1,0,80,0,0
177990,-98.63414,4,1,0,80,0,0
178140,-100.99795,4,1,0,80,0,0
178290,-103.15474,4,1,0,80,0,0
178365,-104.18237,4,1,0,80,0,0
178440,-105.18456,4,1,0,80,0,0
178590,-107.129265,4,1,0,80,0,0
178740,-109.01407,4,1,0,80,0,0
178890,-110.855675,4,1,0,80,0,0
179040,-112.665855,4,1,0,80,0,0
179115,-113.56199,4,1,0,80,0,0
179190,-114.45335,4,1,0,80,0,0
179340,-116.22486,4,1,0,80,0,0
179490,-117.98573,4,1,0,80,0,0
179640,-119.7403,4,1,0,80,0,0
179940,-83.33333,4,1,0,80,0,0
180015,-84.16859,4,1,0,80,0,0
180090,-84.79847,4,1,0,80,0,0
180240,-85.91795,4,1,0,80,0,0
180315,-86.44194,4,1,0,80,0,0
180390,-86.95129,4,1,0,80,0,0
180540,-87.9393,4,1,0,80,0,0
180690,-88.89962,4,1,0,80,0,0
180765,-89.372604,4,1,0,80,0,0
180840,-89.841965,4,1,0,80,0,0
180990,-90.77247,4,1,0,80,0,0
181140,-91.695305,4,1,0,80,0,0
181290,-92.613556,4,1,0,80,0,0
181440,-93.52953,4,1,0,80,0,0
181515,-93.98727,4,1,0,80,0,0
181590,-94.4451,4,1,0,80,0,0
181740,-95.36176,4,1,0,80,0,0
181890,-96.28076,4,1,0,80,0,0
182040,-97.20321,4,1,0,80,0,0
182115,-97.666016,4,1,0,80,0,0
182190,-98.13003,4,1,0,80,0,0
182340,-99.062035,4,1,0,80,0,0
182490,-90.9090909090909,4,1,0,80,0,0
182565,-94.117645,4,1,0,80,0,0
182640,-95.86251,4,1,0,80,0,0
182715,-97.32307,4,1,0,80,0,0
182790,-98.63414,4,1,0,80,0,0
182940,-100.99795,4,1,0,80,0,0
183090,-103.15474,4,1,0,80,0,0
183165,-104.18237,4,1,0,80,0,0
183240,-105.18456,4,1,0,80,0,0
183390,-107.129265,4,1,0,80,0,0
183540,-109.01407,4,1,0,80,0,0
183690,-111.111111111111,4,1,0,80,0,0
183765,-111.76409,4,1,0,80,0,0
183840,-112.665855,4,1,0,80,0,0
184065,-115.340744,4,1,0,80,0,0
184290,-117.98573,4,1,0,80,0,0
184440,-119.7403,4,1,0,80,0,0
184515,-120.616394,4,1,0,80,0,0
184590,-121.49222,4,1,0,80,0,0
184740,-123.24455,4,1,0,80,0,0
184815,-124.12173,4,1,0,80,0,0
184890,-83.33333,4,1,0,80,0,0
185265,-97.69555,4,1,0,73,0,0
186015,-106.51501,4,1,0,60,0,0
186540,-110.698395,4,1,0,60,0,0
186990,-114.50634,4,1,0,60,0,0
187290,-116.90567,4,1,0,60,0,0
187740,-120.35594,4,1,0,60,0,0
188190,-123.67433,4,1,0,60,0,0
188490,-125.83175,4,1,0,60,0,0
188940,-129.00551,4,1,0,60,0,0
189390,-132.12248,4,1,0,60,0,0
189690,-134.17685,4,1,0,60,0,0
190140,-137.23253,4,1,0,60,0,0
190590,-140.26653,4,1,0,60,0,0
190740,-141.2746,4,1,0,60,0,0
190890,-142.28154,4,1,0,60,0,0
191040,-143.28761,4,1,0,60,0,0
191340,-145.29825,4,1,0,60,0,0
191640,-147.30833,4,1,0,60,0,0
191940,-149.3197,4,1,0,60,0,0
192090,-150.32639,4,1,0,60,0,0
192240,-151.33395,4,1,0,60,0,0
192390,-152.34259,4,1,0,60,0,0
192990,-156.39146,4,1,0,60,0,0
193290,-158.42671,4,1,0,60,0,0
194190,-164.58968,4,1,0,60,0,0
194490,-166.66666,4,1,0,60,0,0
194940,-166.01814,4,1,0,61,0,0
195390,-164.10255,4,1,0,63,0,0
195690,-162.16214,4,1,0,63,0,0
196140,-158.3505,4,1,0,65,0,0
196590,-153.59998,4,1,0,66,0,0
196890,-149.99998,4,1,0,67,0,0
197340,-144.09004,4,1,0,68,0,0
198090,-133.33333,4,1,0,70,0,0
198540,-126.60732,4,1,0,71,0,0
198840,-122.09856,4,1,0,72,0,0
199140,-117.611015,4,1,0,73,0,0
199290,-115.384605,4,1,0,73,0,0
199440,-113.17419,4,1,0,74,0,0
199590,-110.98265,4,1,0,74,0,0
200040,-104.5467,4,1,0,75,0,0
200340,-100.39216,4,1,0,76,0,0
200490,-98.36065,4,1,0,77,0,0
200790,-94.39528,4,1,0,78,0,0
200940,-92.46328,4,1,0,78,0,0
201240,-88.70409,4,1,0,79,0,0
201540,-85.087524,4,1,0,80,0,0
201615,-85.087524,4,1,0,100,0,0
201690,300,4,1,0,100,1,0
201690,-71.42857,4,1,0,100,0,0
204390,-71.42857,4,1,0,100,0,0
204540,-74.484276,4,1,0,100,0,0
204615,-75.725555,4,1,0,100,0,0
204690,-76.92308,4,1,0,100,0,0
204990,-80,4,1,0,100,0,0
205290,300,4,1,0,100,1,0
205290,-83.33333,4,1,0,100,0,0
206115,-112.001,4,1,0,70,0,0
206340,-114.50634,4,1,0,65,0,0
206490,-116.90567,4,1,0,60,0,0
206790,-121.47465,4,1,0,60,0,0
206940,-123.67433,4,1,0,60,0,0
207240,-127.95482,4,1,0,60,0,0
207390,-130.04996,4,1,0,60,0,0
207540,-132.12248,4,1,0,60,0,0
207690,-134.17685,4,1,0,60,0,0
208590,-146.30322,4,1,0,60,0,0
208740,-148.31378,4,1,0,60,0,0
208890,-150.32639,4,1,0,60,0,0
209190,-154.36385,4,1,0,60,0,0
209340,-156.39146,4,1,0,60,0,0
209640,-160.47075,4,1,0,60,0,0
209940,-164.58968,4,1,0,60,0,0
210090,-166.66666,4,1,0,60,0,0
210990,-164.89722,4,1,0,60,0,0
211290,-162.97198,4,1,0,60,0,0
211890,-156.48601,4,1,0,60,0,0
212340,-149.31396,4,1,0,60,0,0
212490,-146.52675,4,1,0,60,0,0
213615,-62.5,4,1,0,20,0,0
214215,-104.89454,4,1,0,60,0,0
214440,-101.30762,4,1,0,65,0,0
214515,-99.53367,4,1,0,68,0,0
214665,-96.03139,4,1,0,73,0,0
214740,-94.305435,4,1,0,75,0,0
214890,-83.33333,4,1,0,80,0,0
215190,-85.376495,4,1,0,80,0,0
215640,-87.30106,4,1,0,80,0,0
215940,-88.41913,4,1,0,80,0,0
216090,-88.95102,4,1,0,80,0,0
216240,-89.46937,4,1,0,80,0,0
216390,-89.97646,4,1,0,80,0,0
216690,-90.96358,4,1,0,80,0,0
216840,-91.446106,4,1,0,80,0,0
216990,-91.922585,4,1,0,80,0,0
217290,-92.860374,4,1,0,80,0,0
217590,-93.781815,4,1,0,80,0,0
218040,-95.14102,4,1,0,80,0,0
218340,-96.03574,4,1,0,80,0,0
218490,-96.48047,4,1,0,80,0,0
218640,-96.92371,4,1,0,80,0,0
218790,-97.36571,4,1,0,80,0,0
219090,-98.24657,4,1,0,80,0,0
219240,-98.68575,4,1,0,80,0,0
219390,-99.1243,4,1,0,80,0,0
219690,-71.4285714285714,4,1,0,80,0,0
219990,-84.42939,4,1,0,80,0,0
220065,-80.57706,4,1,0,80,0,0
220140,-76.9230769230769,4,1,0,80,0,0
220440,-91.99166,4,1,0,80,0,0
220515,-89.78391,4,1,0,80,0,0
220590,-87.59535,4,1,0,80,0,0
220740,-83.3333333333333,4,1,0,80,0,0
220890,-98.14059,4,1,0,80,0,0
221040,-95.82881,4,1,0,80,0,0
221115,-94.61699,4,1,0,80,0,0
221190,-93.38754,4,1,0,80,0,0
221265,-92.149414,4,1,0,80,0,0
221340,-90.9090909090909,4,1,0,80,0,0
221640,-106.09347,4,1,0,80,0,0
221715,-107.37218,4,1,0,80,0,0
221790,-108.62974,4,1,0,80,0,0
221940,-100,4,1,0,80,0,0
222015,-83.3333333333333,4,1,0,20,0,0
223215,-125,4,1,0,80,0,0
223365,-123.33969,4,1,0,81,0,0
223440,-121.25022,4,1,0,83,0,0
223665,-114.37828,4,1,0,86,0,0
223890,-107.459564,4,1,0,90,0,0
224040,-103.02079,4,1,0,93,0,0
224115,-100.87165,4,1,0,94,0,0
224190,-98.77326,4,1,0,95,0,0
224340,-94.734436,4,1,0,98,0,0
224415,-92.795105,4,1,0,99,0,0
224490,-83.33333,4,1,0,100,0,1
224640,-83.8349,4,1,0,100,0,1
224790,-84.210526,4,1,0,100,0,1
224865,-84.384125,4,1,0,100,0,1
224940,-84.551544,4,1,0,100,0,1
225090,-84.87262,4,1,0,100,0,1
225240,-85.18013,4,1,0,100,0,1
225390,-85.47759,4,1,0,100,0,1
225465,-85.62329,4,1,0,100,0,1
225540,-85.76725,4,1,0,100,0,1
225690,-86.05059,4,1,0,100,0,1
225840,-86.32873,4,1,0,100,0,1
225915,-86.46612,4,1,0,100,0,1
225990,-86.602486,4,1,0,100,0,1
226140,-86.872505,4,1,0,100,0,1
226290,-87.13928,4,1,0,100,0,1
226440,-87.40327,4,1,0,100,0,1
226590,-87.66477,4,1,0,100,0,1
226665,-87.79469,4,1,0,100,0,1
226740,-87.92411,4,1,0,100,0,1
226890,-88.1815,4,1,0,100,0,1
227040,-88.4372,4,1,0,100,0,1
227115,-88.56445,4,1,0,100,0,1
227190,-88.69135,4,1,0,100,0,1
227340,-88.94414,4,1,0,100,0,1
227490,-89.195694,4,1,0,100,0,1
227640,-89.44616,4,1,0,100,0,1
227715,-89.57101,4,1,0,100,0,1
227790,-89.69564,4,1,0,100,0,1
227940,-89.94423,4,1,0,100,0,1
228090,-90.19204,4,1,0,100,0,1
228240,-90.43914,4,1,0,100,0,1
228315,-90.562454,4,1,0,100,0,1
228390,-90.68561,4,1,0,100,0,1
228540,-90.931526,4,1,0,100,0,1
228690,-91.17694,4,1,0,100,0,1
228840,-91.421936,4,1,0,100,0,1
228990,-91.66656,4,1,0,100,0,1
229065,-91.788734,4,1,0,100,0,1
229140,-91.910835,4,1,0,100,0,1
229290,-92.15484,4,1,0,100,0,1
229440,-92.39861,4,1,0,100,0,1
229515,-92.52043,4,1,0,100,0,1
229590,-92.642204,4,1,0,100,0,1
229665,-92.76393,4,1,0,100,0,1
229740,-92.88563,4,1,0,100,0,1
229890,-93.128944,4,1,0,100,0,1
230040,-93.37218,4,1,0,100,0,1
230115,-93.493774,4,1,0,100,0,1
230190,-93.615364,4,1,0,100,0,1
230340,-93.85853,4,1,0,100,0,1
230490,-94.101715,4,1,0,100,0,1
230640,-94.34493,4,1,0,100,0,1
230715,-94.466576,4,1,0,100,0,1
230790,-94.58823,4,1,0,100,0,1
230865,-94.70991,4,1,0,100,0,1
230940,-94.83161,4,1,0,100,0,1
231090,-95.07511,4,1,0,100,0,1
231240,-95.31874,4,1,0,100,0,1
231315,-95.44063,4,1,0,100,0,1
231390,-95.56255,4,1,0,100,0,1
231540,-95.80654,4,1,0,100,0,1
231690,-96.05074,4,1,0,100,0,1
231840,-96.29516,4,1,0,100,0,1
231990,-96.539825,4,1,0,100,0,1
232065,-96.66225,4,1,0,100,0,1
232140,-96.784744,4,1,0,100,0,1
232290,-97.02995,4,1,0,100,0,1
232440,-97.27545,4,1,0,100,0,1
232590,-97.52127,4,1,0,100,0,1
232665,-97.644295,4,1,0,100,0,1
232740,-97.76741,4,1,0,100,0,1
232890,-98.0139,4,1,0,100,0,1
233040,-98.26076,4,1,0,100,0,1
233190,-98.50799,4,1,0,100,0,1
233265,-98.63173,4,1,0,100,0,1
233340,-98.75559,4,1,0,100,0,1
233490,-99.00362,4,1,0,100,0,1
233640,-99.25205,4,1,0,100,0,1
233790,-99.500916,4,1,0,100,0,1
234090,-83.33333,4,1,0,100,0,1
234240,-84.210526,4,1,0,100,0,1
234315,-84.551544,4,1,0,100,0,1
234390,-84.87262,4,1,0,100,0,1
234540,-85.47759,4,1,0,100,0,1
234690,-86.05059,4,1,0,100,0,1
234840,-86.602486,4,1,0,100,0,1
234915,-86.872505,4,1,0,100,0,1
234990,-87.13928,4,1,0,100,0,1
235140,-87.66477,4,1,0,100,0,1
235290,-88.1815,4,1,0,100,0,1
235440,-88.69135,4,1,0,100,0,1
235515,-88.94414,4,1,0,100,0,1
235590,-89.195694,4,1,0,100,0,1
235740,-89.69564,4,1,0,100,0,1
235890,-90.19204,4,1,0,100,0,1
236040,-90.68561,4,1,0,100,0,1
236190,-91.17694,4,1,0,100,0,1
236265,-91.421936,4,1,0,100,0,1
236340,-91.66656,4,1,0,100,0,1
236490,-92.15484,4,1,0,100,0,1
236640,-92.642204,4,1,0,100,0,1
236715,-92.88563,4,1,0,100,0,1
236790,-93.128944,4,1,0,100,0,1
236940,-93.615364,4,1,0,100,0,1
237090,-94.101715,4,1,0,100,0,1
237240,-94.58823,4,1,0,100,0,1
237315,-94.83161,4,1,0,100,0,1
237390,-95.07511,4,1,0,100,0,1
237540,-95.56255,4,1,0,100,0,1
237690,-96.05074,4,1,0,100,0,1
237840,-96.539825,4,1,0,100,0,1
237915,-96.784744,4,1,0,100,0,1
237990,-97.02995,4,1,0,100,0,1
238140,-97.52127,4,1,0,100,0,1
238290,-98.0139,4,1,0,100,0,1
238440,-98.50799,4,1,0,100,0,1
238590,-99.00362,4,1,0,100,0,1
238665,-99.25205,4,1,0,100,0,1
238740,-99.500916,4,1,0,100,0,1
238890,-83.33333,4,1,0,100,0,1
239040,-89.8517,4,1,0,100,0,1
239190,-93.62865,4,1,0,100,0,1
239265,-95.31566,4,1,0,100,0,1
239340,-96.92677,4,1,0,100,0,1
239490,-83.3333333333333,4,1,0,100,0,1
239790,-90.73803,4,1,0,100,0,1
239865,-93.134285,4,1,0,100,0,1
239940,-95.459915,4,1,0,100,0,1
240090,-83.3333333333333,4,1,0,100,0,1
240240,-86.9565217391304,4,1,0,100,0,1
240390,-93.62865,4,1,0,100,0,1
240465,-95.31566,4,1,0,100,0,1
240540,-96.92677,4,1,0,100,0,1
240690,-90.90909,4,1,0,100,0,1
240840,-94.654625,4,1,0,100,0,1
240915,-95.741066,4,1,0,100,0,1
240990,-96.709496,4,1,0,100,0,1
241065,-97.60165,4,1,0,100,0,1
241140,-98.4394,4,1,0,100,0,0
241290,-83.3333333333333,4,1,0,100,0,0
242490,-80,4,1,0,100,0,0
243390,-71.4285714285714,4,1,0,100,0,0
243615,-83.33333,4,1,0,80,0,0
243840,-86.95652,4,1,0,80,0,0
243990,-88.1815,4,1,0,80,0,0
244140,-89.094185,4,1,0,80,0,0
244290,-89.8517,4,1,0,80,0,0
244365,-90.19204,4,1,0,80,0,0
244440,-90.5127,4,1,0,80,0,0
244590,-91.106514,4,1,0,80,0,0
244740,-91.65024,4,1,0,80,0,0
244890,-92.15484,4,1,0,80,0,0
245040,-92.62786,4,1,0,80,0,0
245190,-93.074715,4,1,0,80,0,0
245340,-93.49944,4,1,0,80,0,0
245490,-93.90518,4,1,0,80,0,0
245565,-94.101715,4,1,0,80,0,0
245640,-94.29438,4,1,0,80,0,0
245790,-94.669014,4,1,0,80,0,0
246090,-95.38087,4,1,0,80,0,0
246240,-95.72055,4,1,0,80,0,0
246315,-95.88677,4,1,0,80,0,0
246390,-96.05074,4,1,0,80,0,0
246540,-96.37228,4,1,0,80,0,0
246690,-96.68587,4,1,0,80,0,0
246765,-96.83989,4,1,0,80,0,0
246840,-96.99216,4,1,0,80,0,0
246990,-97.291664,4,1,0,80,0,0
247140,-97.58489,4,1,0,80,0,0
247290,-97.872284,4,1,0,80,0,0
247440,-98.154205,4,1,0,80,0,0
247515,-98.29322,4,1,0,80,0,0
247590,-98.431,4,1,0,80,0,0
247740,-98.70301,4,1,0,80,0,0
247890,-98.97049,4,1,0,80,0,0
247965,-99.102615,4,1,0,80,0,0
248040,-99.2337,4,1,0,80,0,0
248190,-99.49288,4,1,0,80,0,0
248490,-100,4,1,0,80,0,0
248640,-99.99268,4,1,0,80,0,0
248790,-99.96636,4,1,0,80,0,0
248940,-99.91795,4,1,0,80,0,0
249090,-99.845604,4,1,0,80,0,0
249165,-99.80003,4,1,0,80,0,0
249240,-99.74799,4,1,0,80,0,0
249390,-99.62411,4,1,0,80,0,0
249540,-99.47315,4,1,0,80,0,0
249690,-99.29451,4,1,0,80,0,0
249840,-99.087746,4,1,0,80,0,0
249990,-98.85251,4,1,0,80,0,0
250140,-98.5886,4,1,0,80,0,0
250290,-98.295906,4,1,0,80,0,0
250365,-98.13875,4,1,0,80,0,0
250440,-97.97442,4,1,0,80,0,0
250590,-97.62425,4,1,0,80,0,0
250890,-96.83864,4,1,0,80,0,0
251040,-96.40381,4,1,0,81,0,0
251115,-96.176056,4,1,0,82,0,0
251190,-95.94148,4,1,0,83,0,0
251340,-95.45216,4,1,0,84,0,0
251490,-94.93639,4,1,0,85,0,0
251565,-94.66878,4,1,0,86,0,0
251640,-94.39479,4,1,0,86,0,0
251790,-93.82803,4,1,0,88,0,0
251940,-93.23684,4,1,0,89,0,0
252090,-92.62198,4,1,0,90,0,0
252240,-91.984276,4,1,0,91,0,0
252315,-91.65712,4,1,0,92,0,0
252390,-91.324585,4,1,0,93,0,0
252540,-90.64379,4,1,0,94,0,0
252690,-89.94283,4,1,0,95,0,0
252765,-89.58509,4,1,0,96,0,0
252840,-89.22265,4,1,0,96,0,0
252990,-88.48421,4,1,0,98,0,0
253290,-76.92308,4,1,0,100,0,0
253440,-78.04878,4,1,0,100,0,0
253515,-78.36463,4,1,0,100,0,0
253590,-78.642296,4,1,0,100,0,0
253740,-79.129395,4,1,0,100,0,0
253890,-79.55932,4,1,0,100,0,0
253965,-79.75948,4,1,0,100,0,0
254040,-79.951866,4,1,0,100,0,0
254115,-80.137566,4,1,0,100,0,0
254190,-80.31744,4,1,0,100,0,0
254340,-80.66235,4,1,0,100,0,0
254490,-80.99077,4,1,0,100,0,0
254640,-81.305595,4,1,0,100,0,0
254790,-81.60901,4,1,0,100,0,0
254865,-81.756966,4,1,0,100,0,0
254940,-81.90264,4,1,0,100,0,0
255090,-82.187775,4,1,0,100,0,0
255165,-82.3275,4,1,0,100,0,0
255240,-82.465454,4,1,0,100,0,0
255390,-82.736496,4,1,0,100,0,0
255690,-83.26138,4,1,0,100,0,0
255840,-83.51631,4,1,0,100,0,0
255915,-83.64209,4,1,0,100,0,0
255990,-83.76682,4,1,0,100,0,0
256065,-83.890526,4,1,0,100,0,0
256140,-84.01327,4,1,0,100,0,0
256290,-84.25599,4,1,0,100,0,0
256365,-84.37605,4,1,0,100,0,0
256440,-84.49528,4,1,0,100,0,0
256590,-84.73137,4,1,0,100,0,0
256740,-84.964485,4,1,0,100,0,0
256890,-85.19483,4,1,0,100,0,0
257040,-85.4226,4,1,0,100,0,0
257115,-85.53557,4,1,0,100,0,0
257190,-85.64794,4,1,0,100,0,0
257340,-85.87102,4,1,0,100,0,0
257490,-86.091934,4,1,0,100,0,0
257565,-86.20163,4,1,0,100,0,0
257640,-86.31084,4,1,0,100,0,0
257715,-86.41957,4,1,0,100,0,0
257790,-86.52783,4,1,0,100,0,0
258090,-86.95652,4,1,0,100,0,0
258240,-86.95597,4,1,0,100,0,0
258315,-86.95467,4,1,0,100,0,0
258390,-86.95214,4,1,0,100,0,0
258540,-86.94175,4,1,0,100,0,0
258690,-86.921524,4,1,0,100,0,0
258765,-86.90671,4,1,0,100,0,0
258840,-86.88821,4,1,0,100,0,0
258990,-86.83854,4,1,0,100,0,0
259140,-86.76931,4,1,0,100,0,0
259290,-86.67737,4,1,0,100,0,0
259440,-86.55959,4,1,0,100,0,0
259590,-86.41296,4,1,0,100,0,0
259665,-86.327896,4,1,0,100,0,0
259740,-86.23453,4,1,0,100,0,0
259890,-86.02151,4,1,0,100,0,0
259965,-85.90117,4,1,0,100,0,0
260040,-85.771194,4,1,0,100,0,0
260190,-85.48108,4,1,0,100,0,0
260490,-84.77237,4,1,0,100,0,0
260640,-84.34978,4,1,0,100,0,0
260715,-84.12066,4,1,0,100,0,0
260790,-83.87942,4,1,0,100,0,0
260865,-83.6259,4,1,0,100,0,0
260940,-83.35996,4,1,0,100,0,0
261090,-82.790344,4,1,0,100,0,0
261165,-82.486465,4,1,0,100,0,0
261240,-82.1698,4,1,0,100,0,0
261390,-81.4979,4,1,0,100,0,0
261540,-80.77456,4,1,0,100,0,0
261690,-80,4,1,0,100,0,0
261765,-83.261765,4,1,0,100,0,0
261840,-85.856,4,1,0,100,0,0
262065,-93.236336,4,1,0,100,0,0
262290,-100.85293,4,1,0,100,0,0
262440,-106.26656,4,1,0,100,0,0
262515,-109.1048,4,1,0,100,0,0
262590,-112.04332,4,1,0,100,0,0
262740,-118.26024,4,1,0,100,0,0
262890,-83.33333,4,1,0,100,0,0
263190,-99.79305,4,1,0,90,0,0
263490,-106.51501,4,1,0,80,0,0
263790,-112.001,4,1,0,70,0,0
263940,-114.50634,4,1,0,65,0,0
264090,-116.90567,4,1,0,60,0,0
264240,-119.22272,4,1,0,60,0,0
264390,-121.47465,4,1,0,60,0,0
265290,-134.17685,4,1,0,60,0,0
265590,-138.24579,4,1,0,60,0,0
265890,-142.28154,4,1,0,60,0,0
266190,-146.30322,4,1,0,60,0,0
266340,-148.31378,4,1,0,60,0,0
266490,-150.32639,4,1,0,60,0,0
266640,-152.34259,4,1,0,60,0,0
266790,-154.36385,4,1,0,60,0,0
267690,-166.66666,4,1,0,60,0,0
267990,-166.41776,4,1,0,60,0,0
268290,-165.52907,4,1,0,60,0,0
268590,-163.9179,4,1,0,60,0,0
268740,-162.83366,4,1,0,60,0,0
268890,-161.56485,4,1,0,60,0,0
269040,-160.1151,4,1,0,60,0,0
269190,-158.48991,4,1,0,60,0,0
270090,-145.54875,4,1,0,60,0,0
270390,-140.29076,4,1,0,60,0,0
270690,-134.72884,4,1,0,60,0,0
270990,-128.96364,4,1,0,60,0,0
271140,-126.03454,4,1,0,60,0,0
271290,-123.08909,4,1,0,60,0,0
271440,-120.1375,4,1,0,60,0,0
271590,-117.18918,4,1,0,60,0,0
272040,-108.44681,4,1,0,60,0,0
272190,-105.590614,4,1,0,60,0,0
272265,-104.17682,4,1,0,60,0,0
272340,-102.773384,4,1,0,60,0,0
272415,-101.38093,4,1,0,60,0,0
272452,-101.38093,4,1,0,20,0,0
272490,300,69,1,0,20,1,0
272490,-100,7,1,0,20,0,0

[HitObjects]
288,160,1590,5,8,0:0:0:0:
288,160,1890,1,8,0:0:0:0:
288,160,2040,1,8,0:0:0:0:
224,160,2190,1,0,0:0:0:0:
224,160,2340,1,0,0:0:0:0:
288,160,3390,1,8,0:0:0:0:
224,160,3540,1,0,0:0:0:0:
224,160,3990,1,0,0:0:0:0:
288,160,4140,1,8,0:0:0:0:
224,160,4440,1,0,0:0:0:0:
288,160,4590,1,8,0:0:0:0:
288,160,4740,1,8,0:0:0:0:
288,160,5790,1,8,0:0:0:0:
288,160,5940,1,8,0:0:0:0:
224,160,6390,1,0,0:0:0:0:
288,160,6540,1,8,0:0:0:0:
288,160,6840,1,8,0:0:0:0:
224,160,7140,1,0,0:0:0:0:
288,160,8190,1,8,0:0:0:0:
224,160,8490,1,0,0:0:0:0:
288,160,9090,1,8,0:0:0:0:
224,160,9540,1,0,0:0:0:0:
288,160,11190,1,8,0:0:0:0:
224,160,11490,1,0,0:0:0:0:
224,160,11640,1,0,0:0:0:0:
288,160,11790,1,8,0:0:0:0:
288,160,11940,1,8,0:0:0:0:
224,160,12090,1,0,0:0:0:0:
224,160,12240,1,0,0:0:0:0:
224,160,12315,1,0,0:0:0:0:
288,160,12390,1,8,0:0:0:0:
224,160,12540,1,0,0:0:0:0:
288,160,12990,1,8,0:0:0:0:
288,160,13140,1,8,0:0:0:0:
224,160,13290,1,0,0:0:0:0:
224,160,13440,1,0,0:0:0:0:
288,160,13515,1,8,0:0:0:0:
224,160,13590,1,0,0:0:0:0:
288,160,13740,1,8,0:0:0:0:
224,160,14040,1,0,0:0:0:0:
288,160,14190,1,8,0:0:0:0:
288,160,14340,1,8,0:0:0:0:
224,160,14490,1,0,0:0:0:0:
288,160,14640,1,8,0:0:0:0:
288,160,14715,1,8,0:0:0:0:
288,160,14790,1,8,0:0:0:0:
224,160,14940,1,0,0:0:0:0:
288,160,15390,1,8,0:0:0:0:
224,160,15540,1,0,0:0:0:0:
224,160,15690,1,0,0:0:0:0:
288,160,15840,1,8,0:0:0:0:
288,160,15915,1,8,0:0:0:0:
224,160,15990,1,0,0:0:0:0:
288,160,16140,1,8,0:0:0:0:
224,160,16440,1,0,0:0:0:0:
288,160,16740,1,8,0:0:0:0:
224,160,16890,1,0,0:0:0:0:
288,160,17040,1,8,0:0:0:0:
288,160,17115,1,8,0:0:0:0:
288,160,17190,1,8,0:0:0:0:
224,160,17340,1,0,0:0:0:0:
224,160,17640,1,0,0:0:0:0:
288,160,17940,1,8,0:0:0:0:
224,160,18090,1,0,0:0:0:0:
224,160,18240,1,0,0:0:0:0:
224,160,18315,1,0,0:0:0:0:
224,160,18390,1,0,0:0:0:0:
288,160,18540,1,8,0:0:0:0:
224,160,18840,1,0,0:0:0:0:
288,160,18990,1,8,0:0:0:0:
288,160,19140,1,8,0:0:0:0:
256,192,19290,8,8,20790,0:0:0:0:
288,160,21090,5,8,0:0:0:0:
224,224,21690,1,4,0:0:0:0:
224,160,21840,1,0,0:0:0:0:
288,160,21990,1,8,0:0:0:0:
224,160,22140,1,0,0:0:0:0:
288,160,22290,1,8,0:0:0:0:
288,160,22365,1,8,0:0:0:0:
224,160,22440,1,0,0:0:0:0:
224,160,22590,1,0,0:0:0:0:
288,160,22740,1,8,0:0:0:0:
224,160,23040,1,0,0:0:0:0:
288,160,23190,1,8,0:0:0:0:
288,160,23340,1,8,0:0:0:0:
224,160,23490,1,0,0:0:0:0:
288,160,23565,1,8,0:0:0:0:
224,160,23640,1,0,0:0:0:0:
288,160,23790,1,8,0:0:0:0:
224,160,24090,1,0,0:0:0:0:
224,160,24240,1,0,0:0:0:0:
224,160,24315,1,0,0:0:0:0:
288,160,24390,1,8,0:0:0:0:
224,160,24540,1,0,0:0:0:0:
288,160,24690,1,8,0:0:0:0:
288,160,24765,1,8,0:0:0:0:
224,160,24840,1,0,0:0:0:0:
224,160,24990,1,0,0:0:0:0:
288,160,25140,1,8,0:0:0:0:
224,160,25440,1,0,0:0:0:0:
224,160,25515,1,0,0:0:0:0:
288,160,25590,1,8,0:0:0:0:
288,160,25740,1,8,0:0:0:0:
224,160,25890,1,0,0:0:0:0:
288,160,25965,1,8,0:0:0:0:
224,160,26040,1,0,0:0:0:0:
288,160,26190,1,8,0:0:0:0:
224,160,26490,1,0,0:0:0:0:
224,160,26640,1,0,0:0:0:0:
288,160,26790,1,8,0:0:0:0:
224,160,26940,1,0,0:0:0:0:
288,160,27090,1,8,0:0:0:0:
288,160,27165,1,8,0:0:0:0:
224,160,27240,1,0,0:0:0:0:
224,160,27390,1,0,0:0:0:0:
288,160,27540,1,8,0:0:0:0:
224,160,27840,1,0,0:0:0:0:
288,160,27990,1,8,0:0:0:0:
288,160,28140,1,8,0:0:0:0:
224,160,28290,1,0,0:0:0:0:
288,160,28365,1,8,0:0:0:0:
224,160,28440,1,0,0:0:0:0:
288,160,28590,1,8,0:0:0:0:
224,160,28890,1,0,0:0:0:0:
288,160,29340,1,8,0:0:0:0:
224,160,29790,1,0,0:0:0:0:
288,160,30240,1,8,0:0:0:0:
288,160,30540,1,8,0:0:0:0:
224,224,31290,1,4,0:0:0:0:
224,160,31740,1,0,0:0:0:0:
288,160,32190,1,8,0:0:0:0:
224,160,32490,1,0,0:0:0:0:
224,160,32640,1,0,0:0:0:0:
224,160,32940,1,0,0:0:0:0:
288,160,33390,1,8,0:0:0:0:
224,160,33690,1,0,0:0:0:0:
288,160,33990,1,8,0:0:0:0:
224,160,34140,1,0,0:0:0:0:
224,160,34440,1,0,0:0:0:0:
288,160,34590,1,8,0:0:0:0:
224,160,34740,1,0,0:0:0:0:
224,160,34890,1,0,0:0:0:0:
288,160,35040,1,8,0:0:0:0:
288,160,35190,1,8,0:0:0:0:
224,160,35340,1,0,0:0:0:0:
288,160,35790,1,8,0:0:0:0:
224,160,36090,1,0,0:0:0:0:
288,160,36540,1,8,0:0:0:0:
224,160,36990,1,0,0:0:0:0:
288,160,37290,1,8,0:0:0:0:
224,160,37440,1,0,0:0:0:0:
224,160,37740,1,0,0:0:0:0:
288,160,38190,1,8,0:0:0:0:
224,160,38490,1,0,0:0:0:0:
288,160,38790,1,8,0:0:0:0:
224,160,38940,1,0,0:0:0:0:
288,160,39240,1,8,0:0:0:0:
288,160,39390,1,8,0:0:0:0:
224,160,39540,1,0,0:0:0:0:
224,160,39840,1,0,0:0:0:0:
288,160,39990,1,8,0:0:0:0:
224,160,40140,1,0,0:0:0:0:
288,160,40590,1,8,0:0:0:0:
224,224,40890,1,4,0:0:0:0:
288,160,41340,1,8,0:0:0:0:
288,160,41790,1,8,0:0:0:0:
288,160,42090,1,8,0:0:0:0:
224,160,42240,1,0,0:0:0:0:
224,160,42540,1,0,0:0:0:0:
288,160,42990,1,8,0:0:0:0:
224,160,43290,1,0,0:0:0:0:
288,160,43590,1,8,0:0:0:0:
224,160,43740,1,0,0:0:0:0:
224,160,44040,1,0,0:0:0:0:
288,160,44340,1,8,0:0:0:0:
224,160,44640,1,0,0:0:0:0:
288,160,44790,1,8,0:0:0:0:
224,160,44940,1,0,0:0:0:0:
288,160,45390,1,8,0:0:0:0:
224,160,45690,1,0,0:0:0:0:
224,160,45990,1,0,0:0:0:0:
288,160,46140,1,8,0:0:0:0:
288,160,46590,1,8,0:0:0:0:
288,160,46890,1,8,0:0:0:0:
224,160,47040,1,0,0:0:0:0:
224,160,47340,1,0,0:0:0:0:
288,160,47790,1,8,0:0:0:0:
224,160,48090,1,0,0:0:0:0:
224,160,48390,1,0,0:0:0:0:
288,160,48540,1,8,0:0:0:0:
224,160,48840,1,0,0:0:0:0:
288,160,48990,1,8,0:0:0:0:
224,224,49140,1,4,0:0:0:0:
224,160,49890,1,0,0:0:0:0:
224,160,50040,1,0,0:0:0:0:
224,160,50115,1,0,0:0:0:0:
288,160,50190,1,8,0:0:0:0:
224,224,50490,1,4,0:0:0:0:
224,160,50940,1,0,0:0:0:0:
288,160,51090,1,8,0:0:0:0:
288,160,51390,1,8,0:0:0:0:
288,160,51540,1,8,0:0:0:0:
224,160,51690,1,0,0:0:0:0:
224,160,51915,1,0,0:0:0:0:
224,160,52140,1,0,0:0:0:0:
288,160,52290,1,8,0:0:0:0:
224,160,52590,1,0,0:0:0:0:
224,160,52740,1,0,0:0:0:0:
224,160,52890,1,0,0:0:0:0:
224,160,53340,1,0,0:0:0:0:
288,160,53490,1,8,0:0:0:0:
224,160,53790,1,0,0:0:0:0:
224,160,53940,1,0,0:0:0:0:
288,160,54090,1,8,0:0:0:0:
224,160,54315,1,0,0:0:0:0:
224,160,54540,1,0,0:0:0:0:
288,160,54690,1,8,0:0:0:0:
224,160,54840,1,0,0:0:0:0:
288,160,54990,1,8,0:0:0:0:
224,160,55290,1,0,0:0:0:0:
224,160,55440,1,0,0:0:0:0:
224,160,55515,1,0,0:0:0:0:
224,160,55590,1,0,0:0:0:0:
224,160,55740,1,0,0:0:0:0:
288,160,55890,1,8,0:0:0:0:
288,160,56040,1,8,0:0:0:0:
224,160,56190,1,0,0:0:0:0:
224,160,56490,1,0,0:0:0:0:
224,160,56715,1,0,0:0:0:0:
224,160,56940,1,0,0:0:0:0:
288,160,57090,1,8,0:0:0:0:
224,160,57240,1,0,0:0:0:0:
288,160,57390,1,8,0:0:0:0:
224,160,57690,1,0,0:0:0:0:
288,160,58140,1,8,0:0:0:0:
224,160,58590,1,0,0:0:0:0:
288,160,59040,1,8,0:0:0:0:
288,160,59340,1,8,0:0:0:0:
224,160,59490,1,0,0:0:0:0:
288,160,59790,1,8,0:0:0:0:
224,224,60090,1,4,0:0:0:0:
224,160,60240,1,0,0:0:0:0:
224,160,60315,1,0,0:0:0:0:
288,160,60390,1,8,0:0:0:0:
288,160,60540,1,8,0:0:0:0:
224,160,60690,1,0,0:0:0:0:
224,160,60840,1,0,0:0:0:0:
288,160,60990,1,8,0:0:0:0:
224,160,61140,1,0,0:0:0:0:
224,160,61290,1,0,0:0:0:0:
288,160,61440,1,8,0:0:0:0:
224,160,61515,1,0,0:0:0:0:
288,160,61590,1,8,0:0:0:0:
224,160,61740,1,0,0:0:0:0:
288,160,61890,1,8,0:0:0:0:
224,160,62040,1,0,0:0:0:0:
224,160,62115,1,0,0:0:0:0:
288,160,62190,1,8,0:0:0:0:
288,160,62340,1,8,0:0:0:0:
224,160,62490,1,0,0:0:0:0:
224,160,62640,1,0,0:0:0:0:
224,160,62715,1,0,0:0:0:0:
288,160,62790,1,8,0:0:0:0:
288,160,62940,1,8,0:0:0:0:
224,160,63090,1,0,0:0:0:0:
224,160,63240,1,0,0:0:0:0:
288,160,63390,1,8,0:0:0:0:
224,160,63540,1,0,0:0:0:0:
288,160,63690,1,8,0:0:0:0:
224,160,63840,1,0,0:0:0:0:
224,160,63915,1,0,0:0:0:0:
288,160,63990,1,8,0:0:0:0:
288,160,64140,1,8,0:0:0:0:
224,160,64290,1,0,0:0:0:0:
288,160,64440,1,8,0:0:0:0:
288,160,64515,1,8,0:0:0:0:
288,160,64590,1,8,0:0:0:0:
224,160,64740,1,0,0:0:0:0:
288,160,64890,1,8,0:0:0:0:
224,160,65040,1,0,0:0:0:0:
224,160,65115,1,0,0:0:0:0:
288,160,65190,1,8,0:0:0:0:
288,160,65340,1,8,0:0:0:0:
224,160,65490,1,0,0:0:0:0:
224,160,65640,1,0,0:0:0:0:
288,160,65790,1,8,0:0:0:0:
224,160,65940,1,0,0:0:0:0:
288,160,66090,1,8,0:0:0:0:
224,160,66240,1,0,0:0:0:0:
224,160,66315,1,0,0:0:0:0:
224,160,66390,1,0,0:0:0:0:
288,160,66540,1,8,0:0:0:0:
224,160,66690,1,0,0:0:0:0:
288,160,66840,1,8,0:0:0:0:
224,160,66915,1,0,0:0:0:0:
288,160,66990,1,8,0:0:0:0:
224,160,67140,1,0,0:0:0:0:
224,160,67215,1,0,0:0:0:0:
288,224,67290,1,12,0:0:0:0:
288,224,67740,1,12,0:0:0:0:
288,224,68190,1,12,0:0:0:0:
288,224,68640,1,12,0:0:0:0:
224,160,68790,1,0,0:0:0:0:
224,160,68865,1,0,0:0:0:0:
288,224,68940,1,12,0:0:0:0:
288,160,69390,1,8,0:0:0:0:
224,224,69690,1,4,0:0:0:0:
224,160,69840,1,0,0:0:0:0:
288,160,69990,1,8,0:0:0:0:
224,160,70140,1,0,0:0:0:0:
288,160,70290,1,8,0:0:0:0:
288,160,70365,1,8,0:0:0:0:
224,160,70440,1,0,0:0:0:0:
224,160,70590,1,0,0:0:0:0:
288,160,70740,1,8,0:0:0:0:
224,160,71040,1,0,0:0:0:0:
288,160,71190,1,8,0:0:0:0:
288,160,71340,1,8,0:0:0:0:
224,160,71490,1,0,0:0:0:0:
288,160,71565,1,8,0:0:0:0:
224,160,71640,1,0,0:0:0:0:
288,160,71790,1,8,0:0:0:0:
288,160,71940,1,8,0:0:0:0:
224,160,72090,1,0,0:0:0:0:
224,160,72240,1,0,0:0:0:0:
224,160,72315,1,0,0:0:0:0:
288,160,72390,1,8,0:0:0:0:
224,160,72540,1,0,0:0:0:0:
288,160,72690,1,8,0:0:0:0:
288,160,72765,1,8,0:0:0:0:
224,160,72840,1,0,0:0:0:0:
224,160,72990,1,0,0:0:0:0:
288,160,73140,1,8,0:0:0:0:
224,160,73440,1,0,0:0:0:0:
224,160,73515,1,0,0:0:0:0:
288,160,73590,1,8,0:0:0:0:
288,160,73740,1,8,0:0:0:0:
224,160,73890,1,0,0:0:0:0:
288,160,73965,1,8,0:0:0:0:
224,160,74040,1,0,0:0:0:0:
224,160,74115,1,0,0:0:0:0:
288,160,74190,1,8,0:0:0:0:
224,160,74490,1,0,0:0:0:0:
224,160,74640,1,0,0:0:0:0:
288,160,74790,1,8,0:0:0:0:
224,160,74940,1,0,0:0:0:0:
224,160,75015,1,0,0:0:0:0:
288,160,75090,1,8,0:0:0:0:
288,160,75165,1,8,0:0:0:0:
224,160,75240,1,0,0:0:0:0:
224,160,75390,1,0,0:0:0:0:
288,160,75540,1,8,0:0:0:0:
224,160,75840,1,0,0:0:0:0:
288,160,75990,1,8,0:0:0:0:
224,160,76065,1,0,0:0:0:0:
288,160,76140,1,8,0:0:0:0:
224,160,76290,1,0,0:0:0:0:
288,160,76365,1,8,0:0:0:0:
224,160,76440,1,0,0:0:0:0:
288,160,76590,1,8,0:0:0:0:
288,160,76740,1,8,0:0:0:0:
224,160,76890,1,0,0:0:0:0:
224,160,77040,1,0,0:0:0:0:
224,160,77115,1,0,0:0:0:0:
288,160,77190,1,8,0:0:0:0:
224,160,77340,1,0,0:0:0:0:
288,160,77490,1,8,0:0:0:0:
288,160,77565,1,8,0:0:0:0:
224,160,77640,1,0,0:0:0:0:
224,160,77790,1,0,0:0:0:0:
288,160,77940,1,8,0:0:0:0:
224,160,78240,1,0,0:0:0:0:
224,160,78315,1,0,0:0:0:0:
288,160,78390,1,8,0:0:0:0:
224,160,78465,1,0,0:0:0:0:
288,160,78540,1,8,0:0:0:0:
224,160,78690,1,0,0:0:0:0:
288,160,78765,1,8,0:0:0:0:
224,160,78840,1,0,0:0:0:0:
224,160,78915,1,0,0:0:0:0:
288,160,78990,1,8,0:0:0:0:
224,224,79290,1,4,0:0:0:0:
224,160,79440,1,0,0:0:0:0:
288,160,79590,1,8,0:0:0:0:
224,160,79740,1,0,0:0:0:0:
288,160,79890,1,8,0:0:0:0:
288,160,79965,1,8,0:0:0:0:
224,160,80040,1,0,0:0:0:0:
224,160,80190,1,0,0:0:0:0:
288,160,80340,1,8,0:0:0:0:
224,160,80640,1,0,0:0:0:0:
288,160,80790,1,8,0:0:0:0:
288,160,80940,1,8,0:0:0:0:
224,160,81090,1,0,0:0:0:0:
288,160,81165,1,8,0:0:0:0:
224,160,81240,1,0,0:0:0:0:
288,160,81390,1,8,0:0:0:0:
288,160,81540,1,8,0:0:0:0:
224,160,81690,1,0,0:0:0:0:
224,160,81840,1,0,0:0:0:0:
224,160,81915,1,0,0:0:0:0:
288,160,81990,1,8,0:0:0:0:
224,160,82140,1,0,0:0:0:0:
288,160,82290,1,8,0:0:0:0:
288,160,82365,1,8,0:0:0:0:
224,160,82440,1,0,0:0:0:0:
224,160,82590,1,0,0:0:0:0:
288,160,82740,1,8,0:0:0:0:
224,160,83040,1,0,0:0:0:0:
224,160,83115,1,0,0:0:0:0:
288,160,83190,1,8,0:0:0:0:
288,160,83340,1,8,0:0:0:0:
224,160,83490,1,0,0:0:0:0:
288,160,83565,1,8,0:0:0:0:
224,160,83640,1,0,0:0:0:0:
224,160,83715,1,0,0:0:0:0:
288,160,83790,1,8,0:0:0:0:
224,224,84090,1,4,0:0:0:0:
288,160,84240,1,8,0:0:0:0:
288,160,84315,1,8,0:0:0:0:
224,160,84390,1,0,0:0:0:0:
224,224,84540,1,4,0:0:0:0:
224,160,84840,1,0,0:0:0:0:
224,160,84915,1,0,0:0:0:0:
288,160,84990,1,8,0:0:0:0:
224,224,85140,1,4,0:0:0:0:
288,160,85440,1,8,0:0:0:0:
288,160,85515,1,8,0:0:0:0:
288,160,85590,1,8,0:0:0:0:
224,224,85740,1,4,0:0:0:0:
288,160,86040,1,8,0:0:0:0:
224,160,86115,1,0,0:0:0:0:
288,160,86190,1,8,0:0:0:0:
224,224,86340,1,4,0:0:0:0:
256,192,86490,8,0,88290,0:0:0:0:
288,160,88590,5,8,0:0:0:0:
288,224,88890,1,12,0:0:0:0:
224,160,89190,1,0,0:0:0:0:
288,160,89340,1,8,0:0:0:0:
224,160,89640,1,0,0:0:0:0:
288,160,89790,1,8,0:0:0:0:
224,160,89940,1,0,0:0:0:0:
288,160,90240,1,8,0:0:0:0:
288,160,90315,1,8,0:0:0:0:
224,160,90390,1,0,0:0:0:0:
288,160,90540,1,8,0:0:0:0:
224,160,90690,1,0,0:0:0:0:
288,160,90765,1,8,0:0:0:0:
224,160,90840,1,0,0:0:0:0:
288,160,90990,1,8,0:0:0:0:
224,160,91290,1,0,0:0:0:0:
288,160,91440,1,8,0:0:0:0:
288,160,91515,1,8,0:0:0:0:
224,160,91590,1,0,0:0:0:0:
288,160,91740,1,8,0:0:0:0:
288,160,91815,1,8,0:0:0:0:
288,160,91890,1,8,0:0:0:0:
224,160,92040,1,0,0:0:0:0:
224,160,92190,1,0,0:0:0:0:
288,160,92340,1,8,0:0:0:0:
288,160,92415,1,8,0:0:0:0:
224,160,92490,1,0,0:0:0:0:
224,160,92640,1,0,0:0:0:0:
224,160,92715,1,0,0:0:0:0:
288,160,92790,1,8,0:0:0:0:
224,160,92940,1,0,0:0:0:0:
224,160,93015,1,0,0:0:0:0:
224,160,93090,1,0,0:0:0:0:
288,160,93240,1,8,0:0:0:0:
224,160,93315,1,0,0:0:0:0:
288,160,93390,1,8,0:0:0:0:
224,160,93540,1,0,0:0:0:0:
288,160,93690,1,8,0:0:0:0:
224,160,93990,1,0,0:0:0:0:
288,160,94140,1,8,0:0:0:0:
224,160,94440,1,0,0:0:0:0:
288,160,94590,1,8,0:0:0:0:
224,160,94740,1,0,0:0:0:0:
288,160,95040,1,8,0:0:0:0:
288,160,95115,1,8,0:0:0:0:
288,160,95190,1,8,0:0:0:0:
288,160,95340,1,8,0:0:0:0:
224,160,95490,1,0,0:0:0:0:
288,160,95565,1,8,0:0:0:0:
224,160,95640,1,0,0:0:0:0:
288,160,95790,1,8,0:0:0:0:
224,160,96090,1,0,0:0:0:0:
288,160,96240,1,8,0:0:0:0:
288,160,96315,1,8,0:0:0:0:
224,160,96390,1,0,0:0:0:0:
288,160,96540,1,8,0:0:0:0:
288,160,96615,1,8,0:0:0:0:
288,160,96690,1,8,0:0:0:0:
224,160,96840,1,0,0:0:0:0:
224,160,96990,1,0,0:0:0:0:
288,160,97140,1,8,0:0:0:0:
288,160,97215,1,8,0:0:0:0:
224,160,97290,1,0,0:0:0:0:
224,160,97440,1,0,0:0:0:0:
224,160,97515,1,0,0:0:0:0:
288,160,97590,1,8,0:0:0:0:
224,160,97740,1,0,0:0:0:0:
224,160,97815,1,0,0:0:0:0:
224,160,97890,1,0,0:0:0:0:
288,160,98040,1,8,0:0:0:0:
224,160,98115,1,0,0:0:0:0:
288,160,98190,1,8,0:0:0:0:
224,160,98340,1,0,0:0:0:0:
288,160,98490,1,8,0:0:0:0:
224,160,98790,1,0,0:0:0:0:
288,160,98940,1,8,0:0:0:0:
224,160,99240,1,0,0:0:0:0:
288,160,99390,1,8,0:0:0:0:
224,160,99540,1,0,0:0:0:0:
288,160,99840,1,8,0:0:0:0:
288,160,99915,1,8,0:0:0:0:
288,160,99990,1,8,0:0:0:0:
224,160,100140,1,0,0:0:0:0:
224,160,100290,1,0,0:0:0:0:
224,160,100365,1,0,0:0:0:0:
224,160,100440,1,0,0:0:0:0:
288,160,100590,1,8,0:0:0:0:
224,160,100890,1,0,0:0:0:0:
288,160,101040,1,8,0:0:0:0:
288,160,101115,1,8,0:0:0:0:
224,160,101190,1,0,0:0:0:0:
288,160,101340,1,8,0:0:0:0:
288,160,101415,1,8,0:0:0:0:
288,160,101490,1,8,0:0:0:0:
224,160,101640,1,0,0:0:0:0:
224,160,101790,1,0,0:0:0:0:
288,160,101940,1,8,0:0:0:0:
288,160,102015,1,8,0:0:0:0:
224,160,102090,1,0,0:0:0:0:
224,160,102240,1,0,0:0:0:0:
224,160,102315,1,0,0:0:0:0:
288,160,102390,1,8,0:0:0:0:
224,160,102540,1,0,0:0:0:0:
224,160,102615,1,0,0:0:0:0:
224,160,102690,1,0,0:0:0:0:
288,160,102840,1,8,0:0:0:0:
224,160,102915,1,0,0:0:0:0:
288,160,102990,1,8,0:0:0:0:
224,160,103140,1,0,0:0:0:0:
288,160,103290,1,8,0:0:0:0:
224,160,103590,1,0,0:0:0:0:
288,160,103740,1,8,0:0:0:0:
224,160,104040,1,0,0:0:0:0:
288,160,104190,1,8,0:0:0:0:
224,160,104340,1,0,0:0:0:0:
288,160,104640,1,8,0:0:0:0:
224,160,104715,1,0,0:0:0:0:
288,160,104790,1,8,0:0:0:0:
288,160,104940,1,8,0:0:0:0:
224,160,105090,1,0,0:0:0:0:
224,160,105165,1,0,0:0:0:0:
224,160,105240,1,0,0:0:0:0:
288,160,105390,1,8,0:0:0:0:
224,160,105690,1,0,0:0:0:0:
288,160,105840,1,8,0:0:0:0:
288,160,105915,1,8,0:0:0:0:
224,160,105990,1,0,0:0:0:0:
288,160,106140,1,8,0:0:0:0:
288,160,106215,1,8,0:0:0:0:
288,160,106290,1,8,0:0:0:0:
224,160,106440,1,0,0:0:0:0:
224,160,106590,1,0,0:0:0:0:
288,160,106740,1,8,0:0:0:0:
288,160,106815,1,8,0:0:0:0:
256,192,106890,12,0,107790,0:0:0:0:
224,224,108090,5,4,0:0:0:0:
288,160,108990,1,8,0:0:0:0:
224,160,109140,5,0,0:0:0:0:
224,160,109215,1,0,0:0:0:0:
288,160,109290,1,8,0:0:0:0:
224,160,109440,1,0,0:0:0:0:
288,160,109590,1,8,0:0:0:0:
224,160,109740,1,0,0:0:0:0:
288,160,109890,1,8,0:0:0:0:
288,160,110040,1,8,0:0:0:0:
224,160,110190,1,0,0:0:0:0:
224,160,110490,1,0,0:0:0:0:
288,160,110940,1,8,0:0:0:0:
224,160,111090,1,0,0:0:0:0:
288,160,111390,1,8,0:0:0:0:
288,160,111690,1,8,0:0:0:0:
224,160,111840,1,0,0:0:0:0:
288,160,111990,1,8,0:0:0:0:
224,160,112140,1,0,0:0:0:0:
224,160,112440,1,0,0:0:0:0:
288,160,112590,1,8,0:0:0:0:
224,160,112890,1,0,0:0:0:0:
224,160,113340,1,0,0:0:0:0:
288,160,113790,1,8,0:0:0:0:
288,160,114090,1,8,0:0:0:0:
288,160,114165,1,8,0:0:0:0:
224,160,114240,1,0,0:0:0:0:
224,160,114540,1,0,0:0:0:0:
288,160,114990,1,8,0:0:0:0:
224,160,115290,1,0,0:0:0:0:
288,160,115740,1,8,0:0:0:0:
224,160,116040,1,0,0:0:0:0:
288,160,116190,1,8,0:0:0:0:
224,160,116490,1,0,0:0:0:0:
224,160,116640,1,0,0:0:0:0:
288,160,116790,1,8,0:0:0:0:
224,160,116940,1,0,0:0:0:0:
224,160,117240,1,0,0:0:0:0:
288,160,117390,1,8,0:0:0:0:
288,160,117540,1,8,0:0:0:0:
224,224,117690,1,4,0:0:0:0:
288,160,118590,1,8,0:0:0:0:
224,160,118740,1,0,0:0:0:0:
224,160,118815,1,0,0:0:0:0:
288,160,118890,1,8,0:0:0:0:
224,160,119040,1,0,0:0:0:0:
288,160,119190,1,8,0:0:0:0:
224,160,119340,1,0,0:0:0:0:
288,160,119490,1,8,0:0:0:0:
288,160,119640,1,8,0:0:0:0:
224,160,119790,1,0,0:0:0:0:
224,160,120090,1,0,0:0:0:0:
288,160,120540,1,8,0:0:0:0:
224,160,120690,1,0,0:0:0:0:
288,160,120990,1,8,0:0:0:0:
288,160,121290,1,8,0:0:0:0:
224,160,121440,1,0,0:0:0:0:
288,160,121590,1,8,0:0:0:0:
224,160,121740,1,0,0:0:0:0:
224,160,122040,1,0,0:0:0:0:
288,160,122190,1,8,0:0:0:0:
224,160,122490,1,0,0:0:0:0:
224,160,122940,1,0,0:0:0:0:
288,160,123390,1,8,0:0:0:0:
288,160,123690,1,8,0:0:0:0:
288,160,123765,1,8,0:0:0:0:
224,160,123840,1,0,0:0:0:0:
224,160,124140,1,0,0:0:0:0:
288,160,124590,1,8,0:0:0:0:
224,160,124890,1,0,0:0:0:0:
288,160,125190,1,8,0:0:0:0:
224,160,125340,1,0,0:0:0:0:
224,160,125640,1,0,0:0:0:0:
288,160,125790,1,8,0:0:0:0:
224,160,125940,1,0,0:0:0:0:
224,160,126090,1,0,0:0:0:0:
288,224,126240,1,12,0:0:0:0:
224,160,126390,1,0,0:0:0:0:
288,224,126540,1,12,0:0:0:0:
288,224,126840,1,12,0:0:0:0:
224,160,126990,1,0,0:0:0:0:
288,160,127290,1,8,0:0:0:0:
224,160,127365,1,0,0:0:0:0:
224,160,127440,1,0,0:0:0:0:
224,160,127515,1,0,0:0:0:0:
288,160,127590,1,8,0:0:0:0:
224,160,127740,1,0,0:0:0:0:
224,160,127815,1,0,0:0:0:0:
288,160,127890,1,8,0:0:0:0:
224,160,128040,1,0,0:0:0:0:
288,160,128115,1,8,0:0:0:0:
224,160,128190,1,0,0:0:0:0:
288,160,128340,1,8,0:0:0:0:
224,160,128490,1,0,0:0:0:0:
224,160,128640,1,0,0:0:0:0:
224,160,128715,1,0,0:0:0:0:
288,160,128790,1,8,0:0:0:0:
224,160,128940,1,0,0:0:0:0:
288,160,129090,1,8,0:0:0:0:
224,160,129165,1,0,0:0:0:0:
224,160,129240,1,0,0:0:0:0:
224,160,129315,1,0,0:0:0:0:
288,160,129390,1,8,0:0:0:0:
224,160,129540,1,0,0:0:0:0:
288,160,129690,1,8,0:0:0:0:
224,160,129765,1,0,0:0:0:0:
288,160,129840,1,8,0:0:0:0:
288,160,129915,1,8,0:0:0:0:
224,160,129990,1,0,0:0:0:0:
224,160,130140,1,0,0:0:0:0:
224,160,130215,1,0,0:0:0:0:
288,160,130290,1,8,0:0:0:0:
288,160,130440,1,8,0:0:0:0:
288,160,130515,1,0,0:0:0:0:
288,160,130590,1,0,0:0:0:0:
288,160,130740,1,8,0:0:0:0:
224,160,130890,1,0,0:0:0:0:
288,160,131040,1,8,0:0:0:0:
224,160,131115,1,0,0:0:0:0:
288,160,131190,1,8,0:0:0:0:
224,160,131340,1,0,0:0:0:0:
288,160,131490,1,8,0:0:0:0:
224,160,131565,1,0,0:0:0:0:
288,160,131640,1,8,0:0:0:0:
288,160,131715,1,8,0:0:0:0:
224,160,131790,1,0,0:0:0:0:
288,160,131940,1,8,0:0:0:0:
224,224,132090,1,4,0:0:0:0:
224,160,132240,1,0,0:0:0:0:
288,160,132390,1,8,0:0:0:0:
224,160,132540,1,0,0:0:0:0:
288,160,132690,1,8,0:0:0:0:
288,160,132765,1,8,0:0:0:0:
224,160,132840,1,0,0:0:0:0:
224,160,132990,1,0,0:0:0:0:
288,160,133140,1,8,0:0:0:0:
224,160,133440,1,0,0:0:0:0:
288,160,133590,1,8,0:0:0:0:
224,160,133890,1,0,0:0:0:0:
224,160,134040,1,0,0:0:0:0:
224,160,134115,1,0,0:0:0:0:
288,160,134190,1,8,0:0:0:0:
224,160,134490,1,0,0:0:0:0:
224,160,134640,1,0,0:0:0:0:
288,160,134790,1,8,0:0:0:0:
224,160,134940,1,0,0:0:0:0:
288,160,135090,1,8,0:0:0:0:
288,160,135165,1,8,0:0:0:0:
224,160,135240,1,0,0:0:0:0:
224,160,135390,1,0,0:0:0:0:
288,160,135540,1,8,0:0:0:0:
224,160,135840,1,0,0:0:0:0:
288,160,135990,1,8,0:0:0:0:
288,160,136140,1,8,0:0:0:0:
224,160,136290,1,0,0:0:0:0:
288,160,136440,1,8,0:0:0:0:
224,160,136515,1,0,0:0:0:0:
288,160,136590,1,8,0:0:0:0:
224,160,136740,1,0,0:0:0:0:
288,224,136890,1,12,0:0:0:0:
224,160,137040,1,0,0:0:0:0:
288,160,137190,1,8,0:0:0:0:
224,160,137265,1,0,0:0:0:0:
224,160,137340,1,0,0:0:0:0:
224,160,137415,1,0,0:0:0:0:
288,160,137490,1,8,0:0:0:0:
288,160,137640,1,8,0:0:0:0:
224,160,137715,1,0,0:0:0:0:
224,160,137790,1,0,0:0:0:0:
288,160,137940,1,8,0:0:0:0:
224,160,138090,1,0,0:0:0:0:
224,160,138165,1,0,0:0:0:0:
288,160,138240,1,8,0:0:0:0:
288,160,138390,1,8,0:0:0:0:
224,160,138540,1,0,0:0:0:0:
288,160,138615,1,8,0:0:0:0:
224,160,138690,1,0,0:0:0:0:
288,160,138840,1,8,0:0:0:0:
224,160,138915,1,0,0:0:0:0:
288,160,138990,1,8,0:0:0:0:
288,160,139140,1,8,0:0:0:0:
224,160,139290,1,0,0:0:0:0:
224,160,139365,1,0,0:0:0:0:
288,160,139440,1,8,0:0:0:0:
224,160,139515,1,0,0:0:0:0:
288,160,139590,1,8,0:0:0:0:
224,160,139740,1,0,0:0:0:0:
288,160,139815,1,8,0:0:0:0:
224,160,139890,1,0,0:0:0:0:
288,160,140040,1,8,0:0:0:0:
288,160,140115,1,8,0:0:0:0:
224,160,140190,1,0,0:0:0:0:
224,160,140265,1,0,0:0:0:0:
288,160,140340,1,8,0:0:0:0:
224,160,140490,1,0,0:0:0:0:
288,160,140640,1,8,0:0:0:0:
288,160,140715,1,8,0:0:0:0:
224,160,140790,1,0,0:0:0:0:
288,160,140940,1,8,0:0:0:0:
224,160,141015,1,0,0:0:0:0:
224,160,141090,1,0,0:0:0:0:
288,160,141240,1,8,0:0:0:0:
288,160,141390,1,8,0:0:0:0:
288,160,141465,1,8,0:0:0:0:
224,160,141540,1,0,0:0:0:0:
224,160,141615,1,0,0:0:0:0:
288,160,141690,1,8,0:0:0:0:
224,160,141840,1,0,0:0:0:0:
288,160,141990,1,8,0:0:0:0:
224,160,142140,1,0,0:0:0:0:
288,160,142290,1,8,0:0:0:0:
288,160,142365,1,8,0:0:0:0:
224,160,142440,1,0,0:0:0:0:
224,160,142590,1,0,0:0:0:0:
288,160,142740,1,8,0:0:0:0:
224,160,143040,1,0,0:0:0:0:
288,160,143190,1,8,0:0:0:0:
224,160,143490,1,0,0:0:0:0:
224,160,143640,1,0,0:0:0:0:
224,160,143715,1,0,0:0:0:0:
288,160,143790,1,8,0:0:0:0:
224,160,144090,1,0,0:0:0:0:
224,160,144240,1,0,0:0:0:0:
288,160,144390,1,8,0:0:0:0:
224,160,144540,1,0,0:0:0:0:
224,160,144615,1,0,0:0:0:0:
288,160,144690,1,8,0:0:0:0:
224,160,144840,1,0,0:0:0:0:
224,160,144990,1,0,0:0:0:0:
288,160,145140,1,8,0:0:0:0:
224,160,145290,1,0,0:0:0:0:
224,160,145365,1,0,0:0:0:0:
288,160,145440,1,8,0:0:0:0:
288,160,145665,1,8,0:0:0:0:
288,160,145890,1,8,0:0:0:0:
224,160,146040,1,0,0:0:0:0:
288,160,146115,1,8,0:0:0:0:
224,160,146190,1,0,0:0:0:0:
224,160,146340,1,0,0:0:0:0:
288,224,146490,1,12,0:0:0:0:
224,160,146790,1,0,0:0:0:0:
288,160,147090,1,8,0:0:0:0:
224,160,147390,1,0,0:0:0:0:
288,160,147540,1,8,0:0:0:0:
288,160,147840,1,8,0:0:0:0:
224,160,147990,1,0,0:0:0:0:
288,160,148890,1,8,0:0:0:0:
224,160,149190,1,0,0:0:0:0:
288,160,149490,1,8,0:0:0:0:
224,160,149790,1,0,0:0:0:0:
288,160,149940,1,8,0:0:0:0:
224,160,150240,1,0,0:0:0:0:
224,160,150390,1,0,0:0:0:0:
288,160,151290,1,8,0:0:0:0:
224,160,151590,1,0,0:0:0:0:
288,160,151890,1,8,0:0:0:0:
224,160,152190,1,0,0:0:0:0:
288,160,152340,1,8,0:0:0:0:
288,160,152640,1,8,0:0:0:0:
224,160,152790,1,0,0:0:0:0:
288,160,153690,1,8,0:0:0:0:
224,160,153990,1,0,0:0:0:0:
288,160,154290,1,8,0:0:0:0:
224,160,154590,1,0,0:0:0:0:
288,160,154740,1,8,0:0:0:0:
288,160,155040,1,8,0:0:0:0:
288,160,155190,1,8,0:0:0:0:
288,160,156090,1,8,0:0:0:0:
224,160,156540,1,0,0:0:0:0:
224,160,156990,1,0,0:0:0:0:
288,160,157440,1,8,0:0:0:0:
224,160,157890,1,0,0:0:0:0:
288,160,158340,1,8,0:0:0:0:
224,160,158790,1,0,0:0:0:0:
224,160,159240,1,0,0:0:0:0:
288,160,159690,1,8,0:0:0:0:
224,160,160140,1,0,0:0:0:0:
288,160,160590,1,8,0:0:0:0:
224,160,160890,1,0,0:0:0:0:
288,160,161340,1,8,0:0:0:0:
224,160,161790,1,0,0:0:0:0:
288,160,162240,1,8,0:0:0:0:
224,160,162690,1,0,0:0:0:0:
224,160,163140,1,0,0:0:0:0:
288,160,163590,1,8,0:0:0:0:
288,160,164040,1,8,0:0:0:0:
224,160,164490,1,0,0:0:0:0:
224,160,164940,1,0,0:0:0:0:
288,160,165390,1,8,0:0:0:0:
224,160,165690,1,0,0:0:0:0:
224,160,165840,1,0,0:0:0:0:
224,160,165915,1,0,0:0:0:0:
288,160,165990,1,8,0:0:0:0:
224,160,166140,1,0,0:0:0:0:
288,160,166290,1,8,0:0:0:0:
224,160,166365,1,0,0:0:0:0:
288,160,166440,1,8,0:0:0:0:
224,160,166590,1,0,0:0:0:0:
288,160,166740,1,8,0:0:0:0:
224,160,166890,1,0,0:0:0:0:
288,160,167040,1,8,0:0:0:0:
288,160,167115,1,8,0:0:0:0:
224,160,167190,1,0,0:0:0:0:
288,160,167340,1,8,0:0:0:0:
224,160,167490,1,0,0:0:0:0:
288,160,167640,1,8,0:0:0:0:
288,160,167715,1,8,0:0:0:0:
224,160,167790,1,0,0:0:0:0:
288,160,167940,1,8,0:0:0:0:
224,160,168090,1,0,0:0:0:0:
288,160,168165,1,8,0:0:0:0:
224,160,168240,1,0,0:0:0:0:
224,160,168315,1,0,0:0:0:0:
288,160,168390,1,8,0:0:0:0:
224,160,168540,1,0,0:0:0:0:
288,160,168690,1,8,0:0:0:0:
224,160,168765,1,0,0:0:0:0:
288,160,168840,1,8,0:0:0:0:
224,160,168990,1,0,0:0:0:0:
288,160,169140,1,8,0:0:0:0:
224,160,169290,1,0,0:0:0:0:
288,160,169440,1,8,0:0:0:0:
288,160,169515,1,8,0:0:0:0:
224,160,169590,1,0,0:0:0:0:
288,160,169740,1,8,0:0:0:0:
224,160,169890,1,0,0:0:0:0:
288,160,170040,1,8,0:0:0:0:
288,160,170340,1,8,0:0:0:0:
288,160,170415,1,8,0:0:0:0:
224,160,170490,1,0,0:0:0:0:
224,160,170640,1,0,0:0:0:0:
224,160,170715,1,0,0:0:0:0:
288,160,170790,1,8,0:0:0:0:
224,160,170940,1,0,0:0:0:0:
288,160,171090,1,8,0:0:0:0:
224,160,171165,1,0,0:0:0:0:
288,160,171240,1,8,0:0:0:0:
224,160,171390,1,0,0:0:0:0:
288,160,171540,1,8,0:0:0:0:
224,160,171690,1,0,0:0:0:0:
288,160,171840,1,8,0:0:0:0:
288,160,171915,1,8,0:0:0:0:
224,160,171990,1,0,0:0:0:0:
288,160,172140,1,8,0:0:0:0:
224,160,172290,1,0,0:0:0:0:
288,160,172440,1,8,0:0:0:0:
288,160,172515,1,8,0:0:0:0:
224,160,172590,1,0,0:0:0:0:
288,160,172740,1,8,0:0:0:0:
224,160,172890,1,0,0:0:0:0:
288,160,172965,1,8,0:0:0:0:
224,160,173040,1,0,0:0:0:0:
224,160,173115,1,0,0:0:0:0:
288,160,173190,1,8,0:0:0:0:
224,160,173340,1,0,0:0:0:0:
288,160,173490,1,8,0:0:0:0:
224,160,173565,1,0,0:0:0:0:
288,160,173640,1,8,0:0:0:0:
224,160,173790,1,0,0:0:0:0:
288,160,173940,1,8,0:0:0:0:
224,160,174090,1,0,0:0:0:0:
288,160,174240,1,8,0:0:0:0:
288,160,174315,1,8,0:0:0:0:
224,160,174390,1,0,0:0:0:0:
288,160,174540,1,8,0:0:0:0:
224,160,174690,1,0,0:0:0:0:
288,160,174840,1,8,0:0:0:0:
288,160,175140,1,8,0:0:0:0:
288,160,175215,1,8,0:0:0:0:
224,160,175290,1,0,0:0:0:0:
288,160,175440,1,8,0:0:0:0:
288,160,175515,1,8,0:0:0:0:
224,160,175590,1,0,0:0:0:0:
224,160,175740,1,0,0:0:0:0:
288,160,175890,1,8,0:0:0:0:
288,160,175965,1,8,0:0:0:0:
288,160,176040,1,8,0:0:0:0:
224,160,176190,1,0,0:0:0:0:
288,160,176340,1,8,0:0:0:0:
224,160,176490,1,0,0:0:0:0:
288,160,176640,1,8,0:0:0:0:
288,160,176715,1,8,0:0:0:0:
224,160,176790,1,0,0:0:0:0:
288,160,176940,1,8,0:0:0:0:
224,160,177090,1,0,0:0:0:0:
288,160,177240,1,8,0:0:0:0:
288,160,177315,1,8,0:0:0:0:
224,160,177390,1,0,0:0:0:0:
288,160,177540,1,8,0:0:0:0:
224,160,177690,1,0,0:0:0:0:
288,160,177765,1,8,0:0:0:0:
288,160,177840,1,8,0:0:0:0:
288,160,177915,1,8,0:0:0:0:
224,160,177990,1,0,0:0:0:0:
224,160,178140,1,0,0:0:0:0:
288,160,178290,1,8,0:0:0:0:
288,160,178365,1,8,0:0:0:0:
288,160,178440,1,8,0:0:0:0:
224,160,178590,1,0,0:0:0:0:
288,160,178740,1,8,0:0:0:0:
224,160,178890,1,0,0:0:0:0:
288,160,179040,1,8,0:0:0:0:
288,160,179115,1,8,0:0:0:0:
224,160,179190,1,0,0:0:0:0:
288,160,179340,1,8,0:0:0:0:
224,160,179490,1,0,0:0:0:0:
288,160,179640,1,8,0:0:0:0:
288,160,179940,1,8,0:0:0:0:
288,160,180015,1,8,0:0:0:0:
224,160,180090,1,0,0:0:0:0:
288,160,180240,1,8,0:0:0:0:
288,160,180315,1,8,0:0:0:0:
224,160,180390,1,0,0:0:0:0:
224,160,180540,1,0,0:0:0:0:
288,160,180690,1,8,0:0:0:0:
224,160,180765,1,0,0:0:0:0:
288,160,180840,1,8,0:0:0:0:
224,160,180990,1,0,0:0:0:0:
288,160,181140,1,8,0:0:0:0:
224,160,181290,1,0,0:0:0:0:
288,160,181440,1,8,0:0:0:0:
288,160,181515,1,8,0:0:0:0:
224,160,181590,1,0,0:0:0:0:
288,160,181740,1,8,0:0:0:0:
224,160,181890,1,0,0:0:0:0:
288,160,182040,1,8,0:0:0:0:
288,160,182115,1,8,0:0:0:0:
224,160,182190,1,0,0:0:0:0:
288,160,182340,1,8,0:0:0:0:
224,160,182490,1,0,0:0:0:0:
288,160,182565,1,8,0:0:0:0:
288,160,182640,1,8,0:0:0:0:
288,160,182715,1,8,0:0:0:0:
224,160,182790,1,0,0:0:0:0:
224,160,182940,1,0,0:0:0:0:
288,160,183090,1,8,0:0:0:0:
288,160,183165,1,8,0:0:0:0:
288,160,183240,1,8,0:0:0:0:
224,160,183390,1,0,0:0:0:0:
288,160,183540,1,8,0:0:0:0:
224,160,183690,1,0,0:0:0:0:
224,160,183765,1,0,0:0:0:0:
288,160,183840,1,8,0:0:0:0:
288,160,184065,1,8,0:0:0:0:
288,160,184290,1,8,0:0:0:0:
224,160,184440,1,0,0:0:0:0:
288,160,184515,1,8,0:0:0:0:
224,160,184590,1,0,0:0:0:0:
288,160,184740,1,8,0:0:0:0:
288,160,184815,1,8,0:0:0:0:
224,224,184890,1,4,0:0:0:0:
288,160,185340,1,8,0:0:0:0:
288,160,186090,1,8,0:0:0:0:
224,160,186540,1,0,0:0:0:0:
224,160,186990,1,0,0:0:0:0:
288,160,187290,1,8,0:0:0:0:
288,160,187740,1,8,0:0:0:0:
224,160,188190,1,0,0:0:0:0:
288,160,188490,1,8,0:0:0:0:
288,160,188940,1,8,0:0:0:0:
224,160,189390,1,0,0:0:0:0:
288,160,189690,1,8,0:0:0:0:
224,160,190140,1,0,0:0:0:0:
288,160,190590,1,8,0:0:0:0:
288,160,190740,1,8,0:0:0:0:
224,160,191040,1,0,0:0:0:0:
288,160,191340,1,8,0:0:0:0:
224,160,191640,1,0,0:0:0:0:
288,160,191940,1,8,0:0:0:0:
288,160,192240,1,8,0:0:0:0:
224,160,192390,1,0,0:0:0:0:
288,160,192990,1,8,0:0:0:0:
288,160,193290,1,8,0:0:0:0:
224,160,194190,1,0,0:0:0:0:
288,160,194490,1,8,0:0:0:0:
224,160,194940,1,0,0:0:0:0:
224,160,195390,1,0,0:0:0:0:
288,160,195690,1,8,0:0:0:0:
224,160,196140,1,0,0:0:0:0:
288,160,196590,1,8,0:0:0:0:
288,160,196890,1,8,0:0:0:0:
224,160,197340,1,0,0:0:0:0:
288,160,198090,1,8,0:0:0:0:
288,160,198540,1,8,0:0:0:0:
288,160,198840,1,8,0:0:0:0:
224,160,199140,1,0,0:0:0:0:
224,160,199440,1,0,0:0:0:0:
288,160,199590,1,8,0:0:0:0:
288,160,200040,1,8,0:0:0:0:
224,160,200340,1,0,0:0:0:0:
224,160,200790,1,0,0:0:0:0:
288,160,200940,1,8,0:0:0:0:
288,160,201240,1,8,0:0:0:0:
288,160,201540,1,8,0:0:0:0:
224,224,201690,1,4,0:0:0:0:
224,224,202140,1,4,0:0:0:0:
224,224,202590,1,4,0:0:0:0:
224,224,203040,1,4,0:0:0:0:
224,224,203490,1,4,0:0:0:0:
224,224,203940,1,4,0:0:0:0:
224,224,204390,1,4,0:0:0:0:
288,160,204540,1,8,0:0:0:0:
288,160,204615,1,8,0:0:0:0:
224,224,204690,1,4,0:0:0:0:
224,224,204990,1,4,0:0:0:0:
288,224,205290,1,12,0:0:0:0:
288,160,206190,1,8,0:0:0:0:
224,160,206340,1,0,0:0:0:0:
224,160,206790,1,0,0:0:0:0:
288,160,206940,1,8,0:0:0:0:
224,160,207240,1,0,0:0:0:0:
288,160,207390,1,8,0:0:0:0:
288,160,207540,1,8,0:0:0:0:
288,160,208590,1,8,0:0:0:0:
224,160,208740,1,0,0:0:0:0:
288,160,209190,1,8,0:0:0:0:
288,160,209340,1,8,0:0:0:0:
224,160,209640,1,0,0:0:0:0:
288,160,209940,1,8,0:0:0:0:
288,160,210990,1,8,0:0:0:0:
224,160,211290,1,0,0:0:0:0:
288,160,211890,1,8,0:0:0:0:
224,160,212340,1,0,0:0:0:0:
288,160,214290,1,8,0:0:0:0:
224,160,214440,1,0,0:0:0:0:
288,160,214515,1,8,0:0:0:0:
224,160,214665,1,0,0:0:0:0:
288,160,214740,1,8,0:0:0:0:
224,224,214890,1,4,0:0:0:0:
288,160,215190,1,8,0:0:0:0:
224,160,215640,1,0,0:0:0:0:
288,160,215940,1,8,0:0:0:0:
224,160,216240,1,0,0:0:0:0:
288,160,216390,1,8,0:0:0:0:
224,160,216690,1,0,0:0:0:0:
224,160,216840,1,0,0:0:0:0:
288,160,216990,1,8,0:0:0:0:
224,160,217290,1,0,0:0:0:0:
288,160,217590,1,8,0:0:0:0:
224,160,218040,1,0,0:0:0:0:
288,160,218340,1,8,0:0:0:0:
224,160,218640,1,0,0:0:0:0:
288,160,218790,1,8,0:0:0:0:
224,160,219090,1,0,0:0:0:0:
224,160,219240,1,0,0:0:0:0:
288,160,219390,1,8,0:0:0:0:
288,224,219690,1,12,0:0:0:0:
224,160,219990,1,0,0:0:0:0:
224,160,220065,1,0,0:0:0:0:
288,224,220140,1,12,0:0:0:0:
288,160,220440,1,8,0:0:0:0:
288,160,220515,1,8,0:0:0:0:
224,160,220590,1,0,0:0:0:0:
288,224,220740,1,12,0:0:0:0:
288,160,221040,1,8,0:0:0:0:
224,160,221115,1,0,0:0:0:0:
224,160,221190,1,0,0:0:0:0:
288,224,221340,1,12,0:0:0:0:
224,160,221640,1,0,0:0:0:0:
288,160,221715,1,8,0:0:0:0:
224,160,221790,1,0,0:0:0:0:
288,224,221940,1,12,0:0:0:0:
256,192,222090,12,0,222990,0:0:0:0:
224,160,223290,5,0,0:0:0:0:
224,160,223365,1,0,0:0:0:0:
288,160,223440,1,8,0:0:0:0:
288,160,223665,1,8,0:0:0:0:
288,160,223890,1,8,0:0:0:0:
224,160,224040,1,0,0:0:0:0:
288,160,224115,1,8,0:0:0:0:
224,160,224190,1,0,0:0:0:0:
288,160,224340,1,8,0:0:0:0:
288,160,224415,1,8,0:0:0:0:
224,224,224490,1,4,0:0:0:0:
224,160,224640,1,0,0:0:0:0:
288,160,224790,1,8,0:0:0:0:
288,160,224865,1,8,0:0:0:0:
224,160,224940,1,0,0:0:0:0:
224,160,225090,1,0,0:0:0:0:
224,160,225240,1,0,0:0:0:0:
288,160,225390,1,8,0:0:0:0:
224,160,225465,1,0,0:0:0:0:
288,160,225540,1,8,0:0:0:0:
224,160,225690,1,0,0:0:0:0:
288,160,225840,1,8,0:0:0:0:
288,160,225915,1,8,0:0:0:0:
288,160,225990,1,8,0:0:0:0:
288,160,226140,1,8,0:0:0:0:
224,160,226290,1,0,0:0:0:0:
224,160,226440,1,0,0:0:0:0:
288,160,226590,1,8,0:0:0:0:
288,160,226665,1,8,0:0:0:0:
288,160,226740,1,8,0:0:0:0:
224,160,226890,1,0,0:0:0:0:
224,160,227040,1,0,0:0:0:0:
224,160,227115,1,0,0:0:0:0:
288,160,227190,1,8,0:0:0:0:
288,160,227340,1,8,0:0:0:0:
224,160,227490,1,0,0:0:0:0:
288,160,227640,1,8,0:0:0:0:
288,160,227715,1,8,0:0:0:0:
224,160,227790,1,0,0:0:0:0:
288,160,227940,1,8,0:0:0:0:
224,160,228090,1,0,0:0:0:0:
224,160,228240,1,0,0:0:0:0:
224,160,228315,1,0,0:0:0:0:
288,160,228390,1,8,0:0:0:0:
288,160,228540,1,8,0:0:0:0:
224,160,228690,1,0,0:0:0:0:
224,160,228840,1,0,0:0:0:0:
288,160,228990,1,8,0:0:0:0:
224,160,229065,1,0,0:0:0:0:
288,160,229140,1,8,0:0:0:0:
224,160,229290,1,0,0:0:0:0:
224,160,229440,1,0,0:0:0:0:
224,160,229515,1,0,0:0:0:0:
288,160,229590,1,8,0:0:0:0:
288,160,229665,1,8,0:0:0:0:
224,160,229740,1,0,0:0:0:0:
288,160,229890,1,8,0:0:0:0:
288,160,230040,1,8,0:0:0:0:
288,160,230115,1,8,0:0:0:0:
224,160,230190,1,0,0:0:0:0:
288,160,230340,1,8,0:0:0:0:
224,160,230490,1,0,0:0:0:0:
224,160,230640,1,0,0:0:0:0:
224,160,230715,1,0,0:0:0:0:
288,160,230790,1,8,0:0:0:0:
224,160,230865,1,0,0:0:0:0:
224,160,230940,1,0,0:0:0:0:
288,160,231090,1,8,0:0:0:0:
224,160,231240,1,0,0:0:0:0:
224,160,231315,1,0,0:0:0:0:
288,160,231390,1,8,0:0:0:0:
288,160,231540,1,8,0:0:0:0:
224,160,231690,1,0,0:0:0:0:
224,160,231840,1,0,0:0:0:0:
288,160,231990,1,8,0:0:0:0:
224,160,232065,1,0,0:0:0:0:
288,160,232140,1,8,0:0:0:0:
224,160,232290,1,0,0:0:0:0:
288,160,232440,1,8,0:0:0:0:
224,160,232590,1,0,0:0:0:0:
224,160,232665,1,0,0:0:0:0:
288,160,232740,1,8,0:0:0:0:
224,160,232890,1,0,0:0:0:0:
224,160,233040,1,0,0:0:0:0:
288,160,233190,1,8,0:0:0:0:
288,160,233265,1,8,0:0:0:0:
288,160,233340,1,8,0:0:0:0:
224,160,233490,1,0,0:0:0:0:
224,160,233640,1,0,0:0:0:0:
288,160,233790,1,8,0:0:0:0:
224,224,234090,1,4,0:0:0:0:
224,160,234240,1,0,0:0:0:0:
224,160,234315,1,0,0:0:0:0:
288,160,234390,1,8,0:0:0:0:
288,160,234540,1,8,0:0:0:0:
224,160,234690,1,0,0:0:0:0:
288,160,234840,1,8,0:0:0:0:
288,160,234915,1,8,0:0:0:0:
224,160,234990,1,0,0:0:0:0:
288,160,235140,1,8,0:0:0:0:
224,160,235290,1,0,0:0:0:0:
288,160,235440,1,8,0:0:0:0:
224,160,235515,1,0,0:0:0:0:
288,160,235590,1,8,0:0:0:0:
224,160,235740,1,0,0:0:0:0:
224,160,235890,1,0,0:0:0:0:
224,160,236040,1,0,0:0:0:0:
288,160,236190,1,8,0:0:0:0:
288,160,236265,1,8,0:0:0:0:
288,160,236340,1,8,0:0:0:0:
224,160,236490,1,0,0:0:0:0:
224,160,236640,1,0,0:0:0:0:
224,160,236715,1,0,0:0:0:0:
288,160,236790,1,8,0:0:0:0:
288,160,236940,1,8,0:0:0:0:
224,160,237090,1,0,0:0:0:0:
288,160,237240,1,8,0:0:0:0:
224,160,237315,1,0,0:0:0:0:
288,160,237390,1,8,0:0:0:0:
288,160,237540,1,8,0:0:0:0:
224,160,237690,1,0,0:0:0:0:
288,160,237840,1,8,0:0:0:0:
288,160,237915,1,8,0:0:0:0:
288,160,237990,1,8,0:0:0:0:
288,160,238140,1,8,0:0:0:0:
224,160,238290,1,0,0:0:0:0:
224,160,238440,1,0,0:0:0:0:
288,160,238590,1,8,0:0:0:0:
224,160,238665,1,0,0:0:0:0:
288,160,238740,1,8,0:0:0:0:
224,224,238890,1,4,0:0:0:0:
224,160,239040,1,0,0:0:0:0:
288,160,239190,1,8,0:0:0:0:
288,160,239265,1,8,0:0:0:0:
224,224,239340,1,4,0:0:0:0:
288,160,239640,1,8,0:0:0:0:
288,160,239790,1,8,0:0:0:0:
288,160,239865,1,8,0:0:0:0:
224,224,239940,1,4,0:0:0:0:
224,160,240240,1,0,0:0:0:0:
288,160,240390,1,8,0:0:0:0:
288,160,240465,1,8,0:0:0:0:
224,224,240540,1,4,0:0:0:0:
288,160,240690,1,8,0:0:0:0:
224,160,240840,1,0,0:0:0:0:
224,160,240915,1,0,0:0:0:0:
288,160,240990,1,8,0:0:0:0:
288,160,241065,1,8,0:0:0:0:
224,224,241140,1,4,0:0:0:0:
256,192,241290,12,0,242490,0:0:0:0:
288,160,243390,5,8,0:0:0:0:
224,224,243690,1,4,0:0:0:0:
224,160,243840,1,0,0:0:0:0:
288,160,243990,1,8,0:0:0:0:
224,160,244140,1,0,0:0:0:0:
288,160,244290,1,8,0:0:0:0:
288,160,244365,1,8,0:0:0:0:
224,160,244440,1,0,0:0:0:0:
224,160,244590,1,0,0:0:0:0:
288,160,244740,1,8,0:0:0:0:
224,160,245040,1,0,0:0:0:0:
288,160,245190,1,8,0:0:0:0:
288,160,245340,1,8,0:0:0:0:
224,160,245490,1,0,0:0:0:0:
288,160,245565,1,8,0:0:0:0:
224,160,245640,1,0,0:0:0:0:
288,160,245790,1,8,0:0:0:0:
224,160,246090,1,0,0:0:0:0:
224,160,246240,1,0,0:0:0:0:
224,160,246315,1,0,0:0:0:0:
288,160,246390,1,8,0:0:0:0:
224,160,246540,1,0,0:0:0:0:
288,160,246690,1,8,0:0:0:0:
288,160,246765,1,8,0:0:0:0:
224,160,246840,1,0,0:0:0:0:
224,160,246990,1,0,0:0:0:0:
288,160,247140,1,8,0:0:0:0:
224,160,247440,1,0,0:0:0:0:
224,160,247515,1,0,0:0:0:0:
288,160,247590,1,8,0:0:0:0:
288,160,247740,1,8,0:0:0:0:
224,160,247890,1,0,0:0:0:0:
288,160,247965,1,8,0:0:0:0:
224,160,248040,1,0,0:0:0:0:
288,160,248190,1,8,0:0:0:0:
224,160,248490,1,0,0:0:0:0:
224,160,248640,1,0,0:0:0:0:
288,160,248790,1,8,0:0:0:0:
224,160,248940,1,0,0:0:0:0:
288,160,249090,1,8,0:0:0:0:
288,160,249165,1,8,0:0:0:0:
224,160,249240,1,0,0:0:0:0:
224,160,249390,1,0,0:0:0:0:
288,160,249540,1,8,0:0:0:0:
224,160,249840,1,0,0:0:0:0:
288,160,249990,1,8,0:0:0:0:
288,160,250140,1,8,0:0:0:0:
224,160,250290,1,0,0:0:0:0:
288,160,250365,1,8,0:0:0:0:
224,160,250440,1,0,0:0:0:0:
288,160,250590,1,8,0:0:0:0:
224,160,250890,1,0,0:0:0:0:
224,160,251040,1,0,0:0:0:0:
224,160,251115,1,0,0:0:0:0:
288,160,251190,1,8,0:0:0:0:
224,160,251340,1,0,0:0:0:0:
288,160,251490,1,8,0:0:0:0:
288,160,251565,1,8,0:0:0:0:
224,160,251640,1,0,0:0:0:0:
224,160,251790,1,0,0:0:0:0:
288,160,251940,1,8,0:0:0:0:
224,160,252240,1,0,0:0:0:0:
224,160,252315,1,0,0:0:0:0:
288,160,252390,1,8,0:0:0:0:
288,160,252540,1,8,0:0:0:0:
224,160,252690,1,0,0:0:0:0:
288,160,252765,1,8,0:0:0:0:
224,160,252840,1,0,0:0:0:0:
288,160,252990,1,8,0:0:0:0:
224,224,253290,1,4,0:0:0:0:
224,160,253440,1,0,0:0:0:0:
224,160,253515,1,0,0:0:0:0:
288,160,253590,1,8,0:0:0:0:
224,160,253740,1,0,0:0:0:0:
288,160,253890,1,8,0:0:0:0:
288,160,253965,1,8,0:0:0:0:
224,160,254040,1,0,0:0:0:0:
288,160,254115,1,8,0:0:0:0:
224,160,254190,1,0,0:0:0:0:
288,160,254340,1,8,0:0:0:0:
224,160,254640,1,0,0:0:0:0:
288,160,254790,1,8,0:0:0:0:
224,160,254865,1,0,0:0:0:0:
288,160,254940,1,8,0:0:0:0:
224,160,255090,1,0,0:0:0:0:
288,160,255165,1,8,0:0:0:0:
224,160,255240,1,0,0:0:0:0:
288,160,255390,1,8,0:0:0:0:
224,160,255690,1,0,0:0:0:0:
224,160,255840,1,0,0:0:0:0:
224,160,255915,1,0,0:0:0:0:
288,160,255990,1,8,0:0:0:0:
224,160,256065,1,0,0:0:0:0:
224,160,256140,1,0,0:0:0:0:
288,160,256290,1,8,0:0:0:0:
288,160,256365,1,8,0:0:0:0:
224,160,256440,1,0,0:0:0:0:
224,160,256590,1,0,0:0:0:0:
288,160,256740,1,8,0:0:0:0:
224,160,257040,1,0,0:0:0:0:
224,160,257115,1,0,0:0:0:0:
288,160,257190,1,8,0:0:0:0:
288,160,257340,1,8,0:0:0:0:
224,160,257490,1,0,0:0:0:0:
288,160,257565,1,8,0:0:0:0:
224,160,257640,1,0,0:0:0:0:
224,160,257715,1,0,0:0:0:0:
288,160,257790,1,8,0:0:0:0:
224,160,258090,1,0,0:0:0:0:
224,160,258240,1,0,0:0:0:0:
224,160,258315,1,0,0:0:0:0:
288,160,258390,1,8,0:0:0:0:
224,160,258540,1,0,0:0:0:0:
288,160,258690,1,8,0:0:0:0:
288,160,258765,1,8,0:0:0:0:
224,160,258840,1,0,0:0:0:0:
224,160,258990,1,0,0:0:0:0:
288,160,259140,1,8,0:0:0:0:
224,160,259440,1,0,0:0:0:0:
288,160,259590,1,8,0:0:0:0:
224,160,259665,1,0,0:0:0:0:
288,160,259740,1,8,0:0:0:0:
224,160,259890,1,0,0:0:0:0:
288,160,259965,1,8,0:0:0:0:
224,160,260040,1,0,0:0:0:0:
288,160,260190,1,8,0:0:0:0:
224,160,260490,1,0,0:0:0:0:
224,160,260640,1,0,0:0:0:0:
224,160,260715,1,0,0:0:0:0:
288,160,260790,1,8,0:0:0:0:
224,160,260865,1,0,0:0:0:0:
224,160,260940,1,0,0:0:0:0:
288,160,261090,1,8,0:0:0:0:
288,160,261165,1,8,0:0:0:0:
224,160,261240,1,0,0:0:0:0:
224,160,261390,1,0,0:0:0:0:
288,160,261540,1,8,0:0:0:0:
224,160,261690,1,0,0:0:0:0:
224,160,261765,1,0,0:0:0:0:
288,160,261840,1,8,0:0:0:0:
288,160,262065,1,8,0:0:0:0:
288,160,262290,1,8,0:0:0:0:
224,160,262440,1,0,0:0:0:0:
288,160,262515,1,8,0:0:0:0:
224,160,262590,1,0,0:0:0:0:
288,160,262740,1,8,0:0:0:0:
288,224,262890,1,12,0:0:0:0:
224,160,263190,1,0,0:0:0:0:
288,160,263490,1,8,0:0:0:0:
224,160,263790,1,0,0:0:0:0:
288,160,263940,1,8,0:0:0:0:
288,160,264240,1,8,0:0:0:0:
224,160,264390,1,0,0:0:0:0:
288,160,265290,1,8,0:0:0:0:
224,160,265590,1,0,0:0:0:0:
288,160,265890,1,8,0:0:0:0:
224,160,266190,1,0,0:0:0:0:
288,160,266340,1,8,0:0:0:0:
224,160,266640,1,0,0:0:0:0:
224,160,266790,1,0,0:0:0:0:
288,160,267690,1,8,0:0:0:0:
224,160,267990,1,0,0:0:0:0:
288,160,268290,1,8,0:0:0:0:
224,160,268590,1,0,0:0:0:0:
288,160,268740,1,8,0:0:0:0:
288,160,269040,1,8,0:0:0:0:
224,160,269190,1,0,0:0:0:0:
288,160,270090,1,8,0:0:0:0:
224,160,270390,1,0,0:0:0:0:
288,160,270690,1,8,0:0:0:0:
224,160,270990,1,0,0:0:0:0:
288,160,271140,1,8,0:0:0:0:
288,160,271440,1,8,0:0:0:0:
288,160,271590,1,8,0:0:0:0:
288,160,272040,1,8,0:0:0:0:
288,160,272190,1,8,0:0:0:0:
224,160,272265,1,0,0:0:0:0:
224,160,272340,1,0,0:0:0:0:
224,160,272415,1,0,0:0:0:0:
256,192,272490,12,8,274890,0:0:0:0:
