osu file format v14

[General]
AudioFilename: audio.mp3
AudioLeadIn: 0
PreviewTime: 126952
Countdown: 0
SampleSet: Normal
StackLeniency: 0.7
Mode: 1
LetterboxInBreaks: 0
WidescreenStoryboard: 0

[Editor]
Bookmarks: 2490,21690,31290,40890,50490,60090,69690,88890,108090,127290,132090,136890,141690,146490,156090,165690,175290,184890,201690,205290,214890,219690,222090,224490,238890,241290,243690,253290,262890
DistanceSpacing: 1
BeatDivisor: 8
GridSize: 32
TimelineZoom: 1.8

[Metadata]
Title:Amrita
TitleUnicode:Amrita
Artist:An feat. Baru
ArtistUnicode:An feat. バル
Creator:KatK1
Version:Inner Oni
Source:
Tags:CHIAROSCURO ACAL-0003 ACAL 0003 C84 comiket 84 AcuticNotes Acutic Notes artcore drumstep dnb drum n and bass electronic japanese
BeatmapID:3816662
BeatmapSetID:1857031

[Difficulty]
HPDrainRate:5.5
CircleSize:4
OverallDifficulty:6.5
ApproachRate:8
SliderMultiplier:1.4
SliderTickRate:1

[Events]
//Background and Video events
0,0,"0 (4).jpg",0,110
//Break Periods
//Storyboard Layer 0 (Background)
//Storyboard Layer 1 (Fail)
//Storyboard Layer 2 (Pass)
//Storyboard Layer 3 (Foreground)
//Storyboard Layer 4 (Overlay)
//Storyboard Sound Samples

[TimingPoints]
1290,300,4,1,0,25,1,8
1290,-166.666666666667,4,1,0,25,0,8
2490,300,4,1,0,25,1,0
2490,-166.66666,4,1,0,25,0,0
3390,-166.57199,4,1,0,25,0,0
3540,-166.52966,4,1,0,25,0,0
3690,-166.47797,4,1,0,25,0,0
3990,-166.34454,4,1,0,25,0,0
4140,-166.26195,4,1,0,25,0,0
4440,-166.06306,4,1,0,25,0,0
4590,-165.94608,4,1,0,25,0,0
4740,-165.81699,4,1,0,25,0,0
4890,-165.67548,4,1,0,25,0,0
5790,-164.5525,4,1,0,25,0,0
5940,-164.31786,4,1,0,25,0,0
6090,-164.0692,4,1,0,25,0,0
6390,-163.52942,4,1,0,25,0,0
6540,-163.23811,4,1,0,25,0,0
6840,-162.61227,4,1,0,25,0,0
7140,-161.92853,4,1,0,25,0,0
7290,-161.56487,4,1,0,25,0,0
8190,-159.07896,4,1,0,25,0,0
8490,-158.13583,4,1,0,25,0,0
9090,-156.08249,4,1,0,25,0,0
9540,-154.40073,4,1,0,25,0,0
9690,-153.81406,4,1,0,25,0,0
10890,-148.6811,4,1,0,25,0,0
11190,-147.28456,4,1,0,25,0,0
11490,-145.84686,4,1,0,25,0,0
11640,-145.11328,4,1,0,25,0,0
11790,-144.37027,4,1,0,25,0,0
11940,-143.61813,4,1,0,25,0,0
12015,-142.85715,4,1,0,30,0,0
12240,-142.7958,4,1,0,30,0,0
12315,-142.74449,4,1,0,30,0,0
12390,-142.68378,4,1,0,31,0,0
12540,-142.53897,4,1,0,31,0,0
12990,-141.96089,4,1,0,32,0,0
13140,-141.72957,4,1,0,32,0,0
13290,-141.48192,4,1,0,33,0,0
13440,-141.21921,4,1,0,33,0,0
13515,-141.08255,4,1,0,33,0,0
13590,-140.94252,4,1,0,33,0,0
13740,-140.6528,4,1,0,33,0,0
14040,-140.03746,4,1,0,34,0,0
14190,-139.71323,4,1,0,34,0,0
14340,-139.37878,4,1,0,35,0,0
14490,-139.03468,4,1,0,35,0,0
14640,-138.68141,4,1,0,35,0,0
14715,-138.50151,4,1,0,35,0,0
14790,-138.31949,4,1,0,36,0,0
14940,-137.94931,4,1,0,36,0,0
15390,-136.79343,4,1,0,37,0,0
15540,-136.39424,4,1,0,37,0,0
15690,-135.98868,4,1,0,38,0,0
15840,-135.57707,4,1,0,38,0,0
15915,-135.36908,4,1,0,38,0,0
15990,-135.1597,4,1,0,38,0,0
16140,-134.73685,4,1,0,38,0,0
16440,-133.87584,4,1,0,39,0,0
16740,-132.99614,4,1,0,40,0,0
16890,-132.54987,4,1,0,40,0,0
17040,-132.09961,4,1,0,40,0,0
17115,-131.87308,4,1,0,40,0,0
17190,-131.64561,4,1,0,41,0,0
17340,-131.18806,4,1,0,41,0,0
17640,-130.26315,4,1,0,42,0,0
17940,-129.32634,4,1,0,42,0,0
18090,-128.85393,4,1,0,43,0,0
18240,-128.3791,4,1,0,43,0,0
18315,-128.14082,4,1,0,43,0,0
18390,-127.90199,4,1,0,43,0,0
18540,-127.42275,4,1,0,43,0,0
18840,-126.458534,4,1,0,44,0,0
18990,-125.97387,4,1,0,44,0,0
19140,-125.48763,4,1,0,45,0,0
19290,-125.00001,4,1,0,45,0,0
20940,-71.4285714285714,4,1,0,75,0,0
21240,-83.33333,4,1,0,60,0,0
21840,-86.95652,4,1,0,60,0,0
21990,-88.1815,4,1,0,60,0,0
22065,-88.66309,4,1,0,60,0,0
22140,-89.094185,4,1,0,60,0,0
22215,-89.48764,4,1,0,60,0,0
22290,-89.8517,4,1,0,60,0,0
22440,-90.5127,4,1,0,60,0,0
22590,-91.106514,4,1,0,60,0,0
22665,-91.38385,4,1,0,60,0,0
22740,-91.65024,4,1,0,60,0,0
22815,-91.9069,4,1,0,60,0,0
22890,-92.15484,4,1,0,60,0,0
23040,-92.62786,4,1,0,60,0,0
23190,-93.074715,4,1,0,60,0,0
23265,-93.28963,4,1,0,60,0,0
23340,-93.49944,4,1,0,60,0,0
23490,-93.90518,4,1,0,60,0,0
23640,-94.29438,4,1,0,60,0,0
23715,-94.48341,4,1,0,60,0,0
23790,-94.669014,4,1,0,60,0,0
23940,-95.03073,4,1,0,60,0,0
24090,-95.38087,4,1,0,60,0,0
24240,-95.72055,4,1,0,60,0,0
24390,-96.05074,4,1,0,60,0,0
24465,-96.21254,4,1,0,60,0,0
24540,-96.37228,4,1,0,60,0,0
24615,-96.53003,4,1,0,60,0,0
24690,-96.68587,4,1,0,60,0,0
24840,-96.99216,4,1,0,60,0,0
24990,-97.291664,4,1,0,60,0,0
25065,-97.43903,4,1,0,60,0,0
25140,-97.58489,4,1,0,60,0,0
25215,-97.7293,4,1,0,60,0,0
25290,-97.872284,4,1,0,60,0,0
25440,-98.154205,4,1,0,60,0,0
25590,-98.431,4,1,0,60,0,0
25665,-98.5676,4,1,0,60,0,0
25740,-98.70301,4,1,0,60,0,0
25890,-98.97049,4,1,0,60,0,0
26040,-99.2337,4,1,0,60,0,0
26115,-99.363785,4,1,0,60,0,0
26190,-99.49288,4,1,0,60,0,0
26340,-99.74826,4,1,0,60,0,0
26490,-100,4,1,0,60,0,0
26640,-99.987114,4,1,0,60,0,0
26790,-99.93204,4,1,0,60,0,0
26865,-99.88394,4,1,0,60,0,0
26940,-99.82035,4,1,0,60,0,0
27015,-99.740135,4,1,0,60,0,0
27090,-99.64231,4,1,0,60,0,0
27240,-99.39049,4,1,0,60,0,0
27390,-99.059044,4,1,0,60,0,0
27465,-98.86202,4,1,0,60,0,0
27540,-98.6435,4,1,0,60,0,0
27615,-98.40313,4,1,0,60,0,0
27690,-98.14059,4,1,0,60,0,0
27840,-97.54804,4,1,0,60,0,0
27990,-96.86471,4,1,0,60,0,0
28065,-96.48889,4,1,0,60,0,0
28140,-96.090385,4,1,0,60,0,0
28290,-95.2258,4,1,0,60,0,0
28440,-94.272545,4,1,0,60,0,0
28515,-93.76342,4,1,0,60,0,0
28590,-93.2331,4,1,0,60,0,0
28740,-92.11066,4,1,0,60,0,0
28890,-90.90909,4,1,0,60,0,0
29040,-94.47549,4,1,0,60,0,0
29115,-95.917274,4,1,0,60,0,0
29190,-97.30448,4,1,0,60,0,0
29340,-83.33333,4,1,0,60,0,0
29490,-89.52941,4,1,0,60,0,0
29565,-92.15484,4,1,0,60,0,0
29640,-94.75047,4,1,0,60,0,0
29790,-90.90909,4,1,0,60,0,0
29940,-94.47549,4,1,0,60,0,0
30015,-95.917274,4,1,0,60,0,0
30090,-97.30448,4,1,0,60,0,0
30240,-83.33333,4,1,0,60,0,0
30390,-78.050285,4,1,0,60,0,0
30465,-74.76092,4,1,0,60,0,0
30540,-71.42857,4,1,0,60,0,0
31215,-71.428566,4,1,0,80,0,0
31665,-76.72589,4,1,0,50,0,0
32190,-79.77712,4,1,0,50,0,0
32490,-81.573395,4,1,0,50,0,0
32640,-82.430695,4,1,0,50,0,0
32940,-84.08791,4,1,0,50,0,0
33390,-86.47398,4,1,0,50,0,0
33690,-88.02054,4,1,0,50,0,0
33990,-89.54365,4,1,0,50,0,0
34140,-90.298744,4,1,0,50,0,0
34440,-91.79968,4,1,0,50,0,0
34590,-92.54676,4,1,0,50,0,0
34740,-93.292305,4,1,0,50,0,0
34890,-94.0368,4,1,0,50,0,0
35040,-94.78066,4,1,0,50,0,0
35190,-95.524284,4,1,0,50,0,0
35340,-96.268036,4,1,0,50,0,0
35790,-98.50342,4,1,0,50,0,0
36090,-100,4,1,0,50,0,0
36540,-99.89781,4,1,0,50,0,0
36990,-99.462975,4,1,0,50,0,0
37290,-98.93457,4,1,0,50,0,0
37440,-98.591415,4,1,0,50,0,0
37740,-97.73966,4,1,0,50,0,0
38190,-96.03802,4,1,0,50,0,0
38490,-94.62176,4,1,0,50,0,0
38790,-92.988,4,1,0,50,0,0
38940,-92.093254,4,1,0,50,0,0
39240,-90.15783,4,1,0,50,0,0
39390,-89.12174,4,1,0,50,0,0
39540,-88.043465,4,1,0,50,0,0
39690,-86.92575,4,1,0,50,0,0
39840,-85.77147,4,1,0,50,0,0
39990,-84.58358,4,1,0,50,0,0
40140,-83.36515,4,1,0,50,0,0
40590,-79.557526,4,1,0,50,0,0
40815,-71.4285714285714,4,1,0,80,0,0
41265,-78.42878,4,1,0,60,0,0
41790,-80.963974,4,1,0,60,0,0
42090,-82.303925,4,1,0,60,0,0
42240,-82.91292,4,1,0,60,0,0
42540,-84.042244,4,1,0,60,0,0
42990,-85.572586,4,1,0,60,0,0
43290,-86.51247,4,1,0,60,0,0
43590,-87.402855,4,1,0,60,0,0
43740,-87.8323,4,1,0,60,0,0
44040,-88.663994,4,1,0,60,0,0
44340,-89.464,4,1,0,60,0,0
44490,-89.85353,4,1,0,60,0,0
44640,-90.236725,4,1,0,60,0,0
44790,-90.614,4,1,0,60,0,0
44940,-90.985725,4,1,0,60,0,0
45390,-92.07085,4,1,0,60,0,0
45690,-92.77197,4,1,0,60,0,0
45990,-93.45745,4,1,0,60,0,0
46140,-93.79481,4,1,0,60,0,0
46590,-94.78739,4,1,0,60,0,0
46890,-95.43434,4,1,0,60,0,0
47040,-95.75376,4,1,0,60,0,0
47340,-96.38511,4,1,0,60,0,0
47790,-97.31481,4,1,0,60,0,0
48090,-97.92413,4,1,0,60,0,0
48390,-98.52579,4,1,0,60,0,0
48540,-98.82393,4,1,0,60,0,0
48840,-99.41515,4,1,0,60,0,0
48990,-99.708336,4,1,0,60,0,0
49065,-71.4285714285714,4,1,0,80,0,0
49215,-100,4,1,0,70,0,0
49890,-98.76543,4,1,0,70,0,0
50040,-97.616776,4,1,0,68,0,0
50115,-96.85275,4,1,0,66,0,0
50190,-95.95203,4,1,0,65,0,0
50415,-83.33333,4,1,0,80,0,0
50640,-89.094185,4,1,0,65,0,0
51090,-89.8517,4,1,0,65,0,0
51390,-91.106514,4,1,0,65,0,0
51540,-91.65024,4,1,0,65,0,0
51690,-92.15484,4,1,0,65,0,0
51915,-92.85428,4,1,0,65,0,0
52140,-93.49944,4,1,0,65,0,0
52290,-93.90518,4,1,0,65,0,0
52590,-94.669014,4,1,0,65,0,0
52740,-95.03073,4,1,0,65,0,0
52890,-95.38087,4,1,0,65,0,0
53340,-96.37228,4,1,0,65,0,0
53490,-96.68587,4,1,0,65,0,0
53640,-96.99216,4,1,0,65,0,0
53790,-97.291664,4,1,0,65,0,0
53940,-97.58489,4,1,0,65,0,0
54090,-97.872284,4,1,0,65,0,0
54315,-98.29322,4,1,0,65,0,0
54540,-98.70301,4,1,0,65,0,0
54690,-98.97049,4,1,0,65,0,0
54840,-99.2337,4,1,0,65,0,0
54990,-99.49288,4,1,0,65,0,0
55140,-99.74826,4,1,0,65,0,0
55290,-100,4,1,0,65,0,0
55440,-99.64231,4,1,0,65,0,0
55515,-99.41946,4,1,0,65,0,0
55590,-99.18205,4,1,0,65,0,0
55740,-98.67622,4,1,0,65,0,0
55890,-98.14059,4,1,0,65,0,0
56040,-97.58345,4,1,0,65,0,0
56190,-97.01011,4,1,0,65,0,0
56340,-96.42431,4,1,0,65,0,0
56490,-95.82881,4,1,0,65,0,0
56715,-94.92202,4,1,0,65,0,0
56940,-94.003845,4,1,0,65,0,0
57090,-93.38754,4,1,0,65,0,0
57240,-92.76911,4,1,0,65,0,0
57390,-92.149414,4,1,0,65,0,0
57540,-91.52919,4,1,0,65,0,0
57690,-90.90909,4,1,0,65,0,0
58140,-98.63414,4,1,0,65,0,0
58590,-106.46974,4,1,0,65,0,0
58890,-112.14233,4,1,0,65,0,0
59040,-115.14991,4,1,0,65,0,0
59340,-121.56625,4,1,0,65,0,0
59490,-125,4,1,0,65,0,0
59715,-100,4,1,0,72,0,0
60015,-71.42857,4,1,0,80,0,0
60165,-76.92308,4,1,0,70,0,0
60315,-77.42618,4,1,0,70,0,0
60390,-77.81313,4,1,0,70,0,0
60540,-78.40511,4,1,0,70,0,0
60690,-78.8613,4,1,0,70,0,0
60840,-79.2376,4,1,0,70,0,0
60915,-79.40467,4,1,0,70,0,0
60990,-79.56063,4,1,0,70,0,0
61140,-79.845245,4,1,0,70,0,0
61290,-80.100716,4,1,0,70,0,0
61440,-80.33319,4,1,0,70,0,0
61515,-80.44222,4,1,0,70,0,0
61590,-80.54703,4,1,0,70,0,0
61740,-80.74541,4,1,0,70,0,0
61890,-80.93072,4,1,0,70,0,0
61965,-81.019066,4,1,0,70,0,0
62040,-81.10483,4,1,0,70,0,0
62115,-81.188156,4,1,0,70,0,0
62190,-81.26922,4,1,0,70,0,0
62340,-81.42508,4,1,0,70,0,0
62490,-81.573395,4,1,0,70,0,0
62640,-81.71497,4,1,0,70,0,0
62715,-81.783455,4,1,0,70,0,0
62790,-81.850494,4,1,0,70,0,0
62940,-81.98054,4,1,0,70,0,0
63090,-82.10561,4,1,0,70,0,0
63240,-82.226135,4,1,0,70,0,0
63315,-82.28481,4,1,0,70,0,0
63390,-82.34249,4,1,0,70,0,0
63540,-82.454994,4,1,0,70,0,0
63690,-82.56394,4,1,0,70,0,0
63840,-82.669586,4,1,0,70,0,0
63915,-82.72126,4,1,0,70,0,0
63990,-82.77217,4,1,0,70,0,0
64140,-82.87189,4,1,0,70,0,0
64290,-82.968925,4,1,0,70,0,0
64440,-83.063446,4,1,0,70,0,0
64515,-83.1098,4,1,0,70,0,0
64590,-83.155594,4,1,0,70,0,0
64665,-83.20082,4,1,0,70,0,0
64740,-83.245514,4,1,0,70,0,0
64890,-83.33333,4,1,0,70,0,0
67252,-71.4285689795919,4,1,0,85,0,0
69315,-100,4,1,0,75,0,0
69615,-71.42857,4,1,0,80,0,0
69840,-75.51648,4,1,0,80,0,0
69915,-76.28522,4,1,0,80,0,0
69990,-76.92308,4,1,0,80,0,0
70140,-77.97927,4,1,0,80,0,0
70290,-78.86129,4,1,0,80,0,0
70365,-79.25916,4,1,0,80,0,0
70440,-79.63495,4,1,0,80,0,0
70590,-80.33319,4,1,0,80,0,0
70740,-80.97523,4,1,0,80,0,0
70890,-81.573395,4,1,0,80,0,0
71040,-82.136154,4,1,0,80,0,0
71115,-82.40622,4,1,0,80,0,0
71190,-82.669586,4,1,0,80,0,0
71340,-83.17828,4,1,0,80,0,0
71490,-83.66571,4,1,0,80,0,0
71640,-84.134674,4,1,0,80,0,0
71715,-84.36294,4,1,0,80,0,0
71790,-84.58739,4,1,0,80,0,0
71940,-85.02568,4,1,0,80,0,0
72090,-85.45107,4,1,0,80,0,0
72240,-85.86484,4,1,0,80,0,0
72315,-86.0677,4,1,0,80,0,0
72390,-86.26806,4,1,0,80,0,0
72540,-86.66168,4,1,0,80,0,0
72690,-87.04649,4,1,0,80,0,0
72765,-87.235825,4,1,0,80,0,0
72840,-87.4232,4,1,0,80,0,0
72990,-87.79245,4,1,0,80,0,0
73140,-88.154755,4,1,0,80,0,0
73290,-88.51061,4,1,0,80,0,0
73440,-88.86046,4,1,0,80,0,0
73515,-89.03325,4,1,0,80,0,0
73590,-89.20469,4,1,0,80,0,0
73665,-89.37481,4,1,0,80,0,0
73740,-89.543655,4,1,0,80,0,0
73890,-89.877655,4,1,0,80,0,0
74040,-90.20701,4,1,0,80,0,0
74115,-90.37002,4,1,0,80,0,0
74190,-90.53196,4,1,0,80,0,0
74265,-90.69286,4,1,0,80,0,0
74340,-90.85276,4,1,0,80,0,0
74490,-91.16961,4,1,0,80,0,0
74640,-91.48274,4,1,0,80,0,0
74715,-91.63796,4,1,0,80,0,0
74790,-91.79233,4,1,0,80,0,0
74940,-92.09854,4,1,0,80,0,0
75090,-92.40156,4,1,0,80,0,0
75165,-92.55191,4,1,0,80,0,0
75240,-92.701515,4,1,0,80,0,0
75390,-92.99854,4,1,0,80,0,0
75465,-93.146,4,1,0,80,0,0
75540,-93.29279,4,1,0,80,0,0
75690,-93.58436,4,1,0,80,0,0
75840,-93.87338,4,1,0,80,0,0
75915,-94.016975,4,1,0,80,0,0
75990,-94.15996,4,1,0,80,0,0
76140,-94.44418,4,1,0,80,0,0
76290,-94.726166,4,1,0,80,0,0
76440,-95.00597,4,1,0,80,0,0
76515,-95.14508,4,1,0,80,0,0
76590,-95.2837,4,1,0,80,0,0
76740,-95.559425,4,1,0,80,0,0
76890,-95.83322,4,1,0,80,0,0
77040,-96.105156,4,1,0,80,0,0
77115,-96.240456,4,1,0,80,0,0
77190,-96.375305,4,1,0,80,0,0
77340,-96.64373,4,1,0,80,0,0
77490,-96.91049,4,1,0,80,0,0
77565,-97.04325,4,1,0,80,0,0
77640,-97.17564,4,1,0,80,0,0
77790,-97.43923,4,1,0,80,0,0
77940,-97.70132,4,1,0,80,0,0
78090,-97.96196,4,1,0,80,0,0
78240,-98.221176,4,1,0,80,0,0
78315,-98.35029,4,1,0,80,0,0
78390,-98.479065,4,1,0,80,0,0
78540,-98.73561,4,1,0,80,0,0
78690,-98.99088,4,1,0,80,0,0
78840,-99.24493,4,1,0,80,0,0
78915,-99.3715,4,1,0,80,0,0
78990,-99.497765,4,1,0,80,0,0
79140,-99.74944,4,1,0,80,0,0
79290,-71.42857,4,1,0,80,0,0
79440,-75.471695,4,1,0,80,0,0
79515,-76.231476,4,1,0,80,0,0
79590,-76.86177,4,1,0,80,0,0
79665,-77.411514,4,1,0,80,0,0
79740,-77.90518,4,1,0,80,0,0
79890,-78.7763,4,1,0,80,0,0
79965,-79.16917,4,1,0,80,0,0
80040,-79.54019,4,1,0,80,0,0
80190,-80.229485,4,1,0,80,0,0
80340,-80.86317,4,1,0,80,0,0
80490,-81.45344,4,1,0,80,0,0
80640,-82.00868,4,1,0,80,0,0
80715,-82.27511,4,1,0,80,0,0
80790,-82.53491,4,1,0,80,0,0
80940,-83.03665,4,1,0,80,0,0
81090,-83.51735,4,1,0,80,0,0
81240,-83.97977,4,1,0,80,0,0
81315,-84.20483,4,1,0,80,0,0
81390,-84.42611,4,1,0,80,0,0
81540,-84.858185,4,1,0,80,0,0
81690,-85.27748,4,1,0,80,0,0
81840,-85.685265,4,1,0,80,0,0
81915,-85.885185,4,1,0,80,0,0
81990,-86.08263,4,1,0,80,0,0
82065,-86.27768,4,1,0,80,0,0
82140,-86.47047,4,1,0,80,0,0
82290,-86.84959,4,1,0,80,0,0
82365,-87.0361,4,1,0,80,0,0
82440,-87.220695,4,1,0,80,0,0
82590,-87.58439,4,1,0,80,0,0
82740,-87.94122,4,1,0,80,0,0
82890,-88.29168,4,1,0,80,0,0
83040,-88.63616,4,1,0,80,0,0
83115,-88.806305,4,1,0,80,0,0
83190,-88.97509,4,1,0,80,0,0
83340,-89.30879,4,1,0,80,0,0
83490,-89.637596,4,1,0,80,0,0
83640,-89.96178,4,1,0,80,0,0
83715,-90.122215,4,1,0,80,0,0
83790,-90.28159,4,1,0,80,0,0
83940,-90.59729,4,1,0,80,0,0
84090,-71.4285708673469,4,1,0,80,0,0
84240,-100,4,1,0,80,0,0
84540,-74.0740740740741,4,1,0,80,0,0
84690,-100,4,1,0,80,0,0
85140,-76.9230769230769,4,1,0,80,0,0
85290,-100,4,1,0,80,0,0
85740,-80,4,1,0,80,0,0
85890,-100,4,1,0,80,0,0
86340,-83.3333333333333,4,1,0,80,0,0
86415,-100,4,1,0,60,0,0
86565,-99.99818,4,1,0,61,0,0
86640,-99.98542,4,1,0,61,0,0
86715,-99.95083,4,1,0,62,0,0
86790,-99.88352,4,1,0,63,0,0
86865,-99.77274,4,1,0,64,0,0
86940,-99.60796,4,1,0,64,0,0
87015,-99.37888,4,1,0,65,0,0
87090,-99.075676,4,1,0,66,0,0
87165,-98.689064,4,1,0,66,0,0
87240,-98.21045,4,1,0,67,0,0
87315,-97.63214,4,1,0,68,0,0
87390,-96.947426,4,1,0,69,0,0
87465,-96.15081,4,1,0,69,0,0
87540,-95.2381,4,1,0,70,0,0
87615,-94.206505,4,1,0,71,0,0
87690,-93.05481,4,1,0,71,0,0
87765,-91.78332,4,1,0,72,0,0
87840,-90.39399,4,1,0,73,0,0
87915,-88.89033,4,1,0,74,0,0
87990,-87.27735,4,1,0,74,0,0
88065,-85.56149,4,1,0,75,0,0
88140,-83.750465,4,1,0,76,0,0
88215,-81.85303,4,1,0,76,0,0
88290,-79.8789,4,1,0,77,0,0
88365,-77.838455,4,1,0,78,0,0
88440,-75.742516,4,1,0,79,0,0
88515,-73.60219,4,1,0,79,0,0
88552,-71.42857,4,1,0,100,0,0
88890,-71.42857,4,1,0,100,0,0
89002,-75.51648,4,1,0,80,0,0
89115,-76.7259,4,1,0,80,0,0
89190,-77.81313,4,1,0,80,0,0
89340,-79.77712,4,1,0,80,0,0
89490,-81.573395,4,1,0,80,0,0
89565,-82.430695,4,1,0,80,0,0
89640,-83.26766,4,1,0,80,0,0
89790,-84.89428,4,1,0,80,0,0
89940,-86.47398,4,1,0,80,0,0
90015,-87.25073,4,1,0,80,0,0
90090,-88.02054,4,1,0,80,0,0
90240,-89.543655,4,1,0,80,0,0
90390,-91.05054,4,1,0,80,0,0
90465,-91.79968,4,1,0,80,0,0
90540,-92.546776,4,1,0,80,0,0
90690,-94.0368,4,1,0,80,0,0
90840,-95.524284,4,1,0,80,0,0
90915,-96.268036,4,1,0,80,0,0
90990,-97.012276,4,1,0,80,0,0
91215,-125,4,1,0,60,0,0
91440,-124.75634,4,1,0,61,0,0
91515,-124.45309,4,1,0,62,0,0
91590,-124.03101,4,1,0,63,0,0
91740,-122.8407,4,1,0,64,0,0
91815,-122.07916,4,1,0,64,0,0
91890,-121.21212,4,1,0,65,0,0
92040,-119.18063,4,1,0,66,0,0
92115,-118.02674,4,1,0,67,0,0
92190,-116.78832,4,1,0,68,0,0
92340,-114.082,4,1,0,69,0,0
92415,-112.62648,4,1,0,69,0,0
92490,-111.111115,4,1,0,70,0,0
92640,-107.925804,4,1,0,71,0,0
92715,-106.268166,4,1,0,72,0,0
92790,-104.575165,4,1,0,73,0,0
92940,-101.10584,4,1,0,74,0,0
93015,-99.34032,4,1,0,74,0,0
93090,-97.560974,4,1,0,75,0,0
93240,-93.97945,4,1,0,76,0,0
93315,-92.18581,4,1,0,77,0,0
93390,-90.39548,4,1,0,78,0,0
93465,-88.61198,4,1,0,78,0,0
93540,-86.83854,4,1,0,79,0,0
93615,-85.0781,4,1,0,79,0,0
93690,-71.42857,4,1,0,80,0,0
93840,-75.51648,4,1,0,80,0,0
93915,-76.7259,4,1,0,80,0,0
93990,-77.81313,4,1,0,80,0,0
94140,-79.77712,4,1,0,80,0,0
94290,-81.573395,4,1,0,80,0,0
94365,-82.430695,4,1,0,80,0,0
94440,-83.26766,4,1,0,80,0,0
94590,-84.89428,4,1,0,80,0,0
94740,-86.47398,4,1,0,80,0,0
94815,-87.25073,4,1,0,80,0,0
94890,-88.02054,4,1,0,80,0,0
95040,-89.543655,4,1,0,80,0,0
95115,-90.0900900900901,4,1,0,80,0,0
95190,-91.05054,4,1,0,80,0,0
95265,-91.79968,4,1,0,80,0,0
95340,-92.546776,4,1,0,80,0,0
95490,-94.0368,4,1,0,80,0,0
95640,-95.524284,4,1,0,80,0,0
95715,-96.268036,4,1,0,80,0,0
95790,-97.012276,4,1,0,80,0,0
96015,-125,4,1,0,60,0,0
96240,-124.75634,4,1,0,61,0,0
96315,-124.45309,4,1,0,62,0,0
96390,-124.03101,4,1,0,63,0,0
96540,-122.8407,4,1,0,64,0,0
96615,-122.07916,4,1,0,64,0,0
96690,-121.21212,4,1,0,65,0,0
96840,-119.18063,4,1,0,66,0,0
96915,-118.02674,4,1,0,67,0,0
96990,-116.78832,4,1,0,68,0,0
97140,-114.082,4,1,0,69,0,0
97215,-112.62648,4,1,0,69,0,0
97290,-111.111115,4,1,0,70,0,0
97440,-107.925804,4,1,0,71,0,0
97515,-106.268166,4,1,0,72,0,0
97590,-104.575165,4,1,0,73,0,0
97740,-101.10584,4,1,0,74,0,0
97815,-99.34032,4,1,0,74,0,0
97890,-97.560974,4,1,0,75,0,0
98040,-93.97945,4,1,0,76,0,0
98115,-92.18581,4,1,0,77,0,0
98190,-90.39548,4,1,0,78,0,0
98265,-88.61198,4,1,0,78,0,0
98340,-86.83854,4,1,0,79,0,0
98415,-85.0781,4,1,0,79,0,0
98490,-71.42857,4,1,0,80,0,0
98640,-75.51648,4,1,0,80,0,0
98715,-76.7259,4,1,0,80,0,0
98790,-77.81313,4,1,0,80,0,0
98940,-79.77712,4,1,0,80,0,0
99090,-81.573395,4,1,0,80,0,0
99165,-82.430695,4,1,0,80,0,0
99240,-83.26766,4,1,0,80,0,0
99390,-84.89428,4,1,0,80,0,0
99540,-86.47398,4,1,0,80,0,0
99615,-87.25073,4,1,0,80,0,0
99690,-88.02054,4,1,0,80,0,0
99840,-89.543655,4,1,0,80,0,0
99990,-91.05054,4,1,0,80,0,0
100065,-91.79968,4,1,0,80,0,0
100140,-92.546776,4,1,0,80,0,0
100290,-94.0368,4,1,0,80,0,0
100440,-95.524284,4,1,0,80,0,0
100515,-96.268036,4,1,0,80,0,0
100590,-97.012276,4,1,0,80,0,0
100890,-125,4,1,0,60,0,0
101040,-124.75634,4,1,0,61,0,0
101115,-124.45309,4,1,0,62,0,0
101190,-124.03101,4,1,0,63,0,0
101340,-122.8407,4,1,0,64,0,0
101415,-122.07916,4,1,0,64,0,0
101490,-121.21212,4,1,0,65,0,0
101640,-119.18063,4,1,0,66,0,0
101715,-118.02674,4,1,0,67,0,0
101790,-116.78832,4,1,0,68,0,0
101940,-114.082,4,1,0,69,0,0
102015,-112.62648,4,1,0,69,0,0
102090,-111.111115,4,1,0,70,0,0
102240,-107.925804,4,1,0,71,0,0
102315,-106.268166,4,1,0,72,0,0
102390,-104.575165,4,1,0,73,0,0
102540,-101.10584,4,1,0,74,0,0
102615,-99.34032,4,1,0,74,0,0
102690,-97.560974,4,1,0,75,0,0
102840,-93.97945,4,1,0,76,0,0
102915,-92.18581,4,1,0,77,0,0
102990,-90.39548,4,1,0,78,0,0
103065,-88.61198,4,1,0,78,0,0
103140,-86.83854,4,1,0,79,0,0
103215,-85.0781,4,1,0,79,0,0
103290,-71.42857,4,1,0,80,0,0
103440,-75.51648,4,1,0,80,0,0
103515,-76.7259,4,1,0,80,0,0
103590,-77.81313,4,1,0,80,0,0
103740,-79.77712,4,1,0,80,0,0
103890,-81.573395,4,1,0,80,0,0
103965,-82.430695,4,1,0,80,0,0
104040,-83.26766,4,1,0,80,0,0
104190,-84.89428,4,1,0,80,0,0
104340,-86.47398,4,1,0,80,0,0
104415,-87.25073,4,1,0,80,0,0
104490,-88.02054,4,1,0,80,0,0
104640,-89.543655,4,1,0,80,0,0
104715,-90.0900900900901,4,1,0,80,0,0
104790,-91.05054,4,1,0,80,0,0
104865,-91.79968,4,1,0,80,0,0
104940,-92.546776,4,1,0,80,0,0
105090,-94.0368,4,1,0,80,0,0
105240,-95.524284,4,1,0,80,0,0
105315,-96.268036,4,1,0,80,0,0
105390,-97.012276,4,1,0,80,0,0
105690,-125,4,1,0,60,0,0
105840,-123.322525,4,1,0,61,0,0
105915,-122.07077,4,1,0,62,0,0
105990,-120.66839,4,1,0,63,0,0
106140,-117.55563,4,1,0,64,0,0
106215,-115.89317,4,1,0,64,0,0
106290,-114.18317,4,1,0,65,0,0
106440,-110.671295,4,1,0,66,0,0
106515,-108.88954,4,1,0,67,0,0
106590,-107.10133,4,1,0,68,0,0
106740,-103.530594,4,1,0,69,0,0
106815,-101.758224,4,1,0,69,0,0
106890,-100,4,1,0,70,0,0
106965,-102.22479,4,1,0,69,0,0
107040,-103.93854,4,1,0,68,0,0
107115,-105.5311,4,1,0,66,0,0
107190,-107.06357,4,1,0,65,0,0
107265,-108.56226,4,1,0,64,0,0
107340,-110.04183,4,1,0,63,0,0
107415,-111.5115,4,1,0,61,0,0
107490,-112.97773,4,1,0,60,0,0
107565,-114.445274,4,1,0,59,0,0
107640,-115.917854,4,1,0,58,0,0
107715,-117.398445,4,1,0,56,0,0
107790,-118.8896,4,1,0,55,0,0
107865,-120.39349,4,1,0,54,0,0
107940,-121.912056,4,1,0,53,0,0
108015,-123.44702,4,1,0,51,0,0
108052,-71.42857,4,1,0,100,0,0
108127,-83.66571,4,1,0,60,0,0
109140,-84.58739,4,1,0,60,0,0
109215,-85.02568,4,1,0,60,0,0
109290,-85.45107,4,1,0,60,0,0
109440,-86.26806,4,1,0,60,0,0
109590,-87.04649,4,1,0,60,0,0
109740,-87.79245,4,1,0,60,0,0
109890,-88.51061,4,1,0,60,0,0
110040,-89.20469,4,1,0,60,0,0
110190,-89.877655,4,1,0,60,0,0
110490,-91.16961,4,1,0,60,0,0
110940,-92.99854,4,1,0,60,0,0
111090,-93.58436,4,1,0,60,0,0
111390,-94.726166,4,1,0,60,0,0
111690,-95.83322,4,1,0,60,0,0
111840,-96.375305,4,1,0,60,0,0
111990,-96.91049,4,1,0,60,0,0
112140,-97.43923,4,1,0,60,0,0
112440,-98.479065,4,1,0,60,0,0
112590,-98.99088,4,1,0,60,0,0
112890,-100,4,1,0,60,0,0
113340,-99.98353,4,1,0,60,0,0
113790,-99.86834,4,1,0,60,0,0
114090,-99.68848,4,1,0,60,0,0
114165,-99.62657,4,1,0,60,0,0
114240,-99.55702,4,1,0,60,0,0
114540,-99.19417,4,1,0,60,0,0
114990,-98.35278,4,1,0,60,0,0
115290,-97.560974,4,1,0,60,0,0
115740,-95.98181,4,1,0,60,0,0
116040,-94.64995,4,1,0,60,0,0
116190,-93.89757,4,1,0,60,0,0
116490,-92.21902,4,1,0,60,0,0
116640,-91.293564,4,1,0,60,0,0
116790,-90.311775,4,1,0,60,0,0
116940,-89.27491,4,1,0,60,0,0
117240,-87.04291,4,1,0,60,0,0
117390,-85.85202,4,1,0,60,0,0
117540,-84.614555,4,1,0,60,0,0
117652,-71.428566,4,1,0,100,0,0
117765,-77.06437,4,1,0,75,0,0
118740,-77.45305,4,1,0,75,0,0
118815,-77.63628,4,1,0,75,0,0
118890,-77.813126,4,1,0,75,0,0
119040,-78.15011,4,1,0,75,0,0
119190,-78.46794,4,1,0,75,0,0
119340,-78.76961,4,1,0,75,0,0
119490,-79.05737,4,1,0,75,0,0
119640,-79.333046,4,1,0,75,0,0
119790,-79.59807,4,1,0,75,0,0
120090,-80.10071,4,1,0,75,0,0
120540,-80.798744,4,1,0,75,0,0
120690,-81.019066,4,1,0,75,0,0
120990,-81.444016,4,1,0,75,0,0
121290,-81.850494,4,1,0,75,0,0
121440,-82.04757,4,1,0,75,0,0
121590,-82.24089,4,1,0,75,0,0
121740,-82.430695,4,1,0,75,0,0
122040,-82.8005,4,1,0,75,0,0
122190,-82.980865,4,1,0,75,0,0
122490,-83.33333,4,1,0,75,0,0
122940,-83.321884,4,1,0,75,0,0
123390,-83.24188,4,1,0,75,0,0
123690,-83.116875,4,1,0,75,0,0
123765,-83.073845,4,1,0,75,0,0
123840,-83.02548,4,1,0,75,0,0
124140,-82.77297,4,1,0,75,0,0
124590,-82.18628,4,1,0,75,0,0
124890,-81.63265,4,1,0,75,0,0
125190,-80.93262,4,1,0,77,0,0
125340,-80.52411,4,1,0,78,0,0
125640,-79.58459,4,1,0,80,0,0
125790,-79.05199,4,1,0,81,0,0
125940,-78.47682,4,1,0,82,0,0
126090,-77.85889,4,1,0,83,0,0
126202,-77.19817,4,1,0,100,0,0
126315,-76.49497,4,1,0,84,0,0
126465,-75.7498,4,1,0,100,0,0
126690,-74.13676,4,1,0,100,0,0
126915,-73.27108,4,1,0,80,0,0
127215,-73.27108,4,1,0,100,0,0
127290,-62.5,4,1,0,100,0,1
127365,-63.352814,4,1,0,100,0,1
127440,-64,4,1,0,100,0,1
127515,-64.593994,4,1,0,100,0,1
127590,-65.15894,4,1,0,100,0,1
127665,-65.70526,4,1,0,100,0,1
127740,-66.23869,4,1,0,100,0,1
127815,-66.762856,4,1,0,100,0,1
127890,-67.280205,4,1,0,100,0,1
127965,-67.79253,4,1,0,100,0,1
128040,-68.30117,4,1,0,100,0,1
128115,-68.807175,4,1,0,100,0,1
128190,-69.31141,4,1,0,100,0,1
128265,-69.81456,4,1,0,100,0,1
128340,-70.3172,4,1,0,100,0,1
128415,-70.81985,4,1,0,100,0,1
128490,-71.32292,4,1,0,100,0,1
128565,-71.826805,4,1,0,100,0,1
128640,-72.33183,4,1,0,100,0,1
128715,-72.838326,4,1,0,100,0,1
128790,-73.346535,4,1,0,100,0,1
128865,-73.85671,4,1,0,100,0,1
128940,-74.3691,4,1,0,100,0,1
129015,-74.88392,4,1,0,100,0,1
129090,-75.40136,4,1,0,100,0,1
129165,-75.921616,4,1,0,100,0,1
129240,-76.44487,4,1,0,100,0,1
129315,-76.97129,4,1,0,100,0,1
129390,-77.50103,4,1,0,100,0,1
129465,-78.03428,4,1,0,100,0,1
129540,-78.571175,4,1,0,100,0,1
129615,-79.111855,4,1,0,100,0,1
129690,-79.65649,4,1,0,100,0,1
129765,-80.20521,4,1,0,100,0,1
129840,-80.758156,4,1,0,100,0,1
129915,-81.31546,4,1,0,100,0,1
129990,-81.87727,4,1,0,100,0,1
130065,-82.443726,4,1,0,100,0,1
130140,-83.014946,4,1,0,100,0,1
130215,-83.59109,4,1,0,100,0,1
130290,-84.17226,4,1,0,100,0,1
130365,-84.75862,4,1,0,100,0,1
130440,-85.35029,4,1,0,100,0,1
130515,-85.94741,4,1,0,100,0,1
130590,-86.55011,4,1,0,100,0,1
130665,-87.15853,4,1,0,100,0,1
130740,-87.77281,4,1,0,100,0,1
130815,-88.3931,4,1,0,100,0,1
130890,-89.01951,4,1,0,100,0,1
130965,-89.652214,4,1,0,100,0,1
131040,-90.29133,4,1,0,100,0,1
131115,-90.93703,4,1,0,100,0,1
131190,-91.58944,4,1,0,100,0,1
131265,-92.24872,4,1,0,100,0,1
131340,-92.91503,4,1,0,100,0,1
131415,-93.58852,4,1,0,100,0,1
131490,-94.26934,4,1,0,100,0,1
131565,-94.95766,4,1,0,100,0,1
131640,-95.65364,4,1,0,100,0,1
131715,-96.35744,4,1,0,100,0,1
131790,-97.06925,4,1,0,100,0,0
131940,-98.51756,4,1,0,90,0,0
132090,-71.42857,4,1,0,80,0,0
132240,-74.07407,4,1,0,80,0,0
132315,-74.69583,4,1,0,80,0,0
132390,-75.22817,4,1,0,80,0,0
132540,-76.13841,4,1,0,80,0,0
132690,-76.92308,4,1,0,80,0,0
132765,-77.2837,4,1,0,80,0,0
132840,-77.62791,4,1,0,80,0,0
132990,-78.27633,4,1,0,80,0,0
133140,-78.88225,4,1,0,80,0,0
133215,-79.17221,4,1,0,80,0,0
133290,-79.45471,4,1,0,80,0,0
133440,-80,4,1,0,80,0,0
133515,-80.26393,4,1,0,80,0,0
133590,-80.52268,4,1,0,80,0,0
133740,-81.0262,4,1,0,80,0,0
133815,-81.27163,4,1,0,80,0,0
133890,-81.51322,4,1,0,80,0,0
134040,-81.98587,4,1,0,80,0,0
134190,-82.44587,4,1,0,80,0,0
134265,-82.67157,4,1,0,80,0,0
134340,-82.89463,4,1,0,80,0,0
134490,-83.33333,4,1,0,80,0,0
134640,-83.16919,4,1,0,81,0,0
134715,-83.01987,4,1,0,81,0,0
134790,-82.83773,4,1,0,81,0,0
134940,-82.39029,4,1,0,82,0,0
135090,-81.84888,4,1,0,83,0,0
135165,-81.54763,4,1,0,83,0,0
135240,-81.22802,4,1,0,83,0,0
135390,-80.53883,4,1,0,84,0,0
135540,-79.79038,4,1,0,84,0,0
135615,-79.396416,4,1,0,85,0,0
135690,-78.99047,4,1,0,85,0,0
135840,-78.14591,4,1,0,86,0,0
135915,-77.70882,4,1,0,86,0,0
135990,-77.26279,4,1,0,86,0,0
136140,-76.34659,4,1,0,87,0,0
136215,-75.877655,4,1,0,87,0,0
136290,-75.402275,4,1,0,88,0,0
136440,-74.434364,4,1,0,88,0,0
136515,-73.94286,4,1,0,88,0,0
136590,-73.44699,4,1,0,89,0,0
136665,-72.9472,4,1,0,89,0,0
136740,-72.44391,4,1,0,89,0,0
136815,-72.44391,4,1,0,100,0,0
136890,-62.5,4,1,0,100,0,1
137040,-64,4,1,0,100,0,1
137190,-65.15894,4,1,0,100,0,1
137265,-65.70526,4,1,0,100,0,1
137340,-66.23869,4,1,0,100,0,1
137415,-66.762856,4,1,0,100,0,1
137490,-67.280205,4,1,0,100,0,1
137565,-67.79253,4,1,0,100,0,1
137640,-68.30117,4,1,0,100,0,1
137715,-68.807175,4,1,0,100,0,1
137790,-69.31141,4,1,0,100,0,1
137940,-70.3172,4,1,0,100,0,1
138015,-70.81985,4,1,0,100,0,1
138090,-71.32292,4,1,0,100,0,1
138240,-72.33183,4,1,0,100,0,1
138315,-72.838326,4,1,0,100,0,1
138390,-73.346535,4,1,0,100,0,1
138465,-73.85671,4,1,0,100,0,1
138540,-74.3691,4,1,0,100,0,1
138615,-74.88392,4,1,0,100,0,1
138690,-75.40136,4,1,0,100,0,1
138840,-76.44487,4,1,0,100,0,1
138915,-76.97129,4,1,0,100,0,1
138990,-77.50103,4,1,0,100,0,1
139140,-78.571175,4,1,0,100,0,1
139215,-79.111855,4,1,0,100,0,1
139290,-79.65649,4,1,0,100,0,1
139365,-80.20521,4,1,0,100,0,1
139440,-80.758156,4,1,0,100,0,1
139515,-81.31546,4,1,0,100,0,1
139590,-81.87727,4,1,0,100,0,1
139740,-83.014946,4,1,0,100,0,1
139815,-83.59109,4,1,0,100,0,1
139890,-84.17226,4,1,0,100,0,1
140040,-85.35029,4,1,0,100,0,1
140115,-85.94741,4,1,0,100,0,1
140190,-86.55011,4,1,0,100,0,1
140265,-87.15853,4,1,0,100,0,1
140340,-87.77281,4,1,0,100,0,1
140415,-88.3931,4,1,0,100,0,1
140490,-89.01951,4,1,0,100,0,1
140640,-90.29133,4,1,0,100,0,1
140715,-90.93703,4,1,0,100,0,1
140790,-91.58944,4,1,0,100,0,1
140940,-92.91503,4,1,0,100,0,1
141015,-93.58852,4,1,0,100,0,1
141090,-94.26934,4,1,0,100,0,1
141165,-94.95766,4,1,0,100,0,1
141240,-95.65364,4,1,0,100,0,1
141315,-96.35744,4,1,0,100,0,1
141390,-97.06925,4,1,0,100,0,1
141465,-97.78924,4,1,0,100,0,1
141540,-98.51756,4,1,0,100,0,1
141615,-99.254425,4,1,0,100,0,1
141690,-100,4,1,0,100,0,0
141765,-99.56059,4,1,0,80,0,0
141915,-99.28718,4,1,0,80,0,0
141990,-98.99625,4,1,0,80,0,0
142140,-98.37738,4,1,0,80,0,0
142290,-97.7236,4,1,0,80,0,0
142365,-97.38704,4,1,0,80,0,0
142440,-97.045296,4,1,0,80,0,0
142590,-96.34905,4,1,0,80,0,0
142740,-95.63955,4,1,0,80,0,0
142815,-95.28094,4,1,0,80,0,0
142890,-94.92024,4,1,0,80,0,0
143040,-94.193825,4,1,0,80,0,0
143115,-93.82865,4,1,0,80,0,0
143190,-93.46247,4,1,0,80,0,0
143340,-92.72793,4,1,0,80,0,0
143415,-92.359924,4,1,0,80,0,0
143490,-91.99166,4,1,0,80,0,0
143640,-91.254906,4,1,0,80,0,0
143790,-90.518684,4,1,0,80,0,0
143865,-90.15106,4,1,0,80,0,0
143940,-89.78391,4,1,0,80,0,0
144090,-89.051346,4,1,0,80,0,0
144165,-88.68609,4,1,0,80,0,0
144240,-88.321625,4,1,0,80,0,0
144390,-87.59535,4,1,0,80,0,0
144540,-86.873,4,1,0,80,0,0
144615,-86.513435,4,1,0,80,0,0
144690,-86.15501,4,1,0,80,0,0
144840,-85.441734,4,1,0,80,0,0
144990,-84.73352,4,1,0,80,0,0
145065,-84.3814,4,1,0,80,0,0
145140,-84.03064,4,1,0,80,0,0
145290,-83.33333,4,1,0,80,0,0
145440,-86.95651,4,1,0,80,0,0
145515,-88.88888,4,1,0,80,0,0
145590,-90.90909,4,1,0,80,0,0
145665,-93.023254,4,1,0,80,0,0
145740,-95.23809,4,1,0,80,0,0
145815,-97.560974,4,1,0,80,0,0
145890,-100,4,1,0,80,0,0
145965,-102.5641,4,1,0,80,0,0
146040,-105.26316,4,1,0,80,0,0
146115,-108.10811,4,1,0,80,0,0
146190,-111.111115,4,1,0,80,0,0
146265,-114.28571,4,1,0,80,0,0
146340,-117.64706,4,1,0,80,0,0
146415,-121.21212,4,1,0,80,0,0
146490,-71.42857,4,1,0,100,0,0
146790,-87.809044,4,1,0,98,0,0
147090,-94.75166,4,1,0,95,0,0
147390,-100.53161,4,1,0,93,0,0
147540,-103.20607,4,1,0,91,0,0
147690,-105.7882,4,1,0,90,0,0
147840,-108.30138,4,1,0,89,0,0
147990,-110.762596,4,1,0,88,0,0
148890,-125,4,1,0,80,0,0
149190,-124.99991,4,1,0,78,0,0
149490,-124.9985,4,1,0,75,0,0
149790,-124.99237,4,1,0,73,0,0
149940,-124.98586,4,1,0,71,0,0
150090,-124.97589,4,1,0,70,0,0
150240,-124.96139,4,1,0,69,0,0
150390,-124.94117,4,1,0,68,0,0
151290,-124.615395,4,1,0,60,0,0
151590,-124.385056,4,1,0,60,0,0
151890,-124.06515,4,1,0,60,0,0
152190,-123.63601,4,1,0,60,0,0
152340,-123.37404,4,1,0,60,0,0
152490,-123.07692,4,1,0,60,0,0
152640,-122.74198,4,1,0,60,0,0
152790,-122.36651,4,1,0,60,0,0
153690,-119.11765,4,1,0,60,0,0
153990,-117.59894,4,1,0,60,0,0
154290,-115.837105,4,1,0,60,0,0
154590,-113.82266,4,1,0,60,0,0
154740,-112.71908,4,1,0,60,0,0
154890,-111.55105,4,1,0,60,0,0
155040,-110.31885,4,1,0,60,0,0
155190,-109.023155,4,1,0,60,0,0
156015,-83.33333,4,1,0,80,0,0
156465,-87.73512,4,1,0,60,0,0
156990,-91.309525,4,1,0,60,0,0
157290,-93.62865,4,1,0,60,0,0
157440,-94.785706,4,1,0,60,0,0
157890,-98.28099,4,1,0,60,0,0
158340,-101.85156,4,1,0,60,0,0
158490,-103.065125,4,1,0,60,0,0
158790,-105.5342,4,1,0,60,0,0
159240,-109.35797,4,1,0,60,0,0
159690,-113.34876,4,1,0,60,0,0
160140,-117.53164,4,1,0,60,0,0
160590,-121.93216,4,1,0,60,0,0
160890,-125,4,1,0,60,0,0
161340,-121.45393,4,1,0,62,0,0
161790,-117.14247,4,1,0,64,0,0
162090,-114.18317,4,1,0,65,0,0
162240,-112.70256,4,1,0,66,0,0
162690,-108.30933,4,1,0,68,0,0
163140,-104.04367,4,1,0,69,0,0
163290,-102.6578,4,1,0,70,0,0
163590,-99.945755,4,1,0,71,0,0
164040,-96.03454,4,1,0,73,0,0
164490,-92.31682,4,1,0,75,0,0
164940,-88.792244,4,1,0,77,0,0
165390,-85.456154,4,1,0,79,0,0
165615,-71.42857,4,1,0,85,0,0
165840,-74.07407,4,1,0,85,0,0
165915,-74.83748,4,1,0,85,0,0
165990,-75.51648,4,1,0,85,0,0
166065,-76.14077,4,1,0,85,0,0
166140,-76.7259,4,1,0,85,0,0
166290,-77.81313,4,1,0,85,0,0
166365,-78.3258,4,1,0,85,0,0
166440,-78.82248,4,1,0,85,0,0
166590,-79.77712,4,1,0,85,0,0
166740,-80.691025,4,1,0,85,0,0
166815,-81.1357,4,1,0,85,0,0
166890,-81.573395,4,1,0,85,0,0
167040,-82.430695,4,1,0,85,0,0
167190,-83.26766,4,1,0,85,0,0
167265,-83.67969,4,1,0,85,0,0
167340,-84.08791,4,1,0,85,0,0
167490,-84.89428,4,1,0,85,0,0
167640,-85.68902,4,1,0,85,0,0
167790,-86.47398,4,1,0,85,0,0
167865,-86.863304,4,1,0,85,0,0
167940,-87.25073,4,1,0,85,0,0
168015,-87.63643,4,1,0,85,0,0
168090,-88.02054,4,1,0,85,0,0
168165,-88.4032,4,1,0,85,0,0
168240,-88.78454,4,1,0,85,0,0
168315,-89.16464,4,1,0,85,0,0
168390,-89.543655,4,1,0,85,0,0
168465,-89.92166,4,1,0,85,0,0
168540,-90.298744,4,1,0,85,0,0
168690,-91.05054,4,1,0,85,0,0
168765,-91.4254,4,1,0,85,0,0
168840,-91.79968,4,1,0,85,0,0
168990,-92.546776,4,1,0,85,0,0
169140,-93.29231,4,1,0,85,0,0
169215,-93.66466,4,1,0,85,0,0
169290,-94.0368,4,1,0,85,0,0
169440,-94.78066,4,1,0,85,0,0
169590,-95.524284,4,1,0,85,0,0
169665,-95.89613,4,1,0,85,0,0
169740,-96.268036,4,1,0,85,0,0
169890,-97.012276,4,1,0,85,0,0
170040,-97.7573,4,1,0,85,0,0
170190,-98.50342,4,1,0,85,0,0
170265,-98.87697,4,1,0,85,0,0
170340,-99.25089,4,1,0,85,0,0
170415,-99.62524,4,1,0,85,0,0
170490,-100,4,1,0,85,0,0
170640,-99.99939,4,1,0,85,0,0
170715,-99.99794,4,1,0,85,0,0
170790,-99.99511,4,1,0,85,0,0
170865,-99.99046,4,1,0,85,0,0
170940,-99.98353,4,1,0,85,0,0
171090,-99.96095,4,1,0,85,0,0
171165,-99.944405,4,1,0,85,0,0
171240,-99.92377,4,1,0,85,0,0
171390,-99.86834,4,1,0,85,0,0
171540,-99.791084,4,1,0,85,0,0
171615,-99.74317,4,1,0,85,0,0
171690,-99.68848,4,1,0,85,0,0
171840,-99.55702,4,1,0,85,0,0
171990,-99.39335,4,1,0,85,0,0
172065,-99.2984,4,1,0,85,0,0
172140,-99.19417,4,1,0,85,0,0
172290,-98.956314,4,1,0,85,0,0
172440,-98.6768,4,1,0,85,0,0
172590,-98.35278,4,1,0,85,0,0
172665,-98.173256,4,1,0,85,0,0
172740,-97.98164,4,1,0,85,0,0
172815,-97.77764,4,1,0,85,0,0
172890,-97.560974,4,1,0,85,0,0
172965,-97.33139,4,1,0,85,0,0
173040,-97.08864,4,1,0,85,0,0
173115,-96.83251,4,1,0,85,0,0
173190,-96.56278,4,1,0,85,0,0
173265,-96.279274,4,1,0,85,0,0
173340,-95.98181,4,1,0,85,0,0
173490,-95.344505,4,1,0,85,0,0
173565,-95.00443,4,1,0,85,0,0
173640,-94.64995,4,1,0,85,0,0
173790,-93.89757,4,1,0,85,0,0
173940,-93.08721,4,1,0,85,0,0
174015,-92.66032,4,1,0,85,0,0
174090,-92.21902,4,1,0,85,0,0
174240,-91.293564,4,1,0,85,0,0
174390,-90.311775,4,1,0,85,0,0
174465,-89.800125,4,1,0,85,0,0
174540,-89.27491,4,1,0,85,0,0
174690,-88.18464,4,1,0,85,0,0
174840,-87.04291,4,1,0,85,0,0
174990,-85.85202,4,1,0,85,0,0
175065,-85.238945,4,1,0,85,0,0
175140,-84.614555,4,1,0,85,0,0
175215,-83.979225,4,1,0,85,0,0
175290,-71.42857,4,1,0,85,0,0
175365,-73.3945,4,1,0,85,0,0
175440,-74.451256,4,1,0,85,0,0
175515,-75.32925,4,1,0,85,0,0
175590,-76.11233,4,1,0,85,0,0
175665,-76.83412,4,1,0,85,0,0
175740,-77.51222,4,1,0,85,0,0
175815,-78.15728,4,1,0,85,0,0
175890,-78.7763,4,1,0,85,0,0
175965,-79.3742,4,1,0,85,0,0
176040,-79.95459,4,1,0,85,0,0
176190,-81.073296,4,1,0,85,0,0
176340,-82.148155,4,1,0,85,0,0
176415,-82.67253,4,1,0,85,0,0
176490,-83.18957,4,1,0,85,0,0
176640,-84.20483,4,1,0,85,0,0
176790,-85.19931,4,1,0,85,0,0
176865,-85.69007,4,1,0,85,0,0
176940,-86.1771,4,1,0,85,0,0
177015,-86.66077,4,1,0,85,0,0
177090,-87.1414,4,1,0,85,0,0
177165,-87.61933,4,1,0,85,0,0
177240,-88.09481,4,1,0,85,0,0
177390,-89.03942,4,1,0,85,0,0
177465,-89.509,4,1,0,85,0,0
177540,-89.97702,4,1,0,85,0,0
177615,-90.443665,4,1,0,85,0,0
177690,-83.33333,4,1,0,85,0,0
177765,-85.106384,4,1,0,85,0,0
177840,-86.05059,4,1,0,85,0,0
177915,-86.83039,4,1,0,85,0,0
177990,-87.52236,4,1,0,85,0,0
178065,-88.157234,4,1,0,85,0,0
178140,-88.751144,4,1,0,85,0,0
178215,-89.31381,4,1,0,85,0,0
178290,-89.8517,4,1,0,85,0,0
178365,-90.369316,4,1,0,85,0,0
178440,-90.87,4,1,0,85,0,0
178515,-91.356255,4,1,0,85,0,0
178590,-91.83008,4,1,0,85,0,0
178665,-92.293045,4,1,0,85,0,0
178740,-92.74644,4,1,0,85,0,0
178815,-93.19134,4,1,0,85,0,0
178890,-93.62865,4,1,0,85,0,0
179040,-94.48341,4,1,0,85,0,0
179190,-95.31566,4,1,0,85,0,0
179265,-95.72455,4,1,0,85,0,0
179340,-96.12912,4,1,0,85,0,0
179415,-96.52977,4,1,0,85,0,0
179490,-96.92677,4,1,0,85,0,0
179565,-97.320404,4,1,0,85,0,0
179640,-97.710915,4,1,0,85,0,0
179790,-98.483475,4,1,0,85,0,0
179865,-98.865944,4,1,0,85,0,0
179940,-99.24606,4,1,0,85,0,0
180015,-99.62404,4,1,0,85,0,0
180090,-71.42857,4,1,0,85,0,0
180165,-73.3945,4,1,0,85,0,0
180240,-74.451256,4,1,0,85,0,0
180315,-75.32925,4,1,0,85,0,0
180390,-76.11233,4,1,0,85,0,0
180465,-76.83412,4,1,0,85,0,0
180540,-77.51222,4,1,0,85,0,0
180615,-78.15728,4,1,0,85,0,0
180690,-78.7763,4,1,0,85,0,0
180765,-79.3742,4,1,0,85,0,0
180840,-79.95459,4,1,0,85,0,0
180990,-81.073296,4,1,0,85,0,0
181140,-82.148155,4,1,0,85,0,0
181215,-82.67253,4,1,0,85,0,0
181290,-83.18957,4,1,0,85,0,0
181440,-84.20483,4,1,0,85,0,0
181590,-85.19931,4,1,0,85,0,0
181665,-85.69007,4,1,0,85,0,0
181740,-86.1771,4,1,0,85,0,0
181815,-86.66077,4,1,0,85,0,0
181890,-87.1414,4,1,0,85,0,0
181965,-87.61933,4,1,0,85,0,0
182040,-88.09481,4,1,0,85,0,0
182190,-89.03942,4,1,0,85,0,0
182265,-89.509,4,1,0,85,0,0
182340,-89.97702,4,1,0,85,0,0
182415,-90.443665,4,1,0,85,0,0
182490,-83.33333,4,1,0,85,0,0
182565,-85.106384,4,1,0,85,0,0
182640,-86.05059,4,1,0,85,0,0
182715,-86.83039,4,1,0,85,0,0
182790,-87.52236,4,1,0,85,0,0
182865,-88.157234,4,1,0,85,0,0
182940,-88.751144,4,1,0,85,0,0
183015,-89.31381,4,1,0,85,0,0
183090,-89.8517,4,1,0,85,0,0
183165,-90.369316,4,1,0,85,0,0
183240,-90.87,4,1,0,85,0,0
183315,-91.356255,4,1,0,85,0,0
183390,-91.83008,4,1,0,85,0,0
183465,-92.293045,4,1,0,85,0,0
183540,-92.74644,4,1,0,85,0,0
183615,-93.19134,4,1,0,85,0,0
183690,-83.33333,4,1,0,85,0,0
183840,-88.95102,4,1,0,85,0,0
183915,-91.309525,4,1,0,85,0,0
183990,-93.62865,4,1,0,85,0,0
184065,-95.94529,4,1,0,85,0,0
184140,-98.28099,4,1,0,85,0,0
184215,-100.65051,4,1,0,85,0,0
184290,-103.065125,4,1,0,85,0,0
184365,-105.5342,4,1,0,85,0,0
184440,-108.06606,4,1,0,85,0,0
184515,-110.66844,4,1,0,85,0,0
184590,-113.34876,4,1,0,85,0,0
184665,-116.11444,4,1,0,85,0,0
184740,-118.97299,4,1,0,85,0,0
184815,-121.93216,4,1,0,85,0,0
184890,-71.42857,4,1,0,85,0,0
185340,-85.673416,4,1,0,83,0,0
186090,-94.75166,4,1,0,79,0,0
186540,-99.14977,4,1,0,76,0,0
186990,-103.20607,4,1,0,74,0,0
187290,-105.7882,4,1,0,73,0,0
187740,-109.537605,4,1,0,70,0,0
188190,-113.18467,4,1,0,68,0,0
188490,-115.57764,4,1,0,66,0,0
188940,-119.12972,4,1,0,64,0,0
189390,-122.655594,4,1,0,62,0,0
189690,-125,4,1,0,60,0,0
190140,-124.56059,4,1,0,60,0,0
190590,-123.48312,4,1,0,60,0,0
190740,-123.00578,4,1,0,60,0,0
190890,-122.4749,4,1,0,60,0,0
191040,-121.89339,4,1,0,60,0,0
191340,-120.58951,4,1,0,60,0,0
191640,-119.11515,4,1,0,60,0,0
191940,-117.490074,4,1,0,60,0,0
192090,-116.62692,4,1,0,60,0,0
192240,-115.73307,4,1,0,60,0,0
192390,-114.81074,4,1,0,60,0,0
192990,-110.87857,4,1,0,60,0,0
193290,-108.79467,4,1,0,60,0,0
194190,-102.24271,4,1,0,60,0,0
194415,-100,4,1,0,75,0,0
194940,-99.92193,4,1,0,75,0,0
195390,-99.68848,4,1,0,75,0,0
195690,-99.44751,4,1,0,75,0,0
196140,-98.96058,4,1,0,75,0,0
196590,-98.32707,4,1,0,75,0,0
196890,-97.826096,4,1,0,75,0,0
197340,-96.96154,4,1,0,75,0,0
198090,-95.2381,4,1,0,75,0,0
198540,-94.04849,4,1,0,75,0,0
198840,-93.19635,4,1,0,75,0,0
199140,-92.30029,4,1,0,75,0,0
199290,-91.83674,4,1,0,75,0,0
199440,-91.363304,4,1,0,75,0,0
199590,-90.88041,4,1,0,75,0,0
200040,-89.37853,4,1,0,75,0,0
200340,-88.336784,4,1,0,75,0,0
200490,-87.804886,4,1,0,75,0,0
200790,-86.72086,4,1,0,79,0,0
200940,-86.169495,4,1,0,81,0,0
201240,-85.049835,4,1,0,84,0,0
201540,-83.909966,4,1,0,88,0,0
201652,-83.909966,4,1,0,100,0,0
201690,300,4,1,0,100,1,0
201690,-62.5,4,1,0,100,0,0
204390,-62.5,4,1,0,100,0,0
204540,-65.21739,4,1,0,100,0,0
204615,-66.666664,4,1,0,100,0,0
204690,-68.181816,4,1,0,100,0,0
204990,-71.4285714285714,4,1,0,100,0,0
205290,300,4,1,0,100,1,0
205290,-71.42857,4,1,0,100,0,0
205440,-91.50394,4,1,0,85,0,0
206340,-93.16937,4,1,0,83,0,0
206490,-94.75166,4,1,0,80,0,0
206790,-97.73098,4,1,0,75,0,0
206940,-99.14977,4,1,0,73,0,0
207240,-101.88218,4,1,0,68,0,0
207390,-103.20607,4,1,0,65,0,0
207540,-104.50703,4,1,0,62,0,0
207690,-105.7882,4,1,0,60,0,0
208590,-113.18467,4,1,0,60,0,0
208740,-114.38425,4,1,0,60,0,0
208890,-115.57764,4,1,0,60,0,0
209190,-117.94955,4,1,0,60,0,0
209340,-119.12972,4,1,0,60,0,0
209640,-121.48211,4,1,0,60,0,0
209940,-123.82803,4,1,0,60,0,0
210090,-125,4,1,0,60,0,0
210990,-124.58936,4,1,0,60,0,0
211290,-124.03101,4,1,0,60,0,0
211890,-121.78877,4,1,0,60,0,0
212340,-118.87797,4,1,0,60,0,0
212490,-117.64706,4,1,0,60,0,0
213652,-100,4,1,0,40,0,0
213765,-101.93124,4,1,0,40,0,0
213840,-103.41129,4,1,0,40,0,0
213915,-104.78087,4,1,0,40,0,0
213990,-106.09347,4,1,0,40,0,0
214065,-107.37218,4,1,0,40,0,0
214140,-108.62974,4,1,0,40,0,0
214215,-109.87421,4,1,0,40,0,0
214252,-90.90909,4,1,0,80,0,0
214440,-90.39548,4,1,0,80,0,0
214515,-89.761566,4,1,0,80,0,0
214665,-87.7915,4,1,0,80,0,0
214740,-86.48648,4,1,0,80,0,0
214890,-71.42857,4,1,0,80,0,0
215040,-74.07407,4,1,0,80,0,0
215115,-74.69583,4,1,0,80,0,0
215190,-75.22817,4,1,0,80,0,0
215340,-76.13841,4,1,0,80,0,0
215415,-76.5428,4,1,0,80,0,0
215490,-76.92308,4,1,0,80,0,0
215565,-77.2837,4,1,0,80,0,0
215640,-77.62791,4,1,0,80,0,0
215790,-78.27633,4,1,0,80,0,0
215865,-78.583954,4,1,0,80,0,0
215940,-78.88225,4,1,0,80,0,0
216090,-79.45471,4,1,0,80,0,0
216240,-80,4,1,0,80,0,0
216315,-80.26393,4,1,0,80,0,0
216390,-80.52268,4,1,0,80,0,0
216540,-81.0262,4,1,0,80,0,0
216615,-81.27163,4,1,0,80,0,0
216690,-81.51322,4,1,0,80,0,0
216840,-81.98587,4,1,0,80,0,0
216915,-82.21735,4,1,0,80,0,0
216990,-82.44587,4,1,0,80,0,0
217140,-82.89463,4,1,0,80,0,0
217290,-83.33333,4,1,0,80,0,0
217440,-83.333115,4,1,0,80,0,0
217515,-83.33225,4,1,0,80,0,0
217590,-83.32993,4,1,0,80,0,0
217740,-83.31616,4,1,0,80,0,0
217815,-83.30154,4,1,0,80,0,0
217890,-83.279106,4,1,0,80,0,0
217965,-83.24651,4,1,0,80,0,0
218040,-83.20109,4,1,0,80,0,0
218190,-83.05957,4,1,0,80,0,0
218265,-82.95673,4,1,0,80,0,0
218340,-82.827576,4,1,0,80,0,0
218490,-82.47422,4,1,0,80,0,0
218640,-81.96569,4,1,0,80,0,0
218715,-81.6422,4,1,0,80,0,0
218790,-81.26662,4,1,0,80,0,0
218940,-80.34188,4,1,0,80,0,0
219015,-79.784546,4,1,0,80,0,0
219090,-79.15893,4,1,0,80,0,0
219240,-77.690346,4,1,0,80,0,0
219315,-76.84243,4,1,0,80,0,0
219390,-75.91652,4,1,0,80,0,0
219540,-73.82824,4,1,0,80,0,0
219615,-72.666626,4,1,0,80,0,0
219690,-71.4285714285714,4,1,0,80,0,0
219840,-92.5691,4,1,0,80,0,0
219990,-84.42939,4,1,0,80,0,0
220065,-80.57706,4,1,0,80,0,0
220140,-76.9230769230769,4,1,0,80,0,0
220290,-96.34905,4,1,0,80,0,0
220440,-91.99166,4,1,0,80,0,0
220515,-89.78391,4,1,0,80,0,0
220590,-87.59535,4,1,0,80,0,0
220665,-85.441734,4,1,0,80,0,0
220740,-83.3333333333333,4,1,0,80,0,0
220890,-98.14059,4,1,0,80,0,0
221040,-95.82881,4,1,0,80,0,0
221115,-94.61699,4,1,0,80,0,0
221190,-93.38754,4,1,0,80,0,0
221265,-92.149414,4,1,0,80,0,0
221340,-90.9090909090909,4,1,0,80,0,0
221490,-103.41129,4,1,0,80,0,0
221640,-106.09347,4,1,0,80,0,0
221715,-107.37218,4,1,0,80,0,0
221790,-108.62974,4,1,0,80,0,0
221865,-109.87421,4,1,0,80,0,0
221940,-100,4,1,0,80,0,0
222052,-125,4,1,0,60,0,0
222165,-124.92375,4,1,0,61,0,0
222240,-124.695564,4,1,0,63,0,0
222315,-124.3171,4,1,0,64,0,0
222390,-123.7911,4,1,0,65,0,0
222465,-123.121315,4,1,0,66,0,0
222540,-122.31247,4,1,0,68,0,0
222615,-121.370155,4,1,0,69,0,0
222690,-120.30075,4,1,0,70,0,0
222765,-119.11131,4,1,0,71,0,0
222840,-117.80948,4,1,0,73,0,0
222915,-116.40332,4,1,0,74,0,0
222990,-114.90125,4,1,0,75,0,0
223065,-113.311935,4,1,0,76,0,0
223140,-111.644135,4,1,0,78,0,0
223215,-109.906624,4,1,0,79,0,0
223290,-108.10811,4,1,0,80,0,0
223365,-106.25713,4,1,0,81,0,0
223440,-104.36201,4,1,0,83,0,0
223515,-102.430725,4,1,0,84,0,0
223590,-100.470955,4,1,0,85,0,0
223665,-98.48995,4,1,0,86,0,0
223740,-96.49454,4,1,0,88,0,0
223815,-94.4911,4,1,0,89,0,0
223890,-92.48555,4,1,0,90,0,0
223965,-90.483345,4,1,0,91,0,0
224040,-88.48946,4,1,0,93,0,0
224115,-86.50841,4,1,0,94,0,0
224190,-84.54426,4,1,0,95,0,0
224265,-82.60063,4,1,0,96,0,0
224340,-80.68075,4,1,0,98,0,0
224415,-78.787415,4,1,0,99,0,0
224490,-71.42857,4,1,0,100,0,1
224640,-72.342026,4,1,0,100,0,1
224715,-72.646935,4,1,0,100,0,1
224790,-72.92444,4,1,0,100,0,1
224865,-73.18353,4,1,0,100,0,1
224940,-73.42912,4,1,0,100,0,1
225090,-73.89081,4,1,0,100,0,1
225240,-74.323944,4,1,0,100,0,1
225390,-74.736336,4,1,0,100,0,1
225465,-74.93632,4,1,0,100,0,1
225540,-75.13278,4,1,0,100,0,1
225690,-75.51648,4,1,0,100,0,1
225840,-75.889755,4,1,0,100,0,1
225915,-76.07301,4,1,0,100,0,1
225990,-76.25428,4,1,0,100,0,1
226140,-76.611374,4,1,0,100,0,1
226290,-76.96209,4,1,0,100,0,1
226440,-77.30721,4,1,0,100,0,1
226590,-77.64748,4,1,0,100,0,1
226665,-77.81596,4,1,0,100,0,1
226740,-77.98343,4,1,0,100,0,1
226890,-78.31556,4,1,0,100,0,1
227040,-78.644264,4,1,0,100,0,1
227115,-78.80746,4,1,0,100,0,1
227190,-78.96993,4,1,0,100,0,1
227340,-79.29285,4,1,0,100,0,1
227490,-79.61328,4,1,0,100,0,1
227640,-79.9315,4,1,0,100,0,1
227715,-80.089836,4,1,0,100,0,1
227790,-80.24769,4,1,0,100,0,1
227940,-80.562065,4,1,0,100,0,1
228090,-80.87479,4,1,0,100,0,1
228240,-81.18602,4,1,0,100,0,1
228315,-81.34111,4,1,0,100,0,1
228390,-81.495895,4,1,0,100,0,1
228540,-81.80456,4,1,0,100,0,1
228690,-82.1121,4,1,0,100,0,1
228840,-82.418655,4,1,0,100,0,1
228990,-82.72432,4,1,0,100,0,1
229065,-82.87685,4,1,0,100,0,1
229140,-83.02918,4,1,0,100,0,1
229290,-83.33333,4,1,0,100,0,1
229440,-83.32655,4,1,0,100,0,1
229515,-83.31808,4,1,0,100,0,1
229590,-83.30621,4,1,0,100,0,1
229665,-83.29097,4,1,0,100,0,1
229740,-83.27234,4,1,0,100,0,1
229890,-83.22497,4,1,0,100,0,1
230040,-83.16413,4,1,0,100,0,1
230115,-83.128685,4,1,0,100,0,1
230190,-83.089905,4,1,0,100,0,1
230265,-83.04779,4,1,0,100,0,1
230340,-83.00234,4,1,0,100,0,1
230490,-82.90155,4,1,0,100,0,1
230640,-82.78761,4,1,0,100,0,1
230715,-82.725746,4,1,0,100,0,1
230790,-82.66064,4,1,0,100,0,1
230865,-82.59229,4,1,0,100,0,1
230940,-82.52075,4,1,0,100,0,1
231090,-82.36808,4,1,0,100,0,1
231240,-82.202774,4,1,0,100,0,1
231315,-82.11543,4,1,0,100,0,1
231390,-82.024994,4,1,0,100,0,1
231465,-81.931465,4,1,0,100,0,1
231540,-81.83489,4,1,0,100,0,1
231690,-81.63265,4,1,0,100,0,1
231840,-81.41846,4,1,0,100,0,1
231990,-81.19251,4,1,0,100,0,1
232065,-81.075195,4,1,0,100,0,1
232140,-80.95502,4,1,0,100,0,1
232290,-80.70618,4,1,0,100,0,1
232440,-80.44622,4,1,0,100,0,1
232590,-80.175385,4,1,0,100,0,1
232665,-80.03595,4,1,0,100,0,1
232740,-79.89389,4,1,0,100,0,1
232890,-79.60199,4,1,0,100,0,1
233040,-79.29993,4,1,0,100,0,1
233190,-78.98797,4,1,0,100,0,1
233265,-78.828354,4,1,0,100,0,1
233340,-78.66636,4,1,0,100,0,1
233490,-78.33537,4,1,0,100,0,1
233640,-77.99528,4,1,0,100,0,1
233790,-77.64634,4,1,0,100,0,1
233865,-77.46865,4,1,0,100,0,1
233940,-77.28885,4,1,0,100,0,1
234090,-71.42857,4,1,0,100,0,1
234240,-72.07207,4,1,0,100,0,1
234315,-72.321724,4,1,0,100,0,1
234390,-72.556496,4,1,0,100,0,1
234540,-72.998184,4,1,0,100,0,1
234690,-73.41567,4,1,0,100,0,1
234840,-73.81701,4,1,0,100,0,1
234915,-74.01309,4,1,0,100,0,1
234990,-74.20666,4,1,0,100,0,1
235140,-74.587395,4,1,0,100,0,1
235290,-74.961136,4,1,0,100,0,1
235440,-75.32925,4,1,0,100,0,1
235515,-75.51153,4,1,0,100,0,1
235590,-75.69276,4,1,0,100,0,1
235740,-76.05248,4,1,0,100,0,1
235890,-76.40906,4,1,0,100,0,1
236040,-76.76301,4,1,0,100,0,1
236190,-77.11476,4,1,0,100,0,1
236265,-77.28995,4,1,0,100,0,1
236340,-77.46471,4,1,0,100,0,1
236490,-77.81313,4,1,0,100,0,1
236640,-78.16032,4,1,0,100,0,1
236715,-78.33352,4,1,0,100,0,1
236790,-78.506485,4,1,0,100,0,1
236940,-78.85187,4,1,0,100,0,1
237090,-79.19663,4,1,0,100,0,1
237240,-79.54095,4,1,0,100,0,1
237315,-79.71298,4,1,0,100,0,1
237390,-79.884964,4,1,0,100,0,1
237540,-80.22881,4,1,0,100,0,1
237690,-80.57262,4,1,0,100,0,1
237840,-80.9165,4,1,0,100,0,1
237915,-81.088486,4,1,0,100,0,1
237990,-81.26054,4,1,0,100,0,1
238140,-81.60485,4,1,0,100,0,1
238290,-81.94952,4,1,0,100,0,1
238440,-82.294624,4,1,0,100,0,1
238590,-82.64025,4,1,0,100,0,1
238665,-82.81328,4,1,0,100,0,1
238740,-82.98646,4,1,0,100,0,1
238890,-83.33333,4,1,0,100,0,1
239040,-89.8517,4,1,0,100,0,1
239190,-93.62865,4,1,0,100,0,1
239265,-95.31566,4,1,0,100,0,1
239340,-96.92677,4,1,0,100,0,1
239490,-83.3333333333333,4,1,0,100,0,1
239790,-90.73803,4,1,0,100,0,1
239865,-93.134285,4,1,0,100,0,1
239940,-95.459915,4,1,0,100,0,1
240090,-83.3333333333333,4,1,0,100,0,1
240240,-86.9565217391304,4,1,0,100,0,1
240390,-93.62865,4,1,0,100,0,1
240465,-95.31566,4,1,0,100,0,1
240540,-96.92677,4,1,0,100,0,1
240690,-90.90909,4,1,0,100,0,1
240840,-94.654625,4,1,0,100,0,1
240915,-95.741066,4,1,0,100,0,1
240990,-96.709496,4,1,0,100,0,1
241065,-97.60165,4,1,0,100,0,1
241140,-98.4394,4,1,0,100,0,0
241290,-83.3333333333333,4,1,0,100,0,0
242490,-100,4,1,0,100,0,0
243390,-62.5,4,1,0,100,0,0
243690,-71.42857,4,1,0,100,0,0
243840,-73.15223,4,1,0,99,0,0
243915,-73.641685,4,1,0,99,0,0
243990,-74.07407,4,1,0,99,0,0
244140,-74.83748,4,1,0,98,0,0
244290,-75.51648,4,1,0,98,0,0
244365,-75.8343,4,1,0,97,0,0
244440,-76.14077,4,1,0,97,0,0
244590,-76.7259,4,1,0,96,0,0
244740,-77.28128,4,1,0,96,0,0
244890,-77.81313,4,1,0,95,0,0
245040,-78.3258,4,1,0,94,0,0
245115,-78.57597,4,1,0,94,0,0
245190,-78.82248,4,1,0,94,0,0
245340,-79.30562,4,1,0,93,0,0
245490,-79.77712,4,1,0,93,0,0
245640,-80.23851,4,1,0,92,0,0
245715,-80.465805,4,1,0,92,0,0
245790,-80.691025,4,1,0,91,0,0
245940,-81.1357,4,1,0,91,0,0
246090,-81.573395,4,1,0,90,0,0
246240,-82.004845,4,1,0,89,0,0
246315,-82.21844,4,1,0,89,0,0
246390,-82.430695,4,1,0,89,0,0
246540,-82.85146,4,1,0,88,0,0
246690,-83.26766,4,1,0,88,0,0
246765,-83.47417,4,1,0,87,0,0
246840,-83.67969,4,1,0,87,0,0
246990,-84.08791,4,1,0,86,0,0
247140,-84.492676,4,1,0,86,0,0
247290,-84.89428,4,1,0,85,0,0
247440,-85.29297,4,1,0,84,0,0
247515,-85.49132,4,1,0,84,0,0
247590,-85.68902,4,1,0,84,0,0
247665,-85.88611,4,1,0,83,0,0
247740,-86.08263,4,1,0,83,0,0
247890,-86.47398,4,1,0,83,0,0
248040,-86.863304,4,1,0,82,0,0
248115,-87.05724,4,1,0,82,0,0
248190,-87.25073,4,1,0,81,0,0
248265,-87.443794,4,1,0,81,0,0
248340,-87.63643,4,1,0,81,0,0
248490,-88.02054,4,1,0,80,0,0
248640,-88.4032,4,1,0,81,0,0
248715,-88.59403,4,1,0,81,0,0
248790,-88.78454,4,1,0,81,0,0
248940,-89.16464,4,1,0,82,0,0
249090,-89.543655,4,1,0,83,0,0
249165,-89.73277,4,1,0,83,0,0
249240,-89.92166,4,1,0,83,0,0
249390,-90.298744,4,1,0,84,0,0
249465,-90.48697,4,1,0,84,0,0
249540,-90.67501,4,1,0,84,0,0
249690,-91.05054,4,1,0,85,0,0
249840,-91.4254,4,1,0,86,0,0
249915,-91.61262,4,1,0,86,0,0
249990,-91.79968,4,1,0,86,0,0
250140,-92.17345,4,1,0,87,0,0
250290,-92.546776,4,1,0,88,0,0
250440,-92.91971,4,1,0,88,0,0
250515,-93.10605,4,1,0,88,0,0
250590,-93.29231,4,1,0,89,0,0
250740,-93.66466,4,1,0,89,0,0
250890,-94.0368,4,1,0,90,0,0
251040,-94.408775,4,1,0,91,0,0
251115,-94.594734,4,1,0,91,0,0
251190,-94.78066,4,1,0,91,0,0
251340,-95.15247,4,1,0,92,0,0
251490,-95.524284,4,1,0,93,0,0
251565,-95.710205,4,1,0,93,0,0
251640,-95.89613,4,1,0,93,0,0
251790,-96.268036,4,1,0,94,0,0
251940,-96.64009,4,1,0,94,0,0
252090,-97.012276,4,1,0,95,0,0
252240,-97.384674,4,1,0,96,0,0
252315,-97.57095,4,1,0,96,0,0
252390,-97.7573,4,1,0,96,0,0
252540,-98.13021,4,1,0,97,0,0
252690,-98.50342,4,1,0,98,0,0
252840,-98.87697,4,1,0,98,0,0
252915,-99.06389,4,1,0,98,0,0
252990,-99.25089,4,1,0,99,0,0
253065,-99.55202,4,1,0,99,0,0
253140,-99.62524,4,1,0,99,0,0
253290,-62.5,4,1,0,100,0,0
253440,-66.666664,4,1,0,100,0,0
253515,-67.458534,4,1,0,100,0,0
253590,-68.11761,4,1,0,100,0,0
253665,-68.69406,4,1,0,100,0,0
253740,-69.213,4,1,0,100,0,0
253890,-70.131645,4,1,0,100,0,0
253965,-70.547195,4,1,0,100,0,0
254040,-70.94037,4,1,0,100,0,0
254190,-71.67263,4,1,0,100,0,0
254340,-72.347946,4,1,0,100,0,0
254490,-72.97883,4,1,0,100,0,0
254640,-73.573906,4,1,0,100,0,0
254715,-73.860016,4,1,0,100,0,0
254790,-74.13935,4,1,0,100,0,0
254940,-74.6798,4,1,0,100,0,0
255090,-75.19883,4,1,0,100,0,0
255240,-75.699234,4,1,0,100,0,0
255315,-75.9432,4,1,0,100,0,0
255390,-76.183304,4,1,0,100,0,0
255540,-76.652885,4,1,0,100,0,0
255690,-77.10953,4,1,0,100,0,0
255840,-77.55451,4,1,0,100,0,0
255915,-77.77299,4,1,0,100,0,0
255990,-77.98896,4,1,0,100,0,0
256065,-78.20252,4,1,0,100,0,0
256140,-78.41381,4,1,0,100,0,0
256290,-78.82988,4,1,0,100,0,0
256365,-79.03485,4,1,0,100,0,0
256440,-79.23789,4,1,0,100,0,0
256590,-79.638466,4,1,0,100,0,0
256740,-80.03217,4,1,0,100,0,0
256890,-80.4195,4,1,0,100,0,0
257040,-80.80088,4,1,0,100,0,0
257115,-80.98949,4,1,0,100,0,0
257190,-81.176735,4,1,0,100,0,0
257340,-81.5474,4,1,0,100,0,0
257490,-81.9132,4,1,0,100,0,0
257640,-82.27444,4,1,0,100,0,0
257715,-82.45343,4,1,0,100,0,0
257790,-82.63138,4,1,0,100,0,0
257940,-82.98427,4,1,0,100,0,0
258090,-83.33333,4,1,0,100,0,0
258240,-83.30922,4,1,0,100,0,0
258315,-83.279106,4,1,0,100,0,0
258390,-83.23699,4,1,0,100,0,0
258465,-83.1829,4,1,0,100,0,0
258540,-83.116875,4,1,0,100,0,0
258690,-82.9493,4,1,0,100,0,0
258765,-82.847885,4,1,0,100,0,0
258840,-82.73484,4,1,0,100,0,0
258990,-82.47422,4,1,0,100,0,0
259140,-82.16833,4,1,0,100,0,0
259290,-81.81818,4,1,0,100,0,0
259440,-81.42493,4,1,0,100,0,0
259515,-81.21254,4,1,0,100,0,0
259590,-80.989876,4,1,0,100,0,0
259740,-80.5144,4,1,0,100,0,0
259890,-79.99999,4,1,0,100,0,0
260040,-79.44827,4,1,0,100,0,0
260115,-79.15893,4,1,0,100,0,0
260190,-78.8609,4,1,0,100,0,0
260340,-78.23961,4,1,0,100,0,0
260490,-77.5862,4,1,0,100,0,0
260640,-76.90253,4,1,0,100,0,0
260715,-76.549934,4,1,0,100,0,0
260790,-76.190475,4,1,0,100,0,0
260865,-75.824394,4,1,0,100,0,0
260940,-75.45192,4,1,0,100,0,0
261090,-74.6888,4,1,0,100,0,0
261165,-74.298615,4,1,0,100,0,0
261240,-73.903,4,1,0,100,0,0
261390,-73.09644,4,1,0,100,0,0
261540,-72.27101,4,1,0,100,0,0
261690,-71.42857,4,1,0,100,0,0
261840,-75.51648,4,1,0,100,0,0
261915,-77.20959,4,1,0,100,0,0
261990,-78.86129,4,1,0,100,0,0
262065,-80.4984,4,1,0,100,0,0
262140,-82.136154,4,1,0,100,0,0
262215,-83.78459,4,1,0,100,0,0
262290,-85.45107,4,1,0,100,0,0
262365,-87.1414,4,1,0,100,0,0
262440,-88.86046,4,1,0,100,0,0
262515,-90.61254,4,1,0,100,0,0
262590,-92.40156,4,1,0,100,0,0
262665,-94.231224,4,1,0,100,0,0
262740,-96.105156,4,1,0,100,0,0
262815,-98.0269,4,1,0,100,0,0
262890,-71.42857,4,1,0,100,0,0
263190,-83.18957,4,1,0,98,0,0
263490,-87.809044,4,1,0,95,0,0
263790,-91.50394,4,1,0,93,0,0
263940,-93.16937,4,1,0,91,0,0
264090,-94.75166,4,1,0,90,0,0
264240,-96.268036,4,1,0,89,0,0
264390,-97.73098,4,1,0,88,0,0
265290,-105.7882,4,1,0,80,0,0
265590,-108.30138,4,1,0,78,0,0
265890,-110.762596,4,1,0,75,0,0
266190,-113.18467,4,1,0,73,0,0
266340,-114.38425,4,1,0,71,0,0
266490,-115.57764,4,1,0,70,0,0
266640,-116.765785,4,1,0,69,0,0
266790,-117.94955,4,1,0,68,0,0
267690,-125,4,1,0,60,0,0
267990,-124.75634,4,1,0,60,0,0
268290,-124.03101,4,1,0,60,0,0
268590,-122.8407,4,1,0,60,0,0
268740,-122.07916,4,1,0,60,0,0
268890,-121.21212,4,1,0,60,0,0
269040,-120.24425,4,1,0,60,0,0
269190,-119.18063,4,1,0,60,0,0
270090,-111.111115,4,1,0,60,0,0
270390,-107.925804,4,1,0,60,0,0
270690,-104.575165,4,1,0,60,0,0
270990,-101.10584,4,1,0,60,0,0
271140,-99.34032,4,1,0,60,0,0
271290,-97.560974,4,1,0,60,0,0
271440,-95.772545,4,1,0,60,0,0
271590,-93.97945,4,1,0,60,0,0
272040,-88.61198,4,1,0,60,0,0
272115,-87.7238,4,1,0,60,0,0
272190,-86.83854,4,1,0,60,0,0
272265,-85.95651,4,1,0,60,0,0
272340,-85.0781,4,1,0,60,0,0
272415,-84.203606,4,1,0,60,0,0
272452,-84.203606,4,1,0,20,0,0
272490,300,69,1,0,20,1,0
272490,-83.33333,4,1,0,20,0,0

[HitObjects]
288,160,1590,5,8,0:0:0:0:
288,160,1890,1,8,0:0:0:0:
288,160,2040,1,8,0:0:0:0:
224,160,2190,1,0,0:0:0:0:
224,160,2340,1,0,0:0:0:0:
288,160,3390,1,8,0:0:0:0:
224,160,3540,1,0,0:0:0:0:
224,160,3990,1,0,0:0:0:0:
288,160,4140,1,8,0:0:0:0:
224,160,4440,1,0,0:0:0:0:
288,160,4590,1,8,0:0:0:0:
288,160,4740,1,8,0:0:0:0:
288,160,5790,1,8,0:0:0:0:
288,160,5940,1,8,0:0:0:0:
224,160,6390,1,0,0:0:0:0:
288,160,6540,1,8,0:0:0:0:
288,160,6840,1,8,0:0:0:0:
224,160,7140,1,0,0:0:0:0:
288,160,8190,1,8,0:0:0:0:
224,160,8490,1,0,0:0:0:0:
288,160,9090,1,8,0:0:0:0:
224,160,9540,1,0,0:0:0:0:
288,160,11190,1,8,0:0:0:0:
224,160,11490,1,0,0:0:0:0:
224,160,11640,1,0,0:0:0:0:
288,160,11790,1,8,0:0:0:0:
288,160,11940,1,8,0:0:0:0:
224,160,12090,1,0,0:0:0:0:
224,160,12240,1,0,0:0:0:0:
224,160,12315,1,0,0:0:0:0:
288,160,12390,1,8,0:0:0:0:
224,160,12540,1,0,0:0:0:0:
288,160,12990,1,8,0:0:0:0:
288,160,13140,1,8,0:0:0:0:
224,160,13290,1,0,0:0:0:0:
224,160,13440,1,0,0:0:0:0:
288,160,13515,1,8,0:0:0:0:
224,160,13590,1,0,0:0:0:0:
288,160,13740,1,8,0:0:0:0:
224,160,14040,1,0,0:0:0:0:
288,160,14190,1,8,0:0:0:0:
288,160,14340,1,8,0:0:0:0:
224,160,14490,1,0,0:0:0:0:
288,160,14640,1,8,0:0:0:0:
288,160,14715,1,8,0:0:0:0:
288,160,14790,1,8,0:0:0:0:
224,160,14940,1,0,0:0:0:0:
288,160,15390,1,8,0:0:0:0:
224,160,15540,1,0,0:0:0:0:
224,160,15690,1,0,0:0:0:0:
288,160,15840,1,8,0:0:0:0:
288,160,15915,1,8,0:0:0:0:
224,160,15990,1,0,0:0:0:0:
288,160,16140,1,8,0:0:0:0:
224,160,16440,1,0,0:0:0:0:
288,160,16740,1,8,0:0:0:0:
224,160,16890,1,0,0:0:0:0:
288,160,17040,1,8,0:0:0:0:
288,160,17115,1,8,0:0:0:0:
288,160,17190,1,8,0:0:0:0:
224,160,17340,1,0,0:0:0:0:
224,160,17640,1,0,0:0:0:0:
288,160,17940,1,8,0:0:0:0:
224,160,18090,1,0,0:0:0:0:
224,160,18240,1,0,0:0:0:0:
224,160,18315,1,0,0:0:0:0:
224,160,18390,1,0,0:0:0:0:
288,160,18540,1,8,0:0:0:0:
224,160,18840,1,0,0:0:0:0:
288,160,18990,1,8,0:0:0:0:
288,160,19140,1,8,0:0:0:0:
256,192,19290,8,8,20790,0:0:0:0:
288,160,21090,5,8,0:0:0:0:
224,224,21690,1,4,0:0:0:0:
224,160,21840,1,0,0:0:0:0:
288,160,21990,1,8,0:0:0:0:
224,160,22065,1,0,0:0:0:0:
288,160,22140,1,8,0:0:0:0:
224,160,22215,1,0,0:0:0:0:
288,160,22290,1,8,0:0:0:0:
224,160,22440,1,0,0:0:0:0:
224,160,22590,1,0,0:0:0:0:
224,160,22665,1,0,0:0:0:0:
288,160,22740,1,8,0:0:0:0:
224,160,22815,1,0,0:0:0:0:
288,160,22890,1,8,0:0:0:0:
224,160,23040,1,0,0:0:0:0:
288,160,23190,1,8,0:0:0:0:
224,160,23265,1,0,0:0:0:0:
288,160,23340,1,8,0:0:0:0:
224,160,23490,1,0,0:0:0:0:
224,160,23640,1,0,0:0:0:0:
224,160,23715,1,0,0:0:0:0:
288,160,23790,1,8,0:0:0:0:
288,160,23940,1,8,0:0:0:0:
224,160,24090,1,0,0:0:0:0:
224,160,24240,1,0,0:0:0:0:
288,160,24390,1,8,0:0:0:0:
288,160,24465,1,8,0:0:0:0:
224,160,24540,1,0,0:0:0:0:
288,160,24615,1,8,0:0:0:0:
288,160,24690,1,8,0:0:0:0:
224,160,24840,1,0,0:0:0:0:
224,160,24990,1,0,0:0:0:0:
288,160,25065,1,8,0:0:0:0:
288,160,25140,1,8,0:0:0:0:
288,160,25215,1,8,0:0:0:0:
224,160,25290,1,0,0:0:0:0:
288,160,25440,1,8,0:0:0:0:
224,160,25590,1,0,0:0:0:0:
224,160,25665,1,0,0:0:0:0:
288,160,25740,1,8,0:0:0:0:
224,160,25890,1,0,0:0:0:0:
288,160,26040,1,8,0:0:0:0:
224,160,26115,1,0,0:0:0:0:
288,160,26190,1,8,0:0:0:0:
288,160,26340,1,8,0:0:0:0:
224,160,26490,1,0,0:0:0:0:
224,160,26640,1,0,0:0:0:0:
288,160,26790,1,8,0:0:0:0:
224,160,26865,1,0,0:0:0:0:
288,160,26940,1,8,0:0:0:0:
224,160,27015,1,0,0:0:0:0:
288,160,27090,1,8,0:0:0:0:
224,160,27240,1,0,0:0:0:0:
224,160,27390,1,0,0:0:0:0:
224,160,27465,1,0,0:0:0:0:
288,160,27540,1,8,0:0:0:0:
224,160,27615,1,0,0:0:0:0:
288,160,27690,1,8,0:0:0:0:
224,160,27840,1,0,0:0:0:0:
288,160,27990,1,8,0:0:0:0:
224,160,28065,1,0,0:0:0:0:
288,160,28140,1,8,0:0:0:0:
224,160,28290,1,0,0:0:0:0:
224,160,28440,1,0,0:0:0:0:
224,160,28515,1,0,0:0:0:0:
288,160,28590,1,8,0:0:0:0:
288,160,28740,1,8,0:0:0:0:
224,160,28890,1,0,0:0:0:0:
224,160,29040,1,0,0:0:0:0:
224,160,29115,1,8,0:0:0:0:
224,160,29190,1,0,0:0:0:0:
288,160,29340,1,8,0:0:0:0:
288,160,29490,1,8,0:0:0:0:
224,160,29565,1,0,0:0:0:0:
288,160,29640,1,8,0:0:0:0:
224,160,29790,1,0,0:0:0:0:
224,160,29940,1,0,0:0:0:0:
288,160,30015,1,8,0:0:0:0:
224,160,30090,1,0,0:0:0:0:
288,160,30240,1,8,0:0:0:0:
224,160,30390,1,0,0:0:0:0:
224,160,30465,1,0,0:0:0:0:
288,160,30540,1,8,0:0:0:0:
224,224,31290,1,4,0:0:0:0:
224,160,31740,1,0,0:0:0:0:
288,160,32190,1,8,0:0:0:0:
224,160,32490,1,0,0:0:0:0:
224,160,32640,1,0,0:0:0:0:
224,160,32940,1,0,0:0:0:0:
288,160,33390,1,8,0:0:0:0:
224,160,33690,1,0,0:0:0:0:
288,160,33990,1,8,0:0:0:0:
224,160,34140,1,0,0:0:0:0:
224,160,34440,1,0,0:0:0:0:
288,160,34590,1,8,0:0:0:0:
224,160,34740,1,0,0:0:0:0:
224,160,34890,1,0,0:0:0:0:
288,160,35040,1,8,0:0:0:0:
288,160,35190,1,8,0:0:0:0:
224,160,35340,1,0,0:0:0:0:
288,160,35790,1,8,0:0:0:0:
224,160,36090,1,0,0:0:0:0:
288,160,36540,1,8,0:0:0:0:
224,160,36990,1,0,0:0:0:0:
288,160,37290,1,8,0:0:0:0:
224,160,37440,1,0,0:0:0:0:
224,160,37740,1,0,0:0:0:0:
288,160,38190,1,8,0:0:0:0:
224,160,38490,1,0,0:0:0:0:
288,160,38790,1,8,0:0:0:0:
224,160,38940,1,0,0:0:0:0:
288,160,39240,1,8,0:0:0:0:
288,160,39390,1,8,0:0:0:0:
224,160,39540,1,0,0:0:0:0:
224,160,39840,1,0,0:0:0:0:
288,160,39990,1,8,0:0:0:0:
224,160,40140,1,0,0:0:0:0:
288,160,40590,1,8,0:0:0:0:
224,224,40890,1,4,0:0:0:0:
288,160,41340,1,8,0:0:0:0:
288,160,41790,1,8,0:0:0:0:
288,160,42090,1,8,0:0:0:0:
224,160,42240,1,0,0:0:0:0:
224,160,42540,1,0,0:0:0:0:
288,160,42990,1,8,0:0:0:0:
224,160,43290,1,0,0:0:0:0:
288,160,43590,1,8,0:0:0:0:
224,160,43740,1,0,0:0:0:0:
224,160,44040,1,0,0:0:0:0:
224,160,44340,1,0,0:0:0:0:
224,160,44640,1,0,0:0:0:0:
288,160,44790,1,8,0:0:0:0:
224,160,44940,1,0,0:0:0:0:
288,160,45390,1,8,0:0:0:0:
224,160,45690,1,0,0:0:0:0:
224,160,45990,1,0,0:0:0:0:
288,160,46140,1,8,0:0:0:0:
288,160,46590,1,8,0:0:0:0:
288,160,46890,1,8,0:0:0:0:
224,160,47040,1,0,0:0:0:0:
224,160,47340,1,0,0:0:0:0:
288,160,47790,1,8,0:0:0:0:
224,160,48090,1,0,0:0:0:0:
224,160,48390,1,0,0:0:0:0:
288,160,48540,1,8,0:0:0:0:
224,160,48840,1,0,0:0:0:0:
288,160,48990,1,8,0:0:0:0:
224,224,49140,1,4,0:0:0:0:
224,160,49890,1,0,0:0:0:0:
224,160,50040,1,0,0:0:0:0:
224,160,50115,1,0,0:0:0:0:
288,160,50190,1,8,0:0:0:0:
224,224,50490,1,4,0:0:0:0:
224,160,50940,1,0,0:0:0:0:
288,160,51090,1,8,0:0:0:0:
288,160,51390,1,8,0:0:0:0:
288,160,51540,1,8,0:0:0:0:
224,160,51690,1,0,0:0:0:0:
224,160,51915,1,0,0:0:0:0:
224,160,52140,1,0,0:0:0:0:
288,160,52290,1,8,0:0:0:0:
224,160,52590,1,0,0:0:0:0:
224,160,52740,1,0,0:0:0:0:
224,160,52890,1,0,0:0:0:0:
224,160,53340,1,0,0:0:0:0:
288,160,53490,1,8,0:0:0:0:
224,160,53640,1,0,0:0:0:0:
224,160,53790,1,0,0:0:0:0:
224,160,53940,1,0,0:0:0:0:
288,160,54090,1,8,0:0:0:0:
224,160,54315,1,0,0:0:0:0:
224,160,54540,1,0,0:0:0:0:
288,160,54690,1,8,0:0:0:0:
224,160,54840,1,0,0:0:0:0:
288,160,54990,1,8,0:0:0:0:
288,160,55140,1,8,0:0:0:0:
224,160,55290,1,0,0:0:0:0:
224,160,55440,1,0,0:0:0:0:
224,160,55515,1,0,0:0:0:0:
224,160,55590,1,0,0:0:0:0:
224,160,55740,1,0,0:0:0:0:
288,160,55890,1,8,0:0:0:0:
288,160,56040,1,8,0:0:0:0:
224,160,56190,1,0,0:0:0:0:
288,160,56340,1,8,0:0:0:0:
224,160,56490,1,0,0:0:0:0:
224,160,56715,1,0,0:0:0:0:
224,160,56940,1,0,0:0:0:0:
288,160,57090,1,8,0:0:0:0:
224,160,57240,1,0,0:0:0:0:
288,160,57390,1,8,0:0:0:0:
288,160,57540,1,8,0:0:0:0:
224,160,57690,1,0,0:0:0:0:
288,160,58140,1,8,0:0:0:0:
224,160,58590,1,0,0:0:0:0:
288,160,59040,1,8,0:0:0:0:
288,160,59340,1,8,0:0:0:0:
224,160,59490,1,0,0:0:0:0:
288,160,59790,1,8,0:0:0:0:
224,224,60090,1,4,0:0:0:0:
224,160,60240,1,0,0:0:0:0:
224,160,60315,1,0,0:0:0:0:
288,160,60390,1,8,0:0:0:0:
288,160,60540,1,8,0:0:0:0:
224,160,60690,1,0,0:0:0:0:
288,160,60840,1,8,0:0:0:0:
288,160,60915,1,8,0:0:0:0:
288,160,60990,1,8,0:0:0:0:
224,160,61140,1,0,0:0:0:0:
224,160,61290,1,0,0:0:0:0:
288,160,61440,1,8,0:0:0:0:
224,160,61515,1,0,0:0:0:0:
288,160,61590,1,8,0:0:0:0:
224,160,61740,1,0,0:0:0:0:
288,160,61890,1,8,0:0:0:0:
224,160,61965,1,0,0:0:0:0:
224,160,62040,1,0,0:0:0:0:
224,160,62115,1,0,0:0:0:0:
288,160,62190,1,8,0:0:0:0:
288,160,62340,1,8,0:0:0:0:
224,160,62490,1,0,0:0:0:0:
224,160,62640,1,0,0:0:0:0:
224,160,62715,1,0,0:0:0:0:
288,160,62790,1,8,0:0:0:0:
288,160,62940,1,8,0:0:0:0:
224,160,63090,1,0,0:0:0:0:
288,160,63240,1,8,0:0:0:0:
224,160,63315,1,0,0:0:0:0:
288,160,63390,1,8,0:0:0:0:
224,160,63540,1,0,0:0:0:0:
288,160,63690,1,8,0:0:0:0:
224,160,63840,1,0,0:0:0:0:
288,160,63915,1,8,0:0:0:0:
224,160,63990,1,0,0:0:0:0:
288,160,64140,1,8,0:0:0:0:
224,160,64290,1,0,0:0:0:0:
224,160,64440,1,0,0:0:0:0:
224,160,64515,1,0,0:0:0:0:
288,160,64590,1,8,0:0:0:0:
224,160,64665,1,0,0:0:0:0:
288,160,64740,1,8,0:0:0:0:
224,160,64890,1,0,0:0:0:0:
224,160,65040,1,0,0:0:0:0:
224,160,65115,1,0,0:0:0:0:
288,160,65190,1,8,0:0:0:0:
288,160,65340,1,8,0:0:0:0:
224,160,65490,1,0,0:0:0:0:
224,160,65640,1,0,0:0:0:0:
224,160,65715,1,0,0:0:0:0:
288,160,65790,1,8,0:0:0:0:
224,160,65940,1,0,0:0:0:0:
288,160,66090,1,8,0:0:0:0:
224,160,66240,1,0,0:0:0:0:
288,160,66315,1,8,0:0:0:0:
224,160,66390,1,0,0:0:0:0:
288,160,66540,1,8,0:0:0:0:
224,160,66690,1,0,0:0:0:0:
288,160,66840,1,8,0:0:0:0:
224,160,66915,1,0,0:0:0:0:
288,160,66990,1,8,0:0:0:0:
288,160,67065,1,8,0:0:0:0:
224,160,67140,1,0,0:0:0:0:
224,160,67215,1,0,0:0:0:0:
288,224,67290,1,12,0:0:0:0:
288,224,67740,1,12,0:0:0:0:
288,224,68190,1,12,0:0:0:0:
288,224,68640,1,12,0:0:0:0:
224,160,68790,1,0,0:0:0:0:
224,160,68865,1,0,0:0:0:0:
288,224,68940,1,12,0:0:0:0:
288,160,69390,1,8,0:0:0:0:
224,224,69690,1,4,0:0:0:0:
224,160,69840,1,0,0:0:0:0:
224,160,69915,1,0,0:0:0:0:
288,160,69990,1,8,0:0:0:0:
224,160,70140,1,0,0:0:0:0:
288,160,70290,1,8,0:0:0:0:
288,160,70365,1,8,0:0:0:0:
224,160,70440,1,0,0:0:0:0:
224,160,70590,1,0,0:0:0:0:
288,160,70740,1,8,0:0:0:0:
224,160,70890,1,0,0:0:0:0:
288,160,71040,1,8,0:0:0:0:
224,160,71115,1,0,0:0:0:0:
288,160,71190,1,8,0:0:0:0:
224,160,71340,1,0,0:0:0:0:
288,160,71490,1,8,0:0:0:0:
224,160,71640,1,0,0:0:0:0:
288,160,71715,1,8,0:0:0:0:
224,160,71790,1,0,0:0:0:0:
288,160,71940,1,8,0:0:0:0:
224,160,72090,1,0,0:0:0:0:
224,160,72240,1,0,0:0:0:0:
224,160,72315,1,0,0:0:0:0:
288,160,72390,1,8,0:0:0:0:
224,160,72540,1,0,0:0:0:0:
288,160,72690,1,8,0:0:0:0:
288,160,72765,1,8,0:0:0:0:
224,160,72840,1,0,0:0:0:0:
224,160,72990,1,0,0:0:0:0:
288,160,73140,1,8,0:0:0:0:
224,160,73290,1,0,0:0:0:0:
224,160,73440,1,0,0:0:0:0:
224,160,73515,1,0,0:0:0:0:
288,160,73590,1,8,0:0:0:0:
288,160,73665,1,8,0:0:0:0:
288,160,73740,1,8,0:0:0:0:
224,160,73890,1,0,0:0:0:0:
224,160,74040,1,0,0:0:0:0:
288,160,74115,1,8,0:0:0:0:
224,160,74190,1,0,0:0:0:0:
224,160,74265,1,0,0:0:0:0:
288,160,74340,1,8,0:0:0:0:
224,160,74490,1,0,0:0:0:0:
224,160,74640,1,0,0:0:0:0:
224,160,74715,1,0,0:0:0:0:
288,160,74790,1,8,0:0:0:0:
224,160,74940,1,0,0:0:0:0:
288,160,75090,1,8,0:0:0:0:
288,160,75165,1,8,0:0:0:0:
224,160,75240,1,0,0:0:0:0:
224,160,75390,1,0,0:0:0:0:
224,160,75465,1,0,0:0:0:0:
288,160,75540,1,8,0:0:0:0:
224,160,75690,1,0,0:0:0:0:
224,160,75840,1,0,0:0:0:0:
224,160,75915,1,0,0:0:0:0:
288,160,75990,1,8,0:0:0:0:
224,160,76140,1,0,0:0:0:0:
288,160,76290,1,8,0:0:0:0:
224,160,76440,1,0,0:0:0:0:
288,160,76515,1,8,0:0:0:0:
224,160,76590,1,0,0:0:0:0:
288,160,76740,1,8,0:0:0:0:
224,160,76890,1,0,0:0:0:0:
224,160,77040,1,0,0:0:0:0:
224,160,77115,1,0,0:0:0:0:
288,160,77190,1,8,0:0:0:0:
224,160,77340,1,0,0:0:0:0:
288,160,77490,1,8,0:0:0:0:
288,160,77565,1,8,0:0:0:0:
224,160,77640,1,0,0:0:0:0:
224,160,77790,1,0,0:0:0:0:
288,160,77940,1,8,0:0:0:0:
224,160,78090,1,0,0:0:0:0:
288,160,78240,1,8,0:0:0:0:
224,160,78315,1,0,0:0:0:0:
288,160,78390,1,8,0:0:0:0:
224,160,78540,1,0,0:0:0:0:
288,160,78690,1,8,0:0:0:0:
224,160,78840,1,0,0:0:0:0:
288,160,78915,1,8,0:0:0:0:
224,160,78990,1,0,0:0:0:0:
288,160,79140,1,8,0:0:0:0:
224,224,79290,1,4,0:0:0:0:
224,160,79440,1,0,0:0:0:0:
224,160,79515,1,0,0:0:0:0:
288,160,79590,1,8,0:0:0:0:
224,160,79665,1,0,0:0:0:0:
224,160,79740,1,0,0:0:0:0:
288,160,79890,1,8,0:0:0:0:
288,160,79965,1,8,0:0:0:0:
224,160,80040,1,0,0:0:0:0:
224,160,80190,1,0,0:0:0:0:
288,160,80340,1,8,0:0:0:0:
224,160,80490,1,0,0:0:0:0:
224,160,80640,1,0,0:0:0:0:
224,160,80715,1,0,0:0:0:0:
288,160,80790,1,8,0:0:0:0:
224,160,80940,1,0,0:0:0:0:
288,160,81090,1,8,0:0:0:0:
224,160,81240,1,0,0:0:0:0:
224,160,81315,1,0,0:0:0:0:
288,160,81390,1,8,0:0:0:0:
288,160,81540,1,8,0:0:0:0:
224,160,81690,1,0,0:0:0:0:
224,160,81840,1,0,0:0:0:0:
224,160,81915,1,0,0:0:0:0:
288,160,81990,1,8,0:0:0:0:
224,160,82065,1,0,0:0:0:0:
224,160,82140,1,0,0:0:0:0:
288,160,82290,1,8,0:0:0:0:
288,160,82365,1,8,0:0:0:0:
224,160,82440,1,0,0:0:0:0:
224,160,82590,1,0,0:0:0:0:
288,160,82740,1,8,0:0:0:0:
224,160,82890,1,0,0:0:0:0:
224,160,83040,1,0,0:0:0:0:
288,160,83115,1,8,0:0:0:0:
224,160,83190,1,0,0:0:0:0:
288,160,83340,1,8,0:0:0:0:
224,160,83490,1,0,0:0:0:0:
224,160,83640,1,0,0:0:0:0:
224,160,83715,1,0,0:0:0:0:
288,160,83790,1,8,0:0:0:0:
288,160,83940,1,8,0:0:0:0:
224,224,84090,1,4,0:0:0:0:
288,160,84240,1,8,0:0:0:0:
288,160,84315,1,8,0:0:0:0:
224,160,84390,1,0,0:0:0:0:
224,224,84540,1,4,0:0:0:0:
224,160,84840,1,0,0:0:0:0:
224,160,84915,1,0,0:0:0:0:
288,160,84990,1,8,0:0:0:0:
224,224,85140,1,4,0:0:0:0:
288,160,85440,1,8,0:0:0:0:
288,160,85515,1,8,0:0:0:0:
288,160,85590,1,8,0:0:0:0:
224,224,85740,1,4,0:0:0:0:
288,160,86040,1,8,0:0:0:0:
224,160,86115,1,0,0:0:0:0:
288,160,86190,1,8,0:0:0:0:
224,224,86340,1,4,0:0:0:0:
288,160,86490,1,8,0:0:0:0:
224,160,86565,1,0,0:0:0:0:
224,160,86640,1,0,0:0:0:0:
224,160,86715,1,0,0:0:0:0:
288,160,86790,1,8,0:0:0:0:
224,160,86865,1,0,0:0:0:0:
288,160,86940,1,8,0:0:0:0:
224,160,87015,1,0,0:0:0:0:
224,160,87090,1,8,0:0:0:0:
288,160,87165,1,8,0:0:0:0:
288,160,87240,1,8,0:0:0:0:
224,160,87315,1,0,0:0:0:0:
288,160,87390,1,8,0:0:0:0:
288,160,87465,1,8,0:0:0:0:
224,160,87540,1,0,0:0:0:0:
224,160,87615,1,0,0:0:0:0:
288,160,87690,1,8,0:0:0:0:
288,160,87765,1,8,0:0:0:0:
224,160,87840,1,0,0:0:0:0:
224,160,87915,1,0,0:0:0:0:
288,160,87990,1,8,0:0:0:0:
288,160,88065,1,8,0:0:0:0:
288,160,88140,1,8,0:0:0:0:
224,160,88215,1,0,0:0:0:0:
288,160,88290,1,8,0:0:0:0:
224,160,88365,1,0,0:0:0:0:
224,160,88440,1,0,0:0:0:0:
224,160,88515,1,0,0:0:0:0:
288,160,88590,1,8,0:0:0:0:
288,224,88890,1,12,0:0:0:0:
224,160,89040,1,0,0:0:0:0:
224,160,89115,1,0,0:0:0:0:
224,160,89190,1,0,0:0:0:0:
288,160,89340,1,8,0:0:0:0:
224,160,89490,1,0,0:0:0:0:
288,160,89565,1,8,0:0:0:0:
224,160,89640,1,0,0:0:0:0:
288,160,89790,1,8,0:0:0:0:
224,160,89940,1,0,0:0:0:0:
224,160,90015,1,0,0:0:0:0:
224,160,90090,1,0,0:0:0:0:
288,160,90240,1,8,0:0:0:0:
224,160,90390,1,0,0:0:0:0:
224,160,90465,1,0,0:0:0:0:
288,160,90540,1,8,0:0:0:0:
224,160,90690,1,0,0:0:0:0:
224,160,90840,1,0,0:0:0:0:
224,160,90915,1,0,0:0:0:0:
288,160,90990,1,8,0:0:0:0:
224,160,91290,1,0,0:0:0:0:
288,160,91440,1,8,0:0:0:0:
288,160,91515,1,8,0:0:0:0:
224,160,91590,1,0,0:0:0:0:
288,160,91740,1,8,0:0:0:0:
288,160,91815,1,8,0:0:0:0:
288,160,91890,1,8,0:0:0:0:
224,160,92040,1,0,0:0:0:0:
288,160,92115,1,8,0:0:0:0:
224,160,92190,1,0,0:0:0:0:
288,160,92340,1,8,0:0:0:0:
288,160,92415,1,8,0:0:0:0:
224,160,92490,1,0,0:0:0:0:
224,160,92640,1,0,0:0:0:0:
224,160,92715,1,0,0:0:0:0:
288,160,92790,1,8,0:0:0:0:
224,160,92940,1,0,0:0:0:0:
224,160,93015,1,0,0:0:0:0:
224,160,93090,1,0,0:0:0:0:
288,160,93240,1,8,0:0:0:0:
288,160,93315,1,8,0:0:0:0:
288,160,93390,1,8,0:0:0:0:
224,160,93465,1,0,0:0:0:0:
224,160,93540,1,0,0:0:0:0:
224,160,93615,1,0,0:0:0:0:
288,160,93690,1,8,0:0:0:0:
224,160,93840,1,0,0:0:0:0:
224,160,93915,1,0,0:0:0:0:
224,160,93990,1,0,0:0:0:0:
288,160,94140,1,8,0:0:0:0:
224,160,94290,1,0,0:0:0:0:
288,160,94365,1,8,0:0:0:0:
224,160,94440,1,0,0:0:0:0:
288,160,94590,1,8,0:0:0:0:
224,160,94740,1,0,0:0:0:0:
224,160,94815,1,0,0:0:0:0:
224,160,94890,1,0,0:0:0:0:
288,160,95040,1,8,0:0:0:0:
288,160,95115,1,8,0:0:0:0:
224,160,95190,1,0,0:0:0:0:
224,160,95265,1,0,0:0:0:0:
288,160,95340,1,8,0:0:0:0:
224,160,95490,1,0,0:0:0:0:
224,160,95640,1,0,0:0:0:0:
224,160,95715,1,0,0:0:0:0:
288,160,95790,1,8,0:0:0:0:
224,160,96090,1,0,0:0:0:0:
288,160,96240,1,8,0:0:0:0:
288,160,96315,1,8,0:0:0:0:
224,160,96390,1,0,0:0:0:0:
288,160,96540,1,8,0:0:0:0:
288,160,96615,1,8,0:0:0:0:
288,160,96690,1,8,0:0:0:0:
224,160,96840,1,0,0:0:0:0:
288,160,96915,1,8,0:0:0:0:
224,160,96990,1,0,0:0:0:0:
288,160,97140,1,8,0:0:0:0:
288,160,97215,1,8,0:0:0:0:
224,160,97290,1,0,0:0:0:0:
224,160,97440,1,0,0:0:0:0:
224,160,97515,1,0,0:0:0:0:
288,160,97590,1,8,0:0:0:0:
224,160,97740,1,0,0:0:0:0:
224,160,97815,1,0,0:0:0:0:
224,160,97890,1,0,0:0:0:0:
288,160,98040,1,8,0:0:0:0:
288,160,98115,1,8,0:0:0:0:
288,160,98190,1,8,0:0:0:0:
224,160,98265,1,0,0:0:0:0:
224,160,98340,1,0,0:0:0:0:
224,160,98415,1,0,0:0:0:0:
288,160,98490,1,8,0:0:0:0:
224,160,98640,1,0,0:0:0:0:
224,160,98715,1,0,0:0:0:0:
224,160,98790,1,0,0:0:0:0:
288,160,98940,1,8,0:0:0:0:
224,160,99090,1,0,0:0:0:0:
288,160,99165,1,8,0:0:0:0:
224,160,99240,1,0,0:0:0:0:
288,160,99390,1,8,0:0:0:0:
224,160,99540,1,0,0:0:0:0:
224,160,99615,1,0,0:0:0:0:
224,160,99690,1,0,0:0:0:0:
288,160,99840,1,8,0:0:0:0:
224,160,99990,1,0,0:0:0:0:
224,160,100065,1,0,0:0:0:0:
288,160,100140,1,8,0:0:0:0:
224,160,100290,1,0,0:0:0:0:
224,160,100440,1,0,0:0:0:0:
224,160,100515,1,0,0:0:0:0:
288,160,100590,1,8,0:0:0:0:
224,160,100890,1,0,0:0:0:0:
288,160,101040,1,8,0:0:0:0:
288,160,101115,1,8,0:0:0:0:
224,160,101190,1,0,0:0:0:0:
288,160,101340,1,8,0:0:0:0:
288,160,101415,1,8,0:0:0:0:
288,160,101490,1,8,0:0:0:0:
224,160,101640,1,0,0:0:0:0:
288,160,101715,1,8,0:0:0:0:
224,160,101790,1,0,0:0:0:0:
288,160,101940,1,8,0:0:0:0:
288,160,102015,1,8,0:0:0:0:
224,160,102090,1,0,0:0:0:0:
224,160,102240,1,0,0:0:0:0:
224,160,102315,1,0,0:0:0:0:
288,160,102390,1,8,0:0:0:0:
224,160,102540,1,0,0:0:0:0:
224,160,102615,1,0,0:0:0:0:
224,160,102690,1,0,0:0:0:0:
288,160,102840,1,8,0:0:0:0:
288,160,102915,1,8,0:0:0:0:
288,160,102990,1,8,0:0:0:0:
224,160,103065,1,0,0:0:0:0:
224,160,103140,1,0,0:0:0:0:
224,160,103215,1,0,0:0:0:0:
288,160,103290,1,8,0:0:0:0:
224,160,103440,1,0,0:0:0:0:
224,160,103515,1,0,0:0:0:0:
224,160,103590,1,0,0:0:0:0:
288,160,103740,1,8,0:0:0:0:
224,160,103890,1,0,0:0:0:0:
288,160,103965,1,8,0:0:0:0:
224,160,104040,1,0,0:0:0:0:
288,160,104190,1,8,0:0:0:0:
224,160,104340,1,0,0:0:0:0:
224,160,104415,1,0,0:0:0:0:
224,160,104490,1,0,0:0:0:0:
288,160,104640,1,8,0:0:0:0:
288,160,104715,1,8,0:0:0:0:
224,160,104790,1,0,0:0:0:0:
224,160,104865,1,0,0:0:0:0:
288,160,104940,1,8,0:0:0:0:
224,160,105090,1,0,0:0:0:0:
224,160,105240,1,0,0:0:0:0:
224,160,105315,1,0,0:0:0:0:
288,160,105390,1,8,0:0:0:0:
224,160,105690,1,0,0:0:0:0:
288,160,105840,1,8,0:0:0:0:
288,160,105915,1,8,0:0:0:0:
224,160,105990,1,0,0:0:0:0:
288,160,106140,1,8,0:0:0:0:
288,160,106215,1,8,0:0:0:0:
288,160,106290,1,8,0:0:0:0:
224,160,106440,1,0,0:0:0:0:
288,160,106515,1,8,0:0:0:0:
224,160,106590,1,0,0:0:0:0:
288,160,106740,1,8,0:0:0:0:
224,160,106815,1,0,0:0:0:0:
288,160,106890,1,8,0:0:0:0:
288,160,106965,1,8,0:0:0:0:
288,160,107040,1,8,0:0:0:0:
224,160,107115,1,0,0:0:0:0:
224,160,107190,1,0,0:0:0:0:
224,160,107265,1,0,0:0:0:0:
288,160,107340,1,8,0:0:0:0:
288,160,107415,1,8,0:0:0:0:
224,160,107490,1,0,0:0:0:0:
288,160,107565,1,8,0:0:0:0:
224,160,107640,1,0,0:0:0:0:
224,160,107715,1,0,0:0:0:0:
288,160,107790,1,8,0:0:0:0:
288,160,107865,1,8,0:0:0:0:
288,160,107940,1,8,0:0:0:0:
288,160,108015,1,8,0:0:0:0:
224,224,108090,1,4,0:0:0:0:
288,160,108990,1,8,0:0:0:0:
224,160,109140,1,0,0:0:0:0:
224,160,109215,1,0,0:0:0:0:
288,160,109290,1,8,0:0:0:0:
224,160,109440,1,0,0:0:0:0:
288,160,109590,1,8,0:0:0:0:
224,160,109740,1,0,0:0:0:0:
288,160,109890,1,8,0:0:0:0:
288,160,110040,1,8,0:0:0:0:
224,160,110190,1,0,0:0:0:0:
224,160,110490,1,0,0:0:0:0:
288,160,110940,1,8,0:0:0:0:
224,160,111090,1,0,0:0:0:0:
288,160,111390,1,8,0:0:0:0:
288,160,111690,1,8,0:0:0:0:
224,160,111840,1,0,0:0:0:0:
288,160,111990,1,8,0:0:0:0:
224,160,112140,1,0,0:0:0:0:
224,160,112440,1,0,0:0:0:0:
288,160,112590,1,8,0:0:0:0:
224,160,112890,1,0,0:0:0:0:
224,160,113340,1,0,0:0:0:0:
288,160,113790,1,8,0:0:0:0:
288,160,114090,1,8,0:0:0:0:
288,160,114165,1,8,0:0:0:0:
224,160,114240,1,0,0:0:0:0:
224,160,114540,1,0,0:0:0:0:
288,160,114990,1,8,0:0:0:0:
224,160,115290,1,0,0:0:0:0:
288,160,115740,1,8,0:0:0:0:
224,160,116040,1,0,0:0:0:0:
288,160,116190,1,8,0:0:0:0:
224,160,116490,1,0,0:0:0:0:
224,160,116640,1,0,0:0:0:0:
288,160,116790,1,8,0:0:0:0:
224,160,116940,1,0,0:0:0:0:
224,160,117240,1,0,0:0:0:0:
288,160,117390,1,8,0:0:0:0:
288,160,117540,1,8,0:0:0:0:
224,224,117690,1,4,0:0:0:0:
288,160,118590,1,8,0:0:0:0:
224,160,118740,1,0,0:0:0:0:
224,160,118815,1,0,0:0:0:0:
288,160,118890,1,8,0:0:0:0:
224,160,119040,1,0,0:0:0:0:
288,160,119190,1,8,0:0:0:0:
224,160,119340,1,0,0:0:0:0:
288,160,119490,1,8,0:0:0:0:
288,160,119640,1,8,0:0:0:0:
224,160,119790,1,0,0:0:0:0:
224,160,120090,1,0,0:0:0:0:
288,160,120540,1,8,0:0:0:0:
224,160,120690,1,0,0:0:0:0:
288,160,120990,1,8,0:0:0:0:
288,160,121290,1,8,0:0:0:0:
224,160,121440,1,0,0:0:0:0:
288,160,121590,1,8,0:0:0:0:
224,160,121740,1,0,0:0:0:0:
224,160,122040,1,0,0:0:0:0:
288,160,122190,1,8,0:0:0:0:
224,160,122490,1,0,0:0:0:0:
224,160,122940,1,0,0:0:0:0:
288,160,123390,1,8,0:0:0:0:
288,160,123690,1,8,0:0:0:0:
288,160,123765,1,8,0:0:0:0:
224,160,123840,1,0,0:0:0:0:
224,160,124140,1,0,0:0:0:0:
288,160,124590,1,8,0:0:0:0:
224,160,124890,1,0,0:0:0:0:
288,160,125190,1,8,0:0:0:0:
224,160,125340,1,0,0:0:0:0:
224,160,125640,1,0,0:0:0:0:
288,160,125790,1,8,0:0:0:0:
224,160,125940,1,0,0:0:0:0:
224,160,126090,1,0,0:0:0:0:
288,224,126240,1,12,0:0:0:0:
224,160,126390,1,0,0:0:0:0:
288,224,126540,1,12,0:0:0:0:
288,224,126840,1,12,0:0:0:0:
224,160,126990,1,0,0:0:0:0:
288,160,127290,1,8,0:0:0:0:
224,160,127365,1,0,0:0:0:0:
224,160,127440,1,0,0:0:0:0:
224,160,127515,1,0,0:0:0:0:
288,160,127590,1,8,0:0:0:0:
224,160,127665,1,0,0:0:0:0:
224,160,127740,1,0,0:0:0:0:
288,160,127815,1,8,0:0:0:0:
288,160,127890,1,8,0:0:0:0:
288,160,127965,1,8,0:0:0:0:
224,160,128040,1,0,0:0:0:0:
224,160,128115,1,0,0:0:0:0:
288,160,128190,1,8,0:0:0:0:
224,160,128265,1,0,0:0:0:0:
288,160,128340,1,8,0:0:0:0:
288,160,128415,1,8,0:0:0:0:
224,160,128490,1,0,0:0:0:0:
224,160,128565,1,0,0:0:0:0:
224,160,128640,1,0,0:0:0:0:
224,160,128715,1,0,0:0:0:0:
288,160,128790,1,8,0:0:0:0:
224,160,128865,1,0,0:0:0:0:
224,160,128940,1,0,0:0:0:0:
224,160,129015,1,0,0:0:0:0:
288,160,129090,1,8,0:0:0:0:
224,160,129165,1,0,0:0:0:0:
288,160,129240,1,8,0:0:0:0:
224,160,129315,1,0,0:0:0:0:
288,160,129390,1,8,0:0:0:0:
288,160,129465,1,8,0:0:0:0:
224,160,129540,1,0,0:0:0:0:
224,160,129615,1,0,0:0:0:0:
288,160,129690,1,8,0:0:0:0:
224,160,129765,1,0,0:0:0:0:
224,160,129840,1,0,0:0:0:0:
224,160,129915,1,0,0:0:0:0:
288,160,129990,1,8,0:0:0:0:
288,160,130065,1,8,0:0:0:0:
224,160,130140,1,0,0:0:0:0:
288,160,130215,1,8,0:0:0:0:
288,160,130290,1,8,0:0:0:0:
288,160,130365,1,8,0:0:0:0:
224,160,130440,1,0,0:0:0:0:
224,160,130515,1,0,0:0:0:0:
288,160,130590,1,8,0:0:0:0:
224,160,130665,1,0,0:0:0:0:
288,160,130740,1,8,0:0:0:0:
288,160,130815,1,8,0:0:0:0:
224,160,130890,1,0,0:0:0:0:
224,160,130965,1,0,0:0:0:0:
224,160,131040,1,0,0:0:0:0:
224,160,131115,1,0,0:0:0:0:
288,160,131190,1,8,0:0:0:0:
224,160,131265,1,0,0:0:0:0:
224,160,131340,1,0,0:0:0:0:
224,160,131415,1,0,0:0:0:0:
288,160,131490,1,8,0:0:0:0:
224,160,131565,1,0,0:0:0:0:
288,160,131640,1,8,0:0:0:0:
224,160,131715,1,0,0:0:0:0:
288,160,131790,1,8,0:0:0:0:
288,160,131940,1,8,0:0:0:0:
224,224,132090,1,4,0:0:0:0:
224,160,132240,1,0,0:0:0:0:
224,160,132315,1,0,0:0:0:0:
288,160,132390,1,8,0:0:0:0:
224,160,132540,1,0,0:0:0:0:
288,160,132690,1,8,0:0:0:0:
288,160,132765,1,8,0:0:0:0:
224,160,132840,1,0,0:0:0:0:
224,160,132990,1,0,0:0:0:0:
288,160,133140,1,8,0:0:0:0:
288,160,133215,1,8,0:0:0:0:
224,160,133290,1,0,0:0:0:0:
224,160,133440,1,0,0:0:0:0:
224,160,133515,1,0,0:0:0:0:
288,160,133590,1,8,0:0:0:0:
224,160,133740,1,0,0:0:0:0:
288,160,133815,1,8,0:0:0:0:
224,160,133890,1,0,0:0:0:0:
224,160,134040,1,0,0:0:0:0:
288,160,134190,1,8,0:0:0:0:
288,160,134265,1,8,0:0:0:0:
224,160,134340,1,0,0:0:0:0:
288,160,134490,1,8,0:0:0:0:
224,160,134640,1,0,0:0:0:0:
224,160,134715,1,0,0:0:0:0:
288,160,134790,1,8,0:0:0:0:
224,160,134940,1,0,0:0:0:0:
288,160,135090,1,8,0:0:0:0:
288,160,135165,1,8,0:0:0:0:
224,160,135240,1,0,0:0:0:0:
224,160,135390,1,0,0:0:0:0:
288,160,135540,1,8,0:0:0:0:
288,160,135615,1,8,0:0:0:0:
224,160,135690,1,0,0:0:0:0:
224,160,135840,1,0,0:0:0:0:
224,160,135915,1,0,0:0:0:0:
288,160,135990,1,8,0:0:0:0:
224,160,136140,1,0,0:0:0:0:
288,160,136215,1,8,0:0:0:0:
224,160,136290,1,0,0:0:0:0:
288,160,136440,1,8,0:0:0:0:
224,160,136515,1,0,0:0:0:0:
288,160,136590,1,8,0:0:0:0:
224,160,136665,1,0,0:0:0:0:
224,160,136740,1,0,0:0:0:0:
288,224,136890,1,12,0:0:0:0:
224,160,137040,1,0,0:0:0:0:
288,160,137190,1,8,0:0:0:0:
224,160,137265,1,0,0:0:0:0:
224,160,137340,1,0,0:0:0:0:
224,160,137415,1,0,0:0:0:0:
288,160,137490,1,8,0:0:0:0:
288,160,137565,1,8,0:0:0:0:
288,160,137640,1,8,0:0:0:0:
224,160,137715,1,0,0:0:0:0:
224,160,137790,1,0,0:0:0:0:
288,160,137940,1,8,0:0:0:0:
224,160,138015,1,0,0:0:0:0:
288,160,138090,1,8,0:0:0:0:
288,160,138240,1,8,0:0:0:0:
224,160,138315,1,0,0:0:0:0:
224,160,138390,1,0,0:0:0:0:
288,160,138465,1,8,0:0:0:0:
288,160,138540,1,8,0:0:0:0:
224,160,138615,1,0,0:0:0:0:
288,160,138690,1,8,0:0:0:0:
224,160,138840,1,0,0:0:0:0:
224,160,138915,1,0,0:0:0:0:
288,160,138990,1,8,0:0:0:0:
288,160,139140,1,8,0:0:0:0:
288,160,139215,1,8,0:0:0:0:
224,160,139290,1,0,0:0:0:0:
224,160,139365,1,0,0:0:0:0:
288,160,139440,1,8,0:0:0:0:
224,160,139515,1,0,0:0:0:0:
288,160,139590,1,8,0:0:0:0:
224,160,139740,1,0,0:0:0:0:
288,160,139815,1,8,0:0:0:0:
224,160,139890,1,0,0:0:0:0:
288,160,140040,1,8,0:0:0:0:
224,160,140115,1,0,0:0:0:0:
224,160,140190,1,0,0:0:0:0:
288,160,140265,1,8,0:0:0:0:
288,160,140340,1,8,0:0:0:0:
288,160,140415,1,8,0:0:0:0:
224,160,140490,1,0,0:0:0:0:
288,160,140640,1,8,0:0:0:0:
288,160,140715,1,8,0:0:0:0:
224,160,140790,1,0,0:0:0:0:
288,160,140940,1,8,0:0:0:0:
224,160,141015,1,0,0:0:0:0:
288,160,141090,1,8,0:0:0:0:
288,160,141165,1,8,0:0:0:0:
288,160,141240,1,8,0:0:0:0:
224,160,141315,1,0,0:0:0:0:
224,160,141390,1,0,0:0:0:0:
288,160,141465,1,8,0:0:0:0:
224,160,141540,1,0,0:0:0:0:
224,160,141615,1,0,0:0:0:0:
288,160,141690,1,8,0:0:0:0:
288,160,141840,1,8,0:0:0:0:
224,160,141915,1,0,0:0:0:0:
288,160,141990,1,8,0:0:0:0:
224,160,142140,1,0,0:0:0:0:
288,160,142290,1,8,0:0:0:0:
288,160,142365,1,8,0:0:0:0:
224,160,142440,1,0,0:0:0:0:
224,160,142590,1,0,0:0:0:0:
288,160,142740,1,8,0:0:0:0:
288,160,142815,1,8,0:0:0:0:
224,160,142890,1,0,0:0:0:0:
224,160,143040,1,0,0:0:0:0:
224,160,143115,1,0,0:0:0:0:
288,160,143190,1,8,0:0:0:0:
224,160,143340,1,0,0:0:0:0:
288,160,143415,1,8,0:0:0:0:
224,160,143490,1,0,0:0:0:0:
224,160,143640,1,0,0:0:0:0:
288,160,143790,1,8,0:0:0:0:
288,160,143865,1,8,0:0:0:0:
224,160,143940,1,0,0:0:0:0:
288,160,144090,1,8,0:0:0:0:
288,160,144165,1,8,0:0:0:0:
288,160,144240,1,8,0:0:0:0:
224,160,144390,1,0,0:0:0:0:
288,160,144540,1,8,0:0:0:0:
288,160,144615,1,8,0:0:0:0:
224,160,144690,1,0,0:0:0:0:
224,160,144840,1,0,0:0:0:0:
288,160,144990,1,8,0:0:0:0:
224,160,145065,1,0,0:0:0:0:
288,160,145140,1,8,0:0:0:0:
224,160,145290,1,0,0:0:0:0:
288,160,145440,1,8,0:0:0:0:
224,160,145515,1,0,0:0:0:0:
224,160,145590,1,0,0:0:0:0:
288,160,145665,1,8,0:0:0:0:
224,160,145740,1,0,0:0:0:0:
224,160,145815,1,0,0:0:0:0:
288,160,145890,1,8,0:0:0:0:
224,160,145965,1,0,0:0:0:0:
224,160,146040,1,0,0:0:0:0:
288,160,146115,1,8,0:0:0:0:
224,160,146190,1,0,0:0:0:0:
224,160,146265,1,0,0:0:0:0:
288,160,146340,1,8,0:0:0:0:
224,160,146415,1,0,0:0:0:0:
288,224,146490,1,12,0:0:0:0:
224,160,146790,1,0,0:0:0:0:
288,160,147090,1,8,0:0:0:0:
224,160,147390,1,0,0:0:0:0:
288,160,147540,1,8,0:0:0:0:
288,160,147840,1,8,0:0:0:0:
224,160,147990,1,0,0:0:0:0:
288,160,148890,1,8,0:0:0:0:
224,160,149190,1,0,0:0:0:0:
288,160,149490,1,8,0:0:0:0:
224,160,149790,1,0,0:0:0:0:
288,160,149940,1,8,0:0:0:0:
224,160,150240,1,0,0:0:0:0:
224,160,150390,1,0,0:0:0:0:
288,160,151290,1,8,0:0:0:0:
224,160,151590,1,0,0:0:0:0:
288,160,151890,1,8,0:0:0:0:
224,160,152190,1,0,0:0:0:0:
288,160,152340,1,8,0:0:0:0:
288,160,152640,1,8,0:0:0:0:
224,160,152790,1,0,0:0:0:0:
288,160,153690,1,8,0:0:0:0:
224,160,153990,1,0,0:0:0:0:
288,160,154290,1,8,0:0:0:0:
224,160,154590,1,0,0:0:0:0:
288,160,154740,1,8,0:0:0:0:
288,160,155040,1,8,0:0:0:0:
288,160,155190,1,8,0:0:0:0:
288,160,156090,1,8,0:0:0:0:
224,160,156540,1,0,0:0:0:0:
224,160,156990,1,0,0:0:0:0:
288,160,157440,1,8,0:0:0:0:
224,160,157890,1,0,0:0:0:0:
288,160,158340,1,8,0:0:0:0:
224,160,158790,1,0,0:0:0:0:
224,160,159240,1,0,0:0:0:0:
288,160,159690,1,8,0:0:0:0:
224,160,160140,1,0,0:0:0:0:
288,160,160590,1,8,0:0:0:0:
224,160,160890,1,0,0:0:0:0:
288,160,161340,1,8,0:0:0:0:
224,160,161790,1,0,0:0:0:0:
288,160,162240,1,8,0:0:0:0:
224,160,162690,1,0,0:0:0:0:
224,160,163140,1,0,0:0:0:0:
288,160,163590,1,8,0:0:0:0:
288,160,164040,1,8,0:0:0:0:
224,160,164490,1,0,0:0:0:0:
224,160,164940,1,0,0:0:0:0:
288,160,165390,1,8,0:0:0:0:
224,160,165690,1,0,0:0:0:0:
224,160,165840,1,0,0:0:0:0:
224,160,165915,1,0,0:0:0:0:
288,160,165990,1,8,0:0:0:0:
224,160,166065,1,0,0:0:0:0:
224,160,166140,1,0,0:0:0:0:
288,160,166290,1,8,0:0:0:0:
224,160,166365,1,0,0:0:0:0:
288,160,166440,1,8,0:0:0:0:
224,160,166590,1,0,0:0:0:0:
288,160,166740,1,8,0:0:0:0:
288,160,166815,1,8,0:0:0:0:
224,160,166890,1,0,0:0:0:0:
288,160,167040,1,8,0:0:0:0:
224,160,167190,1,0,0:0:0:0:
224,160,167265,1,0,0:0:0:0:
288,160,167340,1,8,0:0:0:0:
224,160,167490,1,0,0:0:0:0:
288,160,167640,1,8,0:0:0:0:
224,160,167790,1,0,0:0:0:0:
224,160,167865,1,0,0:0:0:0:
288,160,167940,1,8,0:0:0:0:
288,160,168015,1,8,0:0:0:0:
224,160,168090,1,0,0:0:0:0:
288,160,168165,1,8,0:0:0:0:
224,160,168240,1,0,0:0:0:0:
224,160,168315,1,0,0:0:0:0:
288,160,168390,1,8,0:0:0:0:
224,160,168465,1,0,0:0:0:0:
224,160,168540,1,0,0:0:0:0:
288,160,168690,1,8,0:0:0:0:
224,160,168765,1,0,0:0:0:0:
288,160,168840,1,8,0:0:0:0:
224,160,168990,1,0,0:0:0:0:
288,160,169140,1,8,0:0:0:0:
288,160,169215,1,8,0:0:0:0:
224,160,169290,1,0,0:0:0:0:
288,160,169440,1,8,0:0:0:0:
224,160,169590,1,0,0:0:0:0:
224,160,169665,1,0,0:0:0:0:
288,160,169740,1,8,0:0:0:0:
224,160,169890,1,0,0:0:0:0:
288,160,170040,1,8,0:0:0:0:
224,160,170190,1,0,0:0:0:0:
224,160,170265,1,0,0:0:0:0:
288,160,170340,1,8,0:0:0:0:
288,160,170415,1,8,0:0:0:0:
224,160,170490,1,0,0:0:0:0:
224,160,170640,1,0,0:0:0:0:
224,160,170715,1,0,0:0:0:0:
288,160,170790,1,8,0:0:0:0:
224,160,170865,1,0,0:0:0:0:
224,160,170940,1,0,0:0:0:0:
288,160,171090,1,8,0:0:0:0:
224,160,171165,1,0,0:0:0:0:
288,160,171240,1,8,0:0:0:0:
224,160,171390,1,0,0:0:0:0:
288,160,171540,1,8,0:0:0:0:
288,160,171615,1,8,0:0:0:0:
224,160,171690,1,0,0:0:0:0:
288,160,171840,1,8,0:0:0:0:
224,160,171990,1,0,0:0:0:0:
224,160,172065,1,0,0:0:0:0:
288,160,172140,1,8,0:0:0:0:
224,160,172290,1,0,0:0:0:0:
288,160,172440,1,8,0:0:0:0:
224,160,172590,1,0,0:0:0:0:
224,160,172665,1,0,0:0:0:0:
288,160,172740,1,8,0:0:0:0:
288,160,172815,1,8,0:0:0:0:
224,160,172890,1,0,0:0:0:0:
288,160,172965,1,8,0:0:0:0:
224,160,173040,1,0,0:0:0:0:
224,160,173115,1,0,0:0:0:0:
288,160,173190,1,8,0:0:0:0:
224,160,173265,1,0,0:0:0:0:
224,160,173340,1,0,0:0:0:0:
288,160,173490,1,8,0:0:0:0:
224,160,173565,1,0,0:0:0:0:
288,160,173640,1,8,0:0:0:0:
224,160,173790,1,0,0:0:0:0:
288,160,173940,1,8,0:0:0:0:
288,160,174015,1,8,0:0:0:0:
224,160,174090,1,0,0:0:0:0:
288,160,174240,1,8,0:0:0:0:
224,160,174390,1,0,0:0:0:0:
224,160,174465,1,0,0:0:0:0:
288,160,174540,1,8,0:0:0:0:
224,160,174690,1,0,0:0:0:0:
288,160,174840,1,8,0:0:0:0:
224,160,174990,1,0,0:0:0:0:
224,160,175065,1,0,0:0:0:0:
288,160,175140,1,8,0:0:0:0:
288,160,175215,1,8,0:0:0:0:
224,160,175290,1,0,0:0:0:0:
288,160,175365,1,8,0:0:0:0:
224,160,175440,1,0,0:0:0:0:
224,160,175515,1,0,0:0:0:0:
288,160,175590,1,8,0:0:0:0:
224,160,175665,1,0,0:0:0:0:
224,160,175740,1,0,0:0:0:0:
224,160,175815,1,0,0:0:0:0:
288,160,175890,1,8,0:0:0:0:
224,160,175965,1,0,0:0:0:0:
288,160,176040,1,8,0:0:0:0:
224,160,176190,1,0,0:0:0:0:
288,160,176340,1,8,0:0:0:0:
288,160,176415,1,8,0:0:0:0:
224,160,176490,1,0,0:0:0:0:
288,160,176640,1,8,0:0:0:0:
224,160,176790,1,0,0:0:0:0:
224,160,176865,1,0,0:0:0:0:
288,160,176940,1,8,0:0:0:0:
224,160,177015,1,0,0:0:0:0:
224,160,177090,1,0,0:0:0:0:
224,160,177165,1,0,0:0:0:0:
288,160,177240,1,8,0:0:0:0:
224,160,177390,1,0,0:0:0:0:
224,160,177465,1,0,0:0:0:0:
288,160,177540,1,8,0:0:0:0:
288,160,177615,1,8,0:0:0:0:
224,160,177690,1,0,0:0:0:0:
288,160,177765,1,8,0:0:0:0:
224,160,177840,1,0,0:0:0:0:
224,160,177915,1,0,0:0:0:0:
288,160,177990,1,8,0:0:0:0:
224,160,178065,1,0,0:0:0:0:
224,160,178140,1,0,0:0:0:0:
224,160,178215,1,0,0:0:0:0:
288,160,178290,1,8,0:0:0:0:
224,160,178365,1,0,0:0:0:0:
288,160,178440,1,8,0:0:0:0:
224,160,178515,1,0,0:0:0:0:
224,160,178590,1,0,0:0:0:0:
224,160,178665,1,0,0:0:0:0:
288,160,178740,1,8,0:0:0:0:
288,160,178815,1,8,0:0:0:0:
224,160,178890,1,0,0:0:0:0:
288,160,179040,1,8,0:0:0:0:
224,160,179190,1,0,0:0:0:0:
224,160,179265,1,0,0:0:0:0:
288,160,179340,1,8,0:0:0:0:
224,160,179415,1,0,0:0:0:0:
224,160,179490,1,0,0:0:0:0:
224,160,179565,1,0,0:0:0:0:
288,160,179640,1,8,0:0:0:0:
224,160,179790,1,0,0:0:0:0:
224,160,179865,1,0,0:0:0:0:
288,160,179940,1,8,0:0:0:0:
288,160,180015,1,8,0:0:0:0:
224,160,180090,1,0,0:0:0:0:
288,160,180165,1,8,0:0:0:0:
224,160,180240,1,0,0:0:0:0:
224,160,180315,1,0,0:0:0:0:
288,160,180390,1,8,0:0:0:0:
224,160,180465,1,0,0:0:0:0:
224,160,180540,1,0,0:0:0:0:
224,160,180615,1,0,0:0:0:0:
288,160,180690,1,8,0:0:0:0:
224,160,180765,1,0,0:0:0:0:
288,160,180840,1,8,0:0:0:0:
224,160,180990,1,0,0:0:0:0:
288,160,181140,1,8,0:0:0:0:
288,160,181215,1,8,0:0:0:0:
224,160,181290,1,0,0:0:0:0:
288,160,181440,1,8,0:0:0:0:
224,160,181590,1,0,0:0:0:0:
224,160,181665,1,0,0:0:0:0:
288,160,181740,1,8,0:0:0:0:
224,160,181815,1,0,0:0:0:0:
224,160,181890,1,0,0:0:0:0:
224,160,181965,1,0,0:0:0:0:
288,160,182040,1,8,0:0:0:0:
224,160,182190,1,0,0:0:0:0:
224,160,182265,1,0,0:0:0:0:
288,160,182340,1,8,0:0:0:0:
288,160,182415,1,8,0:0:0:0:
224,160,182490,1,0,0:0:0:0:
288,160,182565,1,8,0:0:0:0:
224,160,182640,1,0,0:0:0:0:
224,160,182715,1,0,0:0:0:0:
288,160,182790,1,8,0:0:0:0:
224,160,182865,1,0,0:0:0:0:
224,160,182940,1,0,0:0:0:0:
224,160,183015,1,0,0:0:0:0:
288,160,183090,1,8,0:0:0:0:
224,160,183165,1,0,0:0:0:0:
288,160,183240,1,8,0:0:0:0:
224,160,183315,1,0,0:0:0:0:
224,160,183390,1,0,0:0:0:0:
224,160,183465,1,0,0:0:0:0:
288,160,183540,1,8,0:0:0:0:
288,160,183615,1,8,0:0:0:0:
224,160,183690,1,0,0:0:0:0:
288,160,183840,1,8,0:0:0:0:
288,160,183915,1,8,0:0:0:0:
224,160,183990,1,0,0:0:0:0:
288,160,184065,1,8,0:0:0:0:
288,160,184140,1,8,0:0:0:0:
224,160,184215,1,0,0:0:0:0:
288,160,184290,1,8,0:0:0:0:
224,160,184365,1,0,0:0:0:0:
224,160,184440,1,0,0:0:0:0:
288,160,184515,1,8,0:0:0:0:
224,160,184590,1,0,0:0:0:0:
224,160,184665,1,0,0:0:0:0:
288,160,184740,1,8,0:0:0:0:
288,160,184815,1,8,0:0:0:0:
224,224,184890,1,4,0:0:0:0:
288,160,185340,1,8,0:0:0:0:
288,160,186090,1,8,0:0:0:0:
224,160,186540,1,0,0:0:0:0:
224,160,186990,1,0,0:0:0:0:
288,160,187290,1,8,0:0:0:0:
288,160,187740,1,8,0:0:0:0:
224,160,188190,1,0,0:0:0:0:
288,160,188490,1,8,0:0:0:0:
288,160,188940,1,8,0:0:0:0:
224,160,189390,1,0,0:0:0:0:
288,160,189690,1,8,0:0:0:0:
224,160,190140,1,0,0:0:0:0:
288,160,190590,1,8,0:0:0:0:
288,160,190740,1,8,0:0:0:0:
224,160,191040,1,0,0:0:0:0:
288,160,191340,1,8,0:0:0:0:
224,160,191640,1,0,0:0:0:0:
288,160,191940,1,8,0:0:0:0:
288,160,192240,1,8,0:0:0:0:
224,160,192390,1,0,0:0:0:0:
288,160,192990,1,8,0:0:0:0:
288,160,193290,1,8,0:0:0:0:
224,160,194190,1,0,0:0:0:0:
288,160,194490,1,8,0:0:0:0:
224,160,194940,1,0,0:0:0:0:
224,160,195390,1,0,0:0:0:0:
288,160,195690,1,8,0:0:0:0:
224,160,196140,1,0,0:0:0:0:
288,160,196590,1,8,0:0:0:0:
288,160,196890,1,8,0:0:0:0:
224,160,197340,1,0,0:0:0:0:
288,160,198090,1,8,0:0:0:0:
288,160,198540,1,8,0:0:0:0:
288,160,198840,1,8,0:0:0:0:
224,160,199140,1,0,0:0:0:0:
224,160,199440,1,0,0:0:0:0:
288,160,199590,1,8,0:0:0:0:
288,160,200040,1,8,0:0:0:0:
224,160,200340,1,0,0:0:0:0:
224,160,200790,1,0,0:0:0:0:
288,160,200940,1,8,0:0:0:0:
288,160,201240,1,8,0:0:0:0:
288,160,201540,1,8,0:0:0:0:
224,224,201690,1,4,0:0:0:0:
224,224,202140,1,4,0:0:0:0:
224,224,202590,1,4,0:0:0:0:
224,224,203040,1,4,0:0:0:0:
224,224,203490,1,4,0:0:0:0:
224,224,203940,1,4,0:0:0:0:
224,224,204390,1,4,0:0:0:0:
288,160,204540,1,8,0:0:0:0:
288,160,204615,1,8,0:0:0:0:
224,224,204690,1,4,0:0:0:0:
224,224,204990,1,4,0:0:0:0:
288,224,205290,1,12,0:0:0:0:
288,160,206190,1,8,0:0:0:0:
224,160,206340,1,0,0:0:0:0:
224,160,206790,1,0,0:0:0:0:
288,160,206940,1,8,0:0:0:0:
224,160,207240,1,0,0:0:0:0:
288,160,207390,1,8,0:0:0:0:
288,160,207540,1,8,0:0:0:0:
288,160,208590,1,8,0:0:0:0:
224,160,208740,1,0,0:0:0:0:
288,160,209190,1,8,0:0:0:0:
288,160,209340,1,8,0:0:0:0:
224,160,209640,1,0,0:0:0:0:
288,160,209940,1,8,0:0:0:0:
288,160,210990,1,8,0:0:0:0:
224,160,211290,1,0,0:0:0:0:
288,160,211890,1,8,0:0:0:0:
224,160,212340,1,0,0:0:0:0:
288,160,213690,1,8,0:0:0:0:
224,160,213765,1,0,0:0:0:0:
288,160,213840,1,8,0:0:0:0:
288,160,213915,1,8,0:0:0:0:
224,160,213990,1,0,0:0:0:0:
224,160,214065,1,0,0:0:0:0:
224,160,214140,1,0,0:0:0:0:
224,160,214215,1,0,0:0:0:0:
288,160,214290,1,8,0:0:0:0:
224,160,214440,1,0,0:0:0:0:
288,160,214515,1,8,0:0:0:0:
224,160,214665,1,0,0:0:0:0:
288,160,214740,1,8,0:0:0:0:
224,224,214890,1,4,0:0:0:0:
224,160,215040,1,0,0:0:0:0:
224,160,215115,1,0,0:0:0:0:
288,160,215190,1,8,0:0:0:0:
224,160,215340,1,0,0:0:0:0:
224,160,215415,1,0,0:0:0:0:
288,160,215490,1,8,0:0:0:0:
224,160,215565,1,0,0:0:0:0:
224,160,215640,1,0,0:0:0:0:
224,160,215790,1,0,0:0:0:0:
224,160,215865,1,0,0:0:0:0:
288,160,215940,1,8,0:0:0:0:
224,160,216090,1,0,0:0:0:0:
224,160,216240,1,0,0:0:0:0:
224,160,216315,1,0,0:0:0:0:
288,160,216390,1,8,0:0:0:0:
224,160,216540,1,0,0:0:0:0:
288,160,216615,1,8,0:0:0:0:
224,160,216690,1,0,0:0:0:0:
224,160,216840,1,0,0:0:0:0:
224,160,216915,1,0,0:0:0:0:
288,160,216990,1,8,0:0:0:0:
288,160,217140,1,8,0:0:0:0:
224,160,217290,1,0,0:0:0:0:
224,160,217440,1,0,0:0:0:0:
224,160,217515,1,0,0:0:0:0:
288,160,217590,1,8,0:0:0:0:
224,160,217740,1,0,0:0:0:0:
288,160,217815,1,8,0:0:0:0:
288,160,217890,1,8,0:0:0:0:
288,160,217965,1,8,0:0:0:0:
224,160,218040,1,0,0:0:0:0:
224,160,218190,1,0,0:0:0:0:
224,160,218265,1,0,0:0:0:0:
288,160,218340,1,8,0:0:0:0:
224,160,218490,1,0,0:0:0:0:
224,160,218640,1,0,0:0:0:0:
224,160,218715,1,0,0:0:0:0:
288,160,218790,1,8,0:0:0:0:
288,160,218940,1,8,0:0:0:0:
288,160,219015,1,8,0:0:0:0:
224,160,219090,1,0,0:0:0:0:
224,160,219240,1,0,0:0:0:0:
224,160,219315,1,0,0:0:0:0:
288,160,219390,1,8,0:0:0:0:
224,160,219540,1,0,0:0:0:0:
224,160,219615,1,0,0:0:0:0:
288,224,219690,1,12,0:0:0:0:
224,160,219840,1,0,0:0:0:0:
288,160,219990,1,8,0:0:0:0:
224,160,220065,1,0,0:0:0:0:
288,224,220140,1,12,0:0:0:0:
224,160,220290,1,0,0:0:0:0:
288,160,220440,1,8,0:0:0:0:
288,160,220515,1,8,0:0:0:0:
224,160,220590,1,0,0:0:0:0:
224,160,220665,1,0,0:0:0:0:
288,224,220740,1,12,0:0:0:0:
224,160,220890,1,0,0:0:0:0:
288,160,221040,1,8,0:0:0:0:
224,160,221115,1,0,0:0:0:0:
224,160,221190,1,0,0:0:0:0:
224,160,221265,1,0,0:0:0:0:
288,224,221340,1,12,0:0:0:0:
288,160,221490,1,8,0:0:0:0:
224,160,221640,1,0,0:0:0:0:
288,160,221715,1,8,0:0:0:0:
224,160,221790,1,0,0:0:0:0:
224,160,221865,1,0,0:0:0:0:
288,224,221940,1,12,0:0:0:0:
224,160,222090,1,0,0:0:0:0:
224,160,222165,1,0,0:0:0:0:
224,160,222240,1,0,0:0:0:0:
224,160,222315,1,0,0:0:0:0:
288,160,222390,1,8,0:0:0:0:
224,160,222465,1,0,0:0:0:0:
224,160,222540,1,0,0:0:0:0:
224,160,222615,1,0,0:0:0:0:
288,160,222690,1,8,0:0:0:0:
288,160,222765,1,8,0:0:0:0:
224,160,222840,1,0,0:0:0:0:
288,160,222915,1,8,0:0:0:0:
224,160,222990,1,0,0:0:0:0:
224,160,223065,1,0,0:0:0:0:
288,160,223140,1,8,0:0:0:0:
288,160,223215,1,8,0:0:0:0:
224,160,223290,1,0,0:0:0:0:
224,160,223365,1,0,0:0:0:0:
288,160,223440,1,8,0:0:0:0:
224,160,223515,1,0,0:0:0:0:
224,160,223590,1,0,0:0:0:0:
288,160,223665,1,8,0:0:0:0:
224,160,223740,1,0,0:0:0:0:
224,160,223815,1,0,0:0:0:0:
288,160,223890,1,8,0:0:0:0:
224,160,223965,1,0,0:0:0:0:
224,160,224040,1,0,0:0:0:0:
288,160,224115,1,8,0:0:0:0:
224,160,224190,1,0,0:0:0:0:
224,160,224265,1,0,0:0:0:0:
288,160,224340,1,8,0:0:0:0:
288,160,224415,1,8,0:0:0:0:
224,224,224490,1,4,0:0:0:0:
224,160,224640,1,0,0:0:0:0:
224,160,224715,1,0,0:0:0:0:
288,160,224790,1,8,0:0:0:0:
288,160,224865,1,8,0:0:0:0:
288,160,224940,1,8,0:0:0:0:
224,160,225090,1,0,0:0:0:0:
224,160,225240,1,0,0:0:0:0:
288,160,225390,1,8,0:0:0:0:
224,160,225465,1,0,0:0:0:0:
288,160,225540,1,8,0:0:0:0:
224,160,225690,1,0,0:0:0:0:
288,160,225840,1,8,0:0:0:0:
288,160,225915,1,8,0:0:0:0:
288,160,225990,1,8,0:0:0:0:
288,160,226140,1,8,0:0:0:0:
224,160,226290,1,0,0:0:0:0:
224,160,226440,1,0,0:0:0:0:
288,160,226590,1,8,0:0:0:0:
288,160,226665,1,8,0:0:0:0:
288,160,226740,1,8,0:0:0:0:
224,160,226890,1,0,0:0:0:0:
224,160,227040,1,0,0:0:0:0:
224,160,227115,1,0,0:0:0:0:
288,160,227190,1,8,0:0:0:0:
288,160,227340,1,8,0:0:0:0:
224,160,227490,1,0,0:0:0:0:
288,160,227640,1,8,0:0:0:0:
288,160,227715,1,8,0:0:0:0:
224,160,227790,1,0,0:0:0:0:
288,160,227940,1,8,0:0:0:0:
224,160,228090,1,0,0:0:0:0:
224,160,228240,1,0,0:0:0:0:
224,160,228315,1,0,0:0:0:0:
288,160,228390,1,8,0:0:0:0:
288,160,228540,1,8,0:0:0:0:
224,160,228690,1,0,0:0:0:0:
224,160,228840,1,0,0:0:0:0:
288,160,228990,1,8,0:0:0:0:
224,160,229065,1,0,0:0:0:0:
288,160,229140,1,8,0:0:0:0:
224,160,229290,1,0,0:0:0:0:
224,160,229440,1,0,0:0:0:0:
224,160,229515,1,0,0:0:0:0:
288,160,229590,1,8,0:0:0:0:
288,160,229665,1,8,0:0:0:0:
288,160,229740,1,8,0:0:0:0:
224,160,229890,1,0,0:0:0:0:
288,160,230040,1,8,0:0:0:0:
288,160,230115,1,8,0:0:0:0:
224,160,230190,1,0,0:0:0:0:
288,160,230265,1,8,0:0:0:0:
288,160,230340,1,8,0:0:0:0:
224,160,230490,1,0,0:0:0:0:
224,160,230640,1,0,0:0:0:0:
224,160,230715,1,0,0:0:0:0:
288,160,230790,1,8,0:0:0:0:
224,160,230865,1,0,0:0:0:0:
224,160,230940,1,0,0:0:0:0:
288,160,231090,1,8,0:0:0:0:
224,160,231240,1,0,0:0:0:0:
224,160,231315,1,0,0:0:0:0:
288,160,231390,1,8,0:0:0:0:
224,160,231465,1,0,0:0:0:0:
288,160,231540,1,8,0:0:0:0:
224,160,231690,1,0,0:0:0:0:
224,160,231840,1,0,0:0:0:0:
288,160,231990,1,8,0:0:0:0:
224,160,232065,1,0,0:0:0:0:
288,160,232140,1,8,0:0:0:0:
224,160,232290,1,0,0:0:0:0:
288,160,232440,1,8,0:0:0:0:
224,160,232590,1,0,0:0:0:0:
224,160,232665,1,0,0:0:0:0:
288,160,232740,1,8,0:0:0:0:
224,160,232890,1,0,0:0:0:0:
224,160,233040,1,0,0:0:0:0:
288,160,233190,1,8,0:0:0:0:
288,160,233265,1,8,0:0:0:0:
288,160,233340,1,8,0:0:0:0:
224,160,233490,1,0,0:0:0:0:
224,160,233640,1,0,0:0:0:0:
288,160,233790,1,8,0:0:0:0:
224,160,233865,1,0,0:0:0:0:
288,160,233940,1,8,0:0:0:0:
224,224,234090,1,4,0:0:0:0:
224,160,234240,1,0,0:0:0:0:
224,160,234315,1,0,0:0:0:0:
288,160,234390,1,8,0:0:0:0:
288,160,234540,1,8,0:0:0:0:
224,160,234690,1,0,0:0:0:0:
288,160,234840,1,8,0:0:0:0:
288,160,234915,1,8,0:0:0:0:
224,160,234990,1,0,0:0:0:0:
288,160,235140,1,8,0:0:0:0:
224,160,235290,1,0,0:0:0:0:
288,160,235440,1,8,0:0:0:0:
224,160,235515,1,0,0:0:0:0:
288,160,235590,1,8,0:0:0:0:
224,160,235740,1,0,0:0:0:0:
224,160,235890,1,0,0:0:0:0:
224,160,236040,1,0,0:0:0:0:
288,160,236190,1,8,0:0:0:0:
288,160,236265,1,8,0:0:0:0:
288,160,236340,1,8,0:0:0:0:
224,160,236490,1,0,0:0:0:0:
224,160,236640,1,0,0:0:0:0:
224,160,236715,1,0,0:0:0:0:
288,160,236790,1,8,0:0:0:0:
288,160,236940,1,8,0:0:0:0:
224,160,237090,1,0,0:0:0:0:
288,160,237240,1,8,0:0:0:0:
224,160,237315,1,0,0:0:0:0:
288,160,237390,1,8,0:0:0:0:
288,160,237540,1,8,0:0:0:0:
224,160,237690,1,0,0:0:0:0:
288,160,237840,1,8,0:0:0:0:
288,160,237915,1,8,0:0:0:0:
288,160,237990,1,8,0:0:0:0:
288,160,238140,1,8,0:0:0:0:
224,160,238290,1,0,0:0:0:0:
224,160,238440,1,0,0:0:0:0:
288,160,238590,1,8,0:0:0:0:
224,160,238665,1,0,0:0:0:0:
288,160,238740,1,8,0:0:0:0:
224,224,238890,1,4,0:0:0:0:
224,160,239040,1,0,0:0:0:0:
288,160,239190,1,8,0:0:0:0:
288,160,239265,1,8,0:0:0:0:
224,224,239340,1,4,0:0:0:0:
288,160,239640,1,8,0:0:0:0:
224,160,239790,1,0,0:0:0:0:
288,160,239865,1,8,0:0:0:0:
224,224,239940,1,4,0:0:0:0:
288,160,240240,1,8,0:0:0:0:
288,160,240390,1,8,0:0:0:0:
288,160,240465,1,8,0:0:0:0:
224,224,240540,1,4,0:0:0:0:
288,160,240690,1,8,0:0:0:0:
224,160,240840,1,0,0:0:0:0:
224,160,240915,1,0,0:0:0:0:
288,160,240990,1,8,0:0:0:0:
288,160,241065,1,8,0:0:0:0:
224,224,241140,1,4,0:0:0:0:
256,192,241290,12,0,242490,0:0:0:0:
288,160,243390,5,8,0:0:0:0:
224,224,243690,1,4,0:0:0:0:
224,160,243840,1,0,0:0:0:0:
224,160,243915,1,0,0:0:0:0:
288,160,243990,1,8,0:0:0:0:
224,160,244140,1,0,0:0:0:0:
288,160,244290,1,8,0:0:0:0:
288,160,244365,1,8,0:0:0:0:
224,160,244440,1,0,0:0:0:0:
224,160,244590,1,0,0:0:0:0:
288,160,244740,1,8,0:0:0:0:
224,160,244890,1,0,0:0:0:0:
288,160,245040,1,8,0:0:0:0:
224,160,245115,1,0,0:0:0:0:
288,160,245190,1,8,0:0:0:0:
224,160,245340,1,0,0:0:0:0:
288,160,245490,1,8,0:0:0:0:
224,160,245640,1,0,0:0:0:0:
288,160,245715,1,8,0:0:0:0:
224,160,245790,1,0,0:0:0:0:
288,160,245940,1,8,0:0:0:0:
224,160,246090,1,0,0:0:0:0:
224,160,246240,1,0,0:0:0:0:
224,160,246315,1,0,0:0:0:0:
288,160,246390,1,8,0:0:0:0:
224,160,246540,1,0,0:0:0:0:
288,160,246690,1,8,0:0:0:0:
288,160,246765,1,8,0:0:0:0:
224,160,246840,1,0,0:0:0:0:
224,160,246990,1,0,0:0:0:0:
288,160,247140,1,8,0:0:0:0:
224,160,247290,1,0,0:0:0:0:
224,160,247440,1,0,0:0:0:0:
224,160,247515,1,0,0:0:0:0:
288,160,247590,1,8,0:0:0:0:
288,160,247665,1,8,0:0:0:0:
288,160,247740,1,8,0:0:0:0:
224,160,247890,1,0,0:0:0:0:
224,160,248040,1,0,0:0:0:0:
288,160,248115,1,8,0:0:0:0:
224,160,248190,1,0,0:0:0:0:
224,160,248265,1,0,0:0:0:0:
288,160,248340,1,8,0:0:0:0:
224,160,248490,1,0,0:0:0:0:
224,160,248640,1,0,0:0:0:0:
224,160,248715,1,0,0:0:0:0:
288,160,248790,1,8,0:0:0:0:
224,160,248940,1,0,0:0:0:0:
288,160,249090,1,8,0:0:0:0:
288,160,249165,1,8,0:0:0:0:
224,160,249240,1,0,0:0:0:0:
224,160,249390,1,0,0:0:0:0:
224,160,249465,1,0,0:0:0:0:
288,160,249540,1,8,0:0:0:0:
224,160,249690,1,0,0:0:0:0:
224,160,249840,1,0,0:0:0:0:
224,160,249915,1,0,0:0:0:0:
288,160,249990,1,8,0:0:0:0:
224,160,250140,1,0,0:0:0:0:
288,160,250290,1,8,0:0:0:0:
224,160,250440,1,0,0:0:0:0:
288,160,250515,1,8,0:0:0:0:
224,160,250590,1,0,0:0:0:0:
288,160,250740,1,8,0:0:0:0:
224,160,250890,1,0,0:0:0:0:
224,160,251040,1,0,0:0:0:0:
224,160,251115,1,0,0:0:0:0:
288,160,251190,1,8,0:0:0:0:
224,160,251340,1,0,0:0:0:0:
288,160,251490,1,8,0:0:0:0:
288,160,251565,1,8,0:0:0:0:
224,160,251640,1,0,0:0:0:0:
224,160,251790,1,0,0:0:0:0:
288,160,251940,1,8,0:0:0:0:
224,160,252090,1,0,0:0:0:0:
288,160,252240,1,8,0:0:0:0:
224,160,252315,1,0,0:0:0:0:
288,160,252390,1,8,0:0:0:0:
224,160,252540,1,0,0:0:0:0:
288,160,252690,1,8,0:0:0:0:
224,160,252840,1,0,0:0:0:0:
288,160,252915,1,8,0:0:0:0:
224,160,252990,1,0,0:0:0:0:
224,160,253065,1,0,0:0:0:0:
288,160,253140,1,8,0:0:0:0:
224,224,253290,1,4,0:0:0:0:
224,160,253440,1,0,0:0:0:0:
224,160,253515,1,0,0:0:0:0:
288,160,253590,1,8,0:0:0:0:
224,160,253665,1,0,0:0:0:0:
224,160,253740,1,0,0:0:0:0:
288,160,253890,1,8,0:0:0:0:
288,160,253965,1,8,0:0:0:0:
224,160,254040,1,0,0:0:0:0:
224,160,254190,1,0,0:0:0:0:
288,160,254340,1,8,0:0:0:0:
224,160,254490,1,0,0:0:0:0:
224,160,254640,1,0,0:0:0:0:
224,160,254715,1,0,0:0:0:0:
288,160,254790,1,8,0:0:0:0:
224,160,254940,1,0,0:0:0:0:
288,160,255090,1,8,0:0:0:0:
224,160,255240,1,0,0:0:0:0:
224,160,255315,1,0,0:0:0:0:
288,160,255390,1,8,0:0:0:0:
288,160,255540,1,8,0:0:0:0:
224,160,255690,1,0,0:0:0:0:
224,160,255840,1,0,0:0:0:0:
224,160,255915,1,0,0:0:0:0:
288,160,255990,1,8,0:0:0:0:
224,160,256065,1,0,0:0:0:0:
224,160,256140,1,0,0:0:0:0:
288,160,256290,1,8,0:0:0:0:
288,160,256365,1,8,0:0:0:0:
224,160,256440,1,0,0:0:0:0:
224,160,256590,1,0,0:0:0:0:
288,160,256740,1,8,0:0:0:0:
224,160,256890,1,0,0:0:0:0:
224,160,257040,1,0,0:0:0:0:
288,160,257115,1,8,0:0:0:0:
224,160,257190,1,0,0:0:0:0:
288,160,257340,1,8,0:0:0:0:
224,160,257490,1,0,0:0:0:0:
224,160,257640,1,0,0:0:0:0:
224,160,257715,1,0,0:0:0:0:
288,160,257790,1,8,0:0:0:0:
288,160,257940,1,8,0:0:0:0:
224,160,258090,1,0,0:0:0:0:
224,160,258240,1,0,0:0:0:0:
224,160,258315,1,0,0:0:0:0:
288,160,258390,1,8,0:0:0:0:
224,160,258465,1,0,0:0:0:0:
224,160,258540,1,0,0:0:0:0:
288,160,258690,1,8,0:0:0:0:
288,160,258765,1,8,0:0:0:0:
224,160,258840,1,0,0:0:0:0:
224,160,258990,1,0,0:0:0:0:
288,160,259140,1,8,0:0:0:0:
224,160,259290,1,0,0:0:0:0:
224,160,259440,1,0,0:0:0:0:
224,160,259515,1,0,0:0:0:0:
288,160,259590,1,8,0:0:0:0:
224,160,259740,1,0,0:0:0:0:
288,160,259890,1,8,0:0:0:0:
224,160,260040,1,0,0:0:0:0:
224,160,260115,1,0,0:0:0:0:
288,160,260190,1,8,0:0:0:0:
288,160,260340,1,8,0:0:0:0:
224,160,260490,1,0,0:0:0:0:
224,160,260640,1,0,0:0:0:0:
224,160,260715,1,0,0:0:0:0:
288,160,260790,1,8,0:0:0:0:
224,160,260865,1,0,0:0:0:0:
224,160,260940,1,0,0:0:0:0:
288,160,261090,1,8,0:0:0:0:
288,160,261165,1,8,0:0:0:0:
224,160,261240,1,0,0:0:0:0:
224,160,261390,1,0,0:0:0:0:
288,160,261540,1,8,0:0:0:0:
224,160,261690,1,0,0:0:0:0:
288,160,261840,1,8,0:0:0:0:
224,160,261915,1,0,0:0:0:0:
224,160,261990,1,0,0:0:0:0:
288,160,262065,1,8,0:0:0:0:
224,160,262140,1,0,0:0:0:0:
224,160,262215,1,0,0:0:0:0:
288,160,262290,1,8,0:0:0:0:
224,160,262365,1,0,0:0:0:0:
224,160,262440,1,0,0:0:0:0:
288,160,262515,1,8,0:0:0:0:
224,160,262590,1,0,0:0:0:0:
224,160,262665,1,0,0:0:0:0:
288,160,262740,1,8,0:0:0:0:
224,160,262815,1,0,0:0:0:0:
288,224,262890,1,12,0:0:0:0:
224,160,263190,1,0,0:0:0:0:
288,160,263490,1,8,0:0:0:0:
224,160,263790,1,0,0:0:0:0:
288,160,263940,1,8,0:0:0:0:
288,160,264240,1,8,0:0:0:0:
224,160,264390,1,0,0:0:0:0:
288,160,265290,1,8,0:0:0:0:
224,160,265590,1,0,0:0:0:0:
288,160,265890,1,8,0:0:0:0:
224,160,266190,1,0,0:0:0:0:
288,160,266340,1,8,0:0:0:0:
224,160,266640,1,0,0:0:0:0:
224,160,266790,1,0,0:0:0:0:
288,160,267690,1,8,0:0:0:0:
224,160,267990,1,0,0:0:0:0:
288,160,268290,1,8,0:0:0:0:
224,160,268590,1,0,0:0:0:0:
288,160,268740,1,8,0:0:0:0:
288,160,269040,1,8,0:0:0:0:
224,160,269190,1,0,0:0:0:0:
288,160,270090,1,8,0:0:0:0:
224,160,270390,1,0,0:0:0:0:
288,160,270690,1,8,0:0:0:0:
224,160,270990,1,0,0:0:0:0:
288,160,271140,1,8,0:0:0:0:
288,160,271440,1,8,0:0:0:0:
288,160,271590,1,8,0:0:0:0:
288,160,272040,1,8,0:0:0:0:
288,160,272115,1,8,0:0:0:0:
288,160,272190,1,8,0:0:0:0:
224,160,272265,1,0,0:0:0:0:
224,160,272340,1,0,0:0:0:0:
224,160,272415,1,0,0:0:0:0:
256,192,272490,12,8,274890,0:0:0:0:
