osu file format v14

[General]
AudioFilename: audio.mp3
AudioLeadIn: 0
PreviewTime: 19176
Countdown: 1
SampleSet: Normal
StackLeniency: 0.4
Mode: 0
LetterboxInBreaks: 0
WidescreenStoryboard: 1

[Editor]
Bookmarks: 154726,159726,202315,221965,248965
DistanceSpacing: 1.3
BeatDivisor: 4
GridSize: 4
TimelineZoom: 1.5

[Metadata]
Title:Impulse
TitleUnicode:Impulse
Artist:An Endless Sporadic
ArtistUnicode:An Endless Sporadic
Creator:Atsuro
Version:Expert
Source:
Tags:Ameliorate Janssen Guitar Hero 3 Legends of Rock
BeatmapID:2180909
BeatmapSetID:951912

[Difficulty]
HPDrainRate:5
CircleSize:5
OverallDifficulty:8.5
ApproachRate:8.5
SliderMultiplier:1.5
SliderTickRate:1

[Events]
//Background and Video events
0,0,"eo.png",0,0
//Break Periods
2,109151,117697
//Storyboard Layer 0 (Background)
//Storyboard Layer 1 (Fail)
//Storyboard Layer 2 (Pass)
//Storyboard Layer 3 (Foreground)
//Storyboard Layer 4 (Overlay)
//Storyboard Sound Samples

[TimingPoints]
51,300,4,1,0,60,1,0
51,-142.857142857143,4,1,0,60,0,0
18051,-200,4,1,0,60,0,0
19251,-90.9090909090909,4,1,0,60,0,0
22701,-66.6666666666667,4,1,0,60,0,0
23901,-90.9090909090909,4,1,0,60,0,0
28551,-71.4285714285714,4,1,0,60,0,0
28851,-86.9565217391304,4,1,0,60,0,0
32301,-66.6666666666667,4,1,0,60,0,0
33501,-86.9565217391304,4,1,0,60,0,0
38451,-125,4,1,0,60,0,0
57651,-90.9090909090909,4,1,0,60,0,0
58451,-71.4285714285714,4,1,0,60,0,0
58851,-312.5,4,1,0,60,0,0
61251,-100,4,1,0,60,0,0
80451,-111.111111111111,4,1,0,60,0,0
99651,-74.0740740740741,4,1,0,60,0,0
103101,-153.846153846154,4,1,0,60,0,0
103551,-100,4,1,0,60,0,0
104451,-80,4,1,0,60,0,0
105351,-111.111111111111,4,1,0,60,0,0
107001,-222.222222222222,4,1,0,60,0,0
109251,-333.333333333331,4,1,0,60,0,0
127851,-142.857142857142,4,1,0,60,0,0
128451,-133.333333333333,4,1,0,60,0,0
145101,-666.666666666667,4,1,0,60,0,0
145751,-416.666666666667,4,1,0,60,0,0
146201,-333.333333333333,4,1,0,60,0,0
146551,-270.27027027027,4,1,0,60,0,0
147151,-250,4,1,0,60,0,0
147876,-86.9565217391304,4,1,0,60,0,0
148851,250,3,1,0,60,1,0
148976,-83.3333333333333,3,1,0,60,0,0
149601,-400,3,1,0,60,0,0
152601,-90.9090909090909,3,1,0,60,0,0
153101,-83.3333333333333,3,1,0,60,0,0
153601,-76.9230769230769,3,1,0,60,0,0
163095,248.447204968944,4,1,0,60,1,0
163095,-66.6666666666667,4,1,0,60,0,0
166200,-57.1428571428571,4,1,0,60,0,0
168063,252.100840336134,4,1,0,60,1,0
168063,-57.1428571428571,4,1,0,60,0,0
170836,251.572327044025,4,1,0,60,1,0
174483,251.572327044025,3,1,0,60,1,0
174483,-57.1428571428571,3,1,0,60,0,0
175615,250,4,1,0,60,1,0
185015,250,4,1,0,60,1,0
186132,292.682926829268,4,1,0,60,1,0
186571,300,4,1,0,60,1,0
188521,-125,4,1,0,60,0,0
192115,300,4,1,0,60,1,0
192415,-133.333333333333,4,1,0,60,0,0
201565,300,4,1,0,60,1,0
201565,-133.333333333333,4,1,0,60,0,0
209665,-285.714285714286,4,1,0,60,0,0
209965,-117.647058823529,4,1,0,60,0,0
226465,-250,4,1,0,60,0,0
226765,-100,4,1,0,60,0,0
229165,-90.9090909090909,4,1,0,60,0,0
232615,-66.6666666666667,4,1,0,60,0,0
233815,-90.9090909090909,4,1,0,60,0,0
238465,-76.9230769230769,4,1,0,60,0,0
238765,-83.3333333333333,4,1,0,60,0,1
242215,-62.5,4,1,0,60,0,1
243415,-83.3333333333333,4,1,0,60,0,1
247165,-142.857142857143,4,1,0,60,0,1
249715,-166.666666666667,4,1,0,60,0,0
250090,-200,4,1,0,30,0,0
251365,-333.333333333336,4,1,0,30,0,0
251965,-333.333333333336,4,1,0,5,0,0

[HitObjects]
104,248,51,5,0,0:0:0:0:
104,248,201,1,0,0:0:0:0:
149,182,351,2,0,L|137:114,1,52.4999983978272
222,214,651,2,0,L|212:265,1,52.4999983978272
296,346,951,1,0,0:0:0:0:
296,346,1101,2,0,L|286:294,1,52.4999983978272
342,239,1401,1,0,0:0:0:0:
410,191,1551,2,0,L|419:139,1,52.4999983978272
496,67,1851,1,0,0:0:0:0:
495,145,2001,1,0,0:0:0:0:
420,65,2151,2,0,L|410:13,1,52.4999983978272
351,100,2451,5,0,0:0:0:0:
351,100,2601,1,0,0:0:0:0:
285,152,2751,2,0,L|233:142,1,52.4999983978272
177,74,3051,2,0,L|229:64,2,52.4999983978272
99,96,3501,1,0,0:0:0:0:
81,178,3651,2,0,L|71:230,1,52.4999983978272
48,352,3951,1,0,0:0:0:0:
107,300,4101,1,0,0:0:0:0:
181,325,4251,1,0,0:0:0:0:
123,377,4401,1,0,0:0:0:0:
107,300,4551,1,0,0:0:0:0:
107,300,4701,1,0,0:0:0:0:
164,246,4851,6,0,L|216:236,1,52.4999983978272
295,218,5151,1,0,0:0:0:0:
222,130,5301,2,0,L|274:140,1,52.4999983978272
353,158,5601,1,0,0:0:0:0:
329,80,5751,1,0,0:0:0:0:
329,80,5901,1,0,0:0:0:0:
437,163,6051,6,0,L|489:153,1,52.4999983978272
414,241,6351,1,0,0:0:0:0:
393,319,6501,2,0,L|341:329,1,52.4999983978272
414,241,6801,1,0,0:0:0:0:
471,298,6951,1,0,0:0:0:0:
471,298,7101,1,0,0:0:0:0:
341,328,7251,6,0,L|289:318,1,52.4999983978272
211,302,7551,1,0,0:0:0:0:
169,177,7701,2,0,L|186:227,1,52.4999983978272
211,302,8001,1,0,0:0:0:0:
157,360,8151,1,0,0:0:0:0:
157,360,8301,1,0,0:0:0:0:
133,284,8451,5,0,0:0:0:0:
153,190,8601,1,0,0:0:0:0:
230,104,8751,1,0,0:0:0:0:
361,60,8901,1,0,0:0:0:0:
317,147,9051,1,0,0:0:0:0:
306,114,9201,1,0,0:0:0:0:
294,80,9351,1,0,0:0:0:0:
282,46,9501,1,0,0:0:0:0:
270,12,9651,5,0,0:0:0:0:
270,12,9801,1,0,0:0:0:0:
208,64,9951,2,0,L|156:54,1,52.4999983978272
98,109,10251,2,0,L|46:99,1,52.4999983978272
157,169,10551,1,0,0:0:0:0:
216,229,10701,2,0,L|268:239,1,52.4999983978272
157,289,11001,1,0,0:0:0:0:
98,349,11151,2,0,L|46:339,1,52.4999983978272
157,289,11451,1,0,0:0:0:0:
157,289,11601,1,0,0:0:0:0:
298,352,11751,2,0,L|350:342,1,52.4999983978272
239,292,12051,5,0,0:0:0:0:
239,292,12201,1,0,0:0:0:0:
298,237,12351,2,0,L|350:247,1,52.4999983978272
297,158,12651,2,0,L|245:168,1,52.4999983978272
296,79,12951,1,0,0:0:0:0:
299,0,13101,2,0,L|351:10,1,52.4999983978272
296,79,13401,1,0,0:0:0:0:
297,158,13551,2,0,L|349:148,1,52.4999983978272
246,246,13851,2,0,L|298:236,1,52.4999983978272
195,334,14151,1,0,0:0:0:0:
195,334,14301,1,0,0:0:0:0:
116,318,14451,6,0,L|64:308,1,52.4999983978272
13,251,14751,1,0,0:0:0:0:
169,255,14901,2,0,L|221:245,1,52.4999983978272
272,188,15200,1,0,0:0:0:0:
323,130,15351,1,0,0:0:0:0:
323,130,15501,1,0,0:0:0:0:
401,164,15651,6,0,L|411:216,1,52.4999983978272
428,290,15951,1,0,0:0:0:0:
333,377,16101,2,0,L|373:342,1,52.4999983978272
428,290,16401,1,0,0:0:0:0:
354,268,16551,1,0,0:0:0:0:
354,268,16701,1,0,0:0:0:0:
220,338,16851,6,0,L|168:328,1,52.4999983978272
92,311,17151,1,0,0:0:0:0:
247,210,17301,2,0,L|237:262,1,52.4999983978272
220,338,17601,1,0,0:0:0:0:
119,183,17751,1,0,0:0:0:0:
119,183,17901,1,0,0:0:0:0:
167,258,18051,6,0,L|215:269,1,37.5
333,184,18351,2,0,L|285:195,1,37.5
425,108,18651,2,0,L|462:117,3,37.5
445,30,19251,6,0,B|383:21|355:67|355:67|337:95|309:106,1,165.000005035401
230,96,19701,1,0,0:0:0:0:
153,74,19851,2,0,P|109:93|78:114,1,82.5000025177003
50,185,20151,1,0,0:0:0:0:
152,288,20301,2,0,P|205:258|266:251,1,123.75000377655
266,251,20601,5,8,0:0:0:0:
344,284,20751,1,0,0:0:0:0:
427,273,20901,1,0,0:0:0:0:
352,296,21051,1,0,0:0:0:0:
434,285,21201,1,0,0:0:0:0:
501,234,21351,1,0,0:0:0:0:
423,201,21501,1,0,0:0:0:0:
372,132,21651,5,0,0:0:0:0:
272,91,21801,1,0,0:0:0:0:
172,128,21951,1,0,0:0:0:0:
129,229,22101,1,0,0:0:0:0:
172,128,22251,1,0,0:0:0:0:
106,40,22401,1,0,0:0:0:0:
63,141,22551,1,0,0:0:0:0:
238,216,22701,6,0,B|291:219|328:171|328:171|365:121|431:121,1,225.000008583069
495,175,23151,1,0,0:0:0:0:
328,35,23301,2,0,B|275:32|238:80|238:80|201:130|135:130,1,225.000008583069
71,76,23751,1,0,0:0:0:0:
73,233,23901,6,0,P|178:225|134:130,1,247.500007553101
61,157,24501,1,0,0:0:0:0:
181,222,24651,2,0,P|219:206|253:183,1,82.5000025177003
309,125,24951,1,0,0:0:0:0:
306,247,25101,2,0,P|367:253|420:283,1,123.75000377655
420,283,25401,5,0,0:0:0:0:
470,347,25551,1,0,0:0:0:0:
501,272,25701,1,0,0:0:0:0:
470,347,25851,1,0,0:0:0:0:
389,358,26001,1,0,0:0:0:0:
311,330,26151,1,0,0:0:0:0:
230,341,26301,1,0,0:0:0:0:
152,313,26451,5,0,0:0:0:0:
205,220,26601,1,0,0:0:0:0:
144,288,26751,1,0,0:0:0:0:
197,195,26901,1,0,0:0:0:0:
168,91,27051,1,0,0:0:0:0:
161,71,27126,1,0,0:0:0:0:
154,51,27201,1,0,0:0:0:0:
197,195,27351,1,0,0:0:0:0:
289,140,27501,1,0,0:0:0:0:
344,232,27651,5,0,0:0:0:0:
436,177,27801,1,0,0:0:0:0:
381,85,27951,1,0,0:0:0:0:
344,232,28101,1,0,0:0:0:0:
438,285,28251,1,0,0:0:0:0:
289,140,28401,1,0,0:0:0:0:
289,140,28476,1,0,0:0:0:0:
289,140,28551,2,0,B|211:118|211:166|135:139,1,157.499995193482
73,106,28851,6,0,P|123:128|163:243,1,172.500003290176
158,317,29301,1,0,0:0:0:0:
3,356,29451,2,0,P|36:330|73:312,1,82.5000025177003
158,317,29751,1,0,0:0:0:0:
304,384,29901,2,0,P|365:378|418:348,1,123.75000377655
418,347,30201,5,0,0:0:0:0:
373,274,30351,1,0,0:0:0:0:
370,187,30501,1,0,0:0:0:0:
410,110,30651,1,0,0:0:0:0:
351,174,30801,1,0,0:0:0:0:
332,259,30951,1,0,0:0:0:0:
357,342,31101,1,0,0:0:0:0:
272,323,31251,5,0,0:0:0:0:
171,371,31401,1,0,0:0:0:0:
180,260,31551,1,0,0:0:0:0:
171,371,31701,1,0,0:0:0:0:
114,205,31851,1,0,0:0:0:0:
105,316,32001,1,0,0:0:0:0:
13,253,32151,1,0,0:0:0:0:
123,94,32301,6,0,B|162:112|175:132|175:132|208:95|251:68|251:68|269:93|297:106,1,225.000008583069
296,105,32676,1,0,0:0:0:0:
296,105,32751,1,0,0:0:0:0:
506,188,32901,2,0,B|467:206|454:226|454:226|421:189|378:162|378:162|360:187|332:200,1,225.000008583069
332,199,33276,1,0,0:0:0:0:
332,199,33351,1,0,0:0:0:0:
169,284,33501,6,0,B|107:273|72:216|72:216|123:166|123:92,1,258.750004935265
88,13,34101,1,0,0:0:0:0:
210,108,34251,2,0,P|249:97|286:78,1,82.5000025177003
342,7,34551,1,0,0:0:0:0:
508,111,34701,6,0,P|455:81|394:75,1,123.75000377655
394,75,35001,1,0,0:0:0:0:
416,162,35151,1,0,0:0:0:0:
436,245,35301,1,0,0:0:0:0:
354,220,35451,1,0,0:0:0:0:
436,245,35601,1,0,0:0:0:0:
371,307,35751,1,0,0:0:0:0:
309,366,35901,1,0,0:0:0:0:
222,366,36051,5,0,0:0:0:0:
267,272,36201,1,0,0:0:0:0:
173,227,36351,1,0,0:0:0:0:
128,321,36501,1,0,0:0:0:0:
69,235,36651,1,0,0:0:0:0:
65,213,36726,1,0,0:0:0:0:
61,192,36801,1,0,0:0:0:0:
139,334,36951,1,0,0:0:0:0:
184,240,37101,1,0,0:0:0:0:
269,181,37251,5,0,0:0:0:0:
300,175,37326,1,0,0:0:0:0:
332,169,37401,1,0,0:0:0:0:
364,164,37476,1,0,0:0:0:0:
396,158,37551,2,0,P|436:137|446:127,1,43.1250008225441
383,80,37701,2,0,P|384:34|380:21,1,43.1250008225441
308,52,37851,2,0,P|269:28|255:24,1,43.1250008225441
246,102,38001,1,0,0:0:0:0:
226,110,38076,1,0,0:0:0:0:
208,122,38151,1,0,0:0:0:0:
175,320,38451,5,0,0:0:0:0:
98,286,38601,1,0,0:0:0:0:
107,368,38751,1,0,0:0:0:0:
175,320,39051,5,0,0:0:0:0:
98,286,39351,1,0,0:0:0:0:
107,368,39651,1,0,0:0:0:0:
175,320,39951,1,0,0:0:0:0:
98,286,40251,5,0,0:0:0:0:
107,368,40401,1,0,0:0:0:0:
175,320,40551,1,0,0:0:0:0:
243,272,40701,6,0,L|264:152,1,120
280,71,41151,1,0,0:0:0:0:
363,72,41301,2,0,L|384:191,1,120
400,273,41751,1,0,0:0:0:0:
314,275,41901,6,0,P|333:219|383:190,1,120
400,273,42351,1,0,0:0:0:0:
383,190,42501,2,0,P|440:200|477:246,1,120
400,273,42951,1,0,0:0:0:0:
314,275,43101,6,0,L|194:253,1,120
113,239,43551,1,0,0:0:0:0:
128,156,43851,1,0,0:0:0:0:
45,141,44151,1,0,0:0:0:0:
30,224,44451,1,0,0:0:0:0:
113,239,44751,1,0,0:0:0:0:
128,156,45051,5,0,0:0:0:0:
45,141,45201,1,0,0:0:0:0:
30,224,45351,2,0,L|19:283,1,60
128,156,45651,1,0,0:0:0:0:
128,156,45801,1,0,0:0:0:0:
245,177,45951,1,0,0:0:0:0:
245,177,46101,1,0,0:0:0:0:
362,156,46251,1,0,0:0:0:0:
294,105,46401,1,0,0:0:0:0:
372,72,46551,1,0,0:0:0:0:
440,123,46701,6,0,P|444:181|408:227,1,120
295,268,47151,1,0,0:0:0:0:
295,268,47301,1,0,0:0:0:0:
214,215,47451,1,0,0:0:0:0:
214,215,47601,1,0,0:0:0:0:
140,241,47751,1,0,0:0:0:0:
140,241,47901,1,0,0:0:0:0:
69,207,48051,5,0,0:0:0:0:
124,136,48201,1,0,0:0:0:0:
124,34,48351,1,0,0:0:0:0:
388,34,48651,1,0,0:0:0:0:
124,34,48951,1,0,0:0:0:0:
59,83,49101,6,0,L|0:72,1,60
124,136,49401,2,0,L|183:125,1,60
45,165,49701,2,0,P|11:226|11:287,1,120
20,294,50076,1,0,0:0:0:0:
31,313,50151,1,0,0:0:0:0:
256,355,50451,5,0,0:0:0:0:
169,376,50601,1,0,0:0:0:0:
195,290,50751,1,0,0:0:0:0:
281,269,50901,2,0,P|307:253|328:232,1,60
246,186,51201,1,0,0:0:0:0:
328,232,51351,2,0,P|336:203|336:173,1,60
281,83,51651,5,0,0:0:0:0:
246,186,51801,1,0,0:0:0:0:
164,257,51951,1,0,0:0:0:0:
57,277,52101,1,0,0:0:0:0:
30,206,52251,1,0,0:0:0:0:
48,201,52326,1,0,0:0:0:0:
66,201,52401,1,0,0:0:0:0:
84,206,52476,1,0,0:0:0:0:
101,215,52551,1,0,0:0:0:0:
57,277,52701,1,0,0:0:0:0:
70,176,52851,5,0,0:0:0:0:
83,75,53001,1,0,0:0:0:0:
2,13,53151,1,0,0:0:0:0:
57,277,53451,1,0,0:0:0:0:
2,13,53751,5,0,0:0:0:0:
83,75,53901,2,0,L|146:86,1,60
216,12,54201,2,0,L|279:0,1,60
383,91,54501,2,0,P|438:86|458:43,1,100
396,27,54851,1,0,0:0:0:0:
332,48,54951,2,0,L|292:54,2,40
398,116,55251,6,0,L|375:233,1,120
308,156,55701,2,0,L|285:273,1,120
218,196,56151,1,0,0:0:0:0:
195,313,56301,5,0,0:0:0:0:
195,313,56376,1,0,0:0:0:0:
195,313,56451,1,0,0:0:0:0:
96,336,56601,1,0,0:0:0:0:
23,236,56751,1,0,0:0:0:0:
122,259,56901,1,0,0:0:0:0:
218,196,57051,2,0,P|246:156|254:135,1,60
93,162,57351,1,0,0:0:0:0:
122,259,57501,1,0,0:0:0:0:
304,354,57651,6,0,L|358:344,1,55.0000016784668
434,265,57851,2,0,L|380:275,1,55.0000016784668
208,354,58051,2,0,L|154:344,1,55.0000016784668
78,265,58251,2,0,L|132:275,1,55.0000016784668
361,204,58451,2,0,P|383:177|399:146,1,69.9999978637696
113,146,58651,2,0,P|128:177|150:204,1,69.9999978637696
337,112,58851,6,0,B|371:81|364:21|305:-2|256:45|256:45|206:-2|148:22|141:81|176:112,1,360
256,156,61251,5,0,0:0:0:0:
200,224,61401,1,0,0:0:0:0:
117,254,61551,1,0,0:0:0:0:
30,239,61701,1,0,0:0:0:0:
86,171,61851,1,0,0:0:0:0:
426,171,62151,5,0,0:0:0:0:
482,239,62301,1,0,0:0:0:0:
86,171,62601,5,0,0:0:0:0:
30,103,62751,1,0,0:0:0:0:
116,88,62901,1,0,0:0:0:0:
512,156,63201,5,0,0:0:0:0:
426,171,63351,1,0,0:0:0:0:
340,186,63501,1,0,0:0:0:0:
254,201,63651,1,0,0:0:0:0:
30,73,63951,5,0,0:0:0:0:
116,88,64101,1,0,0:0:0:0:
482,311,64401,5,0,0:0:0:0:
396,296,64701,1,0,0:0:0:0:
30,311,65001,5,0,0:0:0:0:
116,296,65151,1,0,0:0:0:0:
61,230,65301,1,0,0:0:0:0:
362,61,65601,5,0,0:0:0:0:
307,127,65751,1,0,0:0:0:0:
393,142,65901,1,0,0:0:0:0:
307,127,66051,1,0,0:0:0:0:
307,127,66201,1,0,0:0:0:0:
362,61,66351,1,0,0:0:0:0:
424,223,66501,2,0,L|404:333,1,112.5
404,333,66801,5,0,0:0:0:0:
324,363,66951,1,0,0:0:0:0:
324,363,67101,1,0,0:0:0:0:
404,333,67251,1,0,0:0:0:0:
424,144,67401,2,0,L|404:33,1,112.5
404,33,67701,5,0,0:0:0:0:
404,333,68001,1,0,0:0:0:0:
404,33,68301,1,0,0:0:0:0:
404,333,68601,5,0,0:0:0:0:
404,333,68751,1,0,0:0:0:0:
324,303,68901,1,0,0:0:0:0:
239,317,69051,2,0,L|128:297,1,112.5
128,297,69351,5,0,0:0:0:0:
48,267,69501,1,0,0:0:0:0:
48,267,69651,1,0,0:0:0:0:
12,189,69801,1,0,0:0:0:0:
42,109,69951,1,0,0:0:0:0:
119,74,70101,2,0,B|161:80|185:109|185:109|208:136|250:145,1,150
388,106,70551,2,0,B|388:108|388:108|365:135|325:143,1,75
324,292,70851,5,0,0:0:0:0:
406,258,71001,1,0,0:0:0:0:
476,312,71151,1,0,0:0:0:0:
394,346,71301,1,0,0:0:0:0:
406,258,71451,1,0,0:0:0:0:
118,38,71751,5,0,0:0:0:0:
106,126,71901,1,0,0:0:0:0:
394,346,72201,5,0,0:0:0:0:
406,258,72351,1,0,0:0:0:0:
418,170,72501,1,0,0:0:0:0:
94,170,72801,5,0,0:0:0:0:
106,258,72951,1,0,0:0:0:0:
177,204,73101,1,0,0:0:0:0:
106,258,73251,1,0,0:0:0:0:
335,46,73551,5,0,0:0:0:0:
406,100,73701,1,0,0:0:0:0:
177,312,74001,5,0,0:0:0:0:
106,258,74301,1,0,0:0:0:0:
335,46,74601,5,0,0:0:0:0:
406,100,74751,1,0,0:0:0:0:
477,154,74901,1,0,0:0:0:0:
177,312,75201,1,0,0:0:0:0:
106,258,75351,1,0,0:0:0:0:
35,204,75501,1,0,0:0:0:0:
52,329,75651,5,0,0:0:0:0:
106,258,75801,1,0,0:0:0:0:
177,312,75951,1,0,0:0:0:0:
231,241,76101,1,0,0:0:0:0:
177,312,76251,1,0,0:0:0:0:
89,133,76551,5,0,0:0:0:0:
18,79,76701,1,0,0:0:0:0:
423,133,77001,5,0,0:0:0:0:
494,79,77151,1,0,0:0:0:0:
412,45,77301,1,0,0:0:0:0:
209,296,77601,5,0,0:0:0:0:
303,296,77751,1,0,0:0:0:0:
256,377,77901,1,0,0:0:0:0:
256,220,78051,1,0,0:0:0:0:
256,220,78351,6,0,L|256:176,3,37.5
188,151,78651,1,0,0:0:0:0:
201,132,78726,1,0,0:0:0:0:
220,117,78801,1,0,0:0:0:0:
243,109,78876,1,0,0:0:0:0:
267,109,78951,1,0,0:0:0:0:
290,117,79026,1,0,0:0:0:0:
309,131,79101,1,0,0:0:0:0:
323,151,79176,1,0,0:0:0:0:
351,196,79251,6,0,P|372:192|396:176,3,37.5
427,248,79551,2,0,P|448:252|472:268,3,37.5
511,330,79851,2,0,P|481:344|456:345,1,50
344,286,80051,1,0,0:0:0:0:
344,286,80151,2,0,P|314:272|289:271,1,50
211,363,80351,1,0,0:0:0:0:
211,363,80451,6,0,L|132:349,1,67.4999979400635
34,289,80751,1,0,0:0:0:0:
20,209,80901,1,0,0:0:0:0:
197,283,81051,2,0,L|118:269,1,67.4999979400635
6,129,81351,1,0,0:0:0:0:
183,203,81501,6,0,L|340:175,1,134.999995880127
406,168,81951,1,0,0:0:0:0:
406,168,82101,1,0,0:0:0:0:
316,180,82251,2,0,L|250:192,1,67.4999979400635
406,168,82551,1,0,0:0:0:0:
372,252,82701,1,0,0:0:0:0:
316,180,82851,5,0,0:0:0:0:
372,252,83001,1,0,0:0:0:0:
406,168,83151,1,0,0:0:0:0:
282,264,83301,2,0,B|221:244|179:279|179:279|136:320|74:323|21:299|11:257|23:194|93:188|121:232,1,404.999987640381
238,344,84351,5,0,0:0:0:0:
238,344,84501,1,0,0:0:0:0:
120,231,84651,2,0,L|92:74,1,134.999995880127
124,21,85101,1,0,0:0:0:0:
120,231,85251,5,0,0:0:0:0:
93,309,85401,1,0,0:0:0:0:
31,364,85551,1,0,0:0:0:0:
15,282,85701,1,0,0:0:0:0:
175,294,85851,1,0,0:0:0:0:
392,231,86151,5,0,0:0:0:0:
337,294,86301,1,0,0:0:0:0:
120,231,86601,5,0,0:0:0:0:
175,294,86751,1,0,0:0:0:0:
120,231,86901,1,0,0:0:0:0:
230,357,87051,1,0,0:0:0:0:
120,231,87201,1,0,0:0:0:0:
103,148,87351,1,0,0:0:0:0:
131,69,87501,1,0,0:0:0:0:
381,69,87651,5,0,0:0:0:0:
381,315,87951,1,0,0:0:0:0:
460,292,88101,1,0,0:0:0:0:
308,192,88251,1,0,0:0:0:0:
460,92,88401,1,0,0:0:0:0:
124,192,88701,1,0,0:0:0:0:
195,238,88851,6,0,L|256:248,2,44.999998626709
255,148,89151,2,0,L|316:137,1,44.999998626709
339,132,89351,1,0,0:0:0:0:
306,263,89451,2,0,L|367:273,1,44.999998626709
390,279,89651,1,0,0:0:0:0:
414,120,89751,2,0,L|480:108,1,67.4999979400635
197,26,90051,6,0,P|229:36|256:55,1,67.4999979400635
121,101,90351,1,0,0:0:0:0:
121,26,90501,1,0,0:0:0:0:
183,206,90651,2,0,P|150:195|123:176,1,67.4999979400635
121,26,90951,1,0,0:0:0:0:
183,205,91101,6,0,P|196:271|183:345,1,134.999995880127
92,276,91551,1,0,0:0:0:0:
92,276,91701,1,0,0:0:0:0:
185,338,91851,2,0,P|194:305|196:271,1,67.4999979400635
0,247,92151,1,0,0:0:0:0:
92,276,92301,1,0,0:0:0:0:
71,182,92451,5,0,0:0:0:0:
92,276,92601,1,0,0:0:0:0:
163,211,92751,1,0,0:0:0:0:
50,88,92901,2,0,B|54:153|114:164|114:164|160:121|228:137|269:194|241:277|182:294|132:271,1,404.999987640381
163,211,93951,1,0,0:0:0:0:
163,211,94101,1,0,0:0:0:0:
294,253,94251,2,0,L|426:229,1,134.999995880127
229,232,94701,1,0,0:0:0:0:
426,229,94851,5,0,0:0:0:0:
484,171,95001,1,0,0:0:0:0:
505,91,95151,1,0,0:0:0:0:
483,12,95301,1,0,0:0:0:0:
426,229,95451,1,0,0:0:0:0:
86,229,95751,5,0,0:0:0:0:
28,171,95901,1,0,0:0:0:0:
484,171,96201,5,0,0:0:0:0:
426,229,96351,1,0,0:0:0:0:
405,150,96501,1,0,0:0:0:0:
447,308,96651,1,0,0:0:0:0:
290,266,96801,1,0,0:0:0:0:
348,209,96951,1,0,0:0:0:0:
369,288,97101,1,0,0:0:0:0:
131,351,97251,5,0,0:0:0:0:
381,33,97551,1,0,0:0:0:0:
402,112,97701,1,0,0:0:0:0:
223,75,97851,1,0,0:0:0:0:
302,54,98001,1,0,0:0:0:0:
323,133,98151,1,0,0:0:0:0:
460,12,98301,1,0,0:0:0:0:
52,372,98601,5,0,0:0:0:0:
30,293,98751,1,0,0:0:0:0:
209,329,98901,1,0,0:0:0:0:
151,156,99051,1,0,0:0:0:0:
142,132,99126,1,0,0:0:0:0:
134,108,99201,1,0,0:0:0:0:
126,84,99276,1,0,0:0:0:0:
95,69,99351,1,0,0:0:0:0:
99,57,99426,1,0,0:0:0:0:
103,45,99501,1,0,0:0:0:0:
107,33,99576,1,0,0:0:0:0:
111,21,99651,6,0,B|164:16|196:50|196:50|223:80|250:92|295:90,1,202.500000772476
464,257,100101,2,0,B|420:258|393:246|366:216|366:216|334:182|281:187,1,202.500000772476
464,13,100551,1,0,0:0:0:0:
464,13,101751,1,0,0:0:0:0:
421,56,101851,1,0,0:0:0:0:
378,13,101951,1,0,0:0:0:0:
335,56,102051,1,0,0:0:0:0:
335,56,102351,5,0,0:0:0:0:
292,13,102501,1,0,0:0:0:0:
249,56,102651,1,0,0:0:0:0:
206,13,102801,1,0,0:0:0:0:
163,56,102951,1,0,0:0:0:0:
66,13,103101,6,0,P|17:28|25:79,1,97.4999955368044
182,158,103551,2,0,L|255:144,1,75
96,102,103851,1,0,0:0:0:0:
255,144,104001,1,0,0:0:0:0:
182,158,104151,1,0,0:0:0:0:
340,199,104301,1,0,0:0:0:0:
141,316,104451,6,0,B|94:299|78:251|78:251|62:201|16:186,1,187.5
234,267,104901,2,0,B|184:275|146:242|146:242|108:206|60:216,1,187.5
290,178,105351,6,0,B|251:210|202:200|202:200|150:188|116:222|116:222|124:176|98:139,1,269.999991760254
25,15,106101,1,0,0:0:0:0:
0,89,106251,2,0,L|132:65,1,134.999995880127
199,52,106701,1,0,0:0:0:0:
199,52,107001,2,0,P|225:90|185:110,1,101.249996910095
186,110,107901,5,0,0:0:0:0:
194,152,107976,1,0,0:0:0:0:
202,194,108051,1,0,0:0:0:0:
232,339,108201,1,0,0:0:0:0:
373,384,108351,1,0,0:0:0:0:
218,267,108501,1,0,0:0:0:0:
303,362,108651,1,0,0:0:0:0:
428,334,108801,1,0,0:0:0:0:
373,384,108951,1,0,0:0:0:0:
92,72,118401,6,0,P|106:92|126:107,1,44.999998626709
211,121,118851,6,0,B|195:110|180:123|192:147|192:147|214:171|223:205|200:239|168:246|134:236|111:209|123:172,1,247.4999924469
312,36,121251,6,0,B|337:28|363:35|363:35|346:63|360:100|403:112|433:87|433:54|433:54|459:61|477:80,1,247.4999924469
444,328,123651,6,0,B|436:312|416:312|408:328|408:328|392:348|356:370|310:359|294:339|267:304|281:259,1,247.4999924469
154,71,126051,6,0,B|181:82|182:106|182:106|146:132|164:167|179:182|216:167|210:153,1,157.499995193482
42,66,127851,6,0,L|34:24,2,34.9999989318848
97,112,128151,1,0,0:0:0:0:
92,137,128251,1,0,0:0:0:0:
87,163,128351,1,0,0:0:0:0:
100,232,128451,6,0,L|119:342,1,112.500004291535
183,362,128901,1,0,0:0:0:0:
100,232,129051,2,0,L|80:121,1,112.500004291535
17,102,129501,1,0,0:0:0:0:
143,140,129651,5,0,0:0:0:0:
209,129,129801,1,0,0:0:0:0:
275,118,129951,2,0,L|330:108,1,56.2500021457673
242,293,130251,2,0,L|262:183,1,112.500004291535
275,118,130701,1,0,0:0:0:0:
242,293,130851,6,0,L|232:348,1,56.2500021457673
255,227,131151,1,0,0:0:0:0:
268,160,131301,1,0,0:0:0:0:
410,253,131451,2,0,L|419:308,1,56.2500021457673
429,363,131751,2,0,L|419:307,1,56.2500021457673
348,129,132051,6,0,P|418:115|398:182,1,168.750006437302
182,100,132651,2,0,L|348:129,1,168.750006437302
106,31,133251,6,0,L|116:87,1,56.2500021457673
46,188,133551,1,0,0:0:0:0:
59,121,133701,1,0,0:0:0:0:
33,255,133851,2,0,L|23:311,1,56.2500021457673
55,132,134151,2,0,L|45:188,1,56.2500021457673
90,323,134451,5,0,0:0:0:0:
157,336,134601,1,0,0:0:0:0:
224,349,134751,1,0,0:0:0:0:
157,336,134901,1,0,0:0:0:0:
291,362,135051,2,0,L|347:352,1,56.2500021457673
224,349,135351,1,0,0:0:0:0:
224,349,135501,1,0,0:0:0:0:
413,339,135651,6,0,L|433:227,1,112.500004291535
499,225,136101,1,0,0:0:0:0:
366,230,136251,2,0,L|310:220,1,56.2500021457673
432,228,136551,1,0,0:0:0:0:
499,225,136701,1,0,0:0:0:0:
245,209,136851,6,0,L|189:199,1,56.2500021457673
245,209,137451,2,0,L|78:179,1,168.750006437302
55,58,138051,6,0,L|65:114,1,56.2500021457673
92,245,138351,1,0,0:0:0:0:
78,179,138501,1,0,0:0:0:0:
106,311,138651,2,0,L|116:367,1,56.2500021457673
92,245,138951,2,0,L|82:189,1,56.2500021457673
213,163,139251,5,0,0:0:0:0:
147,177,139401,1,0,0:0:0:0:
213,163,139551,1,0,0:0:0:0:
279,149,139701,1,0,0:0:0:0:
325,24,139851,2,0,L|344:134,1,112.500004291535
427,327,140301,1,0,0:0:0:0:
361,313,140451,6,0,L|371:258,1,56.2500021457673
399,126,140751,1,0,0:0:0:0:
385,192,140901,1,0,0:0:0:0:
295,299,141051,2,0,L|239:289,1,56.2500021457673
173,275,141351,2,0,L|117:265,1,56.2500021457673
51,251,141651,5,0,0:0:0:0:
37,185,141801,1,0,0:0:0:0:
117,265,141951,1,0,0:0:0:0:
131,331,142101,1,0,0:0:0:0:
23,119,142251,2,0,L|42:8,1,112.500004291535
489,119,142851,6,0,L|479:63,1,56.2500021457673
465,0,143151,1,0,0:0:0:0:
479,66,143301,1,0,0:0:0:0:
451,198,143451,2,0,L|441:253,1,56.2500021457673
417,374,143751,2,0,L|426:318,1,56.2500021457673
465,132,144051,5,0,0:0:0:0:
451,198,144201,1,0,0:0:0:0:
385,184,144351,1,0,2:0:0:0:
399,118,144501,1,0,0:0:0:0:
436,263,144651,2,0,L|416:373,1,112.500004291535
104,192,145101,6,0,P|108:173|114:164,1,29.9999990844727
408,192,145751,2,0,P|403:210|397:219,1,29.9999990844727
171,137,146201,6,0,P|180:124|193:116,1,29.9999990844727
340,246,146551,2,0,P|330:260|317:268,1,32.3750007904053
258,131,146876,6,0,P|270:123|285:121,1,27.7500006774902
254,253,147151,2,0,P|241:260|226:262,1,27.7500006774902
334,171,147401,6,0,P|348:169|363:174,1,30
178,213,147651,2,0,P|163:214|148:209,1,30
105,162,147876,5,0,0:0:0:0:
105,162,147951,1,0,0:0:0:0:
105,162,148026,2,0,B|79:114|79:114|33:86,1,107.81250205636
189,130,148307,2,0,B|215:82|215:82|261:54,1,107.81250205636
140,76,148588,2,0,B|114:28|114:28|68:0,1,107.81250205636
22,170,148851,5,0,0:0:0:0:
256,352,149101,1,0,0:0:0:0:
490,170,149351,1,0,0:0:0:0:
452,112,149601,5,0,0:0:0:0:
452,111,149851,2,0,P|467:102|486:99,1,37.5
24,324,150351,5,0,0:0:0:0:
24,324,150601,2,0,L|16:367,1,37.5
494,360,151101,5,0,0:0:0:0:
494,360,151351,2,0,L|488:324,1,37.5
25,99,151851,5,0,0:0:0:0:
25,99,152101,2,0,P|44:102|59:111,1,37.5
172,304,152601,6,0,B|224:284|224:284|232:216,1,123.75000377655
280,168,152851,2,0,B|288:100|288:100|340:80,1,123.75000377655
386,124,153101,6,0,B|320:112|320:112|279:167,1,134.999995880127
232,217,153351,2,0,B|191:272|191:272|126:261,1,134.999995880127
110,194,153601,6,0,B|169:244|169:244|232:217,1,146.249993305207
280,168,153851,2,0,B|343:141|343:141|403:192,1,146.249993305207
455,255,154101,1,0,0:0:0:0:
459,268,154226,1,0,0:0:0:0:
463,281,154351,1,0,0:0:0:0:
467,294,154476,1,0,0:0:0:0:
471,307,154601,1,0,0:0:0:0:
475,320,154726,1,0,0:0:0:0:
398,364,154851,6,0,B|386:319|386:319|412:273|412:273|461:267,1,146.249993305207,0|0,2:0|2:0,2:0:0:0:
463,281,155101,1,0,0:0:0:0:
467,294,155226,1,0,0:0:0:0:
471,307,155351,1,0,0:0:0:0:
475,320,155476,1,0,0:0:0:0:
398,364,155601,6,0,B|386:319|386:319|412:273|412:273|461:267,1,146.249993305207,0|0,2:0|2:0,2:0:0:0:
463,281,155851,1,0,0:0:0:0:
467,294,155976,1,0,0:0:0:0:
471,307,156101,1,0,0:0:0:0:
475,320,156226,1,0,0:0:0:0:
398,364,156351,6,0,B|386:319|386:319|412:273|412:273|461:267,1,146.249993305207,0|0,2:0|2:0,2:0:0:0:
463,281,156601,1,0,0:0:0:0:
467,294,156726,1,0,0:0:0:0:
471,307,156851,1,0,0:0:0:0:
475,320,156976,1,0,0:0:0:0:
398,364,157101,6,0,B|386:319|386:319|412:273|412:273|461:267,1,146.249993305207,0|0,2:0|2:0,2:0:0:0:
473,177,157351,2,0,B|485:222|485:222|459:268|459:268|409:273,1,146.249993305207,0|0,2:0|2:0,2:0:0:0:
317,275,157601,2,0,B|270:269|270:269|244:223|244:223|256:178,1,146.249993305207,0|0,2:0|2:0,2:0:0:0:
257,83,157851,6,0,B|271:115|271:115|244:223,1,146.249993305207,0|0,2:0|2:0,2:0:0:0:
140,223,158101,2,0,B|125:255|125:255|153:362,1,146.249993305207,0|0,2:0|2:0,2:0:0:0:
230,362,158351,2,0,B|257:254|257:254|243:222,1,146.249993305207,0|0,2:0|2:0,2:0:0:0:
140,223,158601,6,0,B|104:223|104:223|96:187|64:163|64:163|28:163,1,146.249993305207
27,88,158851,2,0,B|63:88|63:88|95:64|103:28|103:28|139:28,1,146.249993305207
239,99,159101,2,0,P|195:148|152:99,1,146.249993305207,0|0,2:0|2:0,2:0:0:0:
201,6,159351,5,0,0:0:0:0:
214,9,159476,1,0,0:0:0:0:
227,12,159601,1,0,0:0:0:0:
240,15,159726,1,0,0:0:0:0:
253,18,159851,1,0,0:0:0:0:
266,21,159976,1,0,0:0:0:0:
246,111,160101,6,0,B|230:72|184:71|184:71|200:6,1,146.249993305207
266,21,160351,1,0,0:0:0:0:
279,24,160476,1,0,0:0:0:0:
292,27,160601,1,0,0:0:0:0:
305,30,160726,1,0,0:0:0:0:
298,122,160851,6,0,B|281:82|235:81|235:81|251:16,1,146.249993305207
318,34,161101,1,0,0:0:0:0:
331,37,161226,1,0,0:0:0:0:
344,40,161351,1,0,0:0:0:0:
357,43,161476,1,0,0:0:0:0:
350,135,161601,6,0,B|333:95|287:94|287:94|303:29,1,146.249993305207
370,47,161851,1,0,0:0:0:0:
383,50,161976,1,0,0:0:0:0:
396,53,162101,1,0,0:0:0:0:
409,56,162226,1,0,0:0:0:0:
402,148,162351,6,0,B|385:108|339:107|339:107|355:42,1,146.249993305207
470,136,162601,2,0,B|434:136|434:136|333:179,1,146.249993305207
239,251,162851,2,0,P|205:201|266:223,1,146.249993305207
305,260,163095,5,0,0:0:0:0:
261,329,163219,2,0,B|201:307|151:328|151:328|131:347|101:347|101:347|80:328|48:328,1,225.000008583069
9,270,163591,1,0,0:0:0:0:
0,201,163716,1,0,0:0:0:0:
62,169,163840,1,0,0:0:0:0:
20,87,163964,6,0,B|65:87|65:87|89:113|125:113,1,112.500004291535
291,65,164213,1,0,0:0:0:0:
295,137,164337,2,0,B|259:137|235:111|235:111|190:111,1,112.500004291535
322,2,164585,1,0,0:0:0:0:
362,61,164709,1,0,0:0:0:0:
366,132,164834,1,0,0:0:0:0:
295,137,164958,1,0,0:0:0:0:
335,196,165082,5,0,0:0:0:0:
228,264,165206,2,0,B|252:300|260:372|260:372|270:300|294:266,1,225.000008583069
263,201,165579,1,0,0:0:0:0:
136,233,165703,2,0,B|79:225|79:225|36:189,1,112.500004291535
17,121,165952,5,0,0:0:0:0:
17,121,166076,1,0,0:0:0:0:
22,278,166200,2,0,B|29:314|55:335|88:344|88:344|80:389,1,131.250001251698
101,261,166449,1,0,0:0:0:0:
81,373,166573,2,0,B|87:343|87:343|121:346|153:336|173:304,1,131.250001251698
101,261,166821,1,0,0:0:0:0:
101,261,166945,1,0,0:0:0:0:
251,282,167070,5,0,0:0:0:0:
308,228,167194,2,0,B|332:140|332:140|401:76|401:76|422:2,1,262.500002503395
343,4,167567,1,0,0:0:0:0:
400,76,167691,2,0,B|421:129|421:129|411:184,1,112.500004291535
369,334,167939,5,0,0:0:0:0:
445,314,168063,1,0,0:0:0:0:
390,259,168189,1,0,0:0:0:0:
314,279,168315,1,0,0:0:0:0:
314,279,168441,1,0,0:0:0:0:
261,151,168567,5,0,0:0:0:0:
182,153,168693,1,0,0:0:0:0:
184,232,168819,1,0,0:0:0:0:
184,232,168945,1,0,0:0:0:0:
108,216,169071,6,0,B|72:160|72:160|19:122,1,131.250001251698
164,304,169323,1,0,0:0:0:0:
240,288,169449,2,0,B|276:232|276:232|328:194,1,131.250001251698
184,376,169701,1,0,0:0:0:0:
108,360,169827,2,0,B|72:304|72:304|19:266,1,131.250001251698
20,124,170079,5,0,0:0:0:0:
68,192,170205,1,0,0:0:0:0:
19,266,170331,2,0,B|0:192|0:192|20:124|20:124|20:64,1,196.875001877546
20,8,170584,1,0,0:0:0:0:
84,44,170710,1,0,0:0:0:0:
156,32,170836,6,0,L|230:18,1,75
196,92,171087,2,0,L|270:78,1,75
240,152,171339,2,0,L|314:138,1,75
380,244,171590,5,0,0:0:0:0:
316,232,171716,2,0,L|242:218,1,75
272,292,171968,2,0,L|198:278,1,75
228,352,172219,2,0,L|154:338,1,75
40,243,172471,5,0,0:0:0:0:
104,232,172597,2,0,L|178:218,1,75
240,152,172848,5,0,0:0:0:0:
176,141,172974,2,0,L|102:127,1,75
152,68,173225,2,0,L|78:54,1,75
220,76,173477,5,0,0:0:0:0:
284,65,173603,2,0,L|358:51,1,75
492,28,173854,5,0,0:0:0:0:
424,40,173980,1,0,0:0:0:0:
357,51,174106,1,0,0:0:0:0:
401,105,174232,1,0,0:0:0:0:
378,170,174358,1,0,0:0:0:0:
332,300,174483,6,0,B|324:333|334:367|334:367|367:373|397:356,1,131.250001251698
403,286,174734,1,0,0:0:0:0:
246,300,174860,2,0,B|262:329|292:348|292:348|320:330|331:299,1,131.250001251698
289,242,175111,1,0,0:0:0:0:
182,357,175237,2,0,B|213:368|248:362|248:362|258:329|244:298,1,131.250001251698
175,284,175488,1,0,0:0:0:0:
22,284,175615,6,0,P|7:234|64:205,1,112.5
84,261,175865,1,0,0:0:0:0:
133,212,175990,1,0,0:0:0:0:
150,145,176115,1,0,0:0:0:0:
217,162,176240,1,0,0:0:0:0:
200,229,176365,1,0,0:0:0:0:
200,229,176427,1,0,0:0:0:0:
200,229,176490,1,0,0:0:0:0:
267,211,176615,5,0,0:0:0:0:
327,245,176740,1,0,0:0:0:0:
394,227,176865,1,0,0:0:0:0:
454,261,176990,1,0,0:0:0:0:
394,227,177115,1,0,0:0:0:0:
360,168,177240,1,0,0:0:0:0:
360,100,177365,1,0,0:0:0:0:
394,41,177490,1,0,0:0:0:0:
394,41,177865,5,0,0:0:0:0:
360,100,177990,1,0,0:0:0:0:
301,66,178115,1,0,0:0:0:0:
335,7,178240,1,0,0:0:0:0:
267,8,178365,1,0,0:0:0:0:
233,67,178490,1,0,0:0:0:0:
167,84,178615,1,0,0:0:0:0:
108,50,178740,1,0,0:0:0:0:
109,118,178865,5,0,0:0:0:0:
143,176,178990,1,0,0:0:0:0:
144,244,179115,1,0,0:0:0:0:
110,303,179240,1,0,0:0:0:0:
179,303,179365,1,0,0:0:0:0:
110,303,179490,1,0,0:0:0:0:
75,243,179615,1,0,0:0:0:0:
6,243,179740,1,0,0:0:0:0:
41,303,179865,1,0,0:0:0:0:
41,303,180240,5,0,0:0:0:0:
75,243,180365,1,0,0:0:0:0:
141,224,180490,1,0,0:0:0:0:
201,258,180615,1,0,0:0:0:0:
141,224,180740,1,0,0:0:0:0:
140,155,180865,1,0,0:0:0:0:
199,120,180990,1,0,0:0:0:0:
198,51,181115,1,0,0:0:0:0:
267,50,181240,5,0,0:0:0:0:
316,98,181365,1,0,0:0:0:0:
382,115,181490,1,0,0:0:0:0:
431,163,181615,1,0,0:0:0:0:
497,180,181740,1,0,0:0:0:0:
431,163,181865,1,0,0:0:0:0:
414,229,181990,1,0,0:0:0:0:
480,246,182115,1,0,0:0:0:0:
463,312,182240,1,0,0:0:0:0:
463,312,182615,5,0,0:0:0:0:
480,246,182740,1,0,0:0:0:0:
414,229,182865,1,0,0:0:0:0:
397,295,182990,1,0,0:0:0:0:
414,229,183115,1,0,0:0:0:0:
365,181,183240,1,0,0:0:0:0:
299,199,183365,1,0,0:0:0:0:
250,151,183490,1,0,0:0:0:0:
233,218,183615,5,0,0:0:0:0:
184,267,183740,1,0,0:0:0:0:
117,285,183865,1,0,0:0:0:0:
50,268,183990,1,0,0:0:0:0:
69,335,184115,1,0,0:0:0:0:
50,268,184240,1,0,0:0:0:0:
98,218,184365,1,0,0:0:0:0:
79,151,184490,1,0,0:0:0:0:
127,101,184615,1,0,0:0:0:0:
127,101,185015,5,0,0:0:0:0:
203,171,185140,1,0,0:0:0:0:
301,140,185265,1,0,0:0:0:0:
377,210,185390,1,0,0:0:0:0:
475,179,185515,1,0,0:0:0:0:
371,225,185640,1,0,0:0:0:0:
307,125,185765,1,0,0:0:0:0:
196,184,185890,1,0,0:0:0:0:
133,86,186015,5,0,0:0:0:0:
133,86,186077,1,0,0:0:0:0:
133,86,186132,2,0,P|85:66|92:147,1,150
73,316,186571,2,0,B|122:226|23:226|73:140,1,187.5
73,139,187021,5,0,0:0:0:0:
81,154,187096,1,0,0:0:0:0:
86,170,187171,1,0,0:0:0:0:
88,187,187246,1,0,0:0:0:0:
84,204,187321,1,0,0:0:0:0:
77,219,187396,1,0,0:0:0:0:
69,234,187471,1,0,0:0:0:0:
62,249,187546,1,0,0:0:0:0:
59,266,187621,1,0,0:0:0:0:
61,283,187696,1,0,0:0:0:0:
66,299,187771,1,0,0:0:0:0:
74,315,187846,1,0,0:0:0:0:
440,316,188371,6,0,P|480:304|492:296,1,37.5
492,220,188521,6,0,B|422:281|325:281|264:202|247:176|247:176|229:150|190:88|132:22|46:45|-28:66|-120:176|-28:285|46:307|133:329|190:263|229:202|247:176|247:176|264:150|325:71|422:71|492:132,1,1259.99996154785,0|0,0:1|0:1,0:1:0:0:
492,132,192115,5,0,0:0:0:0:
438,172,192265,1,0,0:0:0:0:
371,162,192415,2,0,P|329:171|314:187,1,56.2500021457673
266,130,192715,2,0,P|224:121|209:105,2,56.2500021457673
320,179,193165,5,0,0:0:0:0:
266,130,193315,1,0,0:0:0:0:
320,179,193465,1,0,0:0:0:0:
300,292,193615,2,0,L|290:347,1,56.2500021457673
300,184,193915,1,0,0:0:0:0:
280,297,194065,2,0,L|270:352,1,56.2500021457673
280,189,194365,1,0,0:0:0:0:
260,302,194515,6,0,L|250:357,1,56.2500021457673
183,312,194815,2,0,L|173:256,1,56.2500021457673
107,209,195115,2,0,L|97:264,2,56.2500021457673
117,142,195565,1,0,0:0:0:0:
87,214,195715,2,0,L|77:269,1,56.2500021457673
97,147,196015,5,0,0:0:0:0:
160,122,196165,1,0,0:0:0:0:
186,59,196315,1,0,0:0:0:0:
249,34,196465,1,0,0:0:0:0:
312,59,196615,2,0,P|354:50|369:34,1,56.2500021457673
416,135,196915,2,0,P|392:119|364:117,2,56.2500021457673
461,186,197365,5,0,0:0:0:0:
416,237,197515,1,0,0:0:0:0:
461,288,197665,1,0,0:0:0:0:
363,348,197815,2,0,P|335:346|311:330,1,56.2500021457673
416,237,198115,1,0,0:0:0:0:
301,239,198265,2,0,P|277:223|265:198,1,56.2500021457673
402,169,198565,1,0,0:0:0:0:
301,113,198715,6,0,P|288:88|290:60,1,56.2500021457673
362,0,199015,2,0,P|374:24|372:52,1,56.2500021457673
249,94,199315,2,0,P|265:71|290:59,2,56.2500021457673
188,124,199765,1,0,0:0:0:0:
127,154,199915,1,0,0:0:0:0:
131,86,200065,1,0,0:0:0:0:
85,35,200215,1,0,0:0:0:0:
127,154,200365,2,0,L|113:228,1,56.2500021457673
91,341,200665,5,0,0:0:0:0:
104,275,200815,1,0,0:0:0:0:
91,341,200965,1,0,0:0:0:0:
25,328,201115,1,0,0:0:0:0:
157,354,201265,2,0,P|183:346|203:327,1,56.2500021457673
316,302,201565,2,0,P|289:309|269:328,2,56.2500021457673
382,315,202015,5,0,0:0:0:0:
448,302,202165,1,0,0:0:0:0:
503,339,202315,1,0,0:0:0:0:
419,243,202465,2,0,L|409:187,1,56.2500021457673
389,75,202765,1,0,0:0:0:0:
405,237,202915,2,0,L|395:181,1,56.2500021457673
375,69,203215,1,0,0:0:0:0:
391,231,203365,6,0,L|381:175,1,56.2500021457673
361,63,203665,2,0,L|351:7,1,56.2500021457673
381,175,203965,2,0,L|391:231,2,56.2500021457673
361,63,204415,1,0,0:0:0:0:
367,169,204565,2,0,L|377:225,1,56.2500021457673
347,57,204865,5,0,0:0:0:0:
292,20,205015,1,0,0:0:0:0:
232,49,205165,1,0,0:0:0:0:
177,12,205315,1,0,0:0:0:0:
87,55,205465,2,0,P|59:54|35:40,1,56.2500021457673
123,120,205765,2,0,P|147:105|174:105,2,56.2500021457673
86,175,206215,5,0,0:0:0:0:
49,230,206365,1,0,0:0:0:0:
86,175,206515,1,0,0:0:0:0:
116,332,206665,2,0,L|125:387,1,56.2500021457673
188,350,206965,1,0,0:0:0:0:
164,227,207115,2,0,L|174:283,1,56.2500021457673
236,245,207415,1,0,0:0:0:0:
212,122,207565,6,0,L|221:177,1,56.2500021457673
245,300,207865,2,0,L|235:244,1,56.2500021457673
202,66,208165,2,0,L|211:121,2,56.2500021457673
249,16,208615,1,0,0:0:0:0:
315,32,208765,1,0,0:0:0:0:
381,48,208915,1,0,0:0:0:0:
315,32,209065,1,0,0:0:0:0:
447,64,209215,6,0,P|474:63|498:49,1,56.2500021457673
505,179,209515,1,0,0:0:0:0:
439,163,209665,2,0,P|416:158|401:163,1,39.3749987983704
401,162,209965,6,0,B|352:173|326:132|326:132|307:94|259:93|237:114,1,191.250003647804
141,192,210565,2,0,P|172:187|198:170,1,63.7500012159348
77,134,210865,1,0,0:0:0:0:
77,134,211015,6,0,P|98:192|76:251,1,127.50000243187
29,303,211465,1,0,0:0:0:0:
29,303,211615,1,0,0:0:0:0:
124,352,211765,2,0,L|207:337,2,85.0000016212464
12,232,212365,6,0,L|4:190,2,42.5000008106232
29,303,212665,1,0,0:0:0:0:
60,148,212815,2,0,P|96:128|160:188,1,127.50000243187
320,96,213265,1,0,0:0:0:0:
320,96,213415,2,0,P|284:76|220:136,1,127.50000243187
288,172,213865,5,0,0:0:0:0:
368,160,214015,1,0,0:0:0:0:
417,235,214165,1,0,0:0:0:0:
337,223,214315,1,0,0:0:0:0:
288,298,214465,1,0,0:0:0:0:
368,286,214615,1,0,0:0:0:0:
300,378,214765,6,0,P|248:371|232:360,1,63.7500012159348
225,248,215065,1,0,0:0:0:0:
288,298,215215,1,0,0:0:0:0:
175,366,215365,2,0,P|130:337|120:320,1,63.7500012159348
160,216,215665,1,0,0:0:0:0:
196,288,215815,1,0,0:0:0:0:
65,302,215965,2,0,P|36:257|35:238,1,63.7500012159348
116,161,216265,5,0,0:0:0:0:
119,242,216415,1,0,0:0:0:0:
32,155,216565,2,0,P|41:125|62:101,1,63.7500012159348
175,215,216865,2,0,P|149:234|119:241,1,63.7500012159348
136,85,217165,5,0,0:0:0:0:
190,143,217315,1,0,0:0:0:0:
136,85,217465,1,0,0:0:0:0:
255,112,217615,1,0,0:0:0:0:
201,54,217765,1,0,0:0:0:0:
255,112,217915,1,0,0:0:0:0:
266,23,218065,1,0,0:0:0:0:
320,81,218215,6,0,B|370:102|370:68|414:85,1,95.6250018239022
413,84,218515,1,0,0:0:0:0:
467,142,218665,1,0,0:0:0:0:
467,142,218815,1,0,0:0:0:0:
421,292,218965,1,0,0:0:0:0:
346,269,219115,1,0,0:0:0:0:
369,194,219265,1,0,0:0:0:0:
444,217,219415,1,0,0:0:0:0:
334,279,219565,6,0,B|243:295|243:295|211:273|180:272,1,159.375003039837
180,272,220015,1,0,0:0:0:0:
63,192,220315,2,0,L|46:97,1,95.6250018239022
224,128,220765,2,0,P|185:140|119:66,1,127.50000243187
187,73,221215,1,0,0:0:0:0:
261,183,221365,1,0,0:0:0:0:
337,201,221515,6,0,L|432:218,1,95.6250018239022
405,359,221965,2,0,L|416:296,1,63.7500012159348
431,217,222265,1,0,0:0:0:0:
445,137,222415,1,0,0:0:0:0:
336,201,222565,6,0,B|301:218|267:203|251:166|251:166|237:124|170:77|99:124|105:226|29:212|-58:133|-15:47|92:81|61:118,1,478.125009119511
62,115,223765,2,0,B|48:189|48:189|43:227|51:274|88:289,1,191.250003647804
188,304,224365,5,0,2:0:0:0:
262,279,224515,1,0,2:0:0:0:
336,254,224665,1,0,2:0:0:0:
175,321,224815,5,0,2:0:0:0:
261,292,224965,1,0,2:0:0:0:
346,264,225115,1,0,2:0:0:0:
163,338,225265,5,0,2:0:0:0:
260,306,225415,1,0,2:0:0:0:
356,274,225565,1,0,2:0:0:0:
150,355,225715,5,0,2:0:0:0:
258,319,225865,1,0,2:0:0:0:
366,284,226015,1,0,2:0:0:0:
139,370,226165,5,0,2:0:0:0:
257,331,226315,1,0,2:0:0:0:
282,208,226465,2,0,L|294:153,1,45
309,75,226765,2,0,P|336:61|360:57,5,37.5
237,71,227215,2,0,P|210:85|186:89,3,37.5
132,80,227515,2,0,L|95:73,1,37.5
76,144,227665,2,0,L|39:137,1,37.5
132,204,227815,6,0,L|168:197,1,37.5
188,268,227965,2,0,L|224:261,1,37.5
120,216,228115,2,0,L|156:209,1,37.5
176,280,228265,2,0,L|212:273,1,37.5
232,344,228415,1,0,0:0:0:0:
336,304,228565,5,0,0:0:0:0:
413,330,228715,1,0,0:0:0:0:
475,276,228865,1,0,0:0:0:0:
460,194,229015,1,0,0:0:0:0:
320,223,229165,6,0,B|276:212|248:244|248:244|204:232|204:256|164:244,1,165.000005035401
84,224,229615,1,0,0:0:0:0:
184,168,229765,2,0,P|224:140|240:112,1,82.5000025177003
240,28,230065,1,0,0:0:0:0:
119,28,230215,2,0,B|179:49|179:3|239:28,1,123.75000377655
240,28,230515,5,0,0:0:0:0:
312,68,230665,1,0,0:0:0:0:
392,52,230815,1,0,0:0:0:0:
308,80,230965,1,0,0:0:0:0:
388,64,231115,1,0,0:0:0:0:
460,104,231265,1,0,0:0:0:0:
502,174,231415,1,0,0:0:0:0:
421,176,231565,5,0,0:0:0:0:
376,272,231715,1,0,0:0:0:0:
276,308,231865,1,0,0:0:0:0:
179,262,232015,1,0,0:0:0:0:
276,308,232165,1,0,0:0:0:0:
268,201,232315,1,0,0:0:0:0:
187,133,232465,1,0,0:0:0:0:
79,278,232615,6,0,B|40:236|76:184|76:184|116:128|76:72,1,225.000008583069
15,128,233065,1,0,0:0:0:0:
206,71,233215,2,0,B|167:113|203:165|203:165|243:221|203:277,1,225.000008583069
142,221,233665,1,0,0:0:0:0:
276,348,233815,6,0,B|306:295|360:313|360:313|412:331|444:328|466:284|447:252,1,247.500007553101
388,192,234415,1,0,0:0:0:0:
248,135,234565,2,0,P|270:170|305:192,1,82.5000025177003
332,112,234865,1,0,0:0:0:0:
222,236,235015,2,0,L|100:214,1,123.75000377655
100,214,235315,5,0,0:0:0:0:
24,247,235465,1,0,0:0:0:0:
14,329,235615,1,0,0:0:0:0:
24,247,235765,1,0,0:0:0:0:
34,165,235915,1,0,0:0:0:0:
100,214,236065,1,0,0:0:0:0:
110,132,236215,1,0,0:0:0:0:
120,50,236365,5,0,0:0:0:0:
220,12,236515,1,0,0:0:0:0:
282,98,236665,1,0,0:0:0:0:
382,61,236815,1,0,0:0:0:0:
319,198,236965,1,0,0:0:0:0:
294,208,237040,1,0,0:0:0:0:
269,218,237115,1,0,0:0:0:0:
419,161,237265,1,0,0:0:0:0:
456,261,237415,1,0,0:0:0:0:
356,298,237565,5,0,0:0:0:0:
269,218,237715,1,0,0:0:0:0:
150,222,237865,1,0,0:0:0:0:
275,235,238015,1,0,0:0:0:0:
156,239,238165,1,0,0:0:0:0:
69,159,238315,1,0,0:0:0:0:
58,134,238390,1,0,0:0:0:0:
48,109,238465,2,0,B|20:28|20:28|56:36|80:68,1,146.249993305207
132,164,238765,6,0,B|96:252|168:252|132:340,1,179.999994506836
54,292,239215,1,0,0:0:0:0:
210,209,239365,2,0,P|253:199|296:209,1,89.9999972534181
380,242,239665,1,0,0:0:0:0:
317,129,239815,2,0,P|381:145|446:129,1,134.999995880127
446,129,240115,5,0,0:0:0:0:
386,62,240265,1,0,0:0:0:0:
474,43,240415,1,0,0:0:0:0:
386,62,240565,1,0,0:0:0:0:
300,34,240715,1,0,0:0:0:0:
212,53,240865,1,0,0:0:0:0:
145,113,241015,1,0,0:0:0:0:
117,198,241165,5,0,0:0:0:0:
229,231,241315,1,0,0:0:0:0:
196,343,241465,1,0,0:0:0:0:
243,224,241615,1,0,0:0:0:0:
210,336,241765,1,0,0:0:0:0:
322,369,241915,1,0,0:0:0:0:
355,257,242065,1,0,0:0:0:0:
178,267,242215,6,0,B|114:272|68:314|68:314|68:248|24:208,1,240
16,201,242590,1,0,0:0:0:0:
7,193,242665,1,0,0:0:0:0:
248,267,242815,2,0,B|311:261|357:219|357:219|357:285|401:325,1,240
410,333,243190,1,0,0:0:0:0:
419,341,243265,1,0,0:0:0:0:
366,158,243415,6,0,P|346:80|480:110,1,269.999991760254
455,184,244015,1,0,0:0:0:0:
328,251,244165,2,0,L|239:235,1,89.9999972534181
88,207,244465,1,0,0:0:0:0:
212,296,244615,2,0,P|239:234|234:168,1,134.999995880127
234,168,244915,5,0,0:0:0:0:
203,74,245065,1,0,0:0:0:0:
297,42,245215,1,0,0:0:0:0:
196,95,245365,1,0,0:0:0:0:
102,127,245515,1,0,0:0:0:0:
70,33,245665,1,0,0:0:0:0:
102,127,245815,1,0,0:0:0:0:
82,224,245965,5,0,0:0:0:0:
147,321,246115,1,0,0:0:0:0:
256,280,246265,1,0,0:0:0:0:
147,321,246415,1,0,0:0:0:0:
192,182,246565,1,0,0:0:0:0:
200,156,246640,1,0,0:0:0:0:
209,131,246715,1,0,0:0:0:0:
169,252,246865,1,0,0:0:0:0:
290,292,247015,1,0,0:0:0:0:
147,321,247165,5,0,0:0:0:0:
312,223,247315,1,0,0:0:0:0:
334,154,247465,5,0,0:0:0:0:
356,85,247615,1,0,0:0:0:0:
28,28,247765,5,0,0:0:0:0:
50,97,247915,1,0,0:0:0:0:
258,31,248065,5,0,0:0:0:0:
50,97,248215,1,0,0:0:0:0:
28,166,248365,1,0,0:0:0:0:
353,233,248515,5,0,0:0:0:0:
145,167,248665,1,0,0:0:0:0:
123,98,248815,1,0,0:0:0:0:
448,31,248965,5,0,0:0:0:0:
240,97,249115,1,0,0:0:0:0:
448,163,249265,1,0,0:0:0:0:
470,232,249415,5,0,0:0:0:0:
492,301,249565,1,0,0:0:0:0:
284,367,249715,5,0,0:0:0:0:
60,352,250090,6,0,P|89:345|92:318,2,56.25
101,230,250690,2,0,P|72:237|69:264,2,56.25
196,277,251402,2,0,L|150:282,2,47.8124985408783
256,192,252077,12,0,262765,0:0:0:0:
