osu file format v14

[General]
AudioFilename: ExaVid.mp3
AudioLeadIn: 0
PreviewTime: 0
Countdown: 0
SampleSet: Soft
StackLeniency: 0.4
Mode: 0
LetterboxInBreaks: 0
WidescreenStoryboard: 1

[Editor]
DistanceSpacing: 1.1
BeatDivisor: 8
GridSize: 4
TimelineZoom: 1.7

[Metadata]
Title:~Vid
TitleUnicode:〜Vid
Artist:An
ArtistUnicode:An
Creator:Frostings
Version:5. Exa
Source:
Tags:AcuticNotes Acutic Notes Vid series Diverse System Artcore ABSTREACT AxiVid CHIAROSCURO HerVid Vividdness.PF TearVid-long mix- (Full Version) ExaVid 191 QuadVid opporturn deal OrVid VelVid AD:PIANO II 2 ReVid collection
BeatmapID:1596536
BeatmapSetID:759078

[Difficulty]
HPDrainRate:4.4
CircleSize:3.3
OverallDifficulty:7.7
ApproachRate:8.8
SliderMultiplier:1.4
SliderTickRate:1

[Events]
//Background and Video events
0,0,"BG.png",0,0
//Break Periods
//Storyboard Layer 0 (Background)
Sprite,Background,Centre,"BG.png",320,240 S,0,-2000,198462,0.444 F,0,341780,361884,1,0
//Storyboard Layer 1 (Fail)
//Storyboard Layer 2 (Pass)
//Storyboard Layer 3 (Foreground)
Sprite,Foreground,Centre,"SB\ExaVid.png",320,240 F,0,361884,368795,1,0 S,0,361884,368795,1
//Storyboard Layer 4 (Overlay)
//Storyboard Sound Samples

[TimingPoints]
0,314.13612565445,4,2,1,50,1,0
10209,-57.1428571428571,4,2,1,50,0,0
10523,-100,4,2,1,50,0,0
11465,-57.1428571428571,4,2,1,50,0,0
12094,-100,4,2,1,50,0,0
13036,-57.1428571428571,4,2,1,50,0,0
40837,-100,4,2,1,50,0,0
60471,-50,4,2,1,50,0,0
60942,-80,4,2,1,50,0,0
61256,-50,4,2,1,50,0,0
61570,-80,4,2,1,50,0,0
62827,-50,4,2,1,50,0,0
63141,-80,4,2,1,50,0,0
66282,-50,4,2,1,50,0,0
66596,-80,4,2,1,50,0,0
71308,-50,4,2,1,50,0,0
71623,-66.6666666666667,4,2,1,50,0,0
73507,-50,4,2,1,50,0,0
74136,-66.6666666666667,4,2,1,50,0,0
76335,-50,4,2,1,50,0,0
76649,-66.6666666666667,4,2,1,50,0,0
78848,-50,4,2,1,50,0,0
79162,-66.6666666666667,4,2,1,50,0,0
80575,-80,4,2,1,50,0,0
90628,-66.6666666666667,4,2,1,50,0,0
100366,-50,4,2,1,50,0,0
100680,-66.6666666666667,4,2,1,50,0,0
108534,-50,4,2,1,50,0,0
109319,-200,4,2,1,50,0,0
130680,-100,4,2,1,50,0,0
150785,-200,4,2,1,50,0,0
153298,-250,4,2,1,50,0,0
155183,-200,4,2,1,50,0,0
160837,-133.333333333333,4,2,1,50,0,0
170261,-100,4,2,1,50,0,0
181413,-80,4,2,1,50,0,0
190994,-133.333333333333,4,2,1,50,0,0
191937,-50,4,2,1,50,0,0
192408,-100,4,2,1,50,0,0
193350,-80,4,2,1,50,0,0
201989,-50,4,2,1,50,0,0
202303,-80,4,2,1,50,0,0
203089,-66.6666666666667,4,2,1,50,0,0
219895,-80,4,2,1,50,0,0
220994,-100,4,2,1,50,0,0
253036,-57.1428571428571,4,2,1,50,0,0
253193,-100,4,2,1,50,0,0
254450,-80,4,2,1,50,0,0
254607,-100,4,2,1,50,0,0
260732,-100,4,2,1,5,0,0
261361,-100,4,2,1,50,0,0
280209,-50,4,2,1,50,0,0
281308,-100,4,2,1,50,0,1
281780,-50,4,2,1,50,0,1
282565,-100,4,2,1,50,0,1
283821,-50,4,2,1,50,0,1
284293,-100,4,2,1,50,0,1
285549,-50,4,2,1,50,0,1
286335,-76.9230769230769,4,2,1,50,0,1
286806,-50,4,2,1,50,0,1
288376,-76.9230769230769,4,2,1,50,0,1
288848,-50,4,2,1,50,0,1
292303,-80,4,2,1,50,0,1
292617,-50,4,2,1,50,0,1
292853,-80,4,2,1,50,0,1
293874,-50,4,2,1,50,0,1
294345,-80,4,2,1,50,0,1
297643,-50,4,2,1,50,0,1
298115,-80,4,2,1,50,0,1
300157,-100,4,2,1,50,0,1
300628,-100,4,2,1,25,0,1
301256,-100,4,2,1,50,0,1
303926,-66.6666666666667,4,2,1,50,0,1
305183,-80,4,2,1,50,0,1
321675,-90.9090909090909,4,2,1,50,0,0
330785,-111.111111111111,4,2,1,50,0,0
331256,-142.857142857143,4,2,1,50,0,0
332356,-125,4,2,1,50,0,0
342408,-90.9090909090909,4,2,1,50,0,0
361727,-50,4,2,1,50,0,0

[Colours]
Combo1 : 140,255,140
Combo2 : 60,149,247
Combo3 : 140,189,242
Combo4 : 124,241,209

[HitObjects]
16,136,0,5,0,0:0:0:0:
108,76,157,2,0,L|124:216,1,140,0|2,0:0|0:0,0:0:0:0:
240,152,628,2,0,L|164:144,1,70
264,56,942,1,0,0:0:0:0:
296,240,1099,1,0,0:0:0:0:
396,112,1256,6,0,L|392:184,1,70
388,251,1570,2,0,L|391:181,1,70
480,296,1884,1,0,0:0:0:0:
284,172,2041,1,0,0:0:0:0:
288,272,2198,2,0,L|291:342,1,70
196,296,2513,2,0,L|276:304,1,70
116,248,2827,1,0,0:0:0:0:
104,340,2984,6,0,P|100:260|72:172,1,140,0|2,0:0|0:0,0:0:0:0:
44,100,3455,2,0,P|75:108|124:102,1,70
224,128,3769,2,0,P|200:151|181:195,1,70
204,284,4083,1,0,0:0:0:0:
84,202,4240,1,0,0:0:0:0:
300,248,4397,2,0,L|308:344,1,70
392,364,4712,1,0,0:0:0:0:
228,180,4869,1,0,0:0:0:0:
104,296,5026,1,0,0:0:0:0:
408,256,5183,6,0,L|269:273,1,140,0|2,0:0|0:0,0:0:0:0:
224,244,5654,2,0,L|234:313,1,70
140,136,5968,1,0,0:0:0:0:
292,180,6125,1,0,0:0:0:0:
368,128,6282,1,0,0:0:0:0:
456,232,6439,6,0,L|460:136,1,70
461,92,6753,2,0,L|458:161,1,70
368,44,7068,1,0,0:0:0:0:
360,152,7225,2,0,P|316:132|264:132,1,70
196,132,7539,1,0,0:0:0:0:
296,228,7696,2,0,P|247:232|202:258,1,70
160,312,8010,1,0,0:0:0:0:
32,160,8324,6,0,L|116:172,1,70,2|0,0:0|0:0,0:0:0:0:
200,84,8638,1,0,0:0:0:0:
140,216,8795,2,0,L|132:120,1,70
72,68,9109,1,0,0:0:0:0:
232,176,9267,2,0,L|320:164,1,70
376,60,9581,1,0,0:0:0:0:
408,268,9738,2,0,L|320:256,1,70
288,336,10052,1,4,0:3:0:0:
228,72,10209,6,0,B|241:207|241:207|304:156,1,183.750001752377,0|4,1:0|0:3,0:0:0:0:
392,104,10523,2,0,L|304:92,1,70,0|0,1:0|0:0,0:0:0:0:
76,172,10837,1,4,0:3:0:0:
76,172,10916,1,0,0:0:0:0:
76,172,10994,2,0,L|164:160,1,70,0|0,1:0|0:0,0:0:0:0:
148,68,11308,1,4,0:3:0:0:
300,244,11465,6,0,B|228:228|228:228|164:280,1,122.500001168251,0|0,1:0|0:0,0:0:0:0:
252,336,11701,1,0,0:0:0:0:
252,336,11780,1,0,0:0:0:0:
100,232,11937,1,0,0:0:0:0:
100,232,12015,1,0,0:0:0:0:
100,232,12094,2,0,L|96:300,1,35
20,320,12251,1,0,1:0:0:0:
0,140,12408,1,0,0:0:0:0:
100,232,12565,6,0,L|188:220,2,70,4|0|0,0:3|0:0|0:0,0:0:0:0:
112,68,12958,1,4,0:3:0:0:
96,88,13036,2,0,B|144:128|144:128|248:112,1,122.500001168251,0|0,1:0|0:0,0:0:0:0:
288,184,13272,1,0,0:0:0:0:
288,184,13350,2,0,L|300:104,2,61.2500005841255,4|0|0,0:3|0:0|0:0,0:0:0:0:
360,256,13664,1,0,0:0:0:0:
176,24,13821,1,4,0:3:0:0:
440,144,13979,6,0,L|300:160,1,122.500001168251,0|0,1:0|0:0,0:0:0:0:
318,157,14293,1,0,0:0:0:0:
120,224,14450,1,0,0:0:0:0:
148,212,14528,1,0,0:0:0:0:
178,213,14607,1,0,1:0:0:0:
206,225,14685,1,0,0:0:0:0:
227,247,14764,1,0,1:0:0:0:
268,340,14921,1,0,0:0:0:0:
224,112,15078,1,4,0:3:0:0:
452,244,15235,6,0,B|340:212|340:212|276:280,1,183.750001752377,0|4,0:0|0:3,0:0:0:0:
380,328,15549,2,0,L|384:244,1,61.2500005841255,0|0,1:0|0:0,0:0:0:0:
156,216,15706,2,0,L|158:277,1,61.2500005841255
268,340,15863,1,4,0:3:0:0:
268,340,15942,1,0,0:0:0:0:
268,340,16020,2,0,L|268:163,1,122.500001168251
168,380,16335,1,4,0:3:0:0:
228,136,16492,6,0,P|323:171|380:152,1,122.500001168251,0|0,1:0|0:0,0:0:0:0:
452,180,16727,1,0,0:0:0:0:
436,160,16806,2,0,L|428:248,1,61.2500005841255
360,368,16963,2,0,B|356:284|356:284|288:248,2,122.500001168251,0|0|0,0:0|0:0|1:0,0:0:0:0:
456,312,17434,1,0,0:0:0:0:
456,312,17513,1,0,0:0:0:0:
456,312,17591,1,4,0:3:0:0:
140,340,17748,2,0,P|212:328|272:360,1,122.500001168251
332,224,17984,5,4,0:3:0:0:
332,224,18062,2,0,P|260:212|200:244,1,122.500001168251,0|0,1:0|0:0,0:0:0:0:
192,268,18298,1,0,0:0:0:0:
193,237,18376,1,4,0:3:0:0:
188,207,18455,1,0,0:0:0:0:
176,178,18533,1,0,0:0:0:0:
88,88,18691,1,0,0:0:0:0:
256,120,18848,6,0,L|348:108,1,61.2500005841255,4|0,0:3|0:0,0:0:0:0:
368,44,19005,1,0,1:0:0:0:
316,264,19162,1,0,0:0:0:0:
316,264,19240,1,0,0:0:0:0:
316,264,19319,2,0,L|296:124,1,122.500001168251
424,192,19554,1,0,0:0:0:0:
416,172,19633,2,0,L|408:268,1,61.2500005841255
480,300,19790,1,4,0:3:0:0:
200,180,19947,1,0,1:0:0:0:
512,200,20104,1,4,0:3:0:0:
316,264,20261,6,0,L|368:264,6,30.6250002920628,0|0|0|0|0|0|4,0:0|0:0|0:0|0:0|0:0|0:0|0:3,0:0:0:0:
300,172,20575,1,0,1:0:0:0:
432,304,20732,2,0,L|440:224,2,61.2500005841255,0|0|4,0:0|0:0|0:3,0:0:0:0:
504,364,20968,1,0,0:0:0:0:
504,364,21047,1,0,0:0:0:0:
484,104,21204,2,0,P|416:120|336:88,1,122.500001168251,0|4,0:0|0:3,0:0:0:0:
280,20,21518,5,0,1:0:0:0:
344,256,21675,2,0,L|352:184,1,61.2500005841255
116,152,21832,2,0,L|122:212,1,61.2500005841255
368,272,21989,2,0,L|376:200,1,61.2500005841255
204,92,22146,1,0,0:0:0:0:
248,312,22303,2,0,L|244:176,1,122.500001168251,0|0,1:0|0:0,0:0:0:0:
316,132,22539,5,0,0:0:0:0:
340,124,22617,1,4,0:3:0:0:
464,224,22774,1,0,1:0:0:0:
448,8,22931,1,0,0:0:0:0:
448,8,23010,1,4,0:3:0:0:
448,8,23089,2,0,B|432:68|432:68|460:140,1,122.500001168251,0|0,1:0|0:0,0:0:0:0:
328,80,23403,5,4,0:3:0:0:
328,80,23481,1,0,0:0:0:0:
328,80,23560,2,0,L|404:68,1,61.2500005841255
512,232,23717,1,0,0:0:0:0:
512,232,23795,1,0,0:0:0:0:
512,232,23874,2,0,L|436:220,1,61.2500005841255,4|0,0:3|0:0,0:0:0:0:
364,172,24031,1,0,1:0:0:0:
372,384,24188,2,0,B|388:324|388:324|360:252,1,122.500001168251
276,324,24424,5,0,0:0:0:0:
253,344,24502,1,0,0:0:0:0:
224,354,24581,1,0,0:0:0:0:
194,351,24659,1,0,0:0:0:0:
167,337,24738,1,0,0:0:0:0:
148,313,24816,2,0,L|152:240,1,61.2500005841255,0|0,1:0|0:0,0:0:0:0:
76,136,24973,1,0,0:0:0:0:
232,228,25130,6,0,L|180:232,2,30.6250002920628,4|0|0,0:3|0:0|0:0,0:0:0:0:
312,128,25287,6,0,B|327:267|327:267|383:216,1,183.750001752377,0|4,0:0|0:3,0:0:0:0:
480,156,25602,1,0,1:0:0:0:
480,156,25680,1,0,0:0:0:0:
480,156,25759,2,0,L|408:152,1,61.2500005841255
272,32,25916,1,4,0:3:0:0:
272,32,25994,1,0,0:0:0:0:
272,32,26073,2,0,B|332:14|332:14|379:51,1,122.500001168251
300,236,26308,5,0,0:0:0:0:
322,250,26387,2,0,L|310:114,2,122.500001168251,4|0|0,0:3|1:0|0:0,0:0:0:0:
428,356,26780,5,0,0:0:0:0:
399,376,26858,1,0,0:0:0:0:
365,382,26937,1,0,0:0:0:0:
334,367,27015,1,0,0:0:0:0:
308,344,27094,1,0,0:0:0:0:
277,329,27172,1,0,0:0:0:0:
243,336,27251,1,0,0:0:0:0:
215,356,27329,2,0,L|220:268,1,61.2500005841255
0,264,27486,2,0,L|3:325,1,61.2500005841255
112,296,27643,6,0,L|116:173,1,122.500001168251,4|0,0:3|0:0,0:0:0:0:
180,80,27958,1,0,0:0:0:0:
180,80,28036,1,4,0:3:0:0:
180,80,28115,2,0,B|263:122|263:122|212:224,1,183.750001752377,0|0,1:0|0:0,0:0:0:0:
0,152,28429,1,4,0:3:0:0:
20,164,28507,2,0,L|16:88,1,61.2500005841255
112,232,28743,1,0,0:0:0:0:
308,184,28900,5,4,0:3:0:0:
120,128,29057,1,0,0:0:0:0:
392,256,29214,5,0,0:0:0:0:
204,200,29371,1,0,0:0:0:0:
432,160,29528,5,0,0:0:0:0:
80,224,29685,1,0,0:0:0:0:
276,284,29842,5,0,0:0:0:0:
236,100,29999,1,0,0:0:0:0:
256,192,30157,5,4,0:3:0:0:
420,92,30314,1,0,1:0:0:0:
408,112,30392,1,0,0:0:0:0:
392,128,30471,2,0,P|355:127|320:116,1,61.2500005841255,0|4,0:0|0:3,0:0:0:0:
229,73,30628,2,0,P|250:139|251:235,1,122.500001168251,0|0,1:0|0:0,0:0:0:0:
120,256,30942,1,4,0:3:0:0:
120,256,31020,1,0,0:0:0:0:
120,256,31099,2,0,P|156:256|192:268,1,61.2500005841255
244,332,31256,1,0,0:0:0:0:
160,160,31413,1,4,0:3:0:0:
272,236,31570,6,0,P|353:270|423:243,1,122.500001168251,0|0,1:0|0:0,0:0:0:0:
464,116,31806,1,0,0:0:0:0:
452,136,31884,2,0,P|370:170|300:143,1,122.500001168251
264,100,32120,1,0,0:0:0:0:
256,76,32198,1,0,0:0:0:0:
308,320,32356,1,0,0:0:0:0:
200,260,32513,1,0,0:0:0:0:
92,332,32670,6,0,P|88:252|68:180,1,122.500001168251,4|0,0:3|0:0,0:0:0:0:
0,104,32984,1,0,0:0:0:0:
0,104,33062,1,4,0:3:0:0:
0,104,33141,2,0,P|80:116|136:92,1,122.500001168251,0|0,1:0|0:0,0:0:0:0:
216,104,33376,2,0,P|210:139|208:192,2,61.2500005841255,0|4|0,0:0|0:3|0:0,0:0:0:0:
164,16,33612,1,0,0:0:0:0:
312,124,33769,1,0,0:0:0:0:
420,52,33926,6,0,P|424:132|444:204,1,122.500001168251,4|0,0:3|1:0,0:0:0:0:
508,264,34240,1,0,0:0:0:0:
348,220,34397,1,0,0:0:0:0:
264,336,34554,1,0,0:0:0:0:
264,336,34633,1,0,0:0:0:0:
264,336,34712,2,0,P|259:296|252:267,1,61.2500005841255
267,141,34869,2,0,P|244:162|220:180,1,61.2500005841255
44,236,35026,2,0,P|112:236|172:288,1,122.500001168251,0|4,0:0|0:3,0:0:0:0:
136,140,35340,6,0,L|128:96,6,30.6250002920628,0|0|0|0|0|0|4,0:0|0:0|0:0|0:0|0:0|0:0|0:3,0:0:0:0:
331,209,35654,2,0,P|263:209|203:157,1,122.500001168251,0|0,1:0|0:0,0:0:0:0:
228,80,35968,1,4,0:3:0:0:
260,88,36047,1,0,0:0:0:0:
292,76,36125,1,0,0:0:0:0:
156,264,36282,1,0,0:0:0:0:
60,200,36439,1,4,0:3:0:0:
260,216,36596,6,0,P|264:284|273:337,1,122.500001168251,0|0,1:0|0:0,0:0:0:0:
364,380,36910,1,0,0:0:0:0:
384,112,37068,2,0,P|308:124|256:96,1,122.500001168251
168,60,37382,1,0,0:0:0:0:
168,60,37460,1,0,0:0:0:0:
168,60,37539,2,0,P|176:100|172:156,1,61.2500005841255
112,200,37696,1,4,0:3:0:0:
16,144,37853,1,0,0:0:0:0:
24,312,38010,5,0,0:0:0:0:
24,312,38089,1,4,0:3:0:0:
24,312,38167,2,0,P|120:288|172:308,1,122.500001168251,0|0,1:0|0:0,0:0:0:0:
224,244,38403,1,0,0:0:0:0:
224,244,38481,1,0,1:0:0:0:
224,244,38560,2,0,P|232:284|256:328,1,61.2500005841255
348,302,38717,1,0,0:0:0:0:
348,302,38795,2,0,P|359:274|364:243,1,61.2500005841255
436,348,38952,1,4,0:3:0:0:
320,132,39109,6,0,P|402:155|472:129,1,122.500001168251,0|0,1:0|0:0,0:0:0:0:
500,68,39424,1,0,0:0:0:0:
460,248,39581,1,0,0:0:0:0:
232,48,39738,1,0,0:0:0:0:
260,251,39895,1,0,0:0:0:0:
260,251,39973,1,0,0:0:0:0:
260,251,40052,2,0,P|260:221|257:191,1,61.2500005841255
164,136,40209,5,0,0:0:0:0:
360,284,40366,1,0,1:0:0:0:
424,196,40680,5,0,0:0:0:0:
424,196,40759,1,0,0:0:0:0:
424,196,40837,2,0,P|380:196|340:184,1,70
260,96,41151,1,0,0:0:0:0:
191,245,41308,5,0,0:0:0:0:
191,245,41387,1,0,0:0:0:0:
191,245,41465,2,0,P|235:245|275:257,1,70,2|0,0:0|0:0,0:0:0:0:
320,328,41780,1,0,0:0:0:0:
168,144,41937,1,0,0:0:0:0:
105,309,42094,2,0,P|101:274|90:241,1,70
16,168,42408,1,0,0:0:0:0:
191,245,42565,6,0,P|259:254|320:220,1,140
356,128,43036,1,0,0:0:0:0:
416,280,43193,2,0,P|421:220|413:181,1,70,2|0,0:0|0:0,0:0:0:0:
420,210,43507,1,0,0:0:0:0:
216,116,43664,2,0,P|210:175|218:214,1,70
300,264,43979,1,0,0:0:0:0:
104,192,44136,1,0,0:0:0:0:
316,156,44293,6,0,P|388:172|412:168,1,70,0|2,0:0|0:0,0:0:0:0:
456,96,44607,1,0,0:0:0:0:
456,288,44764,2,0,P|384:272|360:276,1,70,2|0,0:0|0:0,0:0:0:0:
304,340,45078,1,2,0:0:0:0:
192,200,45235,1,0,0:0:0:0:
292,232,45392,6,0,P|300:152|288:72,1,140,0|2,0:0|0:0,0:0:0:0:
132,76,45863,2,0,P|194:97|230:92,1,70
464,152,46178,2,0,P|401:173|365:168,1,70
398,173,46413,1,0,0:0:0:0:
398,173,46492,1,2,0:0:0:0:
293,93,46649,1,0,0:0:0:0:
312,284,46806,2,0,P|312:216|304:188,1,70
224,172,47120,1,0,0:0:0:0:
420,280,47277,2,0,P|420:348|428:376,1,70
508,160,47591,6,0,P|440:176|376:140,1,140
328,52,48062,1,0,0:0:0:0:
320,304,48219,2,0,P|314:244|304:213,1,70,2|0,0:0|0:0,0:0:0:0:
312,234,48534,1,0,0:0:0:0:
216,280,48691,6,0,P|164:308|128:312,1,70
48,296,49005,1,0,0:0:0:0:
79,199,49162,2,0,P|113:206|148:204,1,70
220,128,49476,1,2,0:0:0:0:
129,102,49633,2,0,P|97:87|72:64,1,70,0|2,0:0|0:0,0:0:0:0:
200,32,49947,1,0,0:0:0:0:
79,199,50104,1,2,0:0:0:0:
320,168,50261,1,0,0:0:0:0:
220,128,50418,6,0,L|232:280,1,140,0|2,0:0|0:0,0:0:0:0:
396,280,50890,2,0,L|304:264,1,70
327,268,51204,1,0,0:0:0:0:
64,192,51361,2,0,L|156:176,1,70,0|2,0:0|0:0,0:0:0:0:
132,180,51675,1,0,0:0:0:0:
185,97,51832,1,0,0:0:0:0:
213,233,51989,1,0,0:0:0:0:
266,150,52146,1,0,0:0:0:0:
328,230,52303,2,0,P|361:243|396:244,1,70
492,112,52617,6,0,P|433:148|364:141,1,140
312,60,53089,1,0,0:0:0:0:
220,124,53246,2,0,P|215:68|199:29,1,70,2|0,0:0|0:0,0:0:0:0:
211,55,53560,1,0,0:0:0:0:
124,184,53717,2,0,P|128:239|144:278,1,70
224,292,54031,5,0,0:0:0:0:
32,144,54188,1,0,0:0:0:0:
288,192,54345,2,0,P|224:200|192:192,1,70,0|2,0:0|0:0,0:0:0:0:
192,28,54659,1,0,0:0:0:0:
268,88,54816,2,0,P|332:96|364:88,1,70,2|0,0:0|0:0,0:0:0:0:
400,24,55130,1,2,0:0:0:0:
395,247,55287,6,0,L|386:178,1,70
386,178,55759,1,0,0:0:0:0:
292,248,55916,2,0,P|228:264|196:256,1,70
340,340,56230,2,0,P|404:356|436:348,1,70,0|2,0:0|0:0,0:0:0:0:
484,296,56544,1,0,0:0:0:0:
408,156,56701,2,0,L|417:225,1,70
472,84,57015,1,0,0:0:0:0:
308,160,57172,2,0,P|248:154|214:131,1,70
188,64,57486,1,0,0:0:0:0:
52,216,57643,6,0,P|124:204|192:252,1,140
248,328,58115,1,0,0:0:0:0:
344,280,58272,1,2,0:0:0:0:
344,280,58586,1,0,0:0:0:0:
340,124,58743,6,0,L|424:100,1,70
168,280,59057,2,0,L|88:300,1,70
344,280,59371,2,0,L|424:300,1,70
172,124,59685,2,0,L|88:100,1,70
256,212,59999,1,0,0:0:0:0:
256,212,60157,1,0,0:0:0:0:
255,91,60314,1,4,0:3:0:0:
256,324,60471,6,0,B|292:248|251:171|251:171|232:196|191:221,1,210
213,206,60785,1,4,0:3:0:0:
76,112,60942,2,0,P|140:114|178:94,1,87.5,0|2,1:0|0:3,0:0:0:0:
440,144,61178,1,2,0:3:0:0:
440,144,61256,2,2,B|407:137|380:130|380:130|352:176|352:176|309:172|309:172|294:199|268:225,1,210,2|0,0:3|0:1,0:1:0:0:
344,300,61570,6,0,L|353:183,1,87.5,4|0,0:3|1:0,0:0:0:0:
92,168,61806,2,0,L|99:255,1,87.5,4|0,0:3|0:0,0:0:0:0:
240,128,62041,2,0,L|243:59,1,43.75,4|0,0:3|0:0,0:0:0:0:
232,240,62198,1,0,1:0:0:0:
336,116,62356,1,2,0:3:0:0:
428,212,62513,2,0,L|425:143,1,43.75
500,280,62670,1,2,0:3:0:0:
508,53,62827,6,0,B|452:85|379:54|379:54|364:99|323:124,1,210,4|0,0:3|0:0,0:0:0:0:
276,24,63141,1,0,0:0:0:0:
224,184,63298,1,4,0:3:0:0:
112,168,63455,2,0,P|121:211|121:271,1,87.5,0|2,1:0|0:3,0:0:0:0:
31,302,63691,2,0,P|38:259|36:216,1,87.5,2|0,0:3|0:0,0:0:0:0:
28,128,63926,1,0,0:0:0:0:
280,300,64083,6,0,P|270:256|270:196,1,87.5,4|0,0:3|0:0,0:0:0:0:
360,165,64319,2,0,P|353:208|355:251,1,87.5,4|0,0:3|0:0,0:0:0:0:
364,340,64554,1,4,0:3:0:0:
464,284,64712,1,0,1:0:0:0:
196,336,64869,1,0,0:0:0:0:
355,251,65026,1,0,0:0:0:0:
132,148,65183,1,0,0:0:0:0:
32,272,65340,6,0,P|96:260|148:272,1,87.5,4|2,0:3|0:3,0:0:0:0:
117,262,65811,1,4,0:3:0:0:
44,164,65968,1,0,1:0:0:0:
104,352,66125,1,2,0:3:0:0:
253,95,66282,6,2,B|257:155|257:155|254:168|254:168|257:211|257:211|262:223|262:223|264:243|264:243|260:255|260:255|265:315,1,210,0|0,0:1|0:1,0:1:0:0:
263,302,66596,6,0,P|315:283|379:297,1,87.5,4|2,0:3|0:3,0:0:0:0:
488,224,66832,2,0,P|444:223|404:207,1,87.5,4|0,0:3|0:0,0:0:0:0:
352,116,67068,1,4,0:3:0:0:
252,196,67225,1,0,1:0:0:0:
164,88,67382,1,0,0:0:0:0:
76,224,67539,1,0,0:0:0:0:
76,224,67617,1,0,0:0:0:0:
76,224,67696,2,0,L|72:160,1,43.75,2|0,0:3|0:0,0:0:0:0:
8,304,67853,5,4,0:3:0:0:
8,304,68324,1,4,0:3:0:0:
76,224,68481,2,0,P|125:243|191:236,1,87.5,0|2,1:0|0:3,0:0:0:0:
248,228,68717,2,0,L|236:308,1,43.75,2|2,0:3|0:3,0:0:0:0:
312,328,68952,1,0,0:0:0:0:
388,132,69109,6,0,P|338:151|272:144,1,87.5,4|2,0:3|0:3,0:0:0:0:
241,36,69345,2,0,P|280:55|324:59,1,87.5,4|0,0:3|0:0,0:0:0:0:
412,40,69581,1,4,0:3:0:0:
360,236,69738,1,0,1:0:0:0:
208,136,69895,1,2,0:3:0:0:
140,252,70052,1,0,0:0:0:0:
56,196,70209,1,2,0:3:0:0:
64,384,70366,6,0,P|56:316|44:276,1,87.5,4|0,0:3|0:0,0:0:0:0:
51,297,70837,1,0,0:0:0:0:
353,183,71308,6,2,B|298:188|298:188|268:202|268:202|243:181|243:181|213:195|213:195|158:200,1,210,0|0,0:1|0:1,0:1:0:0:
96,120,71623,1,4,0:3:0:0:
272,368,71780,2,0,B|264:260|264:260|207:226,1,157.500006008148
168,320,72094,1,4,0:3:0:0:
8,168,72251,1,0,1:0:0:0:
48,304,72408,1,2,0:3:0:0:
116,216,72565,1,2,0:3:0:0:
184,288,72722,1,0,0:0:0:0:
308,204,72879,6,0,P|240:212|196:192,1,105.000004005432,4|0,0:3|0:0,0:0:0:0:
207,199,73350,1,4,0:3:0:0:
0,272,73507,2,0,B|68:280|124:252|124:252|148:304|200:332,1,210,0|2,1:0|0:3,0:0:0:0:
264,368,73821,1,0,0:0:0:0:
348,316,73979,1,2,0:3:0:0:
440,368,74136,6,0,P|441:316|456:232,1,105.000004005432,4|2,0:3|0:3,0:0:0:0:
488,168,74371,2,0,P|412:180|360:140,1,105.000004005432,4|2,0:3|0:3,0:0:0:0:
328,104,74607,1,4,0:3:0:0:
140,280,74764,5,0,1:0:0:0:
160,303,74842,1,0,0:0:0:0:
191,312,74921,1,2,0:3:0:0:
222,301,74999,1,0,0:0:0:0:
241,275,75078,1,0,0:0:0:0:
260,249,75157,1,0,0:0:0:0:
291,238,75235,1,2,0:3:0:0:
322,247,75314,1,0,0:0:0:0:
343,272,75392,1,4,0:3:0:0:
432,336,75549,6,0,L|435:283,3,52.5000020027161
456,172,75863,2,0,B|406:187|406:187|357:155,1,105.000004005432,4|0,0:3|1:0,0:0:0:0:
296,80,76178,1,0,0:0:0:0:
161,229,76335,2,2,B|194:226|222:214|222:214|255:253|255:253|300:245|300:245|324:265|369:283,1,210,0|0,0:1|0:1,0:1:0:0:
400,328,76649,6,0,L|392:224,1,105.000004005432,4|2,0:3|0:3,0:0:0:0:
488,192,76884,2,0,L|484:260,2,52.5000020027161,4|0|2,0:3|0:0|0:3,0:0:0:0:
308,164,77120,1,4,0:3:0:0:
260,280,77277,1,0,1:0:0:0:
160,208,77434,1,2,0:3:0:0:
100,288,77591,1,0,0:0:0:0:
12,256,77748,1,2,0:3:0:0:
188,352,77905,5,4,0:3:0:0:
72,172,78062,2,0,P|72:100|88:48,1,105.000004005432,2|0,0:3|0:0,0:0:0:0:
80,68,78376,1,4,0:3:0:0:
440,212,78534,2,0,P|440:284|424:336,1,105.000004005432,0|0,1:0|0:0,0:0:0:0:
252,308,78848,2,0,P|252:188|292:96,1,210
285,106,79162,6,0,P|229:127|176:116,1,105.000004005432,4|2,0:3|0:3,0:0:0:0:
112,56,79397,1,4,0:3:0:0:
152,212,79633,1,4,0:3:0:0:
42,204,79790,5,0,1:0:0:0:
68,185,79868,1,0,0:0:0:0:
100,176,79947,1,2,0:3:0:0:
129,188,80025,1,0,0:0:0:0:
152,212,80104,1,0,0:0:0:0:
174,236,80182,1,0,0:0:0:0:
203,250,80261,1,0,0:0:0:0:
235,243,80339,1,0,0:0:0:0:
262,225,80418,1,4,0:3:0:0:
380,240,80575,6,0,L|374:188,3,43.75
456,296,80890,1,0,0:0:0:0:
468,116,81047,1,0,0:0:0:0:
468,116,81125,1,0,0:0:0:0:
468,116,81204,1,0,0:0:0:0:
300,184,81361,2,0,L|395:172,1,87.5
464,248,81675,6,0,L|468:212,4,21.875,2|0|0|0|2,0:0|0:0|0:0|0:0|0:0,0:0:0:0:
368,304,81989,1,0,0:0:0:0:
268,192,82146,1,0,0:0:0:0:
172,292,82303,2,0,L|160:188,1,87.5
264,352,82617,1,0,0:0:0:0:
68,304,82774,1,0,0:0:0:0:
352,264,82931,6,0,P|275:254|238:225,1,87.5
228,144,83246,1,0,0:0:0:0:
36,176,83403,2,0,P|113:166|150:137,1,87.5,2|0,0:0|0:0,0:0:0:0:
160,56,83718,1,2,0:0:0:0:
192,328,83874,2,0,P|186:278|172:208,1,87.5,0|2,0:0|0:0,0:0:0:0:
84,276,84188,1,0,0:0:0:0:
296,140,84345,2,0,P|288:183|283:226,1,87.5
20,136,84659,5,0,0:0:0:0:
47,119,84737,1,0,0:0:0:0:
80,111,84816,1,0,0:0:0:0:
108,123,84894,1,0,0:0:0:0:
131,146,84973,1,0,0:0:0:0:
154,170,85051,1,0,0:0:0:0:
184,183,85130,1,0,0:0:0:0:
216,175,85208,1,0,0:0:0:0:
243,157,85287,1,0,0:0:0:0:
288,56,85445,5,2,0:0:0:0:
228,272,85603,2,0,L|208:136,1,131.25
208,142,85916,1,0,0:0:0:0:
404,232,86073,2,0,P|357:235|312:220,1,87.5
196,120,86387,2,0,P|242:119|286:100,1,87.5
332,32,86701,5,2,0:0:0:0:
332,32,86780,1,0,0:0:0:0:
332,32,86858,1,2,0:0:0:0:
320,200,87015,1,0,0:0:0:0:
232,136,87172,1,0,0:0:0:0:
160,216,87329,1,0,0:0:0:0:
92,112,87486,1,0,0:0:0:0:
12,232,87643,2,0,L|2:146,1,87.5
116,272,87958,5,0,0:0:0:0:
192,196,88115,1,0,0:0:0:0:
272,296,88272,1,0,0:0:0:0:
464,260,88429,1,2,0:0:0:0:
434,274,88507,1,0,0:0:0:0:
402,273,88586,1,0,0:0:0:0:
373,258,88664,1,0,0:0:0:0:
353,232,88743,1,2,0:0:0:0:
368,124,88900,5,0,0:0:0:0:
256,272,89057,1,2,0:0:0:0:
144,228,89214,2,0,L|152:328,1,87.5
150,315,89450,1,0,0:0:0:0:
150,315,89528,1,0,0:0:0:0:
48,184,89685,1,2,0:0:0:0:
251,201,89842,5,0,0:0:0:0:
229,224,89920,1,0,0:0:0:0:
197,233,89999,1,2,0:0:0:0:
167,220,90077,1,0,0:0:0:0:
149,192,90156,1,0,0:0:0:0:
131,165,90235,1,0,0:0:0:0:
101,152,90313,1,2,0:0:0:0:
70,159,90392,1,0,0:0:0:0:
48,184,90470,1,4,0:3:0:0:
100,336,90628,6,0,L|92:260,2,52.5000020027161,4|0|0,3:0|0:0|1:0,0:0:0:0:
0,272,90942,1,0,0:0:0:0:
200,348,91099,1,0,0:0:0:0:
200,348,91178,1,0,0:0:0:0:
200,348,91256,1,4,0:3:0:0:
352,244,91413,2,0,B|305:272|305:272|239:257,1,105.000004005432,0|0,0:0|1:0,0:0:0:0:
156,200,91649,5,0,0:0:0:0:
156,200,91727,2,0,L|164:300,1,52.5000020027161,4|0,0:3|0:0,0:0:0:0:
252,160,91884,2,0,L|256:107,1,52.5000020027161,4|0,0:3|0:0,0:0:0:0:
48,172,92041,2,0,L|52:224,1,52.5000020027161,0|0,1:0|0:0,0:0:0:0:
152,144,92198,2,0,B|144:44|144:44|204:0,1,157.500006008148,4|0,0:3|0:0,0:0:0:0:
360,122,92513,2,0,L|216:102,1,105.000004005432,4|0,0:3|0:0,0:0:0:0:
255,107,92827,1,0,1:0:0:0:
296,268,92984,6,0,L|304:160,1,105.000004005432,4|2,0:3|0:3,0:0:0:0:
384,332,93298,1,0,1:0:0:0:
96,246,93455,2,0,P|183:238|220:203,1,105.000004005432
195,230,93691,1,0,0:0:0:0:
195,230,93769,1,4,0:3:0:0:
72,152,93926,2,0,L|76:220,1,52.5000020027161
296,268,94083,2,0,L|299:215,1,52.5000020027161,0|0,1:0|0:0,0:0:0:0:
196,88,94240,5,4,0:3:0:0:
195,230,94397,1,4,0:3:0:0:
308,112,94554,1,0,1:0:0:0:
352,212,94712,1,4,0:3:0:0:
508,120,94869,5,0,0:0:0:0:
487,140,94947,1,0,0:0:0:0:
454,145,95026,1,4,0:3:0:0:
425,132,95104,1,0,0:0:0:0:
407,105,95183,1,0,0:0:0:0:
389,78,95261,1,0,0:0:0:0:
360,65,95340,1,0,1:0:0:0:
328,70,95418,1,0,0:0:0:0:
303,91,95496,1,4,0:3:0:0:
332,244,95654,6,0,L|340:180,1,52.5000020027161,4|0,0:3|0:0,0:0:0:0:
140,204,95811,2,0,P|236:184|263:151,1,105.000004005432,0|2,1:0|0:3,0:0:0:0:
303,91,96047,1,0,0:0:0:0:
303,91,96125,2,0,P|207:71|179:38,1,105.000004005432,2|4,0:3|0:3,0:0:0:0:
144,0,96439,1,0,0:0:0:0:
72,124,96596,2,0,L|64:48,1,52.5000020027161,0|0,1:0|0:0,0:0:0:0:
172,176,96753,5,4,0:3:0:0:
172,176,96832,1,0,0:0:0:0:
172,176,96910,1,4,0:3:0:0:
260,88,97068,1,0,1:0:0:0:
356,168,97225,2,0,L|368:48,1,105.000004005432,4|0,0:3|0:0,0:0:0:0:
448,224,97539,2,0,L|456:308,1,52.5000020027161,4|0,0:3|0:0,0:0:0:0:
512,152,97696,1,0,0:0:0:0:
356,268,97853,1,0,1:0:0:0:
200,144,98010,5,4,0:3:0:0:
218,170,98088,1,0,0:0:0:0:
247,184,98167,1,2,0:3:0:0:
280,183,98245,1,0,0:0:0:0:
307,166,98324,1,0,1:0:0:0:
376,64,98481,1,2,0:3:0:0:
376,64,98560,1,0,0:0:0:0:
376,64,98638,1,0,0:0:0:0:
340,244,98795,2,0,L|324:124,1,105.000004005432,4|0,0:3|0:0,0:0:0:0:
326,139,99109,1,0,1:0:0:0:
444,188,99267,6,0,L|368:176,1,52.5000020027161,4|0,0:3|0:0,0:0:0:0:
216,72,99424,2,0,L|292:60,1,52.5000020027161,4|0,0:3|0:0,0:0:0:0:
376,40,99581,1,0,1:0:0:0:
32,216,99738,2,0,P|53:141|117:98,1,157.500006008148,4|0,0:3|0:0,0:0:0:0:
128,256,100052,2,0,P|183:202|260:197,1,157.500006008148,4|0,0:3|0:0,0:0:0:0:
208,324,100366,2,0,P|280:316|316:336,1,70,0|0,1:0|0:0,0:0:0:0:
344,384,100523,5,4,0:3:0:0:
284,152,100680,1,4,0:3:0:0:
284,152,100759,1,0,0:0:0:0:
284,152,100837,2,0,P|311:157|351:161,1,52.5000020027161,0|0,1:0|0:0,0:0:0:0:
512,236,100994,2,0,P|425:226|356:296,1,157.500006008148
280,352,101308,2,0,P|267:256|248:216,1,105.000004005432,4|0,0:3|0:0,0:0:0:0:
188,188,101544,1,0,0:0:0:0:
188,188,101623,1,0,1:0:0:0:
84,288,101780,5,4,0:3:0:0:
16,112,101937,2,0,P|60:124|156:80,1,105.000004005432,4|0,0:3|1:0,0:0:0:0:
289,188,102251,2,0,P|245:176|149:220,1,105.000004005432,4|0,0:3|0:0,0:0:0:0:
132,280,102565,1,4,0:3:0:0:
36,232,102722,1,0,0:0:0:0:
224,228,102879,6,0,P|228:276|236:340,1,105.000004005432,0|4,1:0|0:3,0:0:0:0:
332,368,103193,1,2,0:3:0:0:
132,168,103350,1,0,1:0:0:0:
324,260,103507,2,0,L|388:248,2,52.5000020027161,0|0|2,0:0|0:0|0:3,0:0:0:0:
208,68,103821,1,4,0:3:0:0:
292,140,103979,6,0,P|371:154|428:132,1,105.000004005432,0|0,0:0|1:0,0:0:0:0:
448,68,104293,1,4,0:3:0:0:
412,264,104450,1,4,0:3:0:0:
312,196,104607,1,0,1:0:0:0:
60,308,104764,1,4,0:3:0:0:
85,336,104842,1,0,0:0:0:0:
122,347,104921,1,0,0:0:0:0:
159,335,104999,1,0,0:0:0:0:
184,306,105078,1,0,1:0:0:0:
208,275,105157,1,0,0:0:0:0:
245,264,105235,1,0,0:0:0:0:
282,275,105314,1,0,0:0:0:0:
308,304,105392,1,0,1:0:0:0:
392,376,105549,6,0,L|400:328,3,26.2500010013581,4|0|0|0,0:3|0:0|0:0|0:0,0:0:0:0:
420,224,105706,2,0,P|372:245|320:244,1,105.000004005432,4|0,0:3|1:0,0:0:0:0:
256,168,105942,1,0,0:0:0:0:
256,168,106020,1,2,0:3:0:0:
172,280,106178,1,2,0:3:0:0:
56,244,106335,2,0,L|64:372,1,105.000004005432,4|0,0:3|0:0,0:0:0:0:
152,208,106570,1,0,0:0:0:0:
152,208,106649,2,0,L|153:131,1,52.5000020027161,0|0,1:0|0:0,0:0:0:0:
240,272,106806,5,4,0:3:0:0:
392,184,106963,2,0,B|340:200|340:200|268:168,1,105.000004005432,4|0,0:3|1:0,0:0:0:0:
192,84,107198,1,0,0:0:0:0:
216,76,107277,2,0,B|252:112|252:112|244:244,1,157.500006008148,4|0,0:3|0:0,0:0:0:0:
144,268,107591,2,0,L|136:164,1,105.000004005432,4|0,0:3|0:0,0:0:0:0:
135,163,107827,1,0,0:0:0:0:
135,163,107905,1,0,1:0:0:0:
36,232,108062,6,0,L|120:216,1,52.5000020027161,4|0,0:3|0:0,0:0:0:0:
232,176,108219,2,0,L|148:160,1,52.5000020027161,2|0,0:3|0:0,0:0:0:0:
8,88,108376,2,0,L|92:72,1,52.5000020027161,0|0,1:0|0:0,0:0:0:0:
216,48,108534,6,0,B|160:92|160:92|176:248,1,210
64,175,108848,6,0,B|130:201|130:201|190:166|190:166|256:192,1,210,4|0,0:3|0:0,0:0:0:0:
368,240,109162,6,0,L|384:120,1,70,0|0,1:0|0:0,0:0:0:0:
252,69,109319,6,0,L|259:314,1,245,4|0,0:3|0:0,0:0:0:0:
259,314,110575,5,0,1:0:0:0:
176,272,111047,1,0,0:0:0:0:
108,336,111518,1,0,0:0:0:0:
25,294,111989,1,0,0:0:0:0:
176,272,112460,1,0,0:0:0:0:
176,272,112774,1,0,0:0:0:0:
56,220,113089,6,0,B|188:296|182:133|315:210,1,280
336,212,115602,6,0,P|328:268|328:324,1,105
184,136,116544,2,0,P|192:192|192:248,1,105
320,48,117486,2,0,P|314:87|314:126,1,70
208,72,118115,5,0,0:0:0:0:
208,72,118272,1,0,0:0:0:0:
304,156,118586,5,0,0:0:0:0:
304,156,118743,1,0,0:0:0:0:
256,192,119057,5,0,0:0:0:0:
256,192,119214,1,0,0:0:0:0:
256,192,119450,12,0,120471,0:0:0:0:
164,60,120628,6,0,L|212:52,1,35
348,116,121099,2,0,L|300:108,1,35
116,216,121570,2,0,L|228:200,1,105
344,296,122513,2,0,L|276:280,1,70
208,348,123141,5,0,0:0:0:0:
208,348,123298,1,0,0:0:0:0:
308,272,123612,5,0,0:0:0:0:
308,272,123769,1,0,0:0:0:0:
256,192,124083,5,0,0:0:0:0:
256,192,124240,1,0,0:0:0:0:
180,184,125654,5,0,0:0:0:0:
180,184,125811,2,0,L|176:100,1,70
328,216,126596,1,0,0:0:0:0:
328,216,126753,2,0,L|332:132,1,70
256,280,127539,1,0,0:0:0:0:
256,280,127853,1,0,0:0:0:0:
157,183,128167,6,0,B|260:136|251:247|354:200,1,210
256,192,129424,12,0,130523,0:0:0:0:
256,192,130680,5,4,0:3:0:0:
344,152,130837,2,0,L|342:117,4,35,0|0|0|0|4,0:0|0:0|0:0|0:0|0:3,0:0:0:0:
408,76,131308,2,0,L|268:96,1,140,0|0,1:0|0:0,0:0:0:0:
269,95,131937,1,4,0:3:0:0:
256,192,132094,1,0,0:0:0:0:
156,176,132251,2,0,P|153:136|148:96,1,70,4|0,0:3|0:0,0:0:0:0:
356,208,132565,2,0,P|353:280|357:354,1,140,0|0,1:0|0:0,0:0:0:0:
440,84,133193,6,0,P|366:110|297:88,1,140,4|0,0:3|0:0,0:0:0:0:
248,16,133664,1,4,0:3:0:0:
72,164,133821,2,0,P|146:138|215:160,1,140,0|0,1:0|0:0,0:0:0:0:
360,264,134450,2,0,P|368:225|360:163,1,70,4|2,0:3|0:3,0:0:0:0:
152,120,134764,2,0,P|143:158|151:220,1,70,4|2,0:3|0:3,0:0:0:0:
238,329,135078,2,0,P|255:261|255:192,1,140,0|0,1:0|0:0,0:0:0:0:
256,192,135706,6,0,L|357:209,2,70,4|0|0,0:3|0:0|0:0,0:0:0:0:
256,192,136178,1,4,0:3:0:0:
216,64,136335,2,0,P|296:76|364:32,1,140,0|2,1:0|0:3,0:0:0:0:
346,50,136963,2,0,P|341:97|339:139,1,70,4|2,0:3|0:3,0:0:0:0:
156,96,137277,2,0,P|159:130|162:165,1,70,4|0,0:3|0:0,0:0:0:0:
256,192,137591,2,0,L|257:337,1,140,0|0,1:0|0:0,0:0:0:0:
360,232,138219,5,4,0:3:0:0:
388,228,138376,1,0,0:0:0:0:
156,160,138691,1,4,0:3:0:0:
128,156,138848,1,0,1:0:0:0:
424,156,139476,2,0,P|352:168|312:148,1,70,4|0,0:3|0:0,0:0:0:0:
128,84,139790,2,0,P|200:96|240:76,1,70,4|2,0:3|0:3,0:0:0:0:
253,330,140104,2,0,P|262:261|256:192,1,140,0|0,1:0|0:0,0:0:0:0:
256,191,140575,1,0,0:0:0:0:
160,236,140732,6,0,P|112:248|64:240,1,70,4|0,0:3|0:0,0:0:0:0:
104,24,141047,2,0,P|138:30|169:46,1,70,0|4,0:0|0:3,0:0:0:0:
232,144,141361,1,0,1:0:0:0:
400,64,141518,1,0,0:0:0:0:
332,196,141675,2,0,P|336:280|348:360,1,140,0|4,0:0|0:3,0:0:0:0:
232,144,142146,1,2,0:3:0:0:
164,232,142303,1,4,0:3:0:0:
68,132,142460,1,0,0:0:0:0:
0,272,142617,2,0,P|56:252|152:280,1,140,0|0,1:0|0:0,0:0:0:0:
512,112,143246,6,0,P|456:132|360:104,1,140,4|0,0:3|0:0,0:0:0:0:
324,24,143717,1,4,0:3:0:0:
360,220,143874,1,0,1:0:0:0:
140,140,144502,2,0,P|143:174|143:217,1,70,4|0,0:3|0:0,0:0:0:0:
372,244,144816,2,0,P|372:209|375:174,1,70,4|2,0:3|0:3,0:0:0:0:
254,87,145130,2,0,L|257:296,1,210,0|0,1:0|0:0,0:0:0:0:
124,164,145759,6,0,L|184:152,4,35,4|0|0|0|0,0:3|0:0|0:0|0:0|0:0,0:0:0:0:
40,104,146230,1,4,0:3:0:0:
272,72,146387,2,0,L|120:52,1,140,0|2,1:0|0:3,0:0:0:0:
133,53,147015,2,0,L|136:156,1,70,4|2,0:3|0:3,0:0:0:0:
372,136,147329,2,0,L|369:239,1,70,4|2,0:3|0:3,0:0:0:0:
256,192,147643,2,0,L|257:331,1,140,0|0,1:0|0:0,0:0:0:0:
256,192,148272,12,4,149528,0:3:0:0:
44,96,150785,6,0,P|116:98|187:125,1,140,4|0,0:3|0:0,0:0:0:0:
268,64,151806,2,0,P|334:83|468:60,1,192.5,0|2,0:0|0:0,0:0:0:0:
454,66,153298,6,0,P|445:143|439:295,1,224
439,289,155183,2,0,P|408:292|360:304,1,70
156,196,155732,6,0,P|244:224|312:216,1,157.5
408,193,156910,2,0,P|399:252|394:304,1,105
476,96,158324,6,0,P|400:112|276:64,1,210
232,168,159659,2,0,P|168:144|104:148,1,122.5
114,145,160837,6,0,L|116:216,2,52.5000020027161,4|0|0,0:3|0:0|0:0,0:0:0:0:
24,224,161308,1,4,0:3:0:0:
200,120,161465,2,0,L|76:104,1,105.000004005432,0|0,1:0|0:0,0:0:0:0:
95,106,162094,2,0,L|92:40,1,52.5000020027161,4|0,0:3|0:0,0:0:0:0:
8,164,162408,1,4,0:3:0:0:
192,80,162565,1,0,0:0:0:0:
280,152,162722,2,0,L|300:36,1,105.000004005432,0|2,1:0|0:3,0:0:0:0:
360,216,163350,6,0,L|364:284,1,52.5000020027161,4|0,0:3|0:0,0:0:0:0:
440,328,163664,1,0,0:0:0:0:
280,152,163821,1,4,0:3:0:0:
384,236,163979,2,0,L|512:220,1,105.000004005432,0|0,1:0|0:0,0:0:0:0:
160,72,164607,2,0,L|164:136,1,52.5000020027161,4|2,0:3|0:3,0:0:0:0:
360,128,164921,2,0,L|356:192,1,52.5000020027161,4|2,0:3|0:3,0:0:0:0:
256,192,165235,2,0,L|260:320,1,105.000004005432,0|2,1:0|0:3,0:0:0:0:
163,124,165863,6,0,P|215:84|275:80,1,105.000004005432,4|0,0:3|0:0,0:0:0:0:
344,128,166335,1,4,0:3:0:0:
267,343,166492,2,0,P|243:268|255:191,1,157.500006008148,0|0,1:0|0:0,0:0:0:0:
255,191,167120,1,4,0:3:0:0:
348,248,167277,1,2,0:3:0:0:
424,160,167434,1,4,0:3:0:0:
496,308,167591,1,2,0:3:0:0:
512,216,167748,2,0,L|392:228,1,105.000004005432,0|2,1:0|0:3,0:0:0:0:
176,148,168376,6,0,L|296:160,1,105.000004005432,4|0,0:3|0:0,0:0:0:0:
340,84,168848,1,4,0:3:0:0:
262,349,169005,2,0,L|256:192,1,157.500006008148,0|0,1:0|0:0,0:0:0:0:
256,192,169633,1,4,0:3:0:0:
168,256,169790,1,2,0:3:0:0:
76,168,169947,1,4,0:3:0:0:
4,280,170104,1,0,0:0:0:0:
80,196,170261,2,0,L|16:188,6,35,0|0|2|0|0|0|0,1:0|0:0|0:3|0:0|1:0|0:0|0:0,0:0:0:0:
152,280,170890,5,4,0:3:0:0:
216,136,171047,1,4,0:3:0:0:
284,220,171204,1,0,1:0:0:0:
380,124,171361,1,0,0:0:0:0:
380,124,171439,1,0,0:0:0:0:
380,124,171518,2,0,L|284:132,1,70,2|4,0:3|0:3,0:0:0:0:
212,56,171832,1,0,0:0:0:0:
200,32,171910,2,0,L|260:36,1,35,0|0,0:0|1:0,0:0:0:0:
296,180,172146,6,0,L|284:96,2,70,4|4|0,0:3|0:3|1:0,0:0:0:0:
376,240,172617,1,4,0:3:0:0:
456,152,172774,2,0,L|380:144,1,70,0|4,0:0|0:3,0:0:0:0:
386,144,173089,1,0,0:0:0:0:
386,144,173246,1,0,1:0:0:0:
200,228,173403,6,0,L|276:220,1,70,4|2,0:3|0:3,0:0:0:0:
124,160,173717,1,0,1:0:0:0:
152,324,173874,1,0,0:0:0:0:
152,324,173952,1,0,0:0:0:0:
152,324,174031,1,0,0:0:0:0:
312,192,174188,2,0,L|308:344,1,140,4|0,0:3|1:0,0:0:0:0:
224,124,174659,5,4,0:3:0:0:
404,240,174816,1,4,0:3:0:0:
504,144,174973,2,0,L|420:152,1,70,0|4,1:0|0:3,0:0:0:0:
368,80,175209,1,0,0:0:0:0:
356,60,175287,2,0,L|408:64,2,35,0|0|4,0:0|0:0|0:3,0:0:0:0:
296,204,175602,2,0,L|284:116,1,70,0|0,0:0|1:0,0:0:0:0:
220,276,175916,5,4,0:3:0:0:
392,168,176073,1,4,0:3:0:0:
468,300,176230,1,0,1:0:0:0:
468,300,176308,1,0,0:0:0:0:
468,300,176387,1,0,0:0:0:0:
512,208,176544,2,0,L|432:200,1,70,2|4,0:3|0:3,0:0:0:0:
442,201,176858,1,0,0:0:0:0:
368,276,177015,1,0,1:0:0:0:
224,136,177172,6,0,L|304:128,1,70,4|4,0:3|0:3,0:0:0:0:
293,129,177486,1,0,1:0:0:0:
396,72,177643,2,0,L|392:224,2,140,4|4|0,0:3|0:3|1:0,0:0:0:0:
492,140,178429,5,4,0:3:0:0:
288,96,178586,2,0,P|296:144|292:196,1,70,2|0,0:3|1:0,0:0:0:0:
295,165,178821,1,0,0:0:0:0:
295,165,178900,1,2,0:3:0:0:
196,144,179057,2,0,P|191:192|173:241,1,70,0|4,0:0|0:3,0:0:0:0:
185,212,179293,1,0,0:0:0:0:
185,212,179371,1,0,0:0:0:0:
128,72,179528,1,0,1:0:0:0:
32,180,179685,6,0,P|66:178|105:164,1,70,4|4,0:3|0:3,0:0:0:0:
220,48,179999,1,0,1:0:0:0:
356,140,180157,2,0,P|321:138|282:124,1,70,4|0,0:3|0:0,0:0:0:0:
288,127,180392,1,0,0:0:0:0:
288,127,180471,1,4,0:3:0:0:
136,204,180628,5,0,0:0:0:0:
161,180,180706,1,0,0:0:0:0:
195,176,180785,1,0,1:0:0:0:
225,193,180863,1,0,0:0:0:0:
239,224,180942,1,4,0:3:0:0:
253,255,181020,1,0,0:0:0:0:
283,272,181098,1,4,0:3:0:0:
317,268,181177,1,0,0:0:0:0:
342,244,181255,1,0,1:0:0:0:
376,144,181413,5,0,0:0:0:0:
436,268,181570,2,0,L|444:188,1,43.75,2|0,0:3|0:0,0:0:0:0:
508,332,181727,1,4,0:3:0:0:
341,243,181884,2,0,P|302:262|259:263,1,87.5,0|0,0:0|1:0,0:0:0:0:
197,144,182198,2,0,P|236:163|280:164,1,87.5,4|4,0:3|0:3,0:0:0:0:
348,84,182513,1,0,1:0:0:0:
312,260,182670,1,4,0:3:0:0:
432,184,182827,2,0,L|429:147,4,21.875,0|0|0|0|4,0:0|0:0|0:0|0:0|0:3,0:0:0:0:
500,260,183141,1,2,0:3:0:0:
512,96,183298,1,0,1:0:0:0:
334,215,183455,6,0,L|328:128,1,87.5,4|4,0:3|0:3,0:0:0:0:
60,140,183769,1,0,1:0:0:0:
91,123,183847,1,0,0:0:0:0:
125,131,183926,1,2,0:3:0:0:
146,160,184004,1,0,0:0:0:0:
167,189,184083,1,2,0:3:0:0:
201,197,184162,1,0,0:0:0:0:
233,181,184240,1,4,0:3:0:0:
240,72,184397,1,0,0:0:0:0:
324,232,184554,1,0,1:0:0:0:
415,131,184712,6,0,L|320:128,1,87.5,4|4,0:3|0:3,0:0:0:0:
327,128,185026,1,0,1:0:0:0:
424,304,185183,1,12,0:3:0:0:
400,274,185261,1,0,0:0:0:0:
364,264,185340,1,2,0:3:0:0:
328,275,185418,1,0,0:0:0:0:
305,305,185497,1,4,0:3:0:0:
282,335,185575,1,0,0:0:0:0:
246,346,185653,1,0,0:0:0:0:
210,336,185732,1,0,0:0:0:0:
187,307,185810,1,0,1:0:0:0:
164,180,185968,5,4,0:3:0:0:
76,352,186125,1,4,0:3:0:0:
360,236,186282,2,0,L|356:344,1,87.5,0|0,1:0|0:0,0:0:0:0:
448,372,186518,1,0,0:0:0:0:
448,372,186596,2,0,L|444:296,1,43.75
464,192,186753,2,0,P|388:212|320:180,1,131.25,4|0,0:3|0:0,0:0:0:0:
236,128,187068,6,0,P|252:188|244:248,1,87.5,0|4,1:0|0:3,0:0:0:0:
176,312,187382,1,4,0:3:0:0:
112,104,187539,1,0,1:0:0:0:
236,240,187696,2,0,P|296:256|376:224,1,131.25,4|0,0:3|0:0,0:0:0:0:
408,156,188010,1,4,0:3:0:0:
360,328,188167,1,0,0:0:0:0:
360,328,188246,1,0,0:0:0:0:
360,328,188324,2,0,L|352:256,1,43.75,0|0,1:0|0:0,0:0:0:0:
452,372,188481,5,4,0:3:0:0:
264,288,188638,1,4,0:3:0:0:
84,152,188795,1,0,1:0:0:0:
115,135,188873,1,0,0:0:0:0:
149,143,188952,1,2,0:3:0:0:
170,172,189030,1,0,0:0:0:0:
191,201,189109,1,2,0:3:0:0:
225,209,189188,1,0,0:0:0:0:
257,193,189267,1,4,0:3:0:0:
356,240,189424,6,0,L|364:156,1,43.75
152,168,189581,2,0,L|160:252,1,43.75,0|0,1:0|0:0,0:0:0:0:
257,193,189738,5,4,0:3:0:0:
208,324,190994,6,0,P|164:283|148:220,1,105.000004005432
212,68,191465,2,0,P|263:60|312:77,1,105.000004005432
429,253,191937,2,0,P|328:263|256:192,1,210
256,192,192251,1,0,0:0:0:0:
136,160,192408,2,0,P|144:196|144:248,1,70
32,108,192722,1,0,0:0:0:0:
168,180,192879,2,0,L|248:160,1,70
296,80,193193,1,0,0:0:0:0:
236,304,193350,2,0,L|232:252,2,43.75
132,128,193664,5,0,0:0:0:0:
424,200,193821,1,0,0:0:0:0:
424,200,193900,1,0,0:0:0:0:
424,200,193979,2,0,L|284:188,1,131.25,2|0,0:0|0:0,0:0:0:0:
184,104,194293,2,0,L|188:148,1,43.75
328,288,194450,2,0,L|332:244,1,43.75
100,168,194607,1,0,0:0:0:0:
70,296,194764,6,0,P|130:284|182:300,1,87.5
156,289,195078,1,2,0:0:0:0:
442,88,195235,2,0,P|382:100|330:84,1,87.5,0|2,0:0|0:0,0:0:0:0:
356,95,195549,1,0,0:0:0:0:
258,236,195706,2,0,L|253:148,1,87.5,2|0,0:0|0:0,0:0:0:0:
244,28,196020,5,0,0:0:0:0:
266,340,196178,1,0,0:0:0:0:
44,160,196492,1,0,0:0:0:0:
44,160,196570,1,0,0:0:0:0:
44,160,196649,2,0,P|111:169|148:197,1,87.5
304,160,196963,2,0,P|237:151|200:123,1,87.5
204,248,197277,5,2,0:0:0:0:
136,52,197434,2,0,P|203:43|240:15,1,87.5,2|0,0:0|0:0,0:0:0:0:
320,52,197748,1,0,0:0:0:0:
288,188,197905,2,0,L|280:124,1,43.75
492,192,198062,1,0,0:0:0:0:
488,216,198141,2,0,L|483:260,1,43.75
400,96,198376,1,0,0:0:0:0:
392,208,198534,2,0,L|385:295,1,87.5
288,92,198848,1,0,0:0:0:0:
264,224,199005,6,0,P|195:226|110:146,1,175,0|2,0:0|0:0,0:0:0:0:
320,320,199476,2,0,P|293:354|256:377,1,87.5,0|2,0:0|0:0,0:0:0:0:
288,112,199790,2,0,P|253:85|230:48,1,87.5
404,112,200104,1,2,0:0:0:0:
359,215,200261,1,0,0:0:0:0:
472,201,200418,1,2,0:0:0:0:
244,140,200575,2,0,P|260:192|252:256,1,87.5
192,308,200890,1,0,0:0:0:0:
92,264,201047,1,4,0:3:0:0:
152,88,201204,6,0,P|246:107|332:36,1,175,2|8,0:3|0:3,0:0:0:0:
408,36,201675,2,0,L|404:108,1,43.75,0|0,1:0|0:0,0:0:0:0:
224,192,201832,2,0,L|217:148,1,43.75,0|2,0:0|0:3,0:0:0:0:
310,70,201989,2,2,L|328:288,1,210,0|0,0:1|0:1,0:1:0:0:
496,200,202303,6,0,P|452:200|408:176,1,87.5,4|2,0:3|0:3,0:0:0:0:
323,98,202539,2,0,P|367:98|411:74,1,87.5,4|0,0:3|0:0,0:0:0:0:
460,4,202774,1,8,0:3:0:0:
444,188,202931,1,0,1:0:0:0:
272,184,203089,2,0,B|229:148|205:103|205:103|190:151|154:194,1,210.000008010865
68,104,203560,5,4,0:3:0:0:
88,304,203717,1,2,0:3:0:0:
116,287,203796,1,0,0:0:0:0:
148,285,203874,1,0,0:0:0:0:
177,299,203953,1,0,0:0:0:0:
197,325,204031,1,8,0:3:0:0:
204,176,204188,1,0,1:0:0:0:
300,344,204345,1,2,0:3:0:0:
332,220,204502,6,0,L|324:160,3,52.5000020027161,0|0|2|0,0:0|0:0|0:3|0:0,0:0:0:0:
456,320,204816,2,0,P|400:308|352:324,1,105.000004005432,4|2,0:3|0:3,0:0:0:0:
212,384,205052,2,0,P|250:341|260:291,1,105.000004005432,4|0,0:3|0:0,0:0:0:0:
232,200,205287,1,8,0:3:0:0:
58,294,205445,5,0,1:0:0:0:
73,329,205523,1,0,0:0:0:0:
107,344,205602,1,0,0:0:0:0:
144,329,205680,1,0,0:0:0:0:
159,294,205759,1,0,0:0:0:0:
174,259,205837,1,0,0:0:0:0:
209,245,205915,1,2,0:3:0:0:
245,260,205994,1,0,0:0:0:0:
260,295,206072,1,4,0:3:0:0:
400,120,206230,6,0,B|353:144|353:144|259:119,1,105.000004005432
248,36,206544,1,8,0:3:0:0:
316,224,206701,2,0,L|320:148,1,52.5000020027161,0|0,1:0|0:0,0:0:0:0:
100,112,206858,2,0,L|102:164,1,52.5000020027161,0|2,0:0|0:3,0:0:0:0:
212,68,207015,1,2,0:3:0:0:
212,68,207094,1,0,0:0:0:0:
212,68,207172,1,0,0:0:0:0:
212,292,207329,6,0,L|204:172,1,105.000004005432,4|2,0:3|0:3,0:0:0:0:
316,344,207565,2,0,L|339:226,1,105.000004005432,4|0,0:3|0:0,0:0:0:0:
416,384,207801,2,0,L|451:312,1,52.5000020027161,8|0,0:3|0:0,0:0:0:0:
444,224,207958,5,0,1:0:0:0:
200,160,208115,1,0,0:0:0:0:
200,160,208193,1,0,0:0:0:0:
200,160,208272,2,0,P|313:194|368:148,1,157.500006008148
396,108,208586,1,4,0:3:0:0:
308,364,208743,6,0,B|296:296|292:212|292:212|268:255|236:276,1,210.000008010865,2|8,0:3|0:3,0:0:0:0:
192,332,209214,1,0,1:0:0:0:
504,216,209371,1,2,0:3:0:0:
444,300,209528,2,0,P|364:283|332:242,1,105.000004005432,0|2,0:0|0:3,0:0:0:0:
297,166,209842,5,4,0:3:0:0:
268,349,210078,1,4,0:3:0:0:
183,183,210314,1,8,0:3:0:0:
163,296,210471,5,0,1:0:0:0:
162,328,210549,1,0,0:0:0:0:
179,356,210628,1,2,0:3:0:0:
208,370,210706,1,0,0:0:0:0:
240,368,210785,1,0,0:0:0:0:
267,349,210863,1,0,0:0:0:0:
279,319,210942,1,2,0:3:0:0:
274,287,211020,1,0,0:0:0:0:
253,262,211099,1,4,0:3:0:0:
44,176,211256,5,0,0:0:0:0:
44,176,211335,1,0,0:0:0:0:
44,176,211413,2,0,P|144:180|180:148,1,105.000004005432,0|8,0:0|0:3,0:0:0:0:
259,127,211649,1,0,0:0:0:0:
259,127,211727,2,0,P|254:162|256:206,1,52.5000020027161,0|0,1:0|0:0,0:0:0:0:
239,310,211884,1,2,0:3:0:0:
239,310,211962,2,0,P|210:288|171:267,1,52.5000020027161
128,76,212198,5,0,0:0:0:0:
128,76,212277,1,0,0:0:0:0:
128,76,212356,2,2,P|144:168|140:220,1,105.000004005432,6|2,0:3|0:3,0:0:0:0:
360,280,212591,2,0,P|363:227|375:176,1,105.000004005432,4|0,0:3|0:0,0:0:0:0:
416,96,212827,1,8,0:3:0:0:
246,23,212984,2,0,L|252:128,1,105.000004005432,0|2,1:0|0:3,0:0:0:0:
260,248,213219,1,0,0:0:0:0:
260,248,213298,1,0,0:0:0:0:
144,128,213455,1,2,0:3:0:0:
444,200,213612,6,0,P|392:204|345:183,1,105.000004005432,4|0,0:3|0:0,0:0:0:0:
292,84,213926,1,0,0:0:0:0:
208,257,214083,1,8,0:3:0:0:
208,257,214162,2,0,L|276:245,1,52.5000020027161,0|0,0:0|1:0,0:0:0:0:
380,84,214397,1,0,0:0:0:0:
380,84,214476,2,0,L|312:72,1,52.5000020027161,2|0,0:3|0:0,0:0:0:0:
360,240,214712,1,0,0:0:0:0:
160,68,214869,6,0,P|216:110|239:175,1,105.000004005432,4|2,0:3|0:3,0:0:0:0:
132,168,215104,2,0,P|155:214|158:266,1,105.000004005432,4|0,0:3|0:0,0:0:0:0:
60,244,215340,1,8,0:3:0:0:
20,120,215497,5,0,1:0:0:0:
50,130,215575,1,0,0:0:0:0:
82,126,215654,1,2,0:3:0:0:
108,107,215732,1,0,0:0:0:0:
122,77,215811,1,0,0:0:0:0:
130,108,215890,1,0,0:0:0:0:
152,132,215968,1,2,0:3:0:0:
183,141,216047,1,0,0:0:0:0:
215,137,216125,1,4,0:3:0:0:
328,88,216282,6,0,P|316:184|320:268,1,157.500006008148,2|0,0:3|0:0,0:0:0:0:
392,316,216596,1,8,0:3:0:0:
512,248,216753,2,0,P|425:225|395:184,1,105.000004005432,0|2,1:0|0:3,0:0:0:0:
324,140,216989,1,0,0:0:0:0:
324,140,217068,2,0,P|375:136|419:108,1,105.000004005432,0|2,0:0|0:3,0:0:0:0:
392,316,217382,5,4,0:3:0:0:
240,260,217539,1,2,0:3:0:0:
264,228,217617,2,0,L|280:364,1,105.000004005432,4|0,0:3|0:0,0:0:0:0:
172,184,217853,1,8,0:3:0:0:
112,280,218010,5,0,1:0:0:0:
112,280,218089,1,0,0:0:0:0:
112,280,218167,1,2,0:3:0:0:
0,128,218324,1,0,0:0:0:0:
20,152,218402,1,0,0:0:0:0:
50,164,218481,1,0,0:0:0:0:
83,161,218559,1,0,0:0:0:0:
109,142,218638,1,4,0:3:0:0:
204,68,218795,6,0,L|200:124,1,52.5000020027161,2|0,0:3|0:0,0:0:0:0:
312,164,218952,2,0,L|312:112,1,52.5000020027161,0|2,0:0|0:3,0:0:0:0:
256,248,219109,1,8,0:3:0:0:
56,224,219267,2,0,P|112:224|180:212,1,105.000004005432,0|2,1:0|0:3,0:0:0:0:
208,336,219502,1,0,0:0:0:0:
196,312,219581,2,0,P|229:317|262:329,1,52.5000020027161
348,352,219738,1,2,0:3:0:0:
247,17,219895,6,0,P|246:105|256:192,1,175,4|0,0:3|0:0,0:0:0:0:
256,192,220680,1,0,0:0:0:0:
348,128,220837,1,0,1:0:0:0:
144,148,220994,6,0,P|144:240|181:301,1,140,4|0,0:0|0:0,0:0:0:0:
152,320,221465,2,0,P|224:292|304:324,1,140,0|0,1:0|0:0,0:0:0:0:
380,368,221937,1,4,0:3:0:0:
360,104,222094,1,0,1:0:0:0:
328,208,222251,6,0,P|395:222|458:195,1,140,0|4,0:0|0:3,0:0:0:0:
500,100,222722,1,0,1:0:0:0:
472,300,222879,1,0,0:0:0:0:
312,180,223036,1,2,0:3:0:0:
312,180,223115,1,0,0:0:0:0:
312,180,223193,1,4,0:3:0:0:
232,292,223350,1,0,1:0:0:0:
112,216,223507,6,0,P|187:194|199:183,1,70,0|4,0:0|0:3,0:0:0:0:
224,108,223821,1,8,0:3:0:0:
264,328,223979,2,0,P|272:228|304:172,1,140,0|4,1:0|0:3,0:0:0:0:
368,132,224450,1,4,0:3:0:0:
440,196,224607,1,0,1:0:0:0:
424,296,224764,6,0,P|364:300|332:284,1,70,4|0,0:0|0:0,0:0:0:0:
284,208,225078,1,8,0:3:0:0:
328,92,225235,2,0,P|432:92|472:124,1,140,0|0,1:0|0:0,0:0:0:0:
468,212,225706,1,4,0:3:0:0:
512,20,225863,1,0,1:0:0:0:
328,124,226020,1,2,0:3:0:0:
208,84,226178,6,0,P|224:144|224:176,1,70
116,144,226492,2,0,P|120:228|104:304,1,140,0|0,1:0|0:0,0:0:0:0:
304,300,226963,2,0,P|288:240|288:208,1,70,8|0,0:3|1:0,0:0:0:0:
396,240,227277,2,0,P|392:156|408:80,1,140,0|4,0:0|0:3,0:0:0:0:
488,304,227748,2,0,P|504:244|520:216,1,70,0|0,1:0|0:0,0:0:0:0:
507,237,228062,1,4,0:3:0:0:
392,300,228219,1,8,0:3:0:0:
300,232,228376,1,0,1:0:0:0:
216,308,228534,1,0,0:0:0:0:
104,261,228691,6,0,P|117:293|124:328,1,70,4|8,0:3|0:3,0:0:0:0:
188,200,229005,2,0,P|196:104|211:32,1,140,0|4,1:0|0:3,0:0:0:0:
260,288,229476,1,8,0:3:0:0:
100,124,229633,1,0,1:0:0:0:
292,188,229790,6,0,P|364:211|385:208,1,70,4|0,0:3|0:0,0:0:0:0:
432,164,230026,1,0,0:0:0:0:
432,164,230104,1,4,0:3:0:0:
204,312,230261,2,0,P|195:216|180:144,1,140,0|0,1:0|0:0,0:0:0:0:
116,40,230732,1,8,0:3:0:0:
280,140,230890,1,0,1:0:0:0:
364,68,231047,5,4,0:0:0:0:
484,220,231204,1,0,0:0:0:0:
465,190,231282,1,0,0:0:0:0:
434,174,231361,1,0,0:0:0:0:
400,175,231439,1,0,0:0:0:0:
370,193,231518,1,0,1:0:0:0:
336,324,231675,6,0,L|361:299,1,35,0|0,0:0|3:0,0:0:0:0:
286,120,231832,2,0,L|252:124,1,35,0|0,0:0|3:0,0:0:0:0:
216,264,231989,1,8,0:3:0:0:
216,264,232068,1,0,0:0:0:0:
216,264,232146,1,0,1:0:0:0:
128,184,232303,1,0,0:0:0:0:
32,248,232460,6,0,L|25:178,1,70,0|4,0:0|0:3,0:0:0:0:
120,312,232696,1,0,0:0:0:0:
120,312,232774,2,0,L|128:260,1,35,0|0,1:0|0:0,0:0:0:0:
160,100,232931,1,0,0:0:0:0:
160,100,233010,1,0,0:0:0:0:
160,100,233089,1,4,0:3:0:0:
235,261,233246,1,8,0:3:0:0:
79,174,233403,1,0,1:0:0:0:
12,288,233560,5,0,0:0:0:0:
12,288,233638,1,0,0:0:0:0:
12,288,233717,1,4,0:3:0:0:
0,112,233874,1,4,0:3:0:0:
168,264,234031,2,0,L|180:172,1,70,0|0,1:0|0:0,0:0:0:0:
272,208,234267,2,0,L|283:144,1,35,0|8,0:0|0:3,0:0:0:0:
96,148,234502,1,4,0:3:0:0:
256,300,234659,1,0,1:0:0:0:
352,272,234816,5,4,0:0:0:0:
354,298,234894,1,0,0:0:0:0:
357,324,234973,1,0,0:0:0:0:
360,350,235051,1,0,0:0:0:0:
363,376,235130,1,8,0:3:0:0:
428,192,235287,1,0,1:0:0:0:
428,192,235366,1,0,0:0:0:0:
428,192,235445,1,0,0:0:0:0:
512,264,235602,1,0,0:0:0:0:
512,88,235759,5,4,0:3:0:0:
336,208,235916,1,0,1:0:0:0:
216,116,236073,1,2,0:3:0:0:
128,184,236230,6,0,L|140:272,1,70,0|0,1:0|0:0,0:0:0:0:
137,253,236465,1,0,0:0:0:0:
137,253,236544,1,0,1:0:0:0:
32,128,236701,1,0,0:0:0:0:
232,176,236858,2,0,L|160:192,1,70,0|8,0:0|0:3,0:0:0:0:
120,88,237172,1,0,1:0:0:0:
336,216,237329,5,0,0:0:0:0:
336,216,237408,1,0,0:0:0:0:
336,216,237486,2,0,L|348:152,1,35
148,76,237643,2,0,L|154:110,1,35,4|0,0:3|0:0,0:0:0:0:
256,112,237801,2,0,L|260:8,1,105,0|0,1:0|0:0,0:0:0:0:
260,7,238115,1,4,0:3:0:0:
252,216,238272,1,8,0:3:0:0:
136,88,238429,1,0,1:0:0:0:
352,184,238586,1,0,0:0:0:0:
440,116,238743,6,0,P|451:158|476:208,1,70,4|8,0:3|0:3,0:0:0:0:
352,184,239057,2,0,P|365:291|380:338,1,140,0|4,1:0|0:3,0:0:0:0:
72,48,239528,6,0,P|60:90|36:140,1,70,8|0,0:3|1:0,0:0:0:0:
160,116,239842,2,0,P|146:223|131:270,1,140,4|0,0:3|0:0,0:0:0:0:
137,253,240314,1,2,0:0:0:0:
280,132,241256,6,0,P|346:154|391:150,1,105,4|0,0:3|0:0,0:0:0:0:
448,88,241570,2,0,P|492:152|488:240,1,140,4|0,0:3|1:0,0:0:0:0:
400,256,242041,1,0,0:0:0:0:
368,248,242120,1,0,0:0:0:0:
304,128,242356,6,0,P|224:152|156:124,1,140,4|0,0:3|0:0,0:0:0:0:
60,84,242827,2,0,P|88:168|88:172,1,70,4|0,0:3|0:0,0:0:0:0:
24,248,243141,2,0,B|128:204|119:308|223:265,1,210,0|0,1:0|0:0,0:0:0:0:
280,172,243769,5,4,0:3:0:0:
400,352,244083,2,0,P|380:280|384:200,1,140,4|0,0:3|1:0,0:0:0:0:
484,76,244554,1,0,0:0:0:0:
468,104,244633,2,0,P|416:124|352:112,1,105,2|4,0:3|0:3,0:0:0:0:
367,118,245340,1,4,0:3:0:0:
188,92,245654,2,0,P|224:152|304:184,1,140,0|0,1:0|0:0,0:0:0:0:
268,236,246047,1,0,0:0:0:0:
305,219,246125,1,0,0:0:0:0:
345,224,246204,1,0,0:0:0:0:
377,248,246282,6,0,P|381:189|391:135,1,105,4|0,0:3|0:0,0:0:0:0:
468,240,246596,2,0,P|472:292|492:388,1,140,4|0,0:3|1:0,0:0:0:0:
372,284,247068,1,0,0:0:0:0:
344,180,247382,6,0,P|267:217|168:176,1,175,4|0,0:3|0:0,0:0:0:0:
76,168,247853,2,0,P|110:245|116:292,1,105,4|0,0:3|0:0,0:0:0:0:
108,348,248167,1,0,1:0:0:0:
8,100,248795,5,4,0:3:0:0:
88,224,248952,1,0,0:0:0:0:
118,239,249030,1,0,0:0:0:0:
153,238,249109,1,4,0:3:0:0:
183,221,249187,1,0,0:0:0:0:
201,191,249266,1,0,0:0:0:0:
432,244,249424,5,0,1:0:0:0:
336,203,249581,1,0,0:0:0:0:
261,274,249738,1,0,0:0:0:0:
356,304,249895,6,0,P|346:200|300:124,1,175,8|0,0:3|0:0,0:0:0:0:
328,97,250366,2,0,P|259:135|197:124,1,140,8|0,0:3|1:0,0:0:0:0:
40,184,250837,1,0,0:0:0:0:
73,163,250915,1,0,0:0:0:0:
111,176,250994,1,0,0:0:0:0:
128,211,251072,1,0,0:0:0:0:
145,247,251151,1,0,0:0:0:0:
183,258,251230,1,0,0:0:0:0:
217,239,251308,2,0,L|216:188,3,35,4|0|0|0,0:3|0:0|0:0|0:0,0:0:0:0:
320,288,251623,6,0,L|332:176,1,105,4|0,0:3|0:0,0:0:0:0:
432,208,251937,2,0,L|444:144,1,35,0|0,1:0|0:0,0:0:0:0:
228,100,252094,1,0,0:0:0:0:
239,109,252172,1,0,0:0:0:0:
250,118,252251,2,0,L|243:53,1,35
76,200,252408,6,0,P|171:230|196:280,1,140,4|0,0:3|0:0,0:0:0:0:
208,224,252801,1,0,0:0:0:0:
240,244,252879,1,4,0:3:0:0:
276,232,252958,1,0,0:0:0:0:
304,264,253036,2,0,L|312:188,1,61.2500005841255
392,316,253193,1,0,1:0:0:0:
256,112,253350,5,0,0:0:0:0:
277,144,253428,1,0,0:0:0:0:
316,149,253507,1,0,0:0:0:0:
347,124,253585,1,0,0:0:0:0:
377,99,253664,1,0,0:0:0:0:
416,105,253743,1,0,0:0:0:0:
439,136,253821,1,4,0:3:0:0:
464,240,253979,5,0,0:0:0:0:
496,44,254136,1,4,0:3:0:0:
347,124,254293,1,0,0:0:0:0:
347,124,254371,1,0,0:0:0:0:
347,124,254450,2,0,L|340:52,1,43.75,0|0,1:0|0:0,0:0:0:0:
216,212,254607,2,0,L|380:228,1,140,0|4,0:0|0:0,0:0:0:0:
464,240,255078,5,0,0:0:0:0:
404,328,255235,1,0,0:0:0:0:
296,128,255392,1,4,0:3:0:0:
296,128,255471,1,0,0:0:0:0:
296,128,255549,1,0,0:0:0:0:
120,224,255706,5,0,1:0:0:0:
126,257,255784,1,0,0:0:0:0:
152,279,255863,1,0,0:0:0:0:
187,281,255941,1,0,0:0:0:0:
215,261,256020,1,0,0:0:0:0:
224,228,256098,1,0,0:0:0:0:
211,196,256177,1,0,0:0:0:0:
116,104,256335,6,0,P|176:104|223:65,1,105,4|0,0:3|0:0,0:0:0:0:
256,0,256649,1,4,0:3:0:0:
244,176,256806,1,0,0:0:0:0:
388,104,256963,1,0,1:0:0:0:
388,104,257041,1,0,0:0:0:0:
388,104,257120,2,0,P|395:144|412:196,1,70
456,32,257434,5,4,0:3:0:0:
300,152,257591,1,0,0:0:0:0:
196,64,257748,1,0,0:0:0:0:
196,64,257827,1,0,0:0:0:0:
196,64,257905,1,4,0:3:0:0:
108,172,258062,1,0,0:0:0:0:
12,120,258219,2,0,P|12:196|8:276,1,140,0|0,1:0|0:0,0:0:0:0:
9,259,258691,1,0,0:0:0:0:
168,172,258848,5,4,0:3:0:0:
198,149,258926,1,0,0:0:0:0:
237,158,259005,1,0,0:0:0:0:
257,192,259083,1,0,0:0:0:0:
277,226,259162,1,4,0:3:0:0:
316,233,259241,1,0,0:0:0:0:
348,212,259319,1,0,0:0:0:0:
380,120,259476,5,0,1:0:0:0:
132,264,259633,1,0,0:0:0:0:
132,264,259712,1,0,0:0:0:0:
132,264,259790,2,0,L|140:328,1,35
257,192,259947,5,8,0:3:0:0:
257,192,260418,1,8,0:3:0:0:
360,224,260732,6,0,L|394:219,3,35,0|0|0|0,0:3|0:3|0:3|0:3,0:0:0:0:
144,140,261047,6,0,L|109:135,3,35,0|0|0|0,0:3|0:3|0:3|0:3,0:0:0:0:
308,40,261361,6,0,P|299:91|299:132,1,70,4|2,0:3|0:3,0:0:0:0:
208,116,261675,2,0,P|216:167|216:208,1,70,4|0,0:3|0:0,0:0:0:0:
360,176,261989,2,0,P|351:227|351:268,1,70,4|0,0:3|0:0,0:0:0:0:
180,264,262303,2,0,P|188:315|188:356,1,70,8|0,0:3|0:0,0:0:0:0:
124,128,262617,6,0,P|208:156|272:128,2,140,4|4|4,0:3|0:3|0:3,0:0:0:0:
96,36,263403,1,0,0:0:0:0:
35,163,263560,2,0,P|30:129|20:96,1,70,8|0,0:3|0:0,0:0:0:0:
112,232,263874,5,4,0:3:0:0:
112,232,264188,1,4,0:3:0:0:
400,152,264502,1,4,0:3:0:0:
252,60,264816,1,8,0:3:0:0:
256,225,265130,2,0,L|255:155,1,70,4|0,2:3|2:0,2:0:0:0:
260,324,265445,1,4,0:3:0:0:
172,92,265759,1,8,0:3:0:0:
444,196,265916,1,0,0:0:0:0:
356,80,266073,2,0,L|355:150,1,70,4|8,0:3|0:3,0:0:0:0:
468,44,266387,5,4,0:3:0:0:
444,196,266701,1,4,0:3:0:0:
336,104,267015,1,8,0:3:0:0:
256,196,267251,1,2,0:3:0:0:
256,196,267329,2,0,P|184:188|116:216,2,140,4|4|4,0:3|0:3|0:3,0:0:0:0:
312,288,268115,1,0,0:0:0:0:
416,264,268272,2,0,P|407:330|409:363,1,70,4|2,0:3|0:3,0:0:0:0:
324,120,268586,2,0,P|332:186|330:219,1,70,8|0,0:3|0:0,0:0:0:0:
420,72,268900,6,0,P|344:88|280:52,1,140,4|4,0:3|0:3,0:0:0:0:
176,36,269371,2,0,P|196:100|196:124,1,70,0|4,0:0|0:3,0:0:0:0:
176,204,269685,1,0,0:0:0:0:
96,104,269842,2,0,P|81:169|69:190,1,70,8|0,0:3|0:0,0:0:0:0:
16,52,270157,1,4,0:3:0:0:
16,52,270471,2,0,P|104:84|156:72,1,140,4|4,0:3|0:3,0:0:0:0:
228,16,270942,1,0,0:0:0:0:
168,248,271099,2,0,P|158:196|160:156,1,70,8|0,0:3|0:0,0:0:0:0:
236,120,271413,5,4,0:3:0:0:
264,216,271570,2,0,P|326:245|395:239,1,140,2|0,0:0|0:0,0:0:0:0:
472,384,272041,2,0,P|466:347|444:288,1,70,4|0,0:3|0:0,0:0:0:0:
512,88,272356,2,0,P|493:180|496:252,1,140,8|4,0:3|0:3,0:0:0:0:
408,128,272827,2,0,P|356:136|312:120,1,70,0|4,0:0|0:3,0:0:0:0:
264,64,273141,1,2,0:0:0:0:
312,228,273298,1,4,0:3:0:0:
224,184,273455,1,0,0:0:0:0:
156,256,273612,1,8,0:3:0:0:
8,84,273769,1,0,0:0:0:0:
0,180,273926,6,0,P|76:185|144:139,1,140,4|4,0:3|0:3,0:0:0:0:
168,68,274397,1,0,0:0:0:0:
224,267,274554,2,0,P|165:255|127:257,1,70,4|0,0:3|0:0,0:0:0:0:
256,172,274869,2,0,L|408:164,1,140,8|4,0:3|0:3,0:0:0:0:
456,84,275340,1,0,0:0:0:0:
368,268,275497,2,0,L|356:180,1,70,4|0,0:3|0:0,0:0:0:0:
480,252,275811,2,0,L|472:332,1,70,4|0,0:3|0:0,0:0:0:0:
473,321,276125,1,8,0:3:0:0:
358,198,276282,1,0,0:0:0:0:
300,312,276439,6,0,P|236:300|156:348,1,140,4|4,0:3|0:3,0:0:0:0:
156,168,276910,1,0,0:0:0:0:
32,256,277068,2,0,P|100:256|132:244,1,70,4|0,0:3|0:0,0:0:0:0:
424,176,277382,2,0,P|328:162|290:119,1,140,8|4,0:3|0:3,0:0:0:0:
272,32,277853,1,0,0:0:0:0:
216,216,278010,1,4,0:3:0:0:
128,136,278167,1,2,0:0:0:0:
24,180,278324,2,0,L|16:88,1,70,4|0,0:3|0:0,0:0:0:0:
112,240,278638,1,8,0:3:0:0:
184,168,278795,1,0,0:0:0:0:
260,236,278952,1,4,0:3:0:0:
156,36,280209,6,0,B|250:74|332:72|332:72|256:112|196:152|196:152|296:192|296:192|240:232|240:232|255:289|256:368,1,630,14|0,0:3|0:0,0:0:0:0:
116,176,281308,6,0,B|185:202|185:202|258:148,1,140,6|0,1:1|0:1,0:1:0:0:
460,204,281780,2,0,B|403:218|364:196|364:196|338:251|338:251|290:246|290:246|275:287|239:324,1,280,2|0,1:1|0:1,0:1:0:0:
257,311,282565,6,0,P|249:217|231:165,1,140,2|0,1:0|0:0,0:0:0:0:
257,311,283036,1,2,1:0:0:0:
304,220,283193,1,0,0:0:0:0:
208,148,283350,1,0,0:0:0:0:
332,76,283507,1,0,0:0:0:0:
176,24,283664,1,8,0:3:0:0:
375,181,283821,6,0,B|312:191|312:191|269:166|269:166|242:217|242:217|199:192|199:192|136:202,1,280,2|0,1:1|0:0,0:0:0:0:
68,280,284293,2,0,B|31:241|31:241|41:204|48:123,1,140,2|0,1:0|0:0,0:0:0:0:
140,201,285078,6,0,P|218:234|281:214,1,140,2|0,1:0|0:0,0:0:0:0:
392,296,285549,2,0,B|388:256|372:224|372:224|396:184|396:184|348:136|348:136|375:95|384:40,1,280,2|0,1:0|0:0,0:0:0:0:
381,52,286020,1,0,0:0:0:0:
480,236,286178,1,8,0:3:0:0:
504,132,286335,6,0,L|324:164,1,181.999991668702,2|0,1:0|0:0,0:0:0:0:
180,156,286806,2,0,B|223:145|248:125|248:125|272:199|360:234,1,210,2|0,1:0|0:0,0:0:0:0:
444,256,287120,1,0,0:0:0:0:
441,226,287198,1,2,0:3:0:0:
438,196,287277,1,2,0:0:0:0:
332,336,287434,1,8,0:3:0:0:
180,156,287591,1,2,1:0:0:0:
16,252,287749,5,0,0:0:0:0:
43,232,287827,1,0,0:0:0:0:
77,229,287906,1,0,0:0:0:0:
108,244,287984,1,0,0:0:0:0:
127,271,288063,1,2,1:0:0:0:
152,376,288219,1,0,0:0:0:0:
244,216,288376,2,0,L|132:236,1,90.9999958343508
76,148,288691,1,8,0:3:0:0:
360,304,288848,6,0,B|359:264|344:236|344:236|368:192|368:192|308:136|308:136|347:118|384:76,1,280,2|0,1:0|0:0,0:0:0:0:
496,232,289319,2,0,B|392:240|315:181|315:181|304:221|233:300,1,280,2|0,1:0|0:0,0:0:0:0:
372,384,289790,2,0,L|380:304,1,70,0|2,0:0|0:3,0:0:0:0:
125,226,289947,2,0,L|132:296,1,70,8|0,0:3|0:0,0:0:0:0:
252,384,290104,6,0,L|260:84,1,280,2|0,1:0|0:0,0:0:0:0:
128,244,290575,2,0,B|256:332|256:156|384:244,1,280,2|0,1:0|0:0,0:0:0:0:
472,168,291047,2,0,L|516:100,1,70
259,104,291204,2,0,L|248:16,1,70,8|0,0:3|0:0,0:0:0:0:
364,136,291361,6,0,L|404:-12,1,140,2|0,1:0|0:0,0:0:0:0:
432,228,291675,1,4,0:3:0:0:
147,134,291832,1,2,1:0:0:0:
177,150,291910,1,0,0:0:0:0:
211,150,291989,1,2,0:3:0:0:
241,133,292067,1,0,0:0:0:0:
258,103,292146,1,2,0:3:0:0:
284,236,292303,2,0,L|344:248,2,43.75,4|0|8,0:3|0:0|0:3,0:0:0:0:
80,292,292617,6,0,P|159:298|220:388,1,140,2|0,0:1|1:0,0:0:0:0:
224,364,292853,2,0,L|211:295,1,43.75,0|4,0:0|0:3,0:0:0:0:
207,190,293089,1,2,1:0:0:0:
319,320,293246,1,0,0:0:0:0:
319,320,293324,1,0,0:0:0:0:
319,320,293403,1,0,0:0:0:0:
311,214,293560,1,4,0:3:0:0:
153,283,293717,1,8,0:3:0:0:
26,143,293874,6,0,P|109:174|175:145,1,140,2|2,1:0|0:3,0:0:0:0:
178,139,294109,1,0,0:0:0:0:
194,111,294188,1,4,0:3:0:0:
376,288,294345,2,0,P|321:257|232:272,1,131.25,2|0,1:0|0:0,0:0:0:0:
164,304,294659,2,0,L|168:224,1,43.75
72,240,294816,2,0,L|60:160,1,43.75,4|0,0:3|0:0,0:0:0:0:
268,168,294973,2,0,L|280:88,1,43.75,8|0,0:3|0:0,0:0:0:0:
172,160,295130,5,2,0:1:0:0:
336,244,295287,1,4,0:3:0:0:
336,244,295366,1,0,0:0:0:0:
336,244,295445,1,8,0:3:0:0:
436,201,295602,2,0,L|448:288,1,87.5,2|0,1:0|0:0,0:0:0:0:
468,292,295837,1,0,0:0:0:0:
488,296,295916,1,0,0:0:0:0:
416,196,296073,2,0,L|407:130,2,43.75,2|0|8,1:0|0:0|0:3,0:0:0:0:
512,196,296387,5,2,1:0:0:0:
232,212,296544,1,0,0:0:0:0:
269,208,296622,1,0,0:0:0:0:
303,224,296701,1,4,0:3:0:0:
325,256,296779,1,0,0:0:0:0:
328,293,296858,1,2,1:0:0:0:
208,120,297015,2,0,L|160:104,2,43.75,0|0|2,0:0|0:0|0:3,0:0:0:0:
404,136,297329,1,4,0:3:0:0:
204,152,297486,1,8,0:3:0:0:
304,104,297643,6,0,L|312:228,1,70,2|0,0:1|0:0,0:0:0:0:
380,240,297801,1,4,0:3:0:0:
216,48,297958,1,8,0:3:0:0:
404,136,298115,2,0,L|472:116,4,43.75,2|0|0|0|0,1:0|0:0|0:0|0:0|0:0,0:0:0:0:
380,240,298586,1,2,1:0:0:0:
124,112,298743,5,8,0:3:0:0:
124,112,298821,1,0,0:0:0:0:
124,112,298900,2,0,P|196:128|236:184,1,131.25,2|0,1:0|0:0,0:0:0:0:
264,260,299214,1,4,0:3:0:0:
68,204,299371,2,0,P|122:262|130:308,1,87.5,2|2,1:0|0:3,0:0:0:0:
148,356,299607,1,0,0:0:0:0:
148,356,299685,1,2,0:3:0:0:
4,288,299842,2,0,L|24:344,1,43.75,2|0,1:0|0:0,0:0:0:0:
224,224,299999,2,0,L|228:296,1,43.75,8|0,0:3|0:0,0:0:0:0:
108,160,300157,5,2,0:1:0:0:
148,356,300314,1,0,1:0:0:0:
148,356,300628,1,2,0:1:0:0:
148,356,301099,1,0,0:1:0:0:
108,160,301256,1,8,0:3:0:0:
220,264,301413,6,0,L|284:248,2,35,0|0|0,1:0|0:0|0:0,0:0:0:0:
132,168,301727,1,8,0:3:0:0:
239,196,301884,2,0,L|308:212,1,70,0|0,1:0|0:0,0:0:0:0:
304,192,302120,1,0,0:0:0:0:
300,172,302198,1,0,0:0:0:0:
404,256,302356,2,0,L|416:200,1,35,4|0,0:3|0:0,0:0:0:0:
280,72,302513,1,8,0:3:0:0:
388,176,302670,6,0,L|480:164,1,70,0|0,0:1|1:0,0:0:0:0:
504,80,302984,1,8,0:3:0:0:
472,264,303141,1,0,1:0:0:0:
304,112,303298,1,0,0:0:0:0:
220,180,303455,1,0,0:0:0:0:
220,180,303534,1,0,0:0:0:0:
220,180,303612,2,0,L|204:80,1,70,4|8,0:3|0:3,0:0:0:0:
72,280,303926,6,0,B|152:267|152:267|193:292|193:292|273:280,1,210.000008010865,0|8,1:0|0:3,0:0:0:0:
421,179,304397,2,0,B|341:191|341:191|300:166|300:166|220:179,1,210.000008010865,0|0,1:0|0:0,0:0:0:0:
120,88,304869,2,0,L|112:140,1,52.5000020027161,4|0,0:3|0:0,0:0:0:0:
200,144,305026,2,0,L|190:211,1,52.5000020027161,8|0,0:3|0:0,0:0:0:0:
280,191,305183,2,0,L|273:279,1,87.5,0|0,0:1|1:1,0:0:0:0:
372,336,305497,1,8,0:3:0:0:
168,200,305654,1,0,1:0:0:0:
80,272,306125,1,4,0:3:0:0:
32,88,306282,1,8,0:3:0:0:
152,180,306439,6,0,L|248:160,1,87.5,0|0,1:0|0:0,0:0:0:0:
280,72,306753,2,0,L|228:64,1,43.75,8|0,0:3|0:0,0:0:0:0:
152,48,306910,1,0,1:0:0:0:
280,248,307068,1,0,0:0:0:0:
280,248,307146,1,0,0:0:0:0:
280,248,307225,2,0,L|264:148,1,87.5,0|4,0:0|0:3,0:0:0:0:
266,161,307539,1,8,0:3:0:0:
376,300,307696,1,0,0:0:0:0:
464,208,307853,6,0,P|412:208|368:188,1,87.5,0|8,1:0|0:3,0:0:0:0:
328,80,308167,1,0,1:0:0:0:
152,140,308324,2,0,P|204:140|248:120,1,87.5
236,24,308638,1,4,0:3:0:0:
436,104,308795,1,8,0:3:0:0:
340,352,308952,6,0,P|328:224|320:164,1,175,0|8,1:0|0:3,0:0:0:0:
396,136,309424,2,0,P|296:144|228:72,1,175,0|0,1:0|0:0,0:0:0:0:
208,8,309895,1,4,0:3:0:0:
224,304,310052,2,0,P|216:224|200:180,1,87.5,8|0,0:3|0:0,0:0:0:0:
140,144,310366,1,0,1:0:0:0:
392,292,310523,1,8,0:3:0:0:
328,132,310680,2,0,P|319:174|318:218,1,87.5,0|0,1:0|0:0,0:0:0:0:
484,248,311151,1,4,0:3:0:0:
296,328,311308,1,8,0:3:0:0:
176,244,311465,5,0,1:0:0:0:
84,328,311623,1,0,0:0:0:0:
84,328,311701,1,0,0:0:0:0:
84,328,311780,1,8,0:3:0:0:
0,196,311937,2,0,P|76:221|161:175,1,175,0|0,1:0|0:0,0:0:0:0:
208,84,312408,1,4,0:3:0:0:
228,312,312565,2,0,L|220:248,1,43.75,8|0,0:3|0:0,0:0:0:0:
424,176,312722,2,0,L|420:244,1,43.75
336,344,312879,6,0,L|324:220,1,87.5,0|8,1:0|0:3,0:0:0:0:
316,140,313193,1,0,1:0:0:0:
222,268,313350,1,0,0:0:0:0:
132,208,313507,1,0,0:0:0:0:
52,284,313664,1,4,0:3:0:0:
0,88,313821,1,8,0:3:0:0:
132,208,313979,6,0,P|216:204|316:188,1,175,0|8,1:0|0:3,0:0:0:0:
440,308,314450,2,0,P|355:304|254:311,1,175,0|0,1:0|0:0,0:0:0:0:
168,344,314921,1,4,0:3:0:0:
352,196,315078,1,8,0:3:0:0:
192,112,315235,1,0,0:0:0:0:
280,24,315392,1,0,1:0:0:0:
262,279,315549,2,0,L|256:192,1,87.5,4|8,0:3|0:3,0:0:0:0:
360,336,316178,1,4,0:3:0:0:
452,280,316335,5,8,0:3:0:0:
452,280,316413,1,0,0:0:0:0:
452,280,316492,2,0,L|464:344,4,43.75,0|0|0|0|8,1:0|0:0|0:0|0:0|0:3,0:0:0:0:
500,184,316963,1,0,1:0:0:0:
264,260,317120,1,0,0:0:0:0:
264,260,317198,1,0,0:0:0:0:
264,260,317277,2,0,P|327:273|381:250,1,87.5,0|4,0:0|0:3,0:0:0:0:
392,168,317591,1,8,0:3:0:0:
316,344,317748,6,0,L|312:280,1,43.75
512,248,317905,2,0,L|509:291,1,43.75,0|0,1:0|0:0,0:0:0:0:
428,376,318062,1,8,0:3:0:0:
400,188,318219,1,0,1:0:0:0:
428,376,318376,2,0,L|422:324,2,43.75
328,284,318691,1,4,0:3:0:0:
240,376,318848,1,8,0:3:0:0:
20,280,319005,6,0,L|188:260,1,131.25,0|0,1:0|0:0,0:0:0:0:
244,252,319319,1,8,0:3:0:0:
144,344,319476,2,0,P|132:212|120:128,1,175,0|0,1:0|0:0,0:0:0:0:
116,68,319947,1,4,0:3:0:0:
244,252,320104,1,8,0:3:0:0:
492,104,320261,6,0,L|324:124,1,131.25
268,132,320575,1,0,0:0:0:0:
368,40,320732,2,0,P|380:172|392:256,1,175
256,20,321204,1,0,0:0:0:0:
256,20,321518,5,0,0:0:0:0:
217,137,321675,2,0,P|141:184|55:152,1,154.000004699707,4|0,0:3|0:0,0:0:0:0:
83,173,322303,2,0,P|80:128|76:88,1,77.0000023498536,0|0,1:0|0:0,0:0:0:0:
77,96,322539,1,0,0:0:0:0:
77,96,322617,1,0,0:0:0:0:
176,224,322774,5,0,0:0:0:0:
176,224,323246,1,0,0:0:0:0:
252,152,323403,1,0,0:0:0:0:
340,236,323560,1,0,1:0:0:0:
432,152,323717,2,0,L|448:248,1,77.0000023498536
512,80,324031,6,0,P|444:95|364:47,1,154.000004699707
156,164,324502,2,0,P|224:179|304:132,1,154.000004699707,0|0,0:0|1:0,0:0:0:0:
295,142,324973,2,0,L|284:56,1,77.0000023498536
400,184,325287,1,0,0:0:0:0:
295,142,325759,5,0,0:0:0:0:
224,224,325916,1,0,0:0:0:0:
84,160,326073,1,0,1:0:0:0:
48,284,326230,2,0,P|90:273|124:245,1,77.0000023498536
176,172,326544,1,0,0:0:0:0:
180,340,326701,6,0,L|240:344,4,38.5000011749268
84,160,327172,1,0,0:0:0:0:
248,244,327329,2,0,L|344:228,1,77.0000023498536,0|0,1:0|0:0,0:0:0:0:
416,164,327643,1,0,0:0:0:0:
352,320,327801,5,0,0:0:0:0:
352,320,327879,1,0,0:0:0:0:
352,320,327958,2,0,L|324:144,1,154.000004699707
248,96,328429,1,0,0:0:0:0:
440,212,328586,2,0,L|444:160,3,38.5000011749268,0|0|0|0,1:0|0:0|0:0|0:0,0:0:0:0:
504,292,328900,1,0,0:0:0:0:
364,108,329057,6,0,P|441:125|521:78,1,154.000004699707
506,95,329528,1,0,0:0:0:0:
440,212,329685,1,0,0:0:0:0:
328,168,329842,1,0,1:0:0:0:
328,168,329921,1,0,0:0:0:0:
328,168,329999,1,0,0:0:0:0:
260,264,330157,1,0,0:0:0:0:
148,208,330314,6,0,P|164:296|172:392,1,154.000004699707
352,148,330785,2,0,P|340:210|334:278,1,125.999996154785,0|0,0:0|1:0,0:0:0:0:
180,56,331256,2,0,P|188:104|193:157,1,97.9999970092774
193,152,332356,5,0,1:0:0:0:
288,104,332513,1,2,0:3:0:0:
288,104,332591,1,2,0:3:0:0:
288,104,332670,1,0,0:0:0:0:
376,204,332827,1,2,0:3:0:0:
376,204,333298,1,0,0:0:0:0:
496,104,333455,5,0,0:0:0:0:
475,128,333533,1,0,0:0:0:0:
444,133,333612,1,0,1:0:0:0:
417,119,333690,1,0,0:0:0:0:
405,91,333769,1,0,0:0:0:0:
391,63,333848,1,0,0:0:0:0:
364,48,333926,1,0,0:0:0:0:
334,54,334005,1,0,0:0:0:0:
314,78,334083,1,0,0:0:0:0:
314,78,334554,5,0,0:0:0:0:
228,24,334712,1,0,0:0:0:0:
140,124,334869,2,0,L|136:60,1,56,0|0,1:0|0:0,0:0:0:0:
136,68,335104,1,2,0:3:0:0:
136,68,335183,1,0,0:0:0:0:
240,168,335340,1,0,0:0:0:0:
240,168,335418,1,0,0:0:0:0:
240,168,335497,1,0,0:0:0:0:
336,120,335968,5,0,0:0:0:0:
412,188,336125,2,0,L|406:243,1,56,0|0,1:0|0:0,0:0:0:0:
504,152,336439,1,0,0:0:0:0:
472,336,336596,1,0,0:0:0:0:
294,255,336753,6,0,L|431:240,1,112
405,242,337225,1,0,0:0:0:0:
252,168,337382,1,0,1:0:0:0:
216,328,337539,1,0,0:0:0:0:
36,224,337696,1,0,0:0:0:0:
120,280,337853,2,0,L|112:360,1,56
124,348,338324,5,0,0:0:0:0:
124,348,338403,1,0,0:0:0:0:
124,348,338481,1,0,0:0:0:0:
44,196,338638,1,0,1:0:0:0:
196,276,338795,1,0,0:0:0:0:
268,204,338952,1,0,0:0:0:0:
376,264,339109,5,0,0:0:0:0:
376,264,339581,2,0,P|377:205|384:132,1,112,0|0,0:0|1:0,0:0:0:0:
396,60,340052,1,0,0:0:0:0:
396,60,340130,1,0,0:0:0:0:
396,60,340209,1,0,0:0:0:0:
256,176,340366,5,0,0:0:0:0:
256,176,340837,1,0,0:0:0:0:
256,176,341308,2,0,L|254:127,5,28
261,276,341780,5,0,0:0:0:0:
261,276,341937,1,0,0:0:0:0:
261,276,342251,1,2,0:0:0:0:
101,221,342408,2,0,P|165:210|193:189,1,77.0000023498536,0|2,1:0|0:3,0:0:0:0:
384,152,342722,2,0,P|320:140|292:119,1,77.0000023498536
228,64,343036,1,0,0:0:0:0:
284,384,343193,2,0,P|280:304|266:228,1,154.000004699707,2|0,0:3|0:0,0:0:0:0:
376,288,343664,1,0,1:0:0:0:
452,220,343821,1,0,0:0:0:0:
484,348,343979,2,0,P|442:336|404:332,1,77.0000023498536,0|8,0:0|0:3,0:0:0:0:
260,240,344293,6,0,P|298:234|335:224,1,77.0000023498536
404,152,344607,1,0,0:0:0:0:
484,244,344764,2,0,P|492:152|512:68,1,154.000004699707
505,91,345235,2,0,P|460:104|412:104,1,77.0000023498536,2|0,0:3|0:0,0:0:0:0:
344,60,345549,1,0,0:0:0:0:
280,196,345706,2,0,P|274:150|264:113,1,77.0000023498536,2|2,0:3|0:3,0:0:0:0:
184,64,346020,1,0,0:0:0:0:
48,208,346178,5,0,1:0:0:0:
67,228,346256,1,0,0:0:0:0:
94,235,346335,1,2,0:3:0:0:
121,225,346413,1,0,0:0:0:0:
138,202,346492,1,0,0:0:0:0:
154,178,346571,1,0,0:0:0:0:
181,167,346649,1,2,0:3:0:0:
208,174,346728,1,0,0:0:0:0:
228,195,346806,1,0,0:0:0:0:
320,276,346963,6,0,L|336:96,1,154.000004699707,2|2,0:3|0:0,0:0:0:0:
416,304,347434,2,0,L|424:384,1,77.0000023498536,0|0,1:0|0:0,0:0:0:0:
504,160,347670,1,2,0:3:0:0:
496,192,347748,2,0,L|396:212,1,77.0000023498536,0|2,0:0|0:3,0:0:0:0:
333,122,348062,5,0,0:0:0:0:
416,304,348219,1,0,0:0:0:0:
320,272,348376,1,0,0:0:0:0:
320,272,348455,1,0,0:0:0:0:
320,272,348534,1,0,0:0:0:0:
228,332,348691,2,0,L|216:252,1,77.0000023498536,0|0,1:0|0:0,0:0:0:0:
288,180,349005,1,0,0:0:0:0:
128,304,349162,1,8,0:3:0:0:
60,192,349319,6,0,P|124:204|168:196,1,77.0000023498536
72,8,349633,1,0,0:0:0:0:
116,100,349790,2,0,P|221:74|249:21,2,154.000004699707
32,32,350575,1,0,0:0:0:0:
144,208,350732,2,0,L|152:116,1,77.0000023498536,2|0,0:3|0:0,0:0:0:0:
150,131,350968,1,0,0:0:0:0:
150,131,351047,1,0,0:0:0:0:
232,264,351204,5,0,1:0:0:0:
232,264,351282,1,0,0:0:0:0:
232,264,351361,1,0,0:0:0:0:
364,144,351518,1,0,0:0:0:0:
345,171,351596,1,0,0:0:0:0:
315,184,351675,1,0,0:0:0:0:
282,179,351753,1,0,0:0:0:0:
258,155,351832,1,0,0:0:0:0:
256,44,351989,5,0,0:0:0:0:
256,44,352303,1,2,0:0:0:0:
258,155,352460,2,0,L|260:264,1,77.0000023498536,0|0,1:0|0:0,0:0:0:0:
352,316,352774,2,0,L|360:224,1,77.0000023498536
424,164,353089,1,0,0:0:0:0:
456,304,353246,1,0,0:0:0:0:
358,239,353403,1,0,0:0:0:0:
358,239,353481,1,0,0:0:0:0:
358,239,353560,1,0,0:0:0:0:
173,298,353717,5,0,1:0:0:0:
189,322,353795,1,0,0:0:0:0:
214,333,353874,1,0,0:0:0:0:
242,327,353952,1,0,0:0:0:0:
262,306,354031,1,0,0:0:0:0:
283,287,354110,1,0,0:0:0:0:
311,281,354188,1,8,0:3:0:0:
337,293,354267,1,0,0:0:0:0:
352,316,354345,2,0,L|348:268,3,38.5000011749268
440,368,354659,1,0,0:0:0:0:
296,148,354816,6,0,P|368:180|436:164,1,115.50000352478
504,152,355130,2,0,P|488:220|488:256,1,77.0000023498536
288,320,355445,2,0,P|282:281|271:245,1,77.0000023498536
271,245,355759,1,0,0:0:0:0:
372,80,355916,2,0,L|382:233,1,154.000004699707,0|0,0:0|1:0,0:0:0:0:
364,188,356308,5,0,0:0:0:0:
343,213,356386,1,0,0:0:0:0:
314,227,356465,1,0,0:0:0:0:
285,212,356543,1,0,0:0:0:0:
259,191,356622,1,0,0:0:0:0:
230,177,356700,1,0,0:0:0:0:
202,191,356779,1,0,0:0:0:0:
182,220,356857,1,0,0:0:0:0:
88,284,357015,6,0,L|82:245,4,38.5000011749268,0|0|0|0|2,0:0|0:0|0:0|0:0|0:0,0:0:0:0:
24,132,357486,2,0,P|65:145|123:140,1,77.0000023498536,0|0,1:0|0:0,0:0:0:0:
182,220,357722,1,0,1:0:0:0:
182,220,357801,2,0,P|194:152|211:116,1,77.0000023498536
296,120,358115,1,0,0:0:0:0:
280,224,358272,6,0,P|356:256|420:232,1,154.000004699707
480,152,358743,1,0,1:0:0:0:
436,348,358900,1,0,0:0:0:0:
336,280,359057,1,0,0:0:0:0:
256,372,359214,1,8,0:3:0:0:
113,238,359371,6,0,P|140:264|175:279,1,77.0000023498536
336,280,359685,1,0,0:0:0:0:
256,200,359842,2,0,P|248:120|280:24,2,154.000004699707
336,280,360628,2,0,P|362:253|419:235,1,77.0000023498536
496,232,360942,1,0,0:0:0:0:
143,201,361099,5,0,0:0:0:0:
166,231,361177,1,0,0:0:0:0:
203,240,361256,1,0,0:0:0:0:
237,225,361334,1,0,0:0:0:0:
256,191,361413,1,0,0:0:0:0:
274,158,361492,1,0,0:0:0:0:
308,143,361570,1,0,0:0:0:0:
345,152,361649,1,0,0:0:0:0:
368,182,361727,2,0,L|372:144,4,35
