osu file format v14

[General]
AudioFilename: 03 artcore JINJA.mp3
AudioLeadIn: 2000
PreviewTime: 10013
Countdown: 0
SampleSet: Soft
StackLeniency: 0.7
Mode: 0
LetterboxInBreaks: 0
WidescreenStoryboard: 1

[Editor]
Bookmarks: 8039,10013,23592,33697,38276,43802,60697,77592,78381,93539,96066,102381,112487,127644,127960,128276,128750,129066,129223,129539,130013,130171,130487,130802,131276,131592,131750,132066
DistanceSpacing: 2
BeatDivisor: 4
GridSize: 4
TimelineZoom: 1

[Metadata]
Title:artcore JINJA
TitleUnicode:アートコア神社
Artist:An
ArtistUnicode:An
Creator:HalfW
Version:Phantasmagoria
Source:Touhou
Tags:touhou hakurei reimu
BeatmapID:1977247
BeatmapSetID:946630

[Difficulty]
HPDrainRate:6
CircleSize:4.2
OverallDifficulty:8.5
ApproachRate:9.5
SliderMultiplier:1.3
SliderTickRate:1

[Events]
//Background and Video events
0,0,"bgchrome.jpg",0,0
//Break Periods
2,81108,89213
//Storyboard Layer 0 (Background)
//Storyboard Layer 1 (Fail)
//Storyboard Layer 2 (Pass)
//Storyboard Layer 3 (Foreground)
Sprite,Foreground,Centre,"bg590.jpg",320,240 F,0,60697,61960,0.6,0 S,0,60697,61960,0.625,0.85 F,0,61960,80908,0 S,0,61960,80908,0 F,0,80908,82171,0.6,0 S,0,80908,82171,0.625,0.85 F,0,82171,102381,0 S,0,82171,102381,0 F,0,102381,103644,0.6,0 S,0,102381,103644,0.625,1.1 S,0,102697,132697,0 F,0,103644,132697,0 F,0,132697,133960,0.6,0 S,0,132697,133960,0.625,0.85 F,0,133960,142802,0 S,0,133960,142802,0 F,0,142802,144066,0.6,0 S,0,142802,144066,0.625,0.85
Sprite,Foreground,Centre,"blaaaaaaack.png",320,240 F,0,60697,63223,0,0.5 F,0,63223,69539,0.5,0.7 F,0,69539,70802,0.7,0 F,0,70802,80750,0 F,0,80750,81539,0,0.3 F,0,81539,90934,0.3,0.4 F,0,91013,91052,0.4,0 F,0,91052,,0 F,2,100487,101118,0,1 F,0,101118,102381,1 F,0,102381,142802,0 F,0,142802,144697,0,1 F,0,144697,148062,1
Sprite,Foreground,Centre,"etihw.png",320,240 F,0,91013,91052,0,0.65 F,0,91052,91644,0.65,0 F,0,102381,102421,0,0.65 F,0,102421,103013,0.65,0
//Storyboard Layer 4 (Overlay)
//Storyboard Sound Samples

[TimingPoints]
66,315.789473684211,4,2,0,45,1,0
10171,-83.3333333333333,4,1,0,60,0,1
10250,-83.3333333333333,4,1,0,60,0,0
19013,-100,4,3,0,60,0,0
20118,-83.3333333333333,4,1,0,60,0,0
30381,-83.3333333333333,4,1,0,60,0,0
59434,-133.333333333333,4,2,0,60,0,0
60697,-100,4,2,0,60,0,0
61960,-200,4,2,0,60,0,0
62434,-100,4,2,0,60,0,0
64487,-200,4,2,0,60,0,0
65750,-100,4,2,0,60,0,0
67013,-200,4,2,0,60,0,0
67487,-100,4,2,0,60,0,0
69539,-200,4,2,0,60,0,0
70802,-66.6666666666667,4,2,0,60,0,0
79644,-333.333333333333,4,2,0,60,0,0
80908,-100,4,2,0,50,0,0
91013,-66.6666666666667,4,2,0,60,0,0
99697,-50,4,2,0,60,0,0
101118,-100,4,2,0,50,0,0
102381,-83.3333333333333,4,2,0,60,0,1
110434,-200,4,2,0,60,0,1
110671,-83.3333333333333,4,2,0,60,0,1
120539,-200,4,2,0,60,0,1
120697,-83.3333333333333,4,2,0,60,0,1
121329,-500,4,2,0,60,0,0
121960,-83.3333333333333,4,2,0,60,0,0
122592,-100,4,1,0,60,0,0
123539,-83.3333333333333,4,1,0,60,0,0
124487,-71.4285714285714,4,1,0,60,0,0
125434,-62.5,4,1,0,60,0,0
126381,-55.5555555555556,4,1,0,60,0,0
127644,-66.6666666666667,4,2,0,60,0,0
130171,-100,4,2,0,60,0,0
130802,-66.6666666666667,4,2,0,60,0,0
132697,-100,4,2,0,60,0,1
132776,-100,4,2,0,60,0,0

[HitObjects]
50,141,66,5,8,0:0:0:0:
84,158,223,2,2,B|141:189,1,65,2|0,0:0|0:0,0:0:0:0:
268,250,539,1,8,0:0:0:0:
185,340,855,1,0,0:0:0:0:
185,340,1013,1,0,0:0:0:0:
354,159,1171,1,2,0:0:0:0:
268,250,1329,1,8,0:0:0:0:
107,288,1802,5,0,0:0:0:0:
276,107,1960,1,2,0:0:0:0:
188,196,2118,1,8,0:0:0:0:
285,274,2276,1,2,0:0:0:0:
188,196,2434,1,0,0:0:0:0:
97,21,2592,5,2,0:0:0:0:
62,141,2750,1,8,0:0:0:0:
26,260,2908,1,0,0:0:0:0:
188,196,3066,1,0,0:0:0:0:
141,325,3381,5,0,0:0:0:0:
245,261,3539,1,8,0:0:0:0:
465,140,3697,1,2,0:0:0:0:
355,201,3855,1,8,0:0:0:0:
473,265,4487,1,0,0:0:0:0:
241,135,5118,5,0,0:0:0:0:
224,160,5276,1,0,0:0:0:0:
202,194,5434,1,0,0:0:0:0:
124,310,5592,1,0,0:0:0:0:
242,324,5908,5,0,0:0:0:0:
242,324,6066,1,0,0:0:0:0:
402,135,6223,1,0,0:0:0:0:
321,229,6381,1,0,0:0:0:0:
162,271,6855,5,0,0:0:0:0:
331,90,7013,1,2,0:0:0:0:
243,179,7171,1,8,0:0:0:0:
340,257,7329,1,2,0:0:0:0:
243,179,7487,1,0,0:0:0:0:
40,303,7644,5,0,0:0:0:0:
76,184,7802,1,8,0:0:0:0:
111,64,7960,1,2,0:0:0:0:
243,179,8118,1,0,0:0:0:0:
465,140,8434,5,2,0:0:0:0:
355,201,8592,1,8,0:0:0:0:
245,261,8750,1,8,0:0:0:0:
159,182,8908,1,0,0:0:0:0:
141,325,9539,1,0,0:0:0:0:
176,64,10171,5,10,0:0:0:0:
46,151,10329,1,8,0:0:0:0:
172,238,10487,2,4,P|199:266|203:304,1,77.999997619629,4|2,0:0|0:0,0:0:0:0:
492,108,10960,1,10,0:0:0:0:
347,41,11118,2,2,P|305:22|260:39,1,77.999997619629,6|2,0:0|0:0,0:0:0:0:
197,166,11434,5,10,0:0:0:0:
103,38,11592,1,8,0:0:0:0:
34,178,11750,1,4,0:0:0:0:
82,250,11908,1,0,0:0:0:0:
169,248,12066,1,0,0:0:0:0:
264,363,12223,1,10,0:0:0:0:
364,243,12381,1,0,0:0:0:0:
419,176,12539,1,0,0:0:0:0:
286,94,12697,5,10,0:0:0:0:
201,225,12855,1,10,0:0:0:0:
121,92,13013,2,0,P|102:58|66:44,1,77.999997619629,6|2,0:0|0:0,0:0:0:0:
401,140,13487,1,10,0:0:0:0:
340,294,13644,2,0,P|321:328|284:346,1,77.999997619629,6|2,0:0|0:0,0:0:0:0:
216,205,13960,5,10,0:0:0:0:
67,159,14118,1,8,0:0:0:0:
197,72,14276,1,0,0:0:0:0:
289,42,14592,5,0,3:0:0:0:
441,77,14750,1,8,3:0:0:0:
332,190,14908,1,4,3:0:0:0:
133,107,15223,5,10,0:0:0:0:
3,194,15381,1,8,0:0:0:0:
129,281,15539,2,4,P|156:308|159:346,1,77.999997619629,4|2,0:0|0:0,0:0:0:0:
449,150,16012,1,10,0:0:0:0:
304,84,16170,2,2,P|262:64|217:81,1,77.999997619629,6|2,0:0|0:0,0:0:0:0:
83,124,16487,5,10,0:0:0:0:
107,276,16644,1,8,0:0:0:0:
239,194,16802,1,0,0:0:0:0:
319,228,16960,1,0,0:0:0:0:
324,142,17118,1,2,0:0:0:0:
169,163,17276,1,10,0:0:0:0:
234,305,17434,1,0,0:0:0:0:
319,324,17592,1,0,0:0:0:0:
430,214,17750,5,10,0:0:0:0:
284,156,17908,1,8,0:0:0:0:
398,50,18066,1,0,0:0:0:0:
467,102,18223,1,0,0:0:0:0:
386,130,18539,5,10,0:0:0:0:
256,42,18697,1,6,0:0:0:0:
192,100,18855,1,2,0:0:0:0:
158,357,19013,2,8,L|191:349,1,32.5,10|8,0:0|0:0,0:0:0:0:
71,87,19250,2,8,L|40:81,1,32.5
339,317,19487,1,10,0:0:0:0:
464,91,19644,1,8,0:0:0:0:
510,267,19802,1,4,0:0:0:0:
216,28,20118,6,8,L|271:32,1,38.9999988098145
335,35,20276,5,10,0:0:0:0:
453,137,20434,1,8,0:0:0:0:
298,164,20592,1,0,0:0:0:0:
220,186,20750,1,2,0:0:0:0:
220,186,20829,1,0,0:0:0:0:
220,186,20908,1,2,0:0:0:0:
317,293,21066,5,8,0:0:0:0:
373,148,21223,2,0,L|401:65,1,77.999997619629,6|2,0:0|0:0,0:0:0:0:
238,62,21539,5,10,0:0:0:0:
241,224,21697,1,8,0:0:0:0:
108,140,21855,1,4,0:0:0:0:
42,100,22013,1,2,0:0:0:0:
42,100,22092,1,0,0:0:0:0:
42,100,22171,1,2,0:0:0:0:
38,256,22329,5,10,0:0:0:0:
174,180,22487,2,0,L|255:129,1,77.999997619629,6|2,0:0|0:0,0:0:0:0:
311,277,22802,5,10,0:0:0:0:
438,187,22960,1,10,0:0:0:0:
319,84,23118,1,6,0:0:0:0:
262,33,23276,1,2,0:0:0:0:
262,33,23355,1,0,0:0:0:0:
262,33,23434,1,0,0:0:0:0:
237,187,23592,5,10,0:0:0:0:
383,132,23750,2,0,P|406:99|409:58,1,77.999997619629,6|2,0:0|0:0,0:0:0:0:
290,316,24066,5,10,0:0:0:0:
166,221,24223,1,8,0:0:0:0:
309,160,24381,1,4,0:0:0:0:
299,236,24697,1,0,0:0:0:0:
422,331,24855,1,8,0:0:0:0:
442,176,25013,1,4,0:0:0:0:
123,33,25329,5,10,0:0:0:0:
139,192,25487,1,8,0:0:0:0:
261,99,25645,1,4,0:0:0:0:
334,49,25802,1,2,0:0:0:0:
334,49,25881,1,0,0:0:0:0:
334,49,25960,1,0,0:0:0:0:
343,204,26118,5,10,0:0:0:0:
199,143,26276,2,0,L|107:101,1,77.999997619629,6|2,0:0|0:0,0:0:0:0:
62,253,26592,5,10,0:0:0:0:
151,380,26750,1,8,0:0:0:0:
226,243,26908,1,4,0:0:0:0:
279,177,27066,1,2,0:0:0:0:
279,177,27144,1,0,0:0:0:0:
279,177,27223,1,2,0:0:0:0:
344,318,27381,5,10,0:0:0:0:
188,309,27539,2,0,L|97:312,1,77.999997619629,6|2,0:0|0:0,0:0:0:0:
135,156,27855,5,10,0:0:0:0:
218,23,28013,1,8,0:0:0:0:
69,40,28171,1,6,0:0:0:0:
69,40,28249,1,0,0:0:0:0:
69,40,28328,1,2,0:0:0:0:
509,122,28645,5,10,0:0:0:0:
443,262,28802,2,0,L|401:329,1,77.999997619629,10|2,0:0|0:0,0:0:0:0:
280,227,29118,5,10,0:0:0:0:
183,350,29276,1,8,0:0:0:0:
108,212,29434,1,4,0:0:0:0:
65,149,29592,1,2,0:0:0:0:
65,149,29671,1,0,0:0:0:0:
65,149,29750,1,2,0:0:0:0:
196,65,29908,1,8,0:0:0:0:
192,221,30066,1,0,0:0:0:0:
472,99,30381,5,10,0:0:0:0:
474,255,30539,1,8,0:0:0:0:
341,171,30697,1,4,0:0:0:0:
275,131,30855,1,2,0:0:0:0:
275,131,30934,1,0,0:0:0:0:
275,131,31013,1,2,0:0:0:0:
266,286,31171,5,10,0:0:0:0:
404,214,31329,2,0,L|476:172,1,77.999997619629,6|2,0:0|0:0,0:0:0:0:
358,67,31644,5,10,0:0:0:0:
201,68,31802,1,10,0:0:0:0:
271,207,31960,1,6,0:0:0:0:
321,290,32118,1,2,0:0:0:0:
321,290,32197,1,0,0:0:0:0:
321,290,32276,1,0,0:0:0:0:
165,276,32434,5,10,0:0:0:0:
240,137,32592,2,0,L|289:59,1,77.999997619629,6|2,0:0|0:0,0:0:0:0:
133,18,32908,5,10,0:0:0:0:
1,99,33065,1,8,0:0:0:0:
138,172,33223,1,4,0:0:0:0:
221,217,33381,1,0,0:0:0:0:
221,217,33460,1,8,0:0:0:0:
221,217,33539,1,4,0:0:0:0:
291,77,33697,5,0,0:0:0:0:
135,93,33855,2,0,P|95:84|65:56,1,77.999997619629,6|2,0:0|0:0,0:0:0:0:
306,212,34171,5,8,0:0:0:0:
213,87,34329,1,10,0:0:0:0:
368,70,34486,1,4,0:0:0:0:
336,140,34802,1,0,0:0:0:0:
459,235,34960,1,8,0:0:0:0:
479,105,35118,1,4,0:0:0:0:
166,111,35434,5,10,0:0:0:0:
13,147,35592,1,10,0:0:0:0:
112,267,35750,1,6,0:0:0:0:
180,337,35908,1,2,0:0:0:0:
180,337,35987,1,0,0:0:0:0:
180,337,36066,1,0,0:0:0:0:
24,358,36224,5,10,0:0:0:0:
66,206,36382,2,0,L|96:118,1,77.999997619629,6|2,0:0|0:0,0:0:0:0:
233,195,36697,5,10,0:0:0:0:
376,258,36855,1,8,0:0:0:0:
351,103,37013,1,4,0:0:0:0:
342,25,37171,1,2,0:0:0:0:
342,25,37250,1,0,0:0:0:0:
342,25,37329,1,2,0:0:0:0:
487,80,37487,5,10,0:0:0:0:
364,177,37645,2,0,L|297:226,1,77.999997619629,6|2,0:0|0:0,0:0:0:0:
233,82,37960,5,10,0:0:0:0:
81,118,38118,1,10,0:0:0:0:
179,238,38276,1,6,0:0:0:0:
239,314,38434,1,2,0:0:0:0:
239,314,38513,1,0,0:0:0:0:
239,314,38592,1,2,0:0:0:0:
83,324,38750,5,10,0:0:0:0:
135,176,38908,2,0,L|166:88,1,77.999997619629,6|2,0:0|0:0,0:0:0:0:
298,176,39223,1,10,0:0:0:0:
325,192,39855,1,2,0:0:0:0:
158,76,40487,6,0,P|125:96|111:132,1,77.999997619629,6|2,0:0|0:0,0:0:0:0:
247,223,40802,1,8,0:0:0:0:
351,96,40960,1,0,0:0:0:0:
186,145,41276,1,8,0:0:0:0:
169,151,41592,1,0,0:0:0:0:
203,350,41908,1,0,0:0:0:0:
342,263,42066,1,0,0:0:0:0:
342,263,42381,1,0,0:0:0:0:
288,107,42539,1,0,0:0:0:0:
169,220,42697,2,0,L|134:236,2,38.9999988098145,0|0|0,0:0|0:0|0:0,0:0:0:0:
411,139,43013,6,0,P|399:102|368:79,1,77.999997619629,0|0,0:0|0:0,0:0:0:0:
204,98,43329,1,0,0:0:0:0:
190,261,43487,1,0,0:0:0:0:
370,125,43802,1,0,0:0:0:0:
370,140,44118,1,0,0:0:0:0:
254,333,44434,1,0,0:0:0:0:
171,191,44592,1,0,0:0:0:0:
315,189,44908,1,0,0:0:0:0:
173,272,45066,1,0,0:0:0:0:
171,112,45223,2,0,L|197:79,2,38.9999988098145,0|0|0,0:0|0:0|0:0,0:0:0:0:
365,150,45539,5,0,0:0:0:0:
229,242,45697,1,0,0:0:0:0:
369,326,45855,1,0,0:0:0:0:
128,319,46013,1,0,0:0:0:0:
142,324,46329,2,0,P|177:338|214:329,1,77.999997619629
296,182,46644,2,0,P|265:159|226:161,1,77.999997619629,0|0,0:0|0:0,0:0:0:0:
71,217,46960,1,0,0:0:0:0:
97,55,47118,1,0,0:0:0:0:
121,63,47434,1,0,0:0:0:0:
226,188,47592,1,0,0:0:0:0:
66,224,47750,2,0,L|22:250,2,38.9999988098145
192,316,48066,6,0,P|230:312|259:288,1,77.999997619629
168,161,48381,1,0,0:0:0:0:
161,288,48539,1,0,0:0:0:0:
378,142,48855,1,0,0:0:0:0:
394,139,49171,2,0,P|417:169|418:207,1,77.999997619629
272,283,49487,1,0,0:0:0:0:
248,121,49644,1,0,0:0:0:0:
248,121,49960,1,0,0:0:0:0:
272,283,50118,1,0,0:0:0:0:
409,206,50276,2,0,L|415:160,2,38.9999988098145,0|0|0,0:0|0:0|0:0,0:0:0:0:
256,46,50592,6,0,B|174:54|103:99|62:169,1,233.999992858887,0|0,0:0|0:0,0:0:0:0:
0,189,51223,1,0,0:0:0:0:
166,283,51381,2,0,P|203:307|250:297,1,77.999997619629,0|0,0:0|0:0,0:0:0:0:
309,167,51697,1,0,0:0:0:0:
355,114,51855,1,0,0:0:0:0:
468,221,52013,1,0,0:0:0:0:
343,314,52171,2,0,P|304:318|271:298,1,77.999997619629,0|0,0:0|0:0,0:0:0:0:
388,193,52487,1,0,0:0:0:0:
261,102,52644,1,0,0:0:0:0:
249,257,52802,2,0,P|286:281|333:271,1,77.999997619629,0|0,0:0|0:0,0:0:0:0:
460,212,53118,6,0,B|437:132|381:70|305:42,1,233.999992858887,0|0,0:0|0:0,0:0:0:0:
236,70,53750,1,0,0:0:0:0:
215,206,53908,1,0,0:0:0:0:
161,128,54066,1,0,0:0:0:0:
74,237,54223,1,0,0:0:0:0:
147,295,54381,1,0,0:0:0:0:
161,128,54539,1,0,0:0:0:0:
147,295,54697,1,0,0:0:0:0:
281,215,55013,1,0,0:0:0:0:
147,295,55171,1,0,0:0:0:0:
281,215,55329,1,0,0:0:0:0:
312,180,55408,1,0,0:0:0:0:
325,135,55487,1,0,0:0:0:0:
156,85,55644,6,0,B|101:146|80:228|98:307,1,233.999992858887,0|0,0:0|0:0,0:0:0:0:
39,357,56276,1,0,0:0:0:0:
252,319,56433,2,0,P|295:312|323:272,1,77.999997619629,0|0,0:0|0:0,0:0:0:0:
277,137,56749,1,0,0:0:0:0:
275,67,56907,1,0,0:0:0:0:
430,68,57065,1,0,0:0:0:0:
402,221,57223,2,0,P|377:251|339:259,1,77.999997619629,0|0,0:0|0:0,0:0:0:0:
353,102,57539,1,0,0:0:0:0:
198,122,57696,1,0,0:0:0:0:
295,244,57854,2,0,P|338:236|366:197,1,77.999997619629,0|0,0:0|0:0,0:0:0:0:
418,67,58170,6,0,B|347:24|264:17|189:48,1,233.999992858887,0|0,0:0|0:0,0:0:0:0:
162,116,58802,1,0,0:0:0:0:
235,230,58960,1,0,0:0:0:0:
142,209,59118,1,0,0:0:0:0:
153,349,59275,1,0,0:0:0:0:
142,209,59434,1,0,0:0:0:0:
142,209,59908,1,0,0:0:0:0:
353,180,60223,1,0,0:0:0:0:
267,95,60381,1,0,0:0:0:0:
230,95,60460,1,0,0:0:0:0:
193,93,60539,1,0,0:0:0:0:
36,216,60697,5,0,0:0:0:0:
107,256,60855,2,0,L|168:285,1,65,0|0,0:0|0:0,0:0:0:0:
237,311,61171,1,0,0:0:0:0:
433,228,61487,2,0,L|378:263,2,65,0|0|0,0:0|0:0|0:0,2:0:0:0:
392,130,61960,1,0,0:0:0:0:
392,130,62434,1,0,0:0:0:0:
438,215,62592,1,0,0:0:0:0:
372,288,62750,1,0,0:0:0:0:
320,194,62908,1,0,0:0:0:0:
220,148,63066,1,0,0:0:0:0:
119,181,63223,5,0,0:0:0:0:
66,273,63381,2,0,L|46:341,2,65
254,304,64013,1,0,0:0:0:0:
152,280,64171,1,0,0:0:0:0:
95,192,64329,1,0,0:0:0:0:
93,87,64487,2,0,L|92:132,2,32.5
195,66,65118,2,0,L|194:111,2,32.5
281,95,65750,6,0,L|280:185,2,65,0|0|0,0:0|0:0|0:0,0:0:0:0:
281,95,66223,1,0,0:0:0:0:
381,291,66539,2,0,L|412:204,2,65
202,317,67013,2,0,L|158:312,2,32.5
293,313,67487,5,0,0:0:0:0:
381,291,67644,1,0,0:0:0:0:
406,203,67802,1,0,0:0:0:0:
365,121,67960,1,0,0:0:0:0:
278,93,68118,1,0,0:0:0:0:
187,83,68276,6,0,L|111:91,2,65,0|0|0,0:0|0:0|0:0,0:0:0:0:
187,83,68750,1,0,0:0:0:0:
72,166,69066,1,0,0:0:0:0:
96,253,69223,1,0,0:0:0:0:
164,312,69381,1,0,0:0:0:0:
259,331,69539,2,0,L|293:327,2,32.5
383,272,70171,2,0,L|396:228,2,32.5
432,84,70802,6,0,P|379:64|323:80,1,97.50000371933,0|0,0:0|0:0,0:0:0:0:
320,218,71118,2,0,P|372:237|428:221,1,97.50000371933,0|0,0:0|0:0,0:0:0:0:
363,64,71434,2,0,P|314:90|288:142,1,97.50000371933
388,237,71750,2,0,P|437:211|463:159,1,97.50000371933,0|0,0:0|0:0,0:0:0:0:
303,104,72066,5,0,0:0:0:0:
474,130,72223,1,0,0:0:0:0:
300,211,72381,1,0,0:0:0:0:
390,62,72538,1,0,0:0:0:0:
223,271,72697,1,0,0:0:0:0:
394,245,72854,1,0,0:0:0:0:
220,164,73012,1,0,0:0:0:0:
310,312,73171,1,0,0:0:0:0:
249,164,73329,6,0,L|228:273,1,97.50000371933
148,338,73644,2,0,P|99:337|58:311,1,97.50000371933,0|0,0:0|0:0,0:0:0:0:
132,157,73960,2,0,L|140:254,1,97.50000371933,0|0,0:0|0:0,0:0:0:0:
64,102,74276,2,0,P|104:75|152:73,1,97.50000371933,0|0,0:0|0:0,0:0:0:0:
303,104,74592,5,0,0:0:0:0:
474,130,74749,1,0,0:0:0:0:
355,30,74908,1,0,0:0:0:0:
403,217,75065,1,0,0:0:0:0:
144,240,75223,2,0,L|212:170,1,97.50000371933,0|0,0:0|0:0,0:0:0:0:
384,209,75539,2,0,L|316:279,1,97.50000371933,0|0,0:0|0:0,0:0:0:0:
368,49,75855,6,0,P|411:70|436:111,1,97.50000371933,0|0,0:0|0:0,0:0:0:0:
489,224,76171,2,0,P|473:269|436:300,1,97.50000371933,0|0,0:0|0:0,0:0:0:0:
358,232,76487,2,0,L|294:137,1,97.50000371933,0|0,0:0|0:0,0:0:0:0:
367,48,76802,2,0,L|422:129,1,97.50000371933,0|0,0:0|0:0,0:0:0:0:
488,218,77118,5,0,0:0:0:0:
415,335,77276,1,0,0:0:0:0:
330,223,77434,1,0,0:0:0:0:
488,218,77592,5,0,0:0:0:0:
323,220,77750,1,0,0:0:0:0:
250,337,77908,1,0,0:0:0:0:
323,220,78066,5,0,0:0:0:0:
250,103,78224,1,0,0:0:0:0:
349,51,78381,6,0,P|392:72|417:113,1,97.50000371933,0|0,0:0|0:0,0:0:0:0:
222,249,78697,2,0,L|158:154,1,97.50000371933,0|0,0:0|0:0,0:0:0:0:
262,113,79013,2,0,L|316:193,1,97.50000371933,0|0,0:0|0:0,0:0:0:0:
119,307,79329,2,0,P|75:285|50:244,1,97.50000371933,0|0,0:0|0:0,0:0:0:0:
49,120,79644,6,0,B|81:124|81:124|111:107,1,58.4999982147217,0|0,0:0|0:0,0:0:0:0:
111,184,80276,2,0,B|112:216|112:216|135:242,1,58.4999982147217
381,217,80908,5,0,0:0:0:0:
40,224,91013,6,0,P|92:248|152:224,1,97.50000371933,0|0,0:0|0:0,0:0:0:0:
182,185,91329,2,0,P|138:165|92:176,1,97.50000371933,0|0,0:0|0:0,0:0:0:0:
40,224,91644,6,0,P|92:248|152:224,1,97.50000371933,0|0,0:0|0:0,0:0:0:0:
182,185,91960,2,0,P|138:165|92:176,1,97.50000371933,0|0,0:0|0:0,0:0:0:0:
40,224,92276,6,0,L|116:308,1,97.50000371933,0|0,0:0|0:0,0:0:0:0:
232,308,92592,2,0,L|340:274,1,97.50000371933
416,191,92908,1,0,0:0:0:0:
444,126,93066,1,0,0:0:0:0:
327,131,93223,1,0,0:0:0:0:
378,25,93381,1,0,0:0:0:0:
308,45,93539,6,0,L|200:80,1,97.50000371933
124,152,93855,2,0,L|111:264,1,97.50000371933
232,308,94171,2,0,L|340:343,1,97.50000371933
308,221,94487,1,0,0:0:0:0:
336,158,94644,1,0,0:0:0:0:
357,125,94723,1,0,0:0:0:0:
371,89,94802,1,0,0:0:0:0:
441,124,94960,2,0,L|405:33,1,97.50000371933,0|0,0:0|0:0,0:0:0:0:
285,55,95276,2,0,L|177:90,1,97.50000371933
126,103,95592,1,0,0:0:0:0:
248,28,95750,1,0,0:0:0:0:
219,142,95908,1,0,0:0:0:0:
120,103,96066,6,0,L|130:215,1,97.50000371933,0|0,0:0|0:0,0:0:0:0:
222,285,96382,2,0,L|328:322,1,97.50000371933,0|0,0:0|0:0,0:0:0:0:
416,240,96697,1,0,0:0:0:0:
251,93,96855,5,0,0:0:0:0:
307,222,97013,1,0,0:0:0:0:
430,163,97171,1,0,0:0:0:0:
357,293,97329,1,0,0:0:0:0:
280,159,97487,1,0,0:0:0:0:
155,91,97644,1,0,0:0:0:0:
120,220,97802,1,0,0:0:0:0:
64,168,98118,5,0,0:0:0:0:
164,258,98276,1,0,0:0:0:0:
261,350,98434,1,0,0:0:0:0:
370,256,98592,2,0,L|428:162,2,97.50000371933
230,254,99066,2,0,P|178:164|233:97,1,195.00000743866,0|0,0:0|0:0,0:0:0:0:
430,163,99697,2,0,L|356:281,3,130,0|0|0|0,0:0|0:0|0:0|0:0,0:0:0:0:
308,333,100329,2,0,P|229:235|300:130,1,260,0|0,0:0|0:0,0:0:0:0:
377,266,100960,1,0,0:0:0:0:
318,205,101118,5,0,0:0:0:0:
249,136,101276,1,0,0:0:0:0:
188,60,101434,1,0,0:0:0:0:
59,42,101908,1,0,0:0:0:0:
419,46,102381,5,0,0:0:0:0:
331,175,102539,1,0,0:0:0:0:
248,43,102697,1,0,0:0:0:0:
107,110,102855,1,0,0:0:0:0:
111,188,102934,1,0,0:0:0:0:
111,266,103013,1,0,0:0:0:0:
236,359,103171,5,0,0:0:0:0:
289,212,103329,2,0,P|324:185|371:188,1,77.999997619629,0|0,0:0|0:0,0:0:0:0:
445,274,103644,5,0,0:0:0:0:
314,128,103802,1,0,0:0:0:0:
243,309,103960,1,0,0:0:0:0:
143,140,104118,1,0,0:0:0:0:
243,309,104276,1,0,0:0:0:0:
314,128,104434,1,0,0:0:0:0:
445,274,104592,2,0,L|500:344,1,77.999997619629,0|0,0:0|0:0,0:0:0:0:
384,328,104908,5,0,0:0:0:0:
238,271,105066,1,0,0:0:0:0:
348,161,105224,1,0,0:0:0:0:
251,38,105382,1,0,0:0:0:0:
176,60,105461,1,0,0:0:0:0:
100,77,105540,1,0,0:0:0:0:
38,220,105698,5,0,0:0:0:0:
193,239,105856,2,0,P|227:267|234:313,1,77.999997619629,0|0,0:0|0:0,0:0:0:0:
432,202,106171,5,0,0:0:0:0:
340,305,106329,1,0,0:0:0:0:
248,179,106487,1,0,0:0:0:0:
199,109,106644,2,0,P|162:95|125:105,1,77.999997619629,0|0,0:0|0:0,0:0:0:0:
50,169,106960,1,0,0:0:0:0:
57,244,107118,1,0,0:0:0:0:
72,266,107197,1,0,0:0:0:0:
88,287,107276,1,0,0:0:0:0:
102,310,107355,1,0,0:0:0:0:
119,331,107434,5,0,0:0:0:0:
207,201,107592,1,0,0:0:0:0:
290,334,107750,1,0,0:0:0:0:
428,262,107908,1,0,0:0:0:0:
427,184,107987,1,0,0:0:0:0:
430,106,108066,1,0,0:0:0:0:
301,18,108224,5,0,0:0:0:0:
248,165,108382,2,0,P|213:192|166:188,1,77.999997619629,0|0,0:0|0:0,0:0:0:0:
68,99,108697,5,0,0:0:0:0:
201,292,108855,1,0,0:0:0:0:
273,69,109013,1,0,0:0:0:0:
88,213,109171,1,0,0:0:0:0:
448,101,109329,5,0,0:0:0:0:
349,313,109487,1,0,0:0:0:0:
236,110,109644,1,0,0:0:0:0:
461,176,109802,1,0,0:0:0:0:
310,133,109960,5,0,0:0:0:0:
441,219,110118,1,0,0:0:0:0:
311,304,110276,1,0,0:0:0:0:
381,366,110434,2,0,L|400:365,2,16.25,0|0|0,0:0|0:0|0:0,0:0:0:0:
477,196,110750,5,0,0:0:0:0:
379,261,110908,1,0,0:0:0:0:
283,329,111066,1,0,0:0:0:0:
300,197,111223,1,0,0:0:0:0:
143,191,111381,1,0,0:0:0:0:
222,61,111539,1,0,0:0:0:0:
316,90,111697,2,0,P|355:92|384:117,1,77.999997619629,0|0,0:0|0:0,0:0:0:0:
423,207,112013,1,0,0:0:0:0:
385,271,112171,1,0,0:0:0:0:
363,286,112250,1,0,0:0:0:0:
340,297,112329,1,0,0:0:0:0:
313,314,112408,1,0,0:0:0:0:
287,331,112487,5,0,0:0:0:0:
157,244,112645,1,0,0:0:0:0:
292,166,112802,1,0,0:0:0:0:
229,23,112960,1,0,0:0:0:0:
151,23,113039,1,0,0:0:0:0:
73,19,113118,1,0,0:0:0:0:
2,157,113276,5,0,0:0:0:0:
137,236,113434,2,0,P|181:234|215:201,1,77.999997619629,0|0,0:0|0:0,0:0:0:0:
473,103,113750,5,0,0:0:0:0:
306,193,113908,1,0,0:0:0:0:
480,268,114066,1,0,0:0:0:0:
306,193,114223,2,0,P|255:139|216:51,1,155.999995239258,0|0,0:0|0:0,0:0:0:0:
88,151,114697,2,0,L|14:198,1,77.999997619629,0|0,0:0|0:0,0:0:0:0:
93,338,115013,5,0,0:0:0:0:
181,209,115171,1,0,0:0:0:0:
264,341,115329,1,0,0:0:0:0:
405,274,115487,1,0,0:0:0:0:
401,196,115566,1,0,0:0:0:0:
401,118,115645,1,0,0:0:0:0:
242,93,115802,5,0,0:0:0:0:
361,193,115960,2,0,P|404:202|445:179,1,77.999997619629,0|0,0:0|0:0,0:0:0:0:
364,329,116276,1,0,0:0:0:0:
477,221,116434,1,0,0:0:0:0:
317,166,116592,1,0,0:0:0:0:
234,135,116750,2,0,P|196:123|159:136,1,77.999997619629,0|0,0:0|0:0,0:0:0:0:
92,205,117066,1,0,0:0:0:0:
102,278,117224,1,0,0:0:0:0:
118,299,117303,1,0,0:0:0:0:
135,319,117382,1,0,0:0:0:0:
151,341,117461,1,0,0:0:0:0:
168,366,117539,5,0,0:0:0:0:
256,236,117697,1,0,0:0:0:0:
339,369,117855,1,0,0:0:0:0:
473,290,118013,1,0,0:0:0:0:
476,212,118092,1,0,0:0:0:0:
481,135,118171,1,0,0:0:0:0:
350,53,118329,5,0,0:0:0:0:
297,200,118487,2,0,P|262:227|215:223,1,77.999997619629,0|0,0:0|0:0,0:0:0:0:
15,232,118802,5,0,0:0:0:0:
12,95,118960,1,0,0:0:0:0:
149,93,119118,1,0,0:0:0:0:
151,229,119276,1,0,0:0:0:0:
330,324,119434,5,0,0:0:0:0:
466,321,119592,1,0,0:0:0:0:
464,185,119750,1,0,0:0:0:0:
327,187,119908,1,0,0:0:0:0:
399,325,120066,5,0,0:0:0:0:
268,239,120224,1,0,0:0:0:0:
398,154,120382,1,0,0:0:0:0:
328,98,120540,2,0,L|309:99,2,16.25,0|0|0,0:0|0:0|0:0,0:0:0:0:
201,188,120855,1,0,0:0:0:0:
321,287,121013,2,0,L|386:336,1,77.999997619629,0|0,0:0|0:0,0:0:0:0:
324,96,121329,6,0,L|286:74,1,39,0|0,0:0|0:0,0:0:0:0:
217,63,122118,1,0,0:0:0:0:
149,107,122276,1,0,0:0:0:0:
122,123,122355,1,0,0:0:0:0:
97,142,122434,1,0,0:0:0:0:
189,222,122592,5,0,0:0:0:0:
189,222,123066,2,0,L|267:206,1,65,0|0,0:0|0:0,0:0:0:0:
222,334,123539,5,0,0:0:0:0:
222,334,124013,2,0,P|243:297|288:268,1,77.999997619629,0|0,0:0|0:0,0:0:0:0:
469,338,124487,6,0,L|432:286,4,45.4999986114502,0|0|0|0|0,0:0|0:0|0:0|0:0|0:0,0:0:0:0:
374,339,124960,5,0,0:0:0:0:
381,298,125039,1,0,0:0:0:0:
392,259,125118,1,0,0:0:0:0:
406,220,125197,1,0,0:0:0:0:
423,183,125275,1,0,0:0:0:0:
281,295,125434,5,0,0:0:0:0:
285,248,125512,1,0,0:0:0:0:
297,203,125591,1,0,0:0:0:0:
315,160,125670,1,0,0:0:0:0:
340,120,125749,1,0,0:0:0:0:
208,243,125908,5,0,0:0:0:0:
206,191,125987,1,0,0:0:0:0:
215,139,126066,1,0,0:0:0:0:
234,91,126145,1,0,0:0:0:0:
262,48,126223,1,0,0:0:0:0:
297,239,126381,5,0,0:0:0:0:
326,181,126459,1,0,0:0:0:0:
367,130,126538,1,0,0:0:0:0:
417,89,126617,1,0,0:0:0:0:
475,59,126696,1,0,0:0:0:0:
475,59,126855,5,0,0:0:0:0:
410,31,126934,1,0,0:0:0:0:
339,37,127013,1,0,0:0:0:0:
101,101,127171,1,0,0:0:0:0:
76,170,127250,1,0,0:0:0:0:
98,240,127329,1,0,0:0:0:0:
202,142,127487,1,0,0:0:0:0:
238,270,127644,5,0,0:0:0:0:
266,309,127723,1,0,0:0:0:0:
303,338,127802,1,0,0:0:0:0:
344,355,127881,1,0,0:0:0:0:
373,315,127960,1,0,0:0:0:0:
398,273,128039,1,0,0:0:0:0:
412,226,128118,1,0,0:0:0:0:
415,177,128197,1,0,0:0:0:0:
321,205,128276,5,0,0:0:0:0:
272,202,128355,1,0,0:0:0:0:
224,192,128434,1,0,0:0:0:0:
176,181,128513,1,0,0:0:0:0:
132,159,128592,2,0,L|89:133,1,48.750001859665,0|0,0:0|0:0,0:0:0:0:
55,226,128750,5,0,0:0:0:0:
65,273,128829,1,0,0:0:0:0:
85,317,128908,1,0,0:0:0:0:
119,351,128987,1,0,0:0:0:0:
154,317,129066,1,0,0:0:0:0:
187,282,129144,1,0,0:0:0:0:
223,314,129223,1,0,0:0:0:0:
268,332,129302,1,0,0:0:0:0:
314,345,129381,1,0,0:0:0:0:
362,351,129460,1,0,0:0:0:0:
342,255,129539,5,0,0:0:0:0:
332,207,129618,1,0,0:0:0:0:
313,161,129697,1,0,0:0:0:0:
292,116,129776,1,0,0:0:0:0:
263,76,129855,1,0,0:0:0:0:
228,41,129934,1,0,0:0:0:0:
187,14,130013,2,0,L|121:3,1,48.750001859665,0|0,0:0|0:0,0:0:0:0:
119,32,130171,5,0,0:0:0:0:
119,35,130250,1,0,0:0:0:0:
119,38,130329,1,0,0:0:0:0:
119,41,130408,1,0,0:0:0:0:
173,81,130487,1,0,0:0:0:0:
173,84,130566,1,0,0:0:0:0:
173,87,130644,1,0,0:0:0:0:
173,90,130723,1,0,0:0:0:0:
84,130,130802,5,0,0:0:0:0:
76,153,130881,1,0,0:0:0:0:
71,176,130960,2,0,L|54:225,1,48.750001859665,0|0,0:0|0:0,0:0:0:0:
46,260,131118,1,0,0:0:0:0:
38,298,131197,1,0,0:0:0:0:
68,322,131276,1,0,0:0:0:0:
103,338,131355,1,0,0:0:0:0:
140,350,131434,1,0,0:0:0:0:
178,357,131513,1,0,0:0:0:0:
205,329,131592,1,0,0:0:0:0:
231,300,131671,1,0,0:0:0:0:
269,308,131750,1,0,0:0:0:0:
316,320,131829,1,0,0:0:0:0:
359,341,131908,1,0,0:0:0:0:
401,364,131987,1,0,0:0:0:0:
433,271,132066,5,0,0:0:0:0:
445,199,132144,1,0,0:0:0:0:
431,127,132223,1,0,0:0:0:0:
387,67,132302,1,0,0:0:0:0:
319,38,132381,1,0,0:0:0:0:
246,26,132460,1,0,0:0:0:0:
173,33,132539,1,0,0:0:0:0:
112,73,132618,1,0,0:0:0:0:
50,141,132697,5,8,0:0:0:0:
84,158,132854,2,2,B|141:189,1,65,2|0,0:0|0:0,0:0:0:0:
268,250,133170,1,8,0:0:0:0:
185,340,133486,1,0,0:0:0:0:
185,340,133644,1,0,0:0:0:0:
354,159,133802,1,2,0:0:0:0:
268,250,133960,1,8,0:0:0:0:
107,288,134433,5,0,0:0:0:0:
276,107,134591,1,2,0:0:0:0:
188,196,134749,1,8,0:0:0:0:
285,274,134907,1,2,0:0:0:0:
188,196,135065,1,0,0:0:0:0:
97,21,135223,5,2,0:0:0:0:
62,141,135381,1,8,0:0:0:0:
26,260,135539,1,0,0:0:0:0:
188,196,135697,1,0,0:0:0:0:
141,325,136012,5,0,0:0:0:0:
245,261,136170,1,8,0:0:0:0:
465,140,136328,1,2,0:0:0:0:
355,201,136486,1,8,0:0:0:0:
473,265,137118,1,0,0:0:0:0:
241,135,137749,5,0,0:0:0:0:
224,160,137907,1,0,0:0:0:0:
202,194,138065,1,0,0:0:0:0:
124,310,138223,1,0,0:0:0:0:
242,324,138539,5,0,0:0:0:0:
242,324,138697,1,0,0:0:0:0:
402,135,138854,1,0,0:0:0:0:
321,229,139012,1,0,0:0:0:0:
162,271,139486,5,0,0:0:0:0:
331,90,139644,1,2,0:0:0:0:
243,179,139802,1,8,0:0:0:0:
340,257,139960,1,2,0:0:0:0:
243,179,140118,1,0,0:0:0:0:
40,303,140275,5,0,0:0:0:0:
76,184,140433,1,8,0:0:0:0:
111,64,140591,1,2,0:0:0:0:
243,179,140749,1,0,0:0:0:0:
465,140,141065,5,2,0:0:0:0:
355,201,141223,1,8,0:0:0:0:
245,261,141381,1,8,0:0:0:0:
159,182,141539,1,0,0:0:0:0:
141,325,142170,1,0,0:0:0:0:
256,192,142802,5,0,0:0:0:0:
256,192,142822,12,0,146592,0:0:0:0:
