osu file format v14

[General]
AudioFilename: 03 artcore JINJA.mp3
AudioLeadIn: 2000
PreviewTime: 10013
Countdown: 0
SampleSet: Soft
StackLeniency: 0.7
Mode: 0
LetterboxInBreaks: 0
WidescreenStoryboard: 1

[Editor]
Bookmarks: 8039,10013,38276,43802,77592,78381,102381,112487
DistanceSpacing: 1
BeatDivisor: 2
GridSize: 16
TimelineZoom: 1

[Metadata]
Title:artcore JINJA
TitleUnicode:アートコア神社
Artist:An
ArtistUnicode:An
Creator:HalfW
Version:Normal
Source:Touhou
Tags:touhou hakurei reimu
BeatmapID:2087827
BeatmapSetID:946630

[Difficulty]
HPDrainRate:3.5
CircleSize:3.2
OverallDifficulty:4
ApproachRate:4
SliderMultiplier:0.8
SliderTickRate:1

[Events]
//Background and Video events
0,0,"bg2.jpg",0,0
//Break Periods
2,60897,69482
2,81108,89693
//Storyboard Layer 0 (Background)
//Storyboard Layer 1 (Fail)
//Storyboard Layer 2 (Pass)
//Storyboard Layer 3 (Foreground)
Sprite,Foreground,Centre,"bg590.jpg",320,240 F,0,60697,61960,0.6,0 S,0,60697,61960,0.625,0.85 F,0,61960,80908,0 S,0,61960,80908,0 F,0,80908,82171,0.6,0 S,0,80908,82171,0.625,0.85 F,0,82171,102381,0 S,0,82171,102381,0 F,0,102381,103644,0.6,0 S,0,102381,103644,0.625,1.1 S,0,102697,132697,0 F,0,103644,132697,0 F,0,132697,133960,0.6,0 S,0,132697,133960,0.625,0.85 F,0,133960,142802,0 S,0,133960,142802,0 F,0,142802,144066,0.6,0 S,0,142802,144066,0.625,0.85
Sprite,Foreground,Centre,"blaaaaaaack.png",320,240 F,0,60697,63223,0,0.5 F,0,63223,69539,0.5,0.7 F,0,69539,70802,0.7,0 F,0,70802,80750,0 F,0,80750,81539,0,0.3 F,0,81539,90934,0.3,0.4 F,0,91013,91052,0.4,0 F,0,91052,,0 F,2,100487,101118,0,1 F,0,101118,102381,1 F,0,102381,142802,0 F,0,142802,144697,0,1 F,0,144697,148062,1
Sprite,Foreground,Centre,"etihw.png",320,240 F,0,91013,91052,0,0.65 F,0,91052,91644,0.65,0 F,0,102381,102421,0,0.65 F,0,102421,103013,0.65,0
//Storyboard Layer 4 (Overlay)
//Storyboard Sound Samples

[TimingPoints]
66,315.789473684211,4,2,0,45,1,0

[Colours]
Combo1 : 245,245,245
Combo2 : 255,15,15
Combo3 : 159,153,149
Combo4 : 183,108,68

[HitObjects]
72,48,66,6,0,P|129:61|177:98,1,120
377,104,1329,2,0,L|391:274,1,160
233,295,2592,2,0,P|177:335|90:341,1,120
77,151,3855,1,0,0:0:0:0:
191,38,4487,1,0,0:0:0:0:
346,76,5118,6,0,P|403:89|451:126,1,120
432,325,6381,2,0,L|270:303,1,160
121,253,7644,6,0,P|106:195|115:136,1,120
377,105,8908,1,0,0:0:0:0:
390,264,9539,1,0,0:0:0:0:
64,320,10171,6,0,P|96:283|91:237,1,80
84,134,10960,2,0,L|80:84,1,40
159,105,11434,6,0,P|182:73|220:63,1,80
340,59,12223,2,0,L|382:60,1,40
394,135,12697,6,0,P|405:172|391:209,1,80
293,305,13487,2,0,P|262:344|259:345,1,40
199,292,13960,5,0,0:0:0:0:
158,222,14276,1,0,0:0:0:0:
135,103,14750,2,0,L|161:62,1,40
236,56,15223,6,0,P|281:45|333:62,1,80
409,124,16013,2,0,L|440:157,1,40
415,229,16487,6,0,P|398:272|354:305,1,80
260,331,17276,2,0,L|217:345,1,40
153,295,17750,6,0,P|160:249|196:208,1,80
247,123,18539,2,0,L|291:112,1,40
357,149,19013,6,0,L|374:222,1,60
325,247,19487,2,0,L|299:216,2,40
255,280,20118,5,0,0:0:0:0:
255,280,20276,2,0,L|199:216,1,80
131,123,21066,2,0,L|88:73,1,40
174,52,21539,2,0,L|224:35,2,40
291,78,22329,1,0,0:0:0:0:
291,78,22487,1,0,0:0:0:0:
336,143,22802,6,0,L|386:126,2,40
390,250,23592,1,0,0:0:0:0:
390,250,23750,1,0,0:0:0:0:
316,281,24066,6,0,L|245:303,2,40
254,177,24855,1,0,0:0:0:0:
254,177,25013,1,0,0:0:0:0:
198,119,25329,6,0,L|162:206,1,80
150,229,25802,1,0,0:0:0:0:
164,307,26118,2,0,L|212:319,1,40
281,298,26592,6,0,L|411:287,1,120
374,212,27381,1,0,0:0:0:0:
374,212,27539,1,0,0:0:0:0:
309,164,27855,6,0,L|204:96,1,120
176,172,28644,1,0,0:0:0:0:
176,172,28802,1,0,0:0:0:0:
181,251,29118,6,0,L|185:375,1,120
261,347,29908,1,0,0:0:0:0:
261,347,30066,1,0,0:0:0:0:
299,276,30381,6,0,L|337:264,2,40
393,201,31171,1,0,0:0:0:0:
393,201,31329,1,0,0:0:0:0:
389,121,31644,6,0,L|355:98,2,40
269,107,32434,1,0,0:0:0:0:
269,107,32592,1,0,0:0:0:0:
189,117,32908,6,0,L|81:178,1,120
130,242,33697,1,0,0:0:0:0:
130,242,33855,1,0,0:0:0:0:
184,300,34171,6,0,L|288:240,1,120
323,312,34960,1,0,0:0:0:0:
323,312,35118,1,0,0:0:0:0:
382,258,35434,6,0,L|412:232,2,40
370,138,36223,1,0,0:0:0:0:
370,138,36381,1,0,0:0:0:0:
294,111,36697,6,0,L|174:96,1,120
185,175,37487,1,0,0:0:0:0:
185,175,37645,1,0,0:0:0:0:
169,253,37960,6,0,L|288:267,1,120
259,342,38750,1,0,0:0:0:0:
259,342,38908,1,0,0:0:0:0:
326,299,39223,6,0,P|397:249|436:167,1,160
316,74,40487,6,0,B|281:55|281:55|191:85,1,120
148,135,41276,2,0,L|103:215,1,80
147,275,41908,1,0,0:0:0:0:
147,275,42066,1,0,0:0:0:0:
224,295,42381,2,0,L|277:303,2,40
299,266,43013,6,0,B|336:280|336:280|421:239,1,120
412,166,43802,1,0,0:0:0:0:
377,93,44118,1,0,0:0:0:0:
300,69,44434,2,0,L|244:73,1,40
196,120,44908,2,0,L|166:152,2,40
148,184,45539,5,0,0:0:0:0:
190,252,45855,2,0,L|242:273,1,40
307,264,46329,2,0,L|391:233,1,80
439,181,46960,1,0,0:0:0:0:
439,181,47118,1,0,0:0:0:0:
447,101,47434,2,0,L|464:31,2,40
373,67,48066,5,0,0:0:0:0:
293,60,48381,1,0,0:0:0:0:
293,60,48539,1,0,0:0:0:0:
213,55,48855,2,0,L|127:82,1,80
104,152,49487,2,0,L|89:198,1,40
74,268,49960,2,0,L|51:307,2,40
125,329,50592,6,0,P|186:344|268:338,1,120
318,315,51381,2,0,L|412:264,1,80
451,226,52013,2,0,L|441:182,1,40
407,114,52487,2,0,L|370:69,2,40
334,148,53118,5,0,0:0:0:0:
260,117,53434,2,0,L|221:101,1,40
144,86,53908,2,0,L|55:138,1,80
26,190,54539,2,0,L|31:258,1,40
46,308,55013,2,0,L|49:368,2,40
125,329,55644,6,0,P|186:344|268:338,1,120
317,315,56433,2,0,L|411:264,1,80
451,226,57065,2,0,L|441:182,1,40
407,114,57539,2,0,L|370:69,2,40
333,144,58170,5,0,0:0:0:0:
254,128,58486,2,0,L|209:122,1,40
135,138,58960,2,0,L|46:190,1,80
30,197,59434,1,0,0:0:0:0:
98,295,59908,1,0,0:0:0:0:
177,289,60223,2,0,L|266:287,1,80
297,283,60697,5,0,0:0:0:0:
443,25,70802,6,0,L|366:69,1,80
408,136,71434,2,0,L|331:180,1,80
377,245,72066,2,0,L|299:297,2,80
447,206,73013,1,0,0:0:0:0:
474,130,73329,6,0,L|406:64,1,80
358,129,73960,2,0,L|289:58,1,80
236,117,74592,2,0,L|173:45,2,80
289,176,75539,1,0,0:0:0:0:
218,214,75855,6,0,L|142:266,1,80
107,192,76487,1,0,0:0:0:0:
62,125,76802,1,0,0:0:0:0:
135,93,77118,6,0,L|226:55,1,80
240,136,77750,1,0,0:0:0:0:
282,203,78066,1,0,0:0:0:0:
351,163,78381,6,0,L|429:108,2,80
282,203,79329,1,0,0:0:0:0:
215,246,79644,6,0,B|78:152,1,160
225,82,80908,5,0,0:0:0:0:
109,63,91013,5,0,0:0:0:0:
186,42,91329,1,0,0:0:0:0:
212,117,91644,1,0,0:0:0:0:
289,95,91960,1,0,0:0:0:0:
368,84,92276,2,0,L|356:182,1,80
435,185,92908,2,0,L|425:271,1,80
345,264,93539,5,0,0:0:0:0:
264,264,93855,1,0,0:0:0:0:
266,344,94171,1,0,0:0:0:0:
186,352,94487,1,0,0:0:0:0:
106,352,94802,2,0,L|19:355,2,80
186,352,95750,1,0,0:0:0:0:
263,333,96066,6,0,L|262:234,1,80
342,257,96697,2,0,L|340:171,1,80
420,174,97329,1,0,0:0:0:0:
418,94,97644,1,0,0:0:0:0:
498,94,97960,1,0,0:0:0:0:
496,13,98276,1,0,0:0:0:0:
415,14,98592,6,0,L|316:13,2,80
494,22,99539,1,0,0:0:0:0:
496,102,99855,6,0,L|496:196,2,80
494,22,100802,1,0,0:0:0:0:
413,23,101118,1,0,0:0:0:0:
94,49,102381,6,0,P|59:105|60:165,1,120
92,225,103171,2,0,L|140:254,1,40
205,232,103644,2,0,L|253:236,2,40
251,342,104434,1,0,0:0:0:0:
251,342,104592,1,0,0:0:0:0:
330,337,104908,6,0,P|391:313|425:263,1,120
438,191,105697,2,0,L|425:154,1,40
360,105,106171,2,0,L|332:73,2,40
240,113,106960,1,0,0:0:0:0:
240,113,107118,1,0,0:0:0:0:
162,134,107434,6,0,P|118:183|110:243,1,120
156,300,108223,1,0,0:0:0:0:
156,300,108381,1,0,0:0:0:0:
226,261,108697,2,0,L|271:238,2,40
331,319,109487,2,0,L|362:295,1,40
407,227,109960,6,0,P|399:161|360:116,1,120
288,111,110749,1,0,0:0:0:0:
288,111,110907,1,0,0:0:0:0:
269,189,111223,2,0,L|255:237,2,40
156,229,112013,2,0,L|153:268,1,40
161,348,112487,6,0,L|112:349,2,40
199,337,112960,1,0,0:0:0:0:
276,318,113276,2,0,L|317:302,1,40
389,276,113750,2,0,L|452:262,2,40
383,168,114539,1,0,0:0:0:0:
383,168,114697,1,0,0:0:0:0:
362,90,115013,6,0,L|403:78,2,40
321,94,115487,1,0,0:0:0:0:
241,104,115802,1,0,0:0:0:0:
241,104,115960,1,0,0:0:0:0:
163,125,116276,2,0,L|110:138,2,40
119,237,117066,2,0,L|131:282,1,40
161,348,117539,6,0,L|112:349,2,40
199,337,118012,1,0,0:0:0:0:
276,318,118328,2,0,L|317:302,1,40
389,276,118802,2,0,L|452:262,2,40
383,168,119591,1,0,0:0:0:0:
383,168,119749,1,0,0:0:0:0:
362,90,120065,6,0,L|403:78,2,40
321,94,120539,1,0,0:0:0:0:
241,104,120854,1,0,0:0:0:0:
241,104,121012,1,0,0:0:0:0:
259,182,121329,1,0,0:0:0:0:
36,37,122592,6,0,L|76:161,1,120
183,198,123539,2,0,L|146:83,1,120
248,21,124487,2,0,L|288:145,1,120
397,176,125434,2,0,L|360:61,1,120
468,10,126381,2,0,L|508:134,1,120
482,201,127171,6,0,P|451:284|443:290,1,80
434,305,127644,1,0,0:0:0:0:
357,327,127960,1,0,0:0:0:0:
277,333,128276,2,0,L|221:333,1,40
160,307,128750,5,0,0:0:0:0:
85,277,129066,1,0,0:0:0:0:
85,277,129223,1,0,0:0:0:0:
61,200,129539,2,0,L|61:153,1,40
119,54,130171,5,0,0:0:0:0:
198,59,130487,1,0,0:0:0:0:
277,70,130802,2,0,L|336:78,1,40
384,118,131276,5,0,0:0:0:0:
368,196,131592,1,0,0:0:0:0:
368,196,131750,1,0,0:0:0:0:
311,253,132066,2,0,P|261:288|192:296,1,120
207,257,132697,5,0,0:0:0:0:
