osu file format v14

[General]
AudioFilename: 03 artcore JINJA.mp3
AudioLeadIn: 2000
PreviewTime: 10013
Countdown: 0
SampleSet: Soft
StackLeniency: 0.7
Mode: 0
LetterboxInBreaks: 0
WidescreenStoryboard: 1

[Editor]
Bookmarks: 8039,10013,38276,43802,77592,78381,102381,112487
DistanceSpacing: 2.2
BeatDivisor: 4
GridSize: 4
TimelineZoom: 1

[Metadata]
Title:artcore JINJA
TitleUnicode:アートコア神社
Artist:An
ArtistUnicode:An
Creator:HalfW
Version:Lunatic
Source:Touhou
Tags:touhou hakurei reimu
BeatmapID:2171054
BeatmapSetID:946630

[Difficulty]
HPDrainRate:6
CircleSize:4
OverallDifficulty:8.5
ApproachRate:9
SliderMultiplier:1.3
SliderTickRate:1

[Events]
//Background and Video events
0,0,"bgjinja.jpg",0,0
//Break Periods
//Storyboard Layer 0 (Background)
//Storyboard Layer 1 (Fail)
//Storyboard Layer 2 (Pass)
//Storyboard Layer 3 (Foreground)
Sprite,Foreground,Centre,"bg590.jpg",320,240 F,0,60697,61960,0.6,0 S,0,60697,61960,0.625,0.85 F,0,61960,80908,0 S,0,61960,80908,0 F,0,80908,82171,0.6,0 S,0,80908,82171,0.625,0.85 F,0,82171,102381,0 S,0,82171,102381,0 F,0,102381,103644,0.6,0 S,0,102381,103644,0.625,1.1 S,0,102697,132697,0 F,0,103644,132697,0 F,0,132697,133960,0.6,0 S,0,132697,133960,0.625,0.85 F,0,133960,142802,0 S,0,133960,142802,0 F,0,142802,144066,0.6,0 S,0,142802,144066,0.625,0.85
Sprite,Foreground,Centre,"blaaaaaaack.png",320,240 F,0,60697,63223,0,0.5 F,0,63223,69539,0.5,0.7 F,0,69539,70802,0.7,0 F,0,70802,80750,0 F,0,80750,81539,0,0.3 F,0,81539,90934,0.3,0.4 F,0,91013,91052,0.4,0 F,0,91052,,0 F,2,100487,101118,0,1 F,0,101118,102381,1 F,0,102381,142802,0 F,0,142802,144697,0,1 F,0,144697,148062,1
Sprite,Foreground,Centre,"etihw.png",320,240 F,0,91013,91052,0,0.65 F,0,91052,91644,0.65,0 F,0,102381,102421,0,0.65 F,0,102421,103013,0.65,0
//Storyboard Layer 4 (Overlay)
//Storyboard Sound Samples

[TimingPoints]
66,315.789473684211,4,2,0,45,1,0
10171,-83.3333333333333,4,2,0,60,0,1
10250,-83.3333333333333,4,2,0,60,0,0
19013,-100,4,2,0,60,0,0
20118,-83.3333333333333,4,2,0,60,0,0
59434,-133.333333333333,4,2,0,60,0,0
60697,-100,4,2,0,60,0,0
70802,-66.6666666666667,4,2,0,60,0,0
79644,-333.333333333333,4,2,0,60,0,0
80908,-100,4,2,0,50,0,0
91013,-66.6666666666667,4,2,0,60,0,0
98592,-58.8235294117647,4,2,0,60,0,0
101118,-100,4,2,0,50,0,0
102381,-83.3333333333333,4,2,0,60,0,1
110434,-200,4,2,0,60,0,1
110671,-83.3333333333333,4,2,0,60,0,1
120539,-200,4,2,0,60,0,1
120697,-83.3333333333333,4,2,0,60,0,1
121329,-500,4,2,0,60,0,0
121960,-83.3333333333333,4,2,0,60,0,0
122592,-100,4,1,0,60,0,0
123539,-83.3333333333333,4,1,0,60,0,0
124487,-71.4285714285714,4,1,0,60,0,0
125434,-62.5,4,1,0,60,0,0
126381,-52.6315789473684,4,1,0,60,0,0
127644,-66.6666666666667,4,2,0,60,0,0
131434,-133.333333333333,4,2,0,60,0,0
132697,-100,4,2,0,60,0,1
132776,-100,4,2,0,60,0,0

[Colours]
Combo1 : 245,245,245
Combo2 : 255,15,15
Combo3 : 159,153,149
Combo4 : 183,108,68

[HitObjects]
61,249,66,5,0,0:0:0:0:
61,249,223,1,0,0:0:0:0:
59,334,381,1,0,0:0:0:0:
61,249,539,1,0,0:0:0:0:
249,298,855,1,0,0:0:0:0:
313,287,1013,1,0,0:0:0:0:
377,276,1171,1,0,0:0:0:0:
331,349,1329,1,0,0:0:0:0:
460,203,1802,5,0,0:0:0:0:
428,146,1960,1,0,0:0:0:0:
384,97,2118,2,0,L|305:64,1,65
261,45,2434,1,0,0:0:0:0:
151,129,2592,6,0,L|106:198,3,65
182,285,3381,1,0,0:0:0:0:
247,256,3539,1,0,0:0:0:0:
339,136,3697,1,0,0:0:0:0:
425,282,3855,1,0,0:0:0:0:
417,296,4487,1,0,0:0:0:0:
171,310,5118,5,0,0:0:0:0:
171,310,5276,2,0,L|100:276,2,65
288,264,5908,1,0,0:0:0:0:
352,253,6066,1,0,0:0:0:0:
416,242,6224,1,0,0:0:0:0:
370,315,6382,1,0,0:0:0:0:
434,148,6855,5,0,0:0:0:0:
374,121,7013,1,0,0:0:0:0:
306,131,7171,2,0,L|237:157,1,65
181,181,7487,1,0,0:0:0:0:
87,233,7644,5,0,0:0:0:0:
174,282,7802,1,0,0:0:0:0:
78,327,7960,1,0,0:0:0:0:
160,376,8118,1,0,0:0:0:0:
438,332,8434,5,0,0:0:0:0:
356,283,8592,1,0,0:0:0:0:
452,238,8750,1,0,0:0:0:0:
365,189,8908,1,0,0:0:0:0:
375,176,9539,1,0,0:0:0:0:
171,43,10171,6,0,L|116:107,1,77.999997619629
37,210,10487,1,0,0:0:0:0:
37,210,10644,1,0,0:0:0:0:
37,210,10960,6,0,L|121:206,1,77.999997619629,0|0,2:0|2:0,2:0:0:0:
183,203,11276,1,0,2:0:0:0:
342,206,11434,6,0,L|287:270,1,77.999997619629
208,373,11750,1,0,0:0:0:0:
208,373,11908,1,0,0:0:0:0:
208,373,12223,6,0,L|162:301,1,77.999997619629
127,248,12539,1,0,0:0:0:0:
63,102,12697,6,0,L|146:83,1,77.999997619629
289,46,13013,1,0,0:0:0:0:
300,57,13171,1,0,0:0:0:0:
300,57,13487,2,0,P|339:66|378:87,1,77.999997619629
436,117,13802,1,0,0:0:0:0:
356,255,13960,6,0,P|326:292|279:309,1,77.999997619629
123,271,14276,1,0,0:0:0:0:
123,271,14434,1,0,0:0:0:0:
55,121,14592,1,0,0:0:0:0:
55,121,14671,1,0,0:0:0:0:
55,121,14750,1,0,0:0:0:0:
203,132,14908,2,0,P|240:121|269:96,1,77.999997619629
465,78,15223,6,0,L|431:155,1,77.999997619629
385,276,15539,1,0,0:0:0:0:
385,276,15696,1,0,0:0:0:0:
385,276,16013,6,0,L|319:233,1,77.999997619629,0|0,2:0|2:0,2:0:0:0:
264,195,16329,1,0,2:0:0:0:
139,114,16487,6,0,L|102:190,1,77.999997619629
45,308,16802,1,0,0:0:0:0:
45,308,16960,1,0,0:0:0:0:
45,308,17276,6,0,L|128:320,1,77.999997619629
188,330,17592,1,0,0:0:0:0:
345,358,17750,6,0,L|328:275,1,77.999997619629
296,125,18066,1,0,0:0:0:0:
280,54,18223,1,0,0:0:0:0:
280,54,18539,6,0,L|198:76,1,77.999997619629
139,98,18855,1,0,0:0:0:0:
436,191,19013,5,0,0:0:0:0:
104,165,19250,1,0,0:0:0:0:
436,191,19487,5,0,0:0:0:0:
104,165,19644,1,0,0:0:0:0:
431,266,19802,1,0,0:0:0:0:
