osu file format v14

[General]
AudioFilename: 03 artcore JINJA.mp3
AudioLeadIn: 2000
PreviewTime: 10013
Countdown: 0
SampleSet: Soft
StackLeniency: 0.7
Mode: 0
LetterboxInBreaks: 0
WidescreenStoryboard: 1

[Editor]
Bookmarks: 8039,10013,10171,10329,10487,10960,11118,38276,43802,77592,78381,102381,112487
DistanceSpacing: 1.7
BeatDivisor: 4
GridSize: 4
TimelineZoom: 1

[Metadata]
Title:artcore JINJA
TitleUnicode:アートコア神社
Artist:An
ArtistUnicode:An
Creator:HalfW
Version:Hard
Source:Touhou
Tags:touhou hakurei reimu
BeatmapID:2205166
BeatmapSetID:946630

[Difficulty]
HPDrainRate:5.5
CircleSize:4
OverallDifficulty:6.5
ApproachRate:8
SliderMultiplier:1.3
SliderTickRate:1

[Events]
//Background and Video events
0,0,"bg2.jpg",0,0
//Break Periods
//Storyboard Layer 0 (Background)
//Storyboard Layer 1 (Fail)
//Storyboard Layer 2 (Pass)
//Storyboard Layer 3 (Foreground)
Sprite,Foreground,Centre,"bg590.jpg",320,240 F,0,60697,61960,0.6,0 S,0,60697,61960,0.625,0.85 F,0,61960,80908,0 S,0,61960,80908,0 F,0,80908,82171,0.6,0 S,0,80908,82171,0.625,0.85 F,0,82171,102381,0 S,0,82171,102381,0 F,0,102381,103644,0.6,0 S,0,102381,103644,0.625,1.1 S,0,102697,132697,0 F,0,103644,132697,0 F,0,132697,133960,0.6,0 S,0,132697,133960,0.625,0.85 F,0,133960,142802,0 S,0,133960,142802,0 F,0,142802,144066,0.6,0 S,0,142802,144066,0.625,0.85
Sprite,Foreground,Centre,"blaaaaaaack.png",320,240 F,0,60697,63223,0,0.5 F,0,63223,69539,0.5,0.7 F,0,69539,70802,0.7,0 F,0,70802,80750,0 F,0,80750,81539,0,0.3 F,0,81539,90934,0.3,0.4 F,0,91013,91052,0.4,0 F,0,91052,,0 F,2,100487,101118,0,1 F,0,101118,102381,1 F,0,102381,142802,0 F,0,142802,144697,0,1 F,0,144697,148062,1
Sprite,Foreground,Centre,"etihw.png",320,240 F,0,91013,91052,0,0.65 F,0,91052,91644,0.65,0 F,0,102381,102421,0,0.65 F,0,102421,103013,0.65,0
//Storyboard Layer 4 (Overlay)
//Storyboard Sound Samples

[TimingPoints]
66,315.789473684211,4,2,0,45,1,0
10171,-83.3333333333333,4,2,0,60,0,1
10250,-83.3333333333333,4,2,0,60,0,0
20118,-83.3333333333333,4,2,0,60,0,0
59434,-133.333333333333,4,2,0,60,0,0
60697,-100,4,2,0,60,0,0
70802,-66.6666666666667,4,2,0,60,0,0
79644,-333.333333333333,4,2,0,60,0,0
80908,-100,4,2,0,50,0,0
91013,-66.6666666666667,4,2,0,60,0,0
98592,-58.8235294117647,4,2,0,60,0,0
101118,-100,4,2,0,50,0,0
102381,-83.3333333333333,4,2,0,60,0,1
110434,-200,4,2,0,60,0,1
110671,-83.3333333333333,4,2,0,60,0,1
120539,-200,4,2,0,60,0,1
120697,-83.3333333333333,4,2,0,60,0,1
121329,-500,4,2,0,60,0,0
121960,-83.3333333333333,4,2,0,60,0,0
122592,-100,4,1,0,60,0,0
123539,-83.3333333333333,4,1,0,60,0,0
124487,-71.4285714285714,4,1,0,60,0,0
125434,-62.5,4,1,0,60,0,0
126381,-52.6315789473684,4,1,0,60,0,0
127644,-66.6666666666667,4,2,0,60,0,0
131434,-133.333333333333,4,2,0,60,0,0
132697,-100,4,2,0,60,0,1
132776,-100,4,2,0,60,0,0

[Colours]
Combo1 : 245,245,245
Combo2 : 255,15,15
Combo3 : 159,153,149
Combo4 : 183,108,68

[HitObjects]
65,212,66,6,0,L|132:248,3,65
236,268,855,1,0,0:0:0:0:
236,268,1013,1,0,0:0:0:0:
287,225,1171,1,0,0:0:0:0:
297,296,1329,1,0,0:0:0:0:
355,83,1960,1,0,0:0:0:0:
408,108,2592,6,0,L|352:142,3,65
434,223,3381,1,0,0:0:0:0:
370,195,3539,1,0,0:0:0:0:
277,104,3697,1,0,0:0:0:0:
291,172,3855,1,0,0:0:0:0:
304,228,4487,1,0,0:0:0:0:
101,91,5118,6,0,L|157:125,3,65
189,173,5908,1,0,0:0:0:0:
189,173,6066,1,0,0:0:0:0:
151,112,6223,1,0,0:0:0:0:
118,173,6381,1,0,0:0:0:0:
355,83,7013,1,0,0:0:0:0:
408,108,7645,6,0,L|352:142,3,65
313,197,8434,1,0,0:0:0:0:
282,260,8592,1,0,0:0:0:0:
263,325,8750,1,0,0:0:0:0:
206,272,8908,1,0,0:0:0:0:
387,192,9539,1,0,0:0:0:0:
98,112,10171,5,0,0:0:0:0:
98,112,10329,1,0,0:0:0:0:
158,87,10487,2,0,L|231:57,1,77.999997619629
208,197,10960,1,0,0:0:0:0:
270,168,11118,2,0,L|344:130,1,77.999997619629
237,108,11434,5,0,0:0:0:0:
237,108,11592,1,0,0:0:0:0:
216,169,11750,2,0,L|190:243,2,77.999997619629
264,237,12223,1,0,0:0:0:0:
369,153,12381,2,0,L|433:94,1,77.999997619629
447,172,12697,5,0,0:0:0:0:
355,74,12855,1,0,0:0:0:0:
307,199,13013,2,0,L|276:274,1,77.999997619629
34,157,13487,5,0,0:0:0:0:
99,190,13644,2,0,P|135:217|183:210,1,77.999997619629
112,281,13960,5,0,0:0:0:0:
112,281,14118,1,0,0:0:0:0:
155,149,14276,2,0,L|202:0,1,155.999995239258
253,67,14750,1,0,0:0:0:0:
115,48,14908,1,0,0:0:0:0:
380,56,15223,5,0,0:0:0:0:
380,56,15381,1,0,0:0:0:0:
357,117,15539,2,0,L|329:191,1,77.999997619629
243,79,16012,1,0,0:0:0:0:
221,144,16170,2,0,L|199:224,1,77.999997619629
288,161,16486,5,0,0:0:0:0:
288,161,16644,1,0,0:0:0:0:
258,104,16802,2,0,L|221:34,2,77.999997619629
175,93,17275,1,0,0:0:0:0:
165,227,17433,2,0,L|164:314,1,77.999997619629
98,271,17749,5,0,0:0:0:0:
232,270,17907,1,0,0:0:0:0:
174,150,18065,2,0,L|140:76,1,77.999997619629
411,107,18539,5,0,0:0:0:0:
352,227,18697,2,0,L|318:300,1,77.999997619629
268,239,19013,5,0,0:0:0:0:
238,239,19250,1,0,0:0:0:0:
363,82,19487,5,0,0:0:0:0:
384,222,19645,1,0,0:0:0:0:
250,179,19802,2,0,L|173:149,1,77.999997619629
414,112,20276,5,0,0:0:0:0:
414,112,20434,1,0,0:0:0:0:
354,87,20592,2,0,L|281:57,1,77.999997619629
304,197,21065,1,0,0:0:0:0:
242,168,21223,2,0,L|168:130,1,77.999997619629
275,108,21539,5,0,0:0:0:0:
275,108,21697,1,0,0:0:0:0:
296,169,21855,2,0,L|322:243,2,77.999997619629
248,237,22328,1,0,0:0:0:0:
143,153,22486,2,0,L|79:94,1,77.999997619629
65,172,22802,5,0,0:0:0:0:
157,74,22960,1,0,0:0:0:0:
205,199,23118,2,0,L|236:274,1,77.999997619629
478,157,23592,5,0,0:0:0:0:
413,190,23749,2,0,P|377:217|329:210,1,77.999997619629
400,281,24065,5,0,0:0:0:0:
400,281,24223,1,0,0:0:0:0:
357,149,24381,2,0,L|310:0,1,155.999995239258
259,67,24855,1,0,0:0:0:0:
397,48,25013,1,0,0:0:0:0:
132,56,25328,5,0,0:0:0:0:
132,56,25486,1,0,0:0:0:0:
155,117,25644,2,0,L|183:191,1,77.999997619629
269,79,26117,1,0,0:0:0:0:
291,144,26275,2,0,L|313:224,1,77.999997619629
224,161,26591,5,0,0:0:0:0:
224,161,26749,1,0,0:0:0:0:
254,104,26907,2,0,L|291:34,2,77.999997619629
337,93,27380,1,0,0:0:0:0:
347,227,27538,2,0,L|348:314,1,77.999997619629
414,271,27854,5,0,0:0:0:0:
280,270,28012,1,0,0:0:0:0:
338,150,28170,2,0,L|372:76,1,77.999997619629
108,14,28644,5,0,0:0:0:0:
167,134,28802,2,0,L|201:207,1,77.999997619629
121,193,29118,5,0,0:0:0:0:
249,149,29276,1,0,0:0:0:0:
228,267,29434,2,0,L|211:348,2,77.999997619629
121,193,29908,1,0,0:0:0:0:
249,149,30066,1,0,0:0:0:0:
