osu file format v14

[General]
AudioFilename: audio.mp3
AudioLeadIn: 0
PreviewTime: 30785
Countdown: 0
SampleSet: Soft
StackLeniency: 0.4
Mode: 0
LetterboxInBreaks: 0
WidescreenStoryboard: 0

[Editor]
Bookmarks: 11309,21204,31256,71623,108690
DistanceSpacing: 0.8
BeatDivisor: 4
GridSize: 4
TimelineZoom: 1.5

[Metadata]
Title:Tephereth
TitleUnicode:Tephereth
Artist:An
ArtistUnicode:An
Creator:Kin
Version:Insane
Source:
Tags:Xephiratone AcuticNotes せんざい sennzai
BeatmapID:1906173
BeatmapSetID:912500

[Difficulty]
HPDrainRate:6
CircleSize:4.2
OverallDifficulty:7.4
ApproachRate:9
SliderMultiplier:1.82
SliderTickRate:1

[Events]
//Background and Video events
0,0,"TepherethBG.jpg",0,0
//Break Periods
//Storyboard Layer 0 (Background)
//Storyboard Layer 1 (Fail)
//Storyboard Layer 2 (Pass)
//Storyboard Layer 3 (Foreground)
//Storyboard Sound Samples

[TimingPoints]
1257,314.13612565445,4,2,1,80,1,0
1257,-133.333333333333,4,2,1,80,0,0
11309,-100,4,2,1,80,0,0
20733,-250,4,2,1,100,0,0
21204,-100,4,2,1,100,0,0
31256,-100,4,2,1,100,0,1
41466,-100,4,2,1,100,0,0
51204,-71.4285714285714,4,2,1,100,0,0
51518,-100,4,2,1,100,0,0
61571,-100,4,2,1,100,0,1
68639,-100,4,1,1,100,0,1
68717,-100,4,2,1,100,0,1
69110,-100,4,1,1,100,0,1
69188,-100,4,2,1,100,0,1
81675,-100,4,2,1,100,0,0
100524,314.13612565445,6,2,1,80,1,0
102408,314.13612565445,4,2,1,80,1,1
112303,-100,4,2,1,80,0,0
122355,-100,4,2,1,80,0,1
132093,-100,4,2,1,80,0,0

[HitObjects]
128,124,1257,6,0,B|164:132|164:132|200:128,1,68.250002603531,2|0,0:0|0:0,0:0:0:0:
240,60,1571,2,0,P|232:100|252:208,1,136.500005207062,2|8,0:0|0:0,0:0:0:0:
312,240,2356,5,2,0:0:0:0:
245,193,2513,2,0,L|168:200,1,68.250002603531,2|0,0:0|0:0,0:0:0:0:
120,292,2827,2,0,L|284:306,1,136.500005207062,2|8,0:0|0:0,0:0:0:0:
312,240,3298,2,0,P|328:208|312:104,1,136.500005207062,2|0,0:0|0:0,0:0:0:0:
256,52,3770,6,0,L|184:64,1,68.250002603531,2|0,0:0|0:0,0:0:0:0:
124,112,4084,1,2,0:0:0:0:
76,48,4241,2,0,P|88:116|76:192,1,136.500005207062,2|2,0:0|0:0,0:0:0:0:
16,236,4712,2,0,P|44:260|84:264,1,68.250002603531,2|0,0:0|0:0,0:0:0:0:
148,232,5026,6,0,P|160:196|164:156,2,68.250002603531,2|0|0,0:0|0:0|0:0,0:0:0:0:
74,265,5497,2,0,P|116:308|192:300,1,136.500005207062,2|2,0:0|0:0,0:0:0:0:
228,232,5969,2,0,L|216:164,1,68.250002603531,2|0,0:0|0:0,0:0:0:0:
336,140,6283,6,0,L|312:274,2,136.500005207062,2|2|8,0:0|0:0|0:0,0:0:0:0:
264,100,7068,2,0,B|236:88|196:96|204:104|168:112|128:100,1,136.500005207062,2|0,0:0|0:0,0:0:0:0:
40,184,7539,2,0,P|52:236|48:324,2,136.500005207062,2|2|8,0:0|0:0|0:0,0:0:0:0:
92,248,8325,2,0,P|128:268|224:232,1,136.500005207062,2|0,0:0|0:0,0:0:0:0:
256,172,8796,6,0,L|248:104,1,68.250002603531,2|0,0:0|0:0,0:0:0:0:
356,80,9110,1,2,0:0:0:0:
356,80,9267,2,0,L|340:215,1,136.500005207062,2|0,0:0|0:0,0:0:0:0:
272,260,9738,2,0,P|240:268|196:260,1,68.250002603531,2|0,0:0|0:0,0:0:0:0:
144,208,10052,6,0,L|156:128,1,68.250002603531,2|0,0:0|0:0,0:0:0:0:
196,72,10366,2,0,P|236:80|348:72,1,136.500005207062,2|0,0:0|0:0,0:0:0:0:
388,16,10838,1,2,0:0:0:0:
408,96,10995,2,0,L|400:168,1,68.250002603531,2|0,0:0|0:0,0:0:0:0:
284,280,11309,6,0,B|244:300|188:300|144:280|144:280|160:264|192:256,1,182,2|0,1:2|0:0,0:0:0:0:
284,280,11780,1,0,1:0:0:0:
92,344,11937,2,0,B|60:316|48:276|80:228|80:228|92:208|88:176,1,182,8|0,0:0|0:0,0:0:0:0:
52,72,12408,2,0,L|0:60,2,45.5
160,96,12722,5,0,1:0:0:0:
4,152,12880,2,0,P|20:196|20:244,1,91,0|0,1:0|0:0,0:0:0:0:
52,72,13194,2,0,P|92:27|160:96,1,182,8|0,0:0|0:0,0:0:0:0:
84,176,13665,1,0,0:0:0:0:
196,56,13822,6,0,B|232:40|285:50|274:61|321:71|374:56,1,182,0|0,1:0|0:0,0:0:0:0:
468,0,14293,1,0,1:0:0:0:
328,88,14450,2,0,P|316:132|336:272,1,182,8|0,0:0|0:0,0:0:0:0:
424,324,14921,2,0,L|480:316,2,45.5
324,372,15236,5,0,1:0:0:0:
416,236,15393,2,0,P|428:196|424:140,1,91,0|0,1:0|0:0,0:0:0:0:
268,96,15707,2,0,P|256:140|276:280,1,182,8|0,0:0|0:0,0:0:0:0:
324,372,16178,1,0,0:0:0:0:
248,228,16335,6,0,P|204:216|64:236,1,182,0|0,1:0|0:0,0:0:0:0:
120,332,16806,1,0,1:0:0:0:
248,228,16963,2,0,B|272:184|272:136|252:92|252:92|224:136,1,182,8|0,0:0|0:0,0:0:0:0:
168,216,17435,2,0,P|172:256|192:284,2,45.5
230,126,17749,5,0,1:0:0:0:
268,284,17906,2,0,P|252:320|200:352,1,91,0|0,1:0|0:0,0:0:0:0:
64,280,18220,2,0,B|32:224|28:160|64:108|64:108|100:144|156:136,1,273,8|0,0:0|0:0,0:0:0:0:
140,28,18848,5,0,1:0:0:0:
256,192,18927,12,0,20576,0:0:0:0:
280,116,20733,6,0,L|364:124,1,72.8,8|0,0:0|0:0,0:0:0:0:
352,122,21204,6,0,L|170:104,1,182,0|0,1:0|0:0,0:0:0:0:
48,240,21675,2,0,L|138:231,1,91,0|0,1:0|0:0,0:0:0:0:
52,32,21989,1,8,0:0:0:0:
36,64,22068,1,0,3:0:0:0:
28,100,22147,1,2,0:0:0:0:
36,136,22225,1,0,3:0:0:0:
52,168,22304,1,2,0:0:0:0:
187,44,22461,6,0,L|52:32,1,136.5,0|0,1:0|0:0,0:0:0:0:
36,64,22775,1,0,1:0:0:0:
212,120,22932,2,0,P|248:96|264:32,1,91,0|0,1:0|0:0,0:0:0:0:
92,188,23246,1,8,0:0:0:0:
80,223,23325,1,0,0:0:0:0:
82,260,23403,1,0,0:0:0:0:
96,294,23482,1,0,0:0:0:0:
121,320,23560,1,0,0:0:0:0:
287,239,23717,6,0,L|196:228,2,91,0|0|0,1:0|0:0|0:0,0:0:0:0:
121,320,24188,2,0,L|211:308,1,91,0|0,1:0|0:0,0:0:0:0:
24,196,24503,1,8,0:0:0:0:
12,164,24581,1,0,0:0:0:0:
4,128,24660,1,0,0:0:0:0:
12,92,24738,1,0,0:0:0:0:
24,56,24817,1,0,0:0:0:0:
204,32,24974,6,0,L|88:48,1,91,0|0,1:0|0:0,0:0:0:0:
88,20,25209,1,2,0:0:0:0:
88,20,25288,1,2,0:0:0:0:
214,149,25445,2,0,P|223:195|212:245,1,91,0|0,1:0|0:0,0:0:0:0:
113,44,25759,5,8,0:0:0:0:
149,39,25838,1,0,0:0:0:0:
185,34,25916,1,0,0:0:0:0:
221,29,25995,1,0,0:0:0:0:
257,24,26073,1,0,0:0:0:0:
400,136,26230,6,0,L|219:111,1,182,0|0,1:0|0:0,0:0:0:0:
371,217,26702,2,0,P|397:180|399:135,1,91,0|0,1:0|0:0,0:0:0:0:
184,104,27016,1,8,0:0:0:0:
148,107,27094,1,0,0:0:0:0:
117,125,27173,1,0,0:0:0:0:
97,156,27251,1,0,0:0:0:0:
91,191,27330,1,0,0:0:0:0:
269,186,27487,6,0,P|246:124|183:103,1,136.5,0|0,1:0|0:0,0:0:0:0:
148,107,27801,1,0,1:0:0:0:
186,271,27958,2,0,P|232:260|260:228,1,91,0|0,1:0|0:0,0:0:0:0:
48,168,28272,1,8,0:0:0:0:
29,198,28350,1,0,0:0:0:0:
20,234,28429,1,0,0:0:0:0:
22,270,28507,1,0,0:0:0:0:
36,303,28586,1,0,0:0:0:0:
213,352,28743,6,0,L|124:368,2,91,0|0|0,1:0|0:0|0:0,0:0:0:0:
36,303,29215,2,0,P|20:252|32:200,1,91,0|0,1:0|0:0,0:0:0:0:
220,112,29529,2,0,L|176:104,1,45.5,8|0,0:0|0:0,0:0:0:0:
276,168,29686,2,0,L|320:160,1,45.5
200,188,29843,1,0,0:0:0:0:
336,60,30000,2,0,L|425:43,2,91,0|0|0,1:0|0:0|0:0,0:0:0:0:
200,188,30471,2,0,L|110:171,1,91,0|0,1:0|0:0,0:0:0:0:
328,184,30785,5,8,0:0:0:0:
373,186,30863,1,0,0:0:0:0:
418,189,30942,1,0,0:0:0:0:
392,225,31020,1,2,0:0:0:0:
369,223,31098,1,2,0:0:0:0:
346,222,31177,1,0,0:0:0:0:
328,184,31256,6,0,B|320:140|320:140|332:48,1,136.5,0|0,1:0|0:0,0:0:0:0:
276,0,31571,1,0,1:0:0:0:
456,164,31728,2,0,P|472:208|472:256,1,91,8|0,0:0|0:0,0:0:0:0:
464,288,31963,1,0,0:0:0:0:
404,328,32042,1,0,1:0:0:0:
240,156,32199,1,8,0:0:0:0:
285,151,32277,1,0,0:0:0:0:
330,146,32356,1,0,0:0:0:0:
375,141,32435,1,0,0:0:0:0:
448,134,32513,6,0,B|357:124|357:124|312:97,1,136.5,0|0,1:0|0:0,0:0:0:0:
260,56,32827,1,0,1:0:0:0:
496,36,32984,1,8,0:0:0:0:
436,168,33141,1,0,1:0:0:0:
352,48,33298,1,0,1:0:0:0:
424,44,33377,1,0,1:0:0:0:
496,36,33455,2,0,L|348:24,1,136.5,8|0,0:0|0:0,0:0:0:0:
260,56,33770,6,0,L|112:44,1,136.5,0|0,1:0|0:0,0:0:0:0:
60,80,34084,1,0,1:0:0:0:
300,60,34241,2,0,P|320:104|300:168,1,91,8|0,0:0|0:0,0:0:0:0:
174,251,34555,1,0,1:0:0:0:
222,267,34633,1,0,0:0:0:0:
176,245,34712,1,8,0:0:0:0:
219,272,34790,1,0,0:0:0:0:
180,239,34869,1,0,0:0:0:0:
214,277,34947,1,0,0:0:0:0:
185,235,35026,6,0,B|209:280|209:280|205:375,1,136.5,0|0,1:0|0:0,0:0:0:0:
136,336,35340,1,0,1:0:0:0:
372,352,35497,1,8,0:0:0:0:
205,365,35654,2,0,L|210:274,1,91,0|0,1:0|0:0,0:0:0:0:
304,56,35969,2,0,B|309:147|309:147|278:201,1,136.5,8|0,0:0|0:0,0:0:0:0:
214,198,36283,6,0,P|293:220|369:219,1,136.5,0|0,1:0|0:0,0:0:0:0:
416,192,36597,1,0,1:0:0:0:
196,104,36754,1,8,0:0:0:0:
154,122,36832,1,0,0:0:0:0:
126,157,36911,1,0,0:0:0:0:
117,201,36989,1,0,0:0:0:0:
130,245,37068,2,0,L|184:252,1,45.5,0|0,1:0|0:0,0:0:0:0:
284,64,37225,2,0,L|290:10,1,45.5,8|0,0:0|0:0,0:0:0:0:
336,160,37382,2,0,L|342:213,1,45.5
196,104,37539,6,0,B|104:116|104:116|64:92,1,136.5,0|0,1:0|0:0,0:0:0:0:
8,48,37853,1,0,1:0:0:0:
88,272,38010,1,8,0:0:0:0:
184,164,38167,1,0,1:0:0:0:
40,136,38325,1,0,1:0:0:0:
65,203,38403,1,0,1:0:0:0:
88,272,38482,2,0,L|148:203,1,91,8|0,0:0|0:0,0:0:0:0:
184,164,38717,1,0,0:0:0:0:
220,252,38796,6,0,L|310:149,1,136.5,0|0,1:0|0:0,0:0:0:0:
248,92,39110,1,0,1:0:0:0:
424,252,39267,2,0,P|436:296|420:348,1,91,8|0,0:0|0:0,0:0:0:0:
340,172,39581,1,0,1:0:0:0:
180,348,39738,1,8,0:0:0:0:
192,334,39816,1,0,0:0:0:0:
204,321,39895,1,0,0:0:0:0:
40,348,40052,5,0,1:0:0:0:
40,348,40524,5,2,0:0:0:0:
152,320,40838,5,8,0:0:0:0:
166,297,40916,1,0,0:0:0:0:
176,271,40995,1,0,0:0:0:0:
179,244,41073,1,0,0:0:0:0:
175,217,41152,1,0,0:0:0:0:
166,191,41230,1,0,0:0:0:0:
151,169,41309,1,0,0:0:0:0:
131,150,41387,1,0,0:0:0:0:
60,128,41466,6,0,P|88:88|136:76,1,91,0|0,1:0|0:0,0:0:0:0:
252,184,41780,2,0,P|294:168|318:131,1,91,0|0,1:0|0:0,0:0:0:0:
168,196,42094,2,0,P|183:238|220:262,1,91,0|0,1:0|0:0,0:0:0:0:
156,112,42408,2,0,P|113:127|89:164,1,91,0|0,1:0|0:0,0:0:0:0:
240,100,42722,6,0,P|224:57|187:33,1,91,0|0,1:0|0:0,0:0:0:0:
252,184,43037,1,0,1:0:0:0:
156,112,43194,1,0,0:0:0:0:
188,272,43351,2,0,L|184:248,6,22.75,0|0|0|0|0|0|0,1:0|0:0|0:0|0:0|0:0|0:0|0:0,0:0:0:0:
192,308,43665,2,0,B|232:288|232:288|292:284,1,91,0|0,1:0|0:0,0:0:0:0:
148,184,43979,5,0,1:0:0:0:
88,276,44136,1,0,0:0:0:0:
240,220,44293,2,0,P|248:176|224:120,1,91,0|0,1:0|0:0,0:0:0:0:
64,132,44607,2,0,P|49:174|57:219,1,91,0|0,1:0|0:0,0:0:0:0:
152,84,44921,1,0,1:0:0:0:
60,24,45078,1,0,0:0:0:0:
136,172,45236,6,0,B|180:184|180:184|232:180,1,91,0|0,1:0|0:0,0:0:0:0:
352,72,45550,2,0,L|368:28,1,45.5,0|0,1:0|0:0,0:0:0:0:
372,180,45707,2,0,L|402:215,1,45.5
268,144,45864,1,0,1:0:0:0:
428,116,46021,1,0,0:0:0:0:
432,115,46099,1,0,0:0:0:0:
436,114,46178,2,0,L|320:134,1,91,0|0,1:0|0:0,0:0:0:0:
196,60,46492,5,0,1:0:0:0:
300,32,46649,1,0,0:0:0:0:
228,184,46806,2,0,P|220:228|232:276,1,91,0|0,1:0|0:0,0:0:0:0:
346,129,47120,2,0,P|388:113|423:79,1,91,0|0,1:0|0:0,0:0:0:0:
239,54,47435,2,0,P|204:25|157:11,1,91,0|0,1:0|0:0,0:0:0:0:
228,184,47749,5,0,1:0:0:0:
346,129,47906,1,0,0:0:0:0:
239,54,48063,2,0,B|220:96|220:96|228:184,1,91,0|0,1:0|0:0,0:0:0:0:
356,240,48377,1,0,1:0:0:0:
346,129,48534,1,0,0:0:0:0:
342,132,48613,1,0,0:0:0:0:
339,135,48691,2,0,L|261:218,1,91,0|0,1:0|0:0,0:0:0:0:
160,320,49005,5,0,1:0:0:0:
268,308,49162,1,0,0:0:0:0:
136,212,49319,2,0,L|40:228,1,91,0|0,1:0|0:0,0:0:0:0:
268,308,49633,2,0,L|290:311,6,22.75,0|0|0|0|0|0|0,1:0|0:0|0:0|0:0|0:0|0:0|0:0,0:0:0:0:
208,264,49948,1,0,1:0:0:0:
400,212,50105,6,0,P|420:172|420:120,1,91,8|0,0:0|0:0,0:0:0:0:
408,92,50340,1,0,0:0:0:0:
380,68,50419,1,0,1:0:0:0:
324,260,50576,2,0,P|344:284|376:296,1,45.5,8|0,0:0|0:0,0:0:0:0:
320,168,50732,1,0,0:0:0:0:
320,168,50811,2,0,P|272:184|240:228,1,91,0|0,1:0|0:0,0:0:0:0:
400,212,51047,2,0,P|410:182|405:148,1,45.5,0|0,1:0|0:0,0:0:0:0:
246,213,51204,6,0,B|224:252|224:304|248:340|248:340|264:320|264:296|264:296|248:292|232:292,1,191.099994168091,8|0,0:0|0:0,0:0:0:0:
164,336,51518,6,0,P|116:332|68:320,1,91,0|0,1:0|1:0,0:0:0:0:
246,213,51832,2,0,P|284:152|192:112,1,182,8|0,0:0|0:0,0:0:0:0:
140,192,52304,1,0,1:0:0:0:
336,236,52461,2,0,P|360:188|344:96,1,136.5,8|0,0:0|0:0,0:0:0:0:
296,44,52775,6,0,B|252:56|252:56|196:52,1,91,0|0,1:0|0:0,0:0:0:0:
12,12,53089,1,8,0:0:0:0:
100,80,53246,2,0,P|112:128|112:192,1,91,0|0,1:0|0:0,0:0:0:0:
12,12,53560,1,0,1:0:0:0:
206,52,53717,2,0,B|252:56|252:56|296:44|296:44|344:48,1,136.5,8|0,0:0|0:0,0:0:0:0:
308,124,54031,5,0,1:0:0:0:
412,92,54188,1,0,1:0:0:0:
220,152,54346,2,0,B|160:156|160:156|103:140|103:140|40:145,1,182,8|0,0:0|0:0,0:0:0:0:
88,244,54817,1,0,1:0:0:0:
172,60,54974,2,0,L|308:52,1,136.5,8|0,0:0|0:0,0:0:0:0:
392,47,55288,6,0,L|397:137,1,91,0|0,1:0|0:0,0:0:0:0:
272,296,55602,1,8,0:0:0:0:
368,244,55759,2,0,L|472:264,1,91,0|0,1:0|0:0,0:0:0:0:
272,296,56073,1,0,1:0:0:0:
397,137,56230,6,0,B|392:48|392:48|372:-4,1,136.5,8|0,0:0|0:0,0:0:0:0:
308,52,56544,1,0,1:0:0:0:
198,58,56702,1,0,1:0:0:0:
301,229,56859,2,0,P|320:113|304:41,1,182,8|0,0:0|0:0,0:0:0:0:
198,58,57330,1,0,1:0:0:0:
301,229,57487,2,0,P|345:233|397:229,1,91,8|0,0:0|0:0,0:0:0:0:
264,128,57801,5,0,1:0:0:0:
196,212,57958,1,0,0:0:0:0:
376,128,58115,1,8,0:0:0:0:
264,128,58272,2,0,B|316:216|316:216|324:272,1,136.5,0|0,1:0|0:0,0:0:0:0:
324,288,58586,1,0,1:0:0:0:
172,156,58743,2,0,P|172:96|196:60,1,91,8|0,0:0|0:0,0:0:0:0:
348,27,59058,5,0,1:0:0:0:
304,188,59215,1,0,1:0:0:0:
186,70,59372,2,0,P|256:20|348:28,1,182,8|0,0:0|0:0,0:0:0:0:
396,128,59843,1,0,1:0:0:0:
186,70,60000,2,0,B|96:64,1,91,8|0,0:0|0:0,0:0:0:0:
68,88,60236,1,0,0:0:0:0:
44,112,60314,5,0,1:0:0:0:
256,192,60393,12,0,61414,0:0:0:0:
220,68,61571,6,0,P|232:19|248:68,1,136.5,2|0,1:0|0:0,0:0:0:0:
186,108,61885,2,0,P|232:106|278:108,1,91,2|0,1:0|0:0,0:0:0:0:
452,204,62199,2,0,B|468:232|468:268|452:304|452:304|440:288|416:272,1,136.5,10|0,1:0|0:0,0:0:0:0:
394,264,62513,2,0,L|326:256,1,45.5
278,212,62670,6,0,L|187:222,1,91,2|2,1:0|2:0,0:0:0:0:
310,108,62984,1,2,1:0:0:0:
418,120,63141,2,0,L|508:130,1,91,2|2,1:0|0:0,0:0:0:0:
338,28,63455,2,0,P|274:28|226:116,1,136.5,10|0,1:0|0:0,0:0:0:0:
240,114,63770,2,0,B|244:134|244:134|240:170,1,45.5,0|0,0:1|0:0,0:0:0:0:
183,217,63927,2,0,L|138:212,1,45.5,2|0,1:0|0:0,0:0:0:0:
264,238,64084,6,0,L|399:221,1,136.5,2|0,0:1|0:0,0:0:0:0:
468,178,64398,2,0,P|472:142|428:154,1,91,2|0,0:1|0:0,0:0:0:0:
308,306,64712,6,0,L|173:323,1,136.5,10|0,1:0|0:0,0:0:0:0:
139,307,65026,2,0,P|122:278|119:254,1,45.5
165,199,65183,2,0,P|182:170|185:146,1,45.5,2|0,1:1|0:0,0:0:0:0:
136,90,65340,6,0,P|188:124|276:119,1,136.5,2|0,2:1|0:0,0:0:0:0:
321,67,65654,2,0,L|424:79,1,91,2|0,1:0|0:0,0:0:0:0:
472,271,65969,2,0,L|369:283,1,91,8|0,0:0|0:0,0:0:0:0:
252,380,66283,2,0,L|240:324,1,45.5,2|0,0:1|0:0,0:0:0:0:
176,288,66440,2,0,L|188:232,1,45.5,2|0,0:1|0:0,0:0:0:0:
242,151,66597,6,0,B|200:160|200:160|152:148|152:148|108:156,1,136.5,0|0,1:0|0:0,0:0:0:0:
40,204,66911,2,0,P|28:252|40:320,1,91,2|0,1:0|0:0,0:0:0:0:
242,151,67225,2,0,P|254:103|242:35,1,91,8|0,0:0|0:0,0:0:0:0:
92,24,67539,2,0,L|24:32,1,45.5,2|0,0:1|0:0,0:0:0:0:
0,96,67696,6,0,L|151:113,1,136.5,2|0,1:0|0:0,0:0:0:0:
200,164,68010,2,0,P|216:132|212:100,1,45.5,2|0,1:0|0:0,0:0:0:0:
64,140,68167,2,0,P|64:200|104:264,1,136.5,2|0,1:0|0:0,0:0:0:0:
168,316,68482,2,2,B|208:292|256:292|256:292|268:316|296:328,1,136.5,10|0,0:0|0:0,0:0:0:0:
332,256,68796,2,0,L|408:268,1,45.5,2|0,0:1|0:0,0:0:0:0:
428,328,68953,6,2,B|474:332|494:288|494:288|503:288|503:288|498:281|498:281|518:237|485:204,1,182,0|0,1:0|0:0,0:0:0:0:
328,172,69424,2,0,L|224:192,1,91,0|0,1:0|0:0,0:0:0:0:
388,56,69738,2,0,L|440:66,3,45.5,8|0|0|0,0:0|0:0|0:0|0:0,0:0:0:0:
464,84,70052,2,0,L|516:74,1,45.5
404,136,70209,6,0,P|376:192|432:296,1,182,2|0,1:0|0:0,0:0:0:0:
276,220,70681,2,0,L|168:236,1,91,0|0,1:0|0:0,0:0:0:0:
404,136,70995,2,0,L|512:152,1,91,8|0,0:0|0:0,0:0:0:0:
372,48,71309,2,0,P|348:60|332:80,1,45.5
316,168,71466,2,0,P|328:192|348:208,1,45.5,2|0,0:1|0:0,0:0:0:0:
404,136,71623,6,0,L|269:116,1,136.5,2|0,1:0|0:0,0:0:0:0:
192,84,71937,2,0,L|326:64,1,136.5,2|0,1:0|0:0,0:0:0:0:
404,136,72251,2,0,P|416:172|416:188,3,45.5,10|0|0|0,0:1|0:0|0:0|0:0,0:0:0:0:
400,212,72565,2,0,P|388:248|388:264,1,45.5
448,312,72722,6,0,P|408:336|356:328,1,91,0|2,1:0|0:0,0:0:0:0:
256,164,73037,1,2,1:0:0:0:
348,104,73194,2,0,L|444:120,1,91,2|0,1:0|0:0,0:0:0:0:
252,52,73508,2,0,L|228:56,6,22.75,8|0|0|0|0|0|0,0:0|3:0|3:0|3:0|3:0|3:0|3:0,0:0:0:0:
196,60,73822,2,0,L|145:51,1,45.5
92,112,73979,5,0,1:0:0:0:
212,192,74136,1,2,0:1:0:0:
82,258,74293,1,0,0:0:0:0:
128,187,74450,2,0,P|165:273|132:327,1,136.5,2|0,1:0|0:0,0:0:0:0:
116,337,74764,2,0,L|55:343,3,45.5,8|0|0|0,0:0|0:0|0:0|0:0,0:0:0:0:
25,338,75078,2,0,P|8:301|8:277,1,45.5,2|0,0:1|0:0,0:0:0:0:
52,224,75236,6,0,B|68:180|68:180|64:136|64:136|76:92,1,136.5,2|0,1:0|0:0,0:0:0:0:
88,56,75550,1,2,0:1:0:0:
236,132,75707,2,0,L|272:124,6,22.75,2|0|0|0|0|0|0,1:0|0:0|0:0|0:0|0:0|0:0|0:0,0:0:0:0:
292,124,76021,2,0,L|427:154,1,136.5,10|0,0:1|0:0,0:0:0:0:
