osu file format v14

[General]
AudioFilename: An - TearVid-long mix-.mp3
AudioLeadIn: 0
PreviewTime: 23683
Countdown: 0
SampleSet: Normal
StackLeniency: 0.2
Mode: 0
LetterboxInBreaks: 0
WidescreenStoryboard: 0

[Editor]
Bookmarks: 23685,43377,63069,82606,92608,112300,131992,154146,173838,193531,213223,235223,245223,264915,284608,304300
DistanceSpacing: 2
BeatDivisor: 4
GridSize: 8
TimelineZoom: 1

[Metadata]
Title:TearVid-long mix-
TitleUnicode:TearVid-long mix-
Artist:An
ArtistUnicode:An
Creator:K i A i
Version:Collab
Source:
Tags:
BeatmapID:1063449
BeatmapSetID:499708

[Difficulty]
HPDrainRate:6
CircleSize:4.5
OverallDifficulty:9
ApproachRate:9
SliderMultiplier:1.9
SliderTickRate:2

[Events]
//Background and Video events
0,0,"bg.png",0,0
//Break Periods
2,233113,234621
//Storyboard Layer 0 (Background)
//Storyboard Layer 1 (Fail)
//Storyboard Layer 2 (Pass)
//Storyboard Layer 3 (Foreground)
//Storyboard Sound Samples

[TimingPoints]
300,615.384615384615,4,1,0,5,1,0
1530,615.384615384615,4,1,0,5,1,0
11376,307.692307692308,4,1,0,5,1,0
18760,615.384615384615,4,1,0,5,1,0
23683,307.692307692308,4,1,0,5,1,1
43336,-100,4,1,0,5,0,0
43375,-100,4,1,0,5,0,1
43683,-100,4,1,0,5,0,0
63067,-133.333333333333,4,1,0,5,0,0
92452,-100,4,1,0,5,0,0
92606,-100,4,1,0,5,0,1
112259,-100,4,1,0,5,0,0
112298,-100,4,1,0,5,0,1
131990,-133.333333333333,4,1,0,5,0,0
153529,-200,4,1,0,5,0,0
154144,-100,4,1,0,5,0,1
154452,-100,4,1,0,5,0,0
173836,-166.666666666667,4,1,0,5,0,0
193529,-200,4,1,0,5,0,0
213221,-200,4,1,0,5,0,0
245067,-166.666666666667,4,1,0,5,0,0
264913,-100,4,1,0,5,0,1
284567,-100,4,1,0,5,0,0
284606,-100,4,1,0,5,0,1
304298,-200,4,1,0,5,0,0

[HitObjects]
296,352,300,6,0,L|304:160,1,190
296,168,1530,2,0,P|392:168|456:104,1,190
464,96,2606,1,0,0:0:0:0:
464,96,2683,1,0,0:0:0:0:
464,96,2760,2,0,L|472:192,1,95
384,312,3376,2,0,L|376:216,1,95
472,88,3991,6,0,L|488:280,1,190
480,328,4760,1,0,0:0:0:0:
440,360,4914,1,0,0:0:0:0:
392,352,5068,1,0,0:0:0:0:
360,312,5222,1,0,0:0:0:0:
368,304,5837,1,0,0:0:0:0:
376,296,6453,6,0,L|280:304,1,95
144,192,7068,2,0,L|240:200,1,95
136,96,7683,2,0,P|56:144|56:232,1,190
192,24,8606,1,0,0:0:0:0:
200,16,8914,2,0,L|8:24,1,190
0,16,9991,1,0,0:0:0:0:
0,16,10068,1,0,0:0:0:0:
0,16,10145,2,0,P|40:72|40:144,1,142.5
0,208,10760,2,0,L|8:304,1,95
0,312,11376,5,0,0:0:0:0:
72,248,11529,1,0,0:0:0:0:
88,344,11683,1,0,0:0:0:0:
112,336,11760,1,0,0:0:0:0:
136,328,11837,1,0,0:0:0:0:
160,320,11914,1,0,0:0:0:0:
184,312,11991,1,0,0:0:0:0:
288,336,12145,2,0,L|264:344,4,23.75
368,368,12452,5,0,0:0:0:0:
392,360,12529,1,0,0:0:0:0:
416,352,12606,1,0,0:0:0:0:
488,288,12760,1,0,0:0:0:0:
504,384,12914,1,0,0:0:0:0:
400,256,13068,1,0,0:0:0:0:
408,232,13145,1,0,0:0:0:0:
416,208,13222,1,0,0:0:0:0:
424,184,13299,1,0,0:0:0:0:
432,160,13376,1,0,0:0:0:0:
440,136,13452,1,0,0:0:0:0:
448,112,13529,1,0,0:0:0:0:
456,88,13606,1,0,0:0:0:0:
464,64,13683,1,0,0:0:0:0:
472,40,13760,1,0,0:0:0:0:
480,16,13837,5,0,0:0:0:0:
384,40,13991,1,0,0:0:0:0:
448,112,14145,2,0,L|496:104,3,47.5
512,176,14452,1,0,0:0:0:0:
504,200,14529,1,0,0:0:0:0:
500,224,14606,1,0,0:0:0:0:
504,248,14683,1,0,0:0:0:0:
512,272,14760,1,0,0:0:0:0:
436,380,14914,5,0,0:0:0:0:
440,356,14991,1,0,0:0:0:0:
436,332,15068,1,0,0:0:0:0:
412,236,15222,1,0,0:0:0:0:
504,264,15376,1,0,0:0:0:0:
344,304,15529,1,0,0:0:0:0:
320,296,15606,1,0,0:0:0:0:
296,288,15683,1,0,0:0:0:0:
272,280,15760,1,0,0:0:0:0:
248,272,15837,1,0,0:0:0:0:
224,264,15914,1,0,0:0:0:0:
200,256,15991,1,0,0:0:0:0:
176,248,16068,1,0,0:0:0:0:
152,240,16145,1,0,0:0:0:0:
128,232,16222,1,0,0:0:0:0:
104,224,16299,5,0,0:0:0:0:
16,192,16452,1,0,0:0:0:0:
32,288,16606,1,0,0:0:0:0:
88,128,16760,1,0,0:0:0:0:
92,104,16837,1,0,0:0:0:0:
88,80,16914,1,0,0:0:0:0:
72,60,16991,1,0,0:0:0:0:
52,44,17068,1,0,0:0:0:0:
28,36,17145,1,0,0:0:0:0:
4,36,17222,1,0,0:0:0:0:
176,160,17376,5,0,0:0:0:0:
200,152,17452,1,0,0:0:0:0:
224,144,17529,1,0,0:0:0:0:
312,112,17683,1,0,0:0:0:0:
296,208,17837,1,0,0:0:0:0:
292,232,17914,1,0,0:0:0:0:
288,256,17991,1,0,0:0:0:0:
284,280,18068,1,0,0:0:0:0:
280,304,18145,1,0,0:0:0:0:
392,256,18299,2,0,L|388:280,3,23.75
384,304,18452,2,0,P|432:304|472:328,1,95
471,327,18760,5,0,0:0:0:0:
464,336,19375,1,0,0:0:0:0:
256,192,19990,12,0,21221,0:0:0:0:
114,113,23683,5,0,0:0:0:0:
183,161,23835,1,0,0:0:0:0:
191,75,23990,1,0,0:0:0:0:
105,205,24144,1,0,0:0:0:0:
109,237,24220,1,0,0:0:0:0:
114,270,24297,1,0,0:0:0:0:
231,331,24451,1,0,0:0:0:0:
348,282,24606,2,0,B|392:266|392:266|447:284,1,95
270,229,24913,5,0,0:0:0:0:
252,145,25067,1,0,0:0:0:0:
233,61,25221,1,0,0:0:0:0:
366,173,25375,1,0,0:0:0:0:
399,174,25451,1,0,0:0:0:0:
432,175,25528,1,0,0:0:0:0:
376,78,25682,1,0,0:0:0:0:
426,271,25836,2,0,L|451:370,1,95
255,303,26144,5,0,0:0:0:0:
311,238,26298,1,0,0:0:0:0:
338,318,26452,1,0,0:0:0:0:
172,283,26605,1,0,0:0:0:0:
139,277,26682,1,0,0:0:0:0:
106,271,26759,1,0,0:0:0:0:
115,91,26913,1,0,0:0:0:0:
145,77,26990,1,0,0:0:0:0:
177,65,27067,2,0,B|188:107|188:107|179:157,1,95
12,288,27375,6,0,L|28:194,1,95
179,158,27683,1,0,0:0:0:0:
307,226,27836,1,0,0:0:0:0:
340,223,27912,1,0,0:0:0:0:
373,220,27989,1,0,0:0:0:0:
269,153,28144,1,0,0:0:0:0:
244,288,28298,2,0,B|240:320|240:320|252:348|252:348|247:379,1,95
431,272,28606,6,0,P|451:229|443:183,1,95
371,83,28913,1,0,0:0:0:0:
269,153,29067,1,0,0:0:0:0:
236,144,29143,1,0,0:0:0:0:
203,136,29220,1,0,0:0:0:0:
212,51,29374,1,0,0:0:0:0:
192,216,29529,2,0,L|97:223,1,95
276,278,29836,5,0,0:0:0:0:
114,240,29990,2,0,L|10:213,1,95
136,354,30298,1,0,0:0:0:0:
168,348,30374,1,0,0:0:0:0:
201,342,30451,1,0,0:0:0:0:
251,207,30606,1,0,0:0:0:0:
149,107,30759,2,0,L|55:123,1,95
206,45,31067,5,0,0:0:0:0:
282,82,31221,1,0,0:0:0:0:
353,36,31374,1,0,0:0:0:0:
431,162,31530,1,0,0:0:0:0:
427,195,31607,1,0,0:0:0:0:
424,228,31683,1,0,0:0:0:0:
358,118,31835,1,0,0:0:0:0:
421,261,31990,2,0,L|411:355,1,95
507,197,32298,5,0,0:0:0:0:
424,228,32452,1,0,0:0:0:0:
341,258,32606,1,0,0:0:0:0:
157,199,32759,2,0,L|251:209,1,95
112,284,33067,2,0,P|69:306|20:305,1,95
13,94,33376,1,0,0:0:0:0:
46,205,33529,6,0,L|31:105,1,95
160,16,33835,1,0,0:0:0:0:
284,112,33990,1,0,0:0:0:0:
316,105,34066,1,0,0:0:0:0:
349,99,34143,1,0,0:0:0:0:
456,12,34297,1,0,0:0:0:0:
348,124,34452,2,0,B|340:172|340:172|357:214,1,95
236,176,34759,5,0,0:0:0:0:
152,184,34913,1,0,0:0:0:0:
68,192,35067,1,0,0:0:0:0:
200,256,35221,1,0,0:0:0:0:
204,288,35297,1,0,0:0:0:0:
208,321,35374,1,0,0:0:0:0:
320,164,35530,1,0,0:0:0:0:
324,131,35606,1,0,0:0:0:0:
328,99,35683,2,0,B|372:80|372:80|418:87,1,95
388,256,35990,5,0,0:0:0:0:
308,288,36143,1,0,0:0:0:0:
396,176,36298,1,0,0:0:0:0:
280,284,36452,1,0,0:0:0:0:
247,279,36528,1,0,0:0:0:0:
214,275,36605,1,0,0:0:0:0:
152,144,36760,1,0,0:0:0:0:
40,276,36913,2,0,L|60:380,1,95
95,212,37221,5,0,0:0:0:0:
40,276,37375,1,0,0:0:0:0:
68,132,37529,1,0,0:0:0:0:
224,200,37683,1,0,0:0:0:0:
256,195,37759,1,0,0:0:0:0:
289,190,37836,2,0,L|382:174,1,95
488,28,38144,2,0,P|441:23|397:42,1,95
476,200,38452,5,0,0:0:0:0:
458,115,38606,1,0,0:0:0:0:
420,264,38759,1,0,0:0:0:0:
289,190,38913,1,0,0:0:0:0:
256,195,38991,1,0,0:0:0:0:
219,200,39068,2,0,L|121:218,1,95
360,312,39375,2,0,P|404:340|456:336,1,95
308,108,39683,5,0,0:0:0:0:
289,190,39836,1,0,0:0:0:0:
272,272,39990,1,0,0:0:0:0:
160,360,40144,1,0,0:0:0:0:
153,327,40220,1,0,0:0:0:0:
147,294,40297,1,0,0:0:0:0:
112,144,40452,1,0,0:0:0:0:
8,284,40606,2,0,L|22:185,1,95
204,96,40913,5,0,0:0:0:0:
272,144,41067,1,0,0:0:0:0:
348,108,41221,1,0,0:0:0:0:
408,228,41375,1,0,0:0:0:0:
411,261,41451,1,0,0:0:0:0:
414,294,41528,1,0,0:0:0:0:
256,324,41683,2,0,L|263:229,2,95
152,232,42144,6,0,P|108:220|56:236,1,95
192,144,42452,2,0,P|224:111|236:58,1,95
28,64,42759,1,0,0:0:0:0:
61,232,42913,1,0,0:0:0:0:
44,148,43068,1,0,0:0:0:0:
78,316,43222,1,0,0:0:0:0:
151,273,43375,6,0,L|248:280,1,95
424,348,43683,2,0,B|377:360|377:360|327:342,1,95
343,334,43913,1,0,0:0:0:0:
353,324,43990,2,0,P|363:297|362:273,1,47.5
327,154,44144,1,0,0:0:0:0:
324,140,44221,1,0,0:0:0:0:
321,127,44298,2,0,L|296:229,1,95
236,264,44529,1,0,0:0:0:0:
238,273,44606,6,0,P|197:283|145:262,1,95
8,163,44913,2,0,P|43:139|99:141,1,95
105,148,45144,1,0,0:0:0:0:
116,156,45221,2,0,L|166:147,1,47.5
237,68,45375,2,0,L|261:64,4,23.75
251,197,45683,1,0,0:0:0:0:
83,80,45836,6,0,P|49:105|35:160,1,95
94,273,46144,1,0,0:0:0:0:
225,254,46298,2,0,P|226:211|194:165,1,95
68,198,46606,1,0,0:0:0:0:
108,323,46759,2,0,P|132:356|187:370,1,95
366,301,47067,6,0,B|294:307|294:307|255:286|255:286|182:291,1,190
47,293,47529,1,0,0:0:0:0:
57,302,47606,1,0,0:0:0:0:
67,311,47683,2,0,L|56:205,1,95
61,202,47913,1,0,0:0:0:0:
65,188,47990,2,0,P|97:201|122:201,1,47.5
166,149,48144,1,0,0:0:0:0:
245,251,48298,6,0,L|339:243,1,95
432,267,48606,1,0,0:0:0:0:
366,122,48759,2,0,P|411:137|442:172,1,95
372,338,49067,1,0,0:0:0:0:
235,331,49221,2,0,L|141:339,1,95
45,350,49529,5,0,0:0:0:0:
109,309,49683,1,0,0:0:0:0:
129,236,49836,1,0,0:0:0:0:
101,165,49990,1,0,0:0:0:0:
102,150,50067,1,0,0:0:0:0:
103,135,50144,1,0,0:0:0:0:
193,20,50298,1,0,0:0:0:0:
194,35,50375,1,0,0:0:0:0:
195,50,50452,1,0,0:0:0:0:
198,164,50606,1,0,0:0:0:0:
305,128,50759,6,0,L|410:132,1,95
426,331,51067,2,0,B|404:288|404:288|418:236,1,95
405,252,51298,1,0,0:0:0:0:
393,260,51375,2,0,P|360:272|332:268,1,47.5
263,314,51529,2,0,P|238:312|216:302,1,47.5
123,311,51683,2,0,P|91:281|85:217,1,95
179,72,51990,5,0,0:0:0:0:
193,231,52144,1,0,0:0:0:0:
193,231,52221,1,0,0:0:0:0:
193,231,52298,2,0,L|289:220,1,95
368,207,52529,1,0,0:0:0:0:
366,216,52606,1,0,0:0:0:0:
401,229,52682,1,0,0:0:0:0:
438,224,52759,2,0,L|435:253,1,23.75
469,202,52836,2,0,L|475:232,1,23.75
485,168,52913,1,0,0:0:0:0:
484,131,52990,1,0,0:0:0:0:
466,98,53067,1,0,0:0:0:0:
434,78,53144,1,0,0:0:0:0:
396,77,53221,6,0,B|319:69|319:69|288:81|288:81|200:72,1,190
43,13,53683,1,0,0:0:0:0:
56,17,53759,1,0,0:0:0:0:
69,21,53836,2,0,L|84:125,1,95
102,266,54144,1,0,0:0:0:0:
247,221,54298,1,0,0:0:0:0:
110,288,54452,6,0,P|76:293|19:257,1,95
107,137,54759,1,0,0:0:0:0:
172,364,54913,2,0,L|281:348,1,95
417,328,55221,1,0,0:0:0:0:
413,341,55298,1,0,0:0:0:0:
409,354,55375,2,0,L|401:244,1,95
430,58,55683,6,0,P|393:84|335:80,1,95
332,77,55913,1,0,0:0:0:0:
319,70,55990,2,0,L|216:60,1,95
48,39,56298,1,0,0:0:0:0:
233,80,56452,1,0,0:0:0:0:
238,93,56529,1,0,0:0:0:0:
243,106,56606,1,0,0:0:0:0:
295,287,56759,2,0,L|309:231,1,47.5
386,208,56913,6,0,L|364:104,1,95
340,9,57221,1,0,0:0:0:0:
301,174,57375,1,0,0:0:0:0:
290,183,57452,1,0,0:0:0:0:
280,193,57529,2,0,B|238:206|238:206|179:188,1,95
175,186,57759,1,0,0:0:0:0:
162,180,57836,2,0,L|179:242,1,47.5
197,299,57990,1,0,0:0:0:0:
234,133,58144,6,0,L|205:26,1,95
66,159,58452,2,0,L|90:250,1,95
89,265,58683,1,0,0:0:0:0:
87,278,58759,2,0,P|111:300|145:307,1,47.5
201,364,58913,2,0,P|232:354|255:328,1,47.5
343,342,59067,2,0,P|350:310|322:241,1,95
188,136,59375,5,0,0:0:0:0:
259,161,59529,1,0,0:0:0:0:
330,186,59683,1,0,0:0:0:0:
197,213,59836,1,0,0:0:0:0:
183,217,59913,1,0,0:0:0:0:
169,221,59990,1,0,0:0:0:0:
320,114,60144,2,0,L|343:109,4,23.75
277,233,60452,1,0,0:0:0:0:
246,88,60606,6,0,L|153:103,1,95
147,116,60836,1,0,0:0:0:0:
142,129,60913,1,0,0:0:0:0:
306,152,61067,2,0,B|355:161|355:161|400:141,1,95
453,31,61375,2,0,L|464:10,1,23.75
439,40,61452,2,0,L|437:11,1,23.75
431,51,61529,1,0,0:0:0:0:
81,333,61836,5,0,0:0:0:0:
218,256,62298,1,0,0:0:0:0:
219,260,62375,1,0,0:0:0:0:
220,264,62452,6,0,P|245:275|269:277,1,47.5
292,120,62606,2,0,P|267:109|243:107,1,47.5
346,237,62759,2,0,P|359:205|362:175,1,47.5
166,147,62913,2,0,P|152:178|149:208,1,47.5
128,288,63067,5,0,0:0:0:0:
403,254,63529,1,0,0:0:0:0:
236,33,63990,5,0,0:0:0:0:
256,192,64298,6,0,B|280:236|280:236|268:292,1,106.875004076958
264,320,64606,2,0,L|299:312,2,23.7500009059906
240,328,64759,1,0,0:0:0:0:
216,336,64836,1,0,0:0:0:0:
192,344,64913,5,0,0:0:0:0:
44,264,65144,1,0,0:0:0:0:
187,176,65375,1,0,0:0:0:0:
144,260,65529,5,0,0:0:0:0:
144,260,66144,1,0,0:0:0:0:
191,99,66375,1,0,0:0:0:0:
307,221,66606,1,0,0:0:0:0:
128,164,66759,6,0,P|101:101|128:32,1,142.500005435944
216,200,67221,2,0,P|240:265|213:329,1,142.500005435944
116,356,67683,1,0,0:0:0:0:
228,340,67836,1,0,0:0:0:0:
340,324,67990,5,0,0:0:0:0:
328,53,68452,1,0,0:0:0:0:
99,198,68913,1,0,0:0:0:0:
99,198,69221,5,0,0:0:0:0:
180,228,69375,2,0,P|244:236|304:192,1,142.500005435944
284,116,69836,2,0,P|252:128|228:160,1,71.2500027179719
380,204,70144,2,0,P|379:169|357:136,1,71.2500027179719
344,272,70452,6,0,P|416:272|456:216,1,142.500005435944
472,152,70913,2,0,L|456:304,1,142.500005435944
448,368,71375,1,0,0:0:0:0:
448,368,71683,5,0,0:0:0:0:
328,352,71836,2,0,B|272:344|272:344|240:352|240:352|184:344,1,142.500005435944
112,376,72298,2,0,B|104:344|104:344|120:288,1,71.2500027179719
224,208,72606,2,0,B|232:240|232:240|221:276,1,71.2500027179719
92,152,72913,6,0,B|72:83|72:83|90:14,1,142.500005435944
296,176,73375,1,0,0:0:0:0:
296,176,73529,2,0,B|315:244|315:244|298:314,1,142.500005435944
298,313,74144,6,0,P|344:296|392:304,1,95.0000036239625
460,324,74452,2,0,L|456:360,2,23.7500009059906
444,252,74606,2,0,L|439:207,1,35.625001358986
472,124,74759,6,0,P|419:130|370:111,1,106.875004076958
292,72,75067,1,0,0:0:0:0:
294,89,75143,1,0,0:0:0:0:
297,107,75220,1,0,0:0:0:0:
299,124,75297,1,0,0:0:0:0:
302,142,75375,6,0,L|312:0,1,142.500005435944
184,60,75836,1,0,0:0:0:0:
232,192,75990,2,0,P|260:216|340:216,1,106.875004076958
412,204,76298,2,0,L|407:275,1,71.2500027179719
228,334,76606,6,0,L|223:263,1,71.2500027179719,0|0,0:1|0:0,0:0:0:0:
224,245,76836,1,0,0:0:0:0:
227,227,76913,1,0,0:0:0:0:
229,210,76990,1,0,0:0:0:0:
232,192,77067,1,0,0:0:0:0:
108,260,77221,2,0,P|76:264|40:252,1,71.2500027179719
160,92,77529,1,0,0:0:0:0:
191,75,77606,1,0,0:0:0:0:
226,68,77683,1,0,0:0:0:0:
262,72,77759,1,0,0:0:0:0:
295,82,77836,6,0,P|366:82|422:42,1,142.500005435944
475,119,78298,1,0,0:0:0:0:
463,211,78452,2,0,L|455:287,1,71.2500027179719
327,183,78759,2,0,L|396:151,1,71.2500027179719
375,315,79067,6,0,L|313:270,1,71.2500027179719
291,255,79298,1,0,0:0:0:0:
304,287,79374,1,0,0:0:0:0:
307,323,79451,1,0,0:0:0:0:
299,357,79528,1,0,0:0:0:0:
137,306,79683,2,0,P|172:302|206:310,1,71.2500027179719
207,131,79990,1,0,0:0:0:0:
171,135,80066,1,0,0:0:0:0:
136,128,80143,1,0,0:0:0:0:
105,111,80220,1,0,0:0:0:0:
81,84,80298,6,0,L|102:224,1,142.500005435944
47,299,80759,1,0,0:0:0:0:
191,239,80913,2,0,P|226:241|259:255,1,71.2500027179719
211,103,81221,2,0,P|190:132|162:153,1,71.2500027179719
315,183,81529,6,0,P|299:150|295:115,1,71.2500027179719
299,84,81759,1,0,0:0:0:0:
311,56,81836,1,0,0:0:0:0:
331,32,81913,1,0,0:0:0:0:
356,13,81990,1,0,0:0:0:0:
416,124,82144,1,0,0:0:0:0:
412,163,82220,1,0,0:0:0:0:
408,203,82297,1,0,0:0:0:0:
404,243,82374,1,0,0:0:0:0:
460,308,82451,5,0,0:0:0:0:
460,308,82529,1,0,0:0:0:0:
460,308,82606,1,0,0:0:0:0:
488,96,83067,1,0,0:0:0:0:
52,380,83836,5,0,0:0:0:0:
24,168,84297,1,0,0:0:0:0:
440,208,85067,5,0,0:0:0:0:
512,0,85528,1,0,0:0:0:0:
72,280,86298,5,0,0:0:0:0:
0,72,86759,1,0,0:0:0:0:
0,72,87529,6,0,L|8:216,1,142.500005435944
96,96,87990,2,0,L|92:24,1,71.2500027179719
264,128,88298,1,0,0:0:0:0:
236,120,88375,1,0,0:0:0:0:
208,120,88452,1,0,0:0:0:0:
184,132,88529,1,0,0:0:0:0:
164,152,88606,1,0,0:0:0:0:
16,224,88759,6,0,L|160:240,1,142.500005435944
272,136,89221,1,0,0:0:0:0:
224,56,89375,1,0,0:0:0:0:
196,52,89452,1,0,0:0:0:0:
168,48,89529,1,0,0:0:0:0:
140,44,89606,1,0,0:0:0:0:
112,40,89683,1,0,0:0:0:0:
84,36,89760,1,0,0:0:0:0:
56,32,89837,1,0,0:0:0:0:
264,144,89990,6,0,P|336:144|392:104,1,142.500005435944
472,56,90452,2,0,P|472:88|480:128,1,71.2500027179719
511,231,90759,1,0,0:0:0:0:
483,239,90836,1,0,0:0:0:0:
455,247,90913,1,0,0:0:0:0:
427,255,90990,1,0,0:0:0:0:
399,263,91067,1,0,0:0:0:0:
312,376,91221,6,0,L|392:352,1,71.2500027179719
472,328,91529,1,0,0:0:0:0:
400,136,91683,2,0,P|372:200|400:264,1,142.500005435944
420,284,92067,1,0,0:0:0:0:
448,292,92144,1,0,0:0:0:0:
476,284,92221,1,0,0:0:0:0:
496,264,92298,1,0,0:0:0:0:
504,236,92375,1,0,0:0:0:0:
500,208,92452,6,0,L|492:156,1,47.5
396,88,92606,2,0,B|376:87|376:87|324:108|324:108|305:105,1,95
168,48,92913,1,0,0:0:0:0:
276,176,93067,1,0,0:0:0:0:
132,120,93221,1,0,0:0:0:0:
130,153,93297,1,0,0:0:0:0:
128,186,93374,1,0,0:0:0:0:
126,219,93451,1,0,0:0:0:0:
125,252,93528,1,0,0:0:0:0:
244,324,93683,5,0,0:0:0:0:
238,291,93759,1,0,0:0:0:0:
233,258,93836,1,0,0:0:0:0:
104,332,93990,1,0,0:0:0:0:
276,176,94144,1,0,0:0:0:0:
448,292,94298,1,0,0:0:0:0:
424,268,94374,1,0,0:0:0:0:
392,259,94451,1,0,0:0:0:0:
360,265,94528,1,0,0:0:0:0:
335,286,94605,1,0,0:0:0:0:
456,368,94759,1,0,0:0:0:0:
511,234,94913,6,0,L|500:140,1,95
488,44,95221,1,0,0:0:0:0:
308,148,95375,1,0,0:0:0:0:
412,80,95529,1,0,0:0:0:0:
378,78,95605,1,0,0:0:0:0:
345,76,95682,1,0,0:0:0:0:
312,74,95759,1,0,0:0:0:0:
279,72,95836,1,0,0:0:0:0:
96,180,95990,2,0,P|144:196|192:184,1,95
212,168,96221,1,0,0:0:0:0:
232,140,96298,5,0,0:0:0:0:
216,256,96452,1,0,0:0:0:0:
152,112,96606,2,0,L|112:25,1,95
84,12,96836,1,0,0:0:0:0:
68,41,96912,1,0,0:0:0:0:
53,70,96989,1,0,0:0:0:0:
42,100,97066,1,0,0:0:0:0:
55,130,97143,1,0,0:0:0:0:
69,161,97222,2,0,L|60:268,1,95
192,348,97529,5,0,0:0:0:0:
288,344,97683,1,0,0:0:0:0:
156,260,97836,1,0,0:0:0:0:
360,276,97990,1,0,0:0:0:0:
385,254,98066,1,0,0:0:0:0:
399,224,98143,1,0,0:0:0:0:
401,192,98220,1,0,0:0:0:0:
389,161,98297,1,0,0:0:0:0:
220,184,98452,6,0,L|320:200,1,95
464,112,98759,5,0,0:0:0:0:
404,40,98913,1,0,0:0:0:0:
312,64,99067,1,0,0:0:0:0:
124,52,99221,1,0,0:0:0:0:
128,84,99297,1,0,0:0:0:0:
132,117,99374,1,0,0:0:0:0:
212,32,99528,1,0,0:0:0:0:
120,140,99683,2,0,L|132:244,1,95
232,328,99991,5,0,0:0:0:0:
316,284,100145,1,0,0:0:0:0:
236,232,100298,1,0,0:0:0:0:
392,344,100452,1,0,0:0:0:0:
409,315,100528,1,0,0:0:0:0:
414,283,100605,1,0,0:0:0:0:
408,250,100682,1,0,0:0:0:0:
391,222,100759,1,0,0:0:0:0:
324,100,100913,2,0,P|320:60|344:8,1,95
304,184,101221,2,0,L|211:164,1,95
64,56,101529,6,0,L|68:112,1,47.5
32,168,101683,5,0,0:0:0:0:
69,196,101759,1,0,0:0:0:0:
84,240,101836,1,0,0:0:0:0:
73,285,101913,1,0,0:0:0:0:
38,316,101990,5,0,0:0:0:0:
83,303,102066,1,0,0:0:0:0:
130,300,102143,1,0,0:0:0:0:
178,306,102220,1,0,0:0:0:0:
222,321,102297,5,0,0:0:0:0:
388,360,102452,2,0,B|400:340|400:340|388:268,1,95
360,112,102759,1,0,0:0:0:0:
304,296,102913,1,0,0:0:0:0:
280,136,103067,1,0,0:0:0:0:
277,103,103143,1,0,0:0:0:0:
288,71,103220,1,0,0:0:0:0:
309,46,103297,1,0,0:0:0:0:
338,30,103374,1,0,0:0:0:0:
180,124,103529,5,0,0:0:0:0:
147,119,103605,1,0,0:0:0:0:
114,114,103682,1,0,0:0:0:0:
56,232,103836,1,0,0:0:0:0:
156,316,103990,1,0,0:0:0:0:
136,192,104145,1,0,0:0:0:0:
136,192,104222,1,0,0:0:0:0:
136,192,104299,1,0,0:0:0:0:
72,312,104453,1,0,0:0:0:0:
232,252,104606,2,0,P|280:256|328:288,1,95
319,279,104836,1,0,0:0:0:0:
319,279,104913,5,0,0:0:0:0:
284,148,105067,1,0,0:0:0:0:
252,344,105221,1,0,0:0:0:0:
400,264,105375,1,0,0:0:0:0:
415,234,105451,1,0,0:0:0:0:
403,204,105528,1,0,0:0:0:0:
389,174,105605,1,0,0:0:0:0:
404,144,105682,1,0,0:0:0:0:
476,48,105836,1,0,0:0:0:0:
328,124,105990,1,0,0:0:0:0:
295,117,106066,1,0,0:0:0:0:
262,110,106143,5,0,0:0:0:0:
128,92,106298,1,0,0:0:0:0:
288,36,106452,1,0,0:0:0:0:
164,168,106606,1,0,0:0:0:0:
166,201,106682,1,0,0:0:0:0:
169,234,106759,1,0,0:0:0:0:
171,267,106836,1,0,0:0:0:0:
196,292,106913,1,0,0:0:0:0:
193,325,106989,1,0,0:0:0:0:
190,358,107066,1,0,0:0:0:0:
88,264,107221,1,0,0:0:0:0:
272,248,107375,6,0,B|320:248|320:248|358:275,1,95
432,336,107683,1,0,0:0:0:0:
368,192,107836,1,0,0:0:0:0:
354,161,107912,1,0,0:0:0:0:
347,129,107989,1,0,0:0:0:0:
349,96,108066,1,0,0:0:0:0:
358,63,108145,2,0,P|325:98|283:118,1,95
148,48,108452,1,0,0:0:0:0:
181,44,108528,1,0,0:0:0:0:
228,40,108605,5,0,0:0:0:0:
168,124,108759,1,0,0:0:0:0:
212,224,108913,1,0,0:0:0:0:
400,280,109067,1,0,0:0:0:0:
370,265,109143,1,0,0:0:0:0:
337,265,109220,1,0,0:0:0:0:
220,348,109374,1,0,0:0:0:0:
416,304,109529,2,0,L|405:209,1,95
388,52,109836,5,0,0:0:0:0:
396,132,109990,1,0,0:0:0:0:
304,28,110145,1,0,0:0:0:0:
152,96,110298,1,0,0:0:0:0:
118,92,110374,1,0,0:0:0:0:
85,89,110451,1,0,0:0:0:0:
52,86,110528,1,0,0:0:0:0:
19,83,110605,1,0,0:0:0:0:
208,236,110759,2,0,L|302:226,1,95
156,300,111067,5,0,0:0:0:0:
129,261,111143,1,0,0:0:0:0:
129,214,111220,1,0,0:0:0:0:
156,176,111297,1,0,0:0:0:0:
200,160,111375,1,0,0:0:0:0:
224,119,111451,1,0,0:0:0:0:
223,73,111528,1,0,0:0:0:0:
195,34,111605,1,0,0:0:0:0:
150,16,111683,5,0,0:0:0:0:
180,52,111759,1,0,0:0:0:0:
223,73,111836,1,0,0:0:0:0:
270,74,111913,1,0,0:0:0:0:
313,57,111990,1,0,0:0:0:0:
356,74,112066,1,0,0:0:0:0:
386,110,112143,1,0,0:0:0:0:
393,157,112220,1,0,0:0:0:0:
377,201,112298,5,0,0:0:0:0:
449,335,112452,1,0,0:0:0:0:
493,273,112606,1,0,0:0:0:0:
453,208,112759,1,0,0:0:0:0:
456,189,112836,1,0,0:0:0:0:
459,170,112913,1,0,0:0:0:0:
462,151,112990,1,0,0:0:0:0:
465,132,113067,1,0,0:0:0:0:
316,203,113221,2,0,L|335:314,1,95
346,376,113529,5,0,0:0:0:0:
206,257,113683,1,0,0:0:0:0:
229,185,113836,1,0,0:0:0:0:
133,274,113990,1,0,0:0:0:0:
115,280,114067,1,0,0:0:0:0:
97,286,114144,1,0,0:0:0:0:
79,292,114221,1,0,0:0:0:0:
61,298,114298,1,0,0:0:0:0:
23,137,114452,2,0,L|113:166,1,95
269,213,114759,5,0,0:0:0:0:
117,238,114913,1,0,0:0:0:0:
247,126,115067,1,0,0:0:0:0:
247,126,115221,2,0,L|236:71,1,47.5
320,183,115375,2,0,L|337:129,1,47.5
345,271,115529,1,0,0:0:0:0:
152,123,115683,1,0,0:0:0:0:
411,193,115836,1,0,0:0:0:0:
184,201,115990,6,0,B|136:208|136:208|80:181,1,95
165,39,116298,1,0,0:0:0:0:
243,182,116452,1,0,0:0:0:0:
237,200,116529,1,0,0:0:0:0:
232,218,116606,2,0,L|246:270,1,47.5
266,336,116759,1,0,0:0:0:0:
378,288,116913,1,0,0:0:0:0:
170,296,117067,1,0,0:0:0:0:
170,296,117144,1,0,0:0:0:0:
170,296,117221,6,0,B|125:292|125:292|68:313,1,95
128,180,117529,1,0,0:0:0:0:
85,59,117683,2,0,B|130:63|130:63|187:42,1,95
202,34,117913,1,0,0:0:0:0:
229,39,117990,1,0,0:0:0:0:
252,55,118067,1,0,0:0:0:0:
267,78,118144,1,0,0:0:0:0:
215,220,118298,1,0,0:0:0:0:
202,234,118375,1,0,0:0:0:0:
190,248,118452,5,0,0:0:0:0:
337,218,118606,2,0,L|444:237,1,95
280,321,118913,2,0,L|220:312,1,47.5
174,372,119067,2,0,L|137:323,1,47.5
63,344,119221,1,0,0:0:0:0:
117,100,119375,1,0,0:0:0:0:
154,214,119529,1,0,0:0:0:0:
154,214,119606,1,0,0:0:0:0:
154,214,119683,6,0,L|258:200,1,95
451,170,119990,1,0,0:0:0:0:
315,243,120144,1,0,0:0:0:0:
312,260,120221,1,0,0:0:0:0:
308,280,120298,1,0,0:0:0:0:
304,300,120375,1,0,0:0:0:0:
300,320,120452,1,0,0:0:0:0:
148,336,120606,1,0,0:0:0:0:
224,204,120759,1,0,0:0:0:0:
220,184,120836,1,0,0:0:0:0:
216,164,120913,5,0,0:0:0:0:
189,23,121067,1,0,0:0:0:0:
125,193,121221,1,0,0:0:0:0:
120,211,121298,1,0,0:0:0:0:
115,229,121375,1,0,0:0:0:0:
110,247,121452,1,0,0:0:0:0:
105,265,121529,1,0,0:0:0:0:
139,296,121605,1,0,0:0:0:0:
185,303,121682,1,0,0:0:0:0:
228,283,121759,1,0,0:0:0:0:
252,243,121836,1,0,0:0:0:0:
272,201,121912,1,0,0:0:0:0:
314,179,121989,1,0,0:0:0:0:
360,184,122066,1,0,0:0:0:0:
395,216,122143,5,0,0:0:0:0:
174,214,122298,1,0,0:0:0:0:
327,260,122452,1,0,0:0:0:0:
314,179,122606,1,0,0:0:0:0:
318,160,122683,1,0,0:0:0:0:
321,141,122759,1,0,0:0:0:0:
325,122,122836,1,0,0:0:0:0:
329,103,122913,1,0,0:0:0:0:
165,177,123067,2,0,L|186:288,1,95
48,152,123375,5,0,0:0:0:0:
278,195,123529,1,0,0:0:0:0:
243,127,123683,1,0,0:0:0:0:
355,207,123836,1,0,0:0:0:0:
351,226,123913,1,0,0:0:0:0:
348,245,123989,1,0,0:0:0:0:
344,264,124066,1,0,0:0:0:0:
340,283,124143,1,0,0:0:0:0:
464,195,124298,2,0,L|446:101,1,95
264,18,124606,5,0,0:0:0:0:
264,18,124759,1,0,0:0:0:0:
329,107,124913,1,0,0:0:0:0:
72,18,125067,1,0,0:0:0:0:
75,36,125144,1,0,0:0:0:0:
78,54,125221,1,0,0:0:0:0:
81,72,125298,1,0,0:0:0:0:
84,90,125375,1,0,0:0:0:0:
107,278,125529,2,0,L|133:176,1,95
159,56,125836,5,0,0:0:0:0:
217,197,125990,1,0,0:0:0:0:
359,141,126144,1,0,0:0:0:0:
359,141,126298,2,0,L|383:201,1,47.5
331,246,126452,2,0,L|321:309,1,47.5
250,314,126606,1,0,0:0:0:0:
250,314,126683,1,0,0:0:0:0:
250,314,126759,2,0,P|209:337|145:323,1,95
154,123,127067,6,0,P|200:115|255:150,1,95
298,223,127375,1,0,0:0:0:0:
116,215,127529,2,0,B|132:142|132:142|121:104|121:104|141:32,1,190
334,50,127990,2,0,P|305:78|231:80,1,95
266,7,128298,5,0,0:0:0:0:
452,112,128452,1,0,0:0:0:0:
387,152,128606,1,0,0:0:0:0:
423,218,128759,1,0,0:0:0:0:
419,236,128836,1,0,0:0:0:0:
415,254,128913,2,0,P|391:271|368:278,1,47.5
284,340,129067,2,0,P|251:336|229:321,1,47.5
131,308,129221,2,0,L|109:205,1,95
71,21,129529,5,0,0:0:0:0:
71,21,129683,1,0,0:0:0:0:
94,151,129836,1,0,0:0:0:0:
228,146,129990,1,0,0:0:0:0:
232,164,130066,1,0,0:0:0:0:
237,182,130143,1,0,0:0:0:0:
242,201,130220,1,0,0:0:0:0:
247,219,130297,1,0,0:0:0:0:
222,305,130452,1,0,0:0:0:0:
323,154,130606,1,0,0:0:0:0:
158,201,130759,5,0,0:0:0:0:
133,239,130835,1,0,0:0:0:0:
87,243,130912,1,0,0:0:0:0:
57,208,130989,1,0,0:0:0:0:
67,163,131066,1,0,0:0:0:0:
99,127,131144,1,0,0:0:0:0:
98,79,131221,1,0,0:0:0:0:
105,61,131298,1,0,0:0:0:0:
113,43,131375,1,0,0:0:0:0:
139,81,131451,1,0,0:0:0:0:
181,102,131528,1,0,0:0:0:0:
228,101,131605,1,0,0:0:0:0:
268,77,131683,1,0,0:0:0:0:
314,45,131759,1,0,0:0:0:0:
368,58,131836,1,0,0:0:0:0:
395,106,131913,1,0,0:0:0:0:
379,159,131990,5,0,0:0:0:0:
463,151,132144,1,0,0:0:0:0:
471,235,132298,1,0,0:0:0:0:
387,243,132452,1,0,0:0:0:0:
96,172,133221,6,0,P|64:108|80:40,1,142.500005435944
176,96,133683,2,0,L|160:240,1,142.500005435944
72,264,134144,1,0,0:0:0:0:
456,304,134452,5,0,0:0:0:0:
372,296,134606,1,0,0:0:0:0:
288,288,134759,1,0,0:0:0:0:
204,280,134913,1,0,0:0:0:0:
424,224,135221,5,0,0:0:0:0:
64,108,135529,1,0,0:0:0:0:
44,192,135683,2,0,P|111:177|145:117,1,142.500005435944
216,164,136144,2,0,L|200:308,2,142.500005435944
220,80,136913,5,0,0:0:0:0:
220,80,137529,1,0,0:0:0:0:
292,128,137683,1,0,0:0:0:0:
376,128,137836,1,0,0:0:0:0:
456,100,137990,1,0,0:0:0:0:
496,24,138144,1,0,0:0:0:0:
504,28,138759,5,0,0:0:0:0:
476,272,138913,1,0,0:0:0:0:
468,188,139067,1,0,0:0:0:0:
460,104,139220,1,0,0:0:0:0:
396,236,139375,5,0,0:0:0:0:
8,28,139990,1,0,0:0:0:0:
8,340,140606,1,0,0:0:0:0:
396,132,141221,2,0,B|292:96|292:168|188:132,1,213.750008153916
116,86,141836,5,0,0:0:0:0:
193,47,141990,1,0,0:0:0:0:
188,132,142144,1,0,0:0:0:0:
121,1,142298,1,0,0:0:0:0:
265,94,142452,1,0,0:0:0:0:
110,170,142606,1,0,0:0:0:0:
271,9,142759,1,0,0:0:0:0:
332,230,142913,1,0,0:0:0:0:
260,178,143067,5,0,0:0:0:0:
412,193,143221,1,0,0:0:0:0:
325,314,143375,1,0,0:0:0:0:
340,142,143529,1,0,0:0:0:0:
405,276,143683,1,0,0:0:0:0:
254,263,143836,1,0,0:0:0:0:
419,110,143990,1,0,0:0:0:0:
398,359,144144,1,0,0:0:0:0:
182,213,144298,5,0,0:0:0:0:
332,230,144452,1,0,0:0:0:0:
248,348,144606,1,0,0:0:0:0:
254,263,144759,1,0,0:0:0:0:
325,314,144913,1,0,0:0:0:0:
175,297,145067,1,0,0:0:0:0:
260,178,145221,1,0,0:0:0:0:
171,378,145375,1,0,0:0:0:0:
98,338,145529,5,0,0:0:0:0:
36,120,145683,1,0,0:0:0:0:
104,254,145836,5,0,0:0:0:0:
41,35,145990,1,0,0:0:0:0:
31,205,146144,5,0,0:0:0:0:
193,47,146298,1,0,0:0:0:0:
116,86,146452,5,0,0:0:0:0:
343,55,146606,1,0,0:0:0:0:
254,263,146759,5,0,0:0:0:0:
265,94,146913,1,0,0:0:0:0:
498,78,147067,5,0,0:0:0:0:
340,142,147221,1,0,0:0:0:0:
484,244,147375,5,0,0:0:0:0:
426,27,147529,1,0,0:0:0:0:
492,159,147683,1,0,0:0:0:0:
405,276,147836,1,0,0:0:0:0:
419,110,147990,5,0,0:0:0:0:
477,327,148144,1,0,0:0:0:0:
254,263,148298,1,0,0:0:0:0:
412,193,148452,5,0,0:0:0:0:
248,348,148606,1,0,0:0:0:0:
188,132,148759,1,0,0:0:0:0:
254,263,148913,5,0,0:0:0:0:
21,375,149067,1,0,0:0:0:0:
175,297,149221,5,0,0:0:0:0:
26,290,149375,1,0,0:0:0:0:
110,170,149529,1,0,0:0:0:0:
248,348,149683,5,0,0:0:0:0:
104,254,149836,1,0,0:0:0:0:
260,178,149990,1,0,0:0:0:0:
98,338,150144,5,0,0:0:0:0:
36,120,150298,1,0,0:0:0:0:
271,9,150452,5,0,0:0:0:0:
182,213,150606,1,0,0:0:0:0:
116,86,150759,5,0,0:0:0:0:
340,142,150913,1,0,0:0:0:0:
254,263,151067,5,0,0:0:0:0:
193,47,151221,1,0,0:0:0:0:
419,110,151375,5,0,0:0:0:0:
188,132,151529,1,0,0:0:0:0:
256,192,151683,12,0,153221,0:0:0:0:
188,132,153529,6,0,L|200:304,1,166.25
199,297,154144,6,0,P|159:273|111:273,1,95
32,384,154452,2,0,L|128:376,1,95
208,288,154759,1,0,0:0:0:0:
56,184,154913,2,0,L|60:208,3,23.75
64,224,155067,2,0,L|72:128,1,95
80,32,155375,5,0,0:0:0:0:
264,104,155529,1,0,0:0:0:0:
256,112,155606,1,0,0:0:0:0:
248,120,155683,2,0,P|200:120|160:96,1,95
168,88,155913,1,0,0:0:0:0:
176,80,155990,2,0,L|168:168,1,47.5
224,224,156144,2,0,L|220:268,4,23.75
320,160,156452,1,0,0:0:0:0:
352,360,156606,6,0,P|352:312|328:272,1,95
160,272,156913,1,0,0:0:0:0:
116,380,157067,2,0,P|188:380|248:344,1,142.5
256,336,157375,1,0,0:0:0:0:
264,328,157452,1,0,0:0:0:0:
272,320,157529,2,0,L|280:224,1,95
112,104,157836,6,0,L|120:200,1,95
152,16,158144,2,0,P|64:16|16:96,1,190
208,96,158606,2,0,L|232:92,3,23.75
248,88,158759,2,0,P|248:136|264:184,1,95
344,320,159067,6,0,P|360:272|360:224,1,95
504,24,159375,2,0,P|464:80|464:152,1,142.5
472,160,159683,2,0,L|472:208,1,47.5
512,280,159836,2,0,L|512:312,3,23.75
512,320,159990,2,0,L|416:312,1,95
320,304,160298,5,0,0:0:0:0:
176,368,160452,1,0,0:0:0:0:
168,376,160529,1,0,0:0:0:0:
160,384,160606,2,0,L|256:376,1,95
328,296,160913,1,0,0:0:0:0:
144,144,161067,2,0,L|148:168,3,23.75
152,192,161221,2,0,L|56:184,1,95
256,240,161529,6,0,P|256:152|184:88,1,190
232,344,161990,2,0,P|280:344|320:320,1,95
512,352,162298,1,0,0:0:0:0:
504,344,162375,1,0,0:0:0:0:
496,336,162452,2,0,P|448:336|408:360,1,95
336,336,162683,1,0,0:0:0:0:
328,328,162759,2,0,L|336:280,1,47.5
304,192,162913,6,0,L|320:96,2,95
344,288,163375,1,0,0:0:0:0:
496,240,163529,2,0,L|472:236,3,23.75
456,232,163683,2,0,L|464:328,1,95
392,160,163990,6,0,P|432:136|480:136,1,95
296,184,164298,2,0,P|296:136|320:96,1,95
344,288,164606,2,0,P|256:288|192:216,1,190
296,184,165067,1,0,0:0:0:0:
384,24,165221,6,0,L|392:120,1,95
384,128,165452,1,0,0:0:0:0:
376,136,165529,2,0,P|424:120|472:120,1,95
512,216,165836,1,0,0:0:0:0:
336,256,165990,2,0,L|312:252,3,23.75
288,248,166144,2,0,L|192:232,1,95
96,272,166452,6,0,P|80:176|96:84,1,190
224,288,166913,2,0,P|232:336|224:384,1,95
328,240,167221,2,0,L|324:216,3,23.75
320,192,167375,2,0,P|312:144|320:96,1,95
376,8,167683,6,0,L|240:0,1,95
96,48,167990,2,0,P|168:48|224:88,1,142.5
256,176,168298,1,0,0:0:0:0:
252,188,168375,1,0,0:0:0:0:
248,200,168452,2,0,L|236:232,3,23.75
232,244,168606,2,0,P|280:244|320:268,1,95
176,320,168913,6,0,L|80:312,1,95
72,320,169144,1,0,0:0:0:0:
64,328,169221,2,0,P|72:280|64:232,1,95
0,160,169529,1,0,0:0:0:0:
80,64,169683,2,0,L|84:88,3,23.75
88,112,169836,2,0,L|184:120,1,95
264,64,170144,5,0,0:0:0:0:
416,152,170298,2,0,L|412:176,3,23.75
408,200,170452,2,0,L|312:208,1,95
248,280,170759,2,0,L|196:284,1,47.5
116,292,170913,2,0,L|72:296,4,23.75
168,184,171221,1,0,0:0:0:0:
312,336,171375,6,0,P|408:336|472:272,1,190
432,80,171836,2,0,P|368:144|368:240,1,190
440,72,172298,2,0,L|248:80,1,190
192,160,172759,2,0,P|80:160|0:72,1,237.5
8,64,173221,6,0,L|16:160,1,95
176,352,173529,2,0,L|184:256,1,95
360,44,173837,6,0,L|369:157,1,113.999996520996
282,317,174298,2,0,P|272:262|295:211,1,113.999996520996,0|0,0:0|2:0,0:0:0:0:
448,280,174759,1,0,0:0:0:0:
196,324,175067,6,0,L|139:317,1,56.9999982604981,0|0,0:0|2:0,0:0:0:0:
356,272,175375,1,0,0:0:0:0:
176,340,175529,2,0,B|118:333|118:333|68:356|68:356|0:348,1,170.999994781494
256,216,176298,6,0,L|249:272,1,56.9999982604981,0|0,0:0|2:0,0:0:0:0:
200,152,176606,1,0,0:0:0:0:
288,60,176759,2,0,P|342:48|392:74,1,113.999996520996,0|0,0:0|2:0,0:0:0:0:
204,68,177221,1,0,0:0:0:0:
440,156,177529,6,0,L|448:228,1,56.9999982604981
392,340,177836,2,0,L|385:283,1,56.9999982604981
304,168,178145,2,0,B|311:225|311:225|296:200|265:195,1,113.999996520996
88,232,178606,1,0,0:0:0:0:
148,312,178759,6,0,P|188:316|244:264,1,113.999996520996
136,304,179221,2,0,L|149:359,1,56.9999982604981
96,144,179683,1,0,0:0:0:0:
264,196,179990,6,0,L|384:184,1,113.999996520996
224,132,180452,2,0,P|201:149|187:173,1,56.9999982604981
268,352,180913,1,0,0:0:0:0:
291,81,181221,5,0,0:0:0:0:
291,81,181528,1,0,0:0:0:0:
161,260,181683,5,0,0:0:0:0:
161,260,181990,1,0,0:0:0:0:
372,192,182145,5,0,0:0:0:0:
372,192,182452,1,0,0:0:0:0:
161,123,182606,5,0,0:0:0:0:
161,123,182913,1,0,0:0:0:0:
291,302,183067,6,0,L|296:368,1,56.9999982604981
236,188,183375,2,0,L|232:244,1,56.9999982604981
108,176,183683,2,0,P|87:124|104:70,1,113.999996520996
236,188,184144,1,0,0:0:0:0:
128,308,184298,2,0,L|44:288,2,85.4999973907472
312,348,184913,6,0,P|340:336|376:336,1,56.9999982604981
468,208,185221,6,0,P|440:220|404:220,1,56.9999982604981
276,116,185529,2,0,P|312:158|314:214,1,113.999996520996
212,304,185990,1,0,0:0:0:0:
192,120,186144,6,0,L|203:64,1,56.9999982604981
180,192,186452,1,0,0:0:0:0:
280,40,186606,2,0,B|316:19|362:47|362:47|400:71|442:50,1,170.999994781494
192,120,187376,6,0,P|160:128|128:120,1,56.9999982604981
312,108,187683,2,0,L|320:176,1,56.9999982604981
244,344,187990,2,0,L|230:230,1,113.999996520996
136,296,188452,1,0,0:0:0:0:
44,360,188605,6,0,B|30:247|30:247|76:212|76:212|84:152,1,227.999993041992
208,32,189529,1,0,0:0:0:0:
60,88,189836,6,0,P|32:82|9:66,1,56.9999982604981
160,176,190144,2,0,L|148:247,1,56.9999982604981
264,103,190452,2,0,P|316:84|369:103,1,113.999996520996
320,220,190912,1,0,0:0:0:0:
192,136,191067,6,0,B|168:80|220:36|220:36|160:4|160:4|132:16|126:35,1,227.999993041992
76,228,191836,1,0,0:0:0:0:
155,217,191990,1,0,0:0:0:0:
234,207,192144,1,0,0:0:0:0:
132,300,192298,6,0,L|124:376,1,56.9999982604981
300,236,192606,2,0,P|308:208|304:180,1,56.9999982604981
244,336,192913,2,0,B|312:320|312:320|356:328|356:328|438:308,1,199.499993911743,0|0,0:0|2:0,0:0:0:0:
438,307,193529,6,0,P|400:312|342:229,2,142.5
414,240,194759,2,0,B|406:182|406:182|418:153|418:153|410:96,1,142.5
410,100,195683,1,0,0:0:0:0:
354,151,195990,5,0,0:0:0:0:
356,169,196144,1,0,0:0:0:0:
358,187,196298,1,0,0:0:0:0:
360,205,196452,1,0,0:0:0:0:
362,223,196606,2,0,L|347:327,1,95
177,318,197221,5,0,0:0:0:0:
247,345,197375,1,0,0:0:0:0:
286,280,197529,2,0,L|272:185,1,95
247,35,198144,1,0,0:0:0:0:
258,110,198452,6,0,P|203:103|171:29,1,142.5
170,29,199067,1,0,0:0:0:0:
244,9,199375,1,0,0:0:0:0:
304,55,199683,6,0,L|283:217,1,142.5
274,271,200298,1,0,0:0:0:0:
201,294,200452,1,0,0:0:0:0:
274,271,200606,2,0,P|308:283|338:278,1,47.5
388,251,200913,6,0,P|367:278|377:345,1,95
490,341,201375,2,0,P|500:308|468:248,1,95
434,192,201836,2,0,P|426:165|433:136,1,47.5
492,103,202144,5,0,0:0:0:0:
492,103,202298,2,0,P|470:116|353:104,1,142.5
327,38,203067,1,0,0:0:0:0:
394,175,203375,6,0,L|381:284,1,95
388,287,203836,1,0,0:0:0:0:
338,344,203990,2,0,P|308:354|254:336,2,71.25
410,369,204606,5,0,0:0:0:0:
303,261,204913,1,0,0:0:0:0:
323,110,205221,1,0,0:0:0:0:
455,35,205529,1,0,0:0:0:0:
323,110,205836,5,0,0:0:0:0:
304,115,205990,1,0,0:0:0:0:
285,121,206144,1,0,0:0:0:0:
384,154,206298,1,0,0:0:0:0:
251,54,206452,2,0,L|157:43,1,95
118,190,207067,5,0,0:0:0:0:
81,261,207221,2,0,P|125:270|194:211,1,142.5
202,58,207990,1,0,0:0:0:0:
228,275,208298,6,0,B|332:310|306:238|412:272,2,190
88,48,210144,5,0,0:0:0:0:
424,48,210759,1,0,0:0:0:0:
256,344,211529,1,0,0:0:0:0:
244,364,211683,1,0,0:0:0:0:
268,364,211836,1,0,0:0:0:0:
256,272,211990,5,0,0:0:0:0:
480,240,212606,1,0,0:0:0:0:
32,240,213221,6,0,B|96:235|96:235|153:252|153:252|218:248,1,190
232,240,214298,1,0,0:0:0:0:
232,240,214375,1,0,0:0:0:0:
232,240,214452,2,0,B|224:288|224:288|232:336,1,95
464,288,215067,2,0,B|472:240|472:240|464:192,1,95
336,72,215683,6,0,P|432:72|496:8,1,190
512,108,216452,1,0,0:0:0:0:
452,188,216606,1,0,0:0:0:0:
352,196,216759,1,0,0:0:0:0:
272,136,216913,6,0,L|299:325,1,190
298,324,218144,6,0,B|392:300|387:363|482:340,1,190
452,224,219067,1,0,0:0:0:0:
200,168,219375,6,0,B|105:144|110:207|15:184,1,190
46,68,220298,1,0,0:0:0:0:
170,285,220606,6,0,P|252:280|316:200,1,190
328,176,221683,1,0,0:0:0:0:
328,176,221759,1,0,0:0:0:0:
328,176,221836,2,0,L|301:365,1,190
175,222,222759,1,0,0:0:0:0:
292,72,223067,6,0,P|374:77|438:157,1,190
320,192,223990,1,0,0:0:0:0:
202,157,224298,2,0,P|169:83|180:24,1,142.5
312,192,224913,2,0,L|304:264,2,71.25
453,298,225529,6,0,L|437:156,1,142.5
407,56,226144,2,0,P|443:52|481:62,2,71.25
332,132,226759,2,0,P|262:141|199:109,1,142.5
252,228,227375,2,0,P|260:260|256:300,1,71.25
108,336,227836,1,0,0:0:0:0:
108,336,227913,1,0,0:0:0:0:
108,336,227990,6,0,B|113:272|113:272|96:215|96:215|100:150,1,190
100,148,228913,1,0,0:0:0:0:
116,43,229067,1,0,0:0:0:0:
199,109,229221,2,0,P|208:152|192:208,1,95
313,107,229836,2,0,P|302:62|311:16,1,95
409,55,230452,2,0,B|414:122|414:122|397:179|397:179|402:243,1,190
256,192,231683,12,0,232913,0:0:0:0:
401,242,235221,6,0,L|392:96,1,142.5
284,292,236452,2,0,P|340:252|412:252,1,142.5
488,312,237067,1,0,0:0:0:0:
496,216,237221,1,0,0:0:0:0:
504,120,237375,1,0,0:0:0:0:
512,24,237529,1,0,0:0:0:0:
512,24,237683,6,0,P|456:64|384:64,1,142.5
376,56,238452,1,0,0:0:0:0:
384,152,238606,1,0,0:0:0:0:
288,160,238759,1,0,0:0:0:0:
280,64,238913,2,0,L|136:48,1,142.5
128,40,239836,1,0,0:0:0:0:
128,40,240144,6,0,P|136:112|128:184,1,142.5
64,256,240759,2,0,L|16:248,1,47.5
224,184,241067,2,0,L|272:192,1,47.5
200,384,241375,6,0,P|160:328|160:256,1,142.5
216,176,241990,1,0,0:0:0:0:
312,184,242144,1,0,0:0:0:0:
408,192,242298,1,0,0:0:0:0:
504,200,242452,1,0,0:0:0:0:
464,104,242606,6,0,P|464:56|488:16,1,95
487,16,243067,2,0,L|391:8,1,95
296,0,243529,1,0,0:0:0:0:
336,88,243683,1,0,0:0:0:0:
240,80,243836,2,0,L|144:72,1,95
48,64,244298,1,0,0:0:0:0:
88,152,244452,5,0,0:0:0:0:
56,56,244606,1,0,0:0:0:0:
232,72,244759,1,0,0:0:0:0:
304,8,244913,1,0,0:0:0:0:
344,96,245067,6,0,L|332:216,1,113.999996520996
384,344,245529,2,0,P|380:312|388:284,1,56.9999982604981
508,200,245836,1,0,0:0:0:0:
300,288,246144,1,0,0:0:0:0:
212,208,246298,6,0,P|156:201|108:231,1,113.999996520996
136,359,246759,2,0,P|139:331|135:303,1,56.9999982604981
36,192,247068,1,0,0:0:0:0:
16,116,247222,1,0,0:0:0:0:
64,52,247376,1,0,0:0:0:0:
188,124,247529,6,0,P|244:123|288:89,1,113.999996520996
380,8,247990,2,0,L|372:72,1,56.9999982604981
300,184,248298,1,0,0:0:0:0:
314,263,248452,1,0,0:0:0:0:
328,343,248606,1,0,0:0:0:0:
172,288,248759,6,0,P|116:292|78:333,1,113.999996520996
184,296,249221,2,0,L|164:220,1,56.9999982604981
196,304,249683,6,0,L|176:228,1,56.9999982604981
88,104,249990,2,0,P|135:133|191:131,1,113.999996520996
308,56,250452,2,0,P|280:47|252:51,1,56.9999982604981
248,208,250759,2,0,P|275:216|303:212,2,56.9999982604981
176,48,251221,6,0,L|182:161,1,113.999996520996
308,56,251683,2,0,L|304:112,1,56.9999982604981
392,244,251990,2,0,P|381:217|380:189,1,56.9999982604981
408,112,252298,1,0,0:0:0:0:
448,296,252452,6,0,L|334:289,1,113.999996520996
215,336,252913,2,0,L|272:340,1,56.9999982604981
348,212,253221,5,0,0:0:0:0:
271,231,253375,1,0,0:0:0:0:
195,250,253529,1,0,0:0:0:0:
29,231,253683,2,0,P|72:197|128:204,1,113.999996520996
105,323,254144,2,0,L|92:267,1,56.9999982604981
192,164,254452,1,0,0:0:0:0:
208,84,254607,1,0,0:0:0:0:
228,8,254760,1,0,0:0:0:0:
256,224,254914,5,0,0:0:0:0:
256,224,255375,1,0,0:0:0:0:
440,56,256145,5,0,0:0:0:0:
440,56,256607,1,0,0:0:0:0:
396,124,256759,2,0,L|405:180,1,56.9999982604981
361,296,257067,2,0,L|352:240,1,56.9999982604981
270,147,257375,5,0,0:0:0:0:
270,147,257836,1,0,0:0:0:0:
80,184,258144,2,0,L|140:172,2,56.9999982604981
240,220,258606,5,0,0:0:0:0:
240,220,259066,1,0,0:0:0:0:
172,264,259529,6,0,P|160:232|160:204,1,56.9999982604981
320,200,259836,2,0,L|375:188,1,56.9999982604981
260,140,260144,1,0,0:0:0:0:
296,280,260298,2,0,L|284:352,1,56.9999982604981
144,360,260606,1,0,0:0:0:0:
132,332,260683,1,0,0:0:0:0:
144,308,260760,1,0,0:0:0:0:
142,277,260837,1,0,0:0:0:0:
160,256,260913,1,0,0:0:0:0:
168,84,261067,6,0,L|179:139,1,56.9999982604981
212,16,261375,1,0,0:0:0:0:
260,140,261530,1,0,0:0:0:0:
368,60,261683,1,0,0:0:0:0:
396,56,261759,1,0,0:0:0:0:
424,52,261836,1,0,0:0:0:0:
452,48,261913,1,0,0:0:0:0:
480,44,261990,1,0,0:0:0:0:
404,156,262144,1,0,0:0:0:0:
295,75,262298,6,0,P|295:47|303:20,1,56.9999982604981
424,52,262606,1,0,0:0:0:0:
324,196,262760,2,0,L|256:188,1,56.9999982604981
96,264,263067,1,0,0:0:0:0:
121,250,263143,1,0,0:0:0:0:
149,248,263220,1,0,0:0:0:0:
176,257,263297,1,0,0:0:0:0:
197,276,263374,1,0,0:0:0:0:
132,376,263529,6,0,L|140:316,1,56.9999982604981
264,316,263835,1,0,0:0:0:0:
88,248,263990,2,0,L|96:188,1,56.9999982604981
168,156,264298,1,0,0:0:0:0:
240,120,264452,1,0,0:0:0:0:
312,88,264606,1,0,0:0:0:0:
172,76,264759,1,0,0:0:0:0:
308,168,264913,5,0,0:0:0:0:
442,123,265067,1,0,0:0:0:0:
411,212,265221,1,0,0:0:0:0:
312,88,265375,1,0,0:0:0:0:
318,70,265452,1,0,0:0:0:0:
324,52,265529,1,0,0:0:0:0:
330,34,265606,1,0,0:0:0:0:
336,16,265683,1,0,0:0:0:0:
442,123,265836,2,0,L|407:226,1,95
367,335,266144,5,0,0:0:0:0:
361,142,266298,1,0,0:0:0:0:
411,212,266452,1,0,0:0:0:0:
286,320,266606,1,0,0:0:0:0:
266,319,266683,1,0,0:0:0:0:
247,318,266759,1,0,0:0:0:0:
227,317,266836,1,0,0:0:0:0:
207,317,266913,1,0,0:0:0:0:
104,169,267067,2,0,L|222:192,1,95
371,217,267375,5,0,0:0:0:0:
178,255,267529,1,0,0:0:0:0:
223,123,267683,1,0,0:0:0:0:
223,123,267836,2,0,L|215:76,1,47.5
302,78,267990,2,0,L|329:39,1,47.5
378,111,268144,1,0,0:0:0:0:
345,319,268298,1,0,0:0:0:0:
419,226,268452,1,0,0:0:0:0:
240,329,268606,6,0,L|144:320,1,95
85,159,268913,1,0,0:0:0:0:
230,249,269067,1,0,0:0:0:0:
244,261,269144,1,0,0:0:0:0:
258,273,269221,2,0,L|311:278,1,47.5
392,232,269375,2,0,L|421:194,1,47.5
406,375,269529,2,0,L|386:331,1,47.5
319,200,269683,1,0,0:0:0:0:
308,184,269759,1,0,0:0:0:0:
297,167,269836,6,0,L|315:63,1,95
399,21,270144,1,0,0:0:0:0:
222,121,270298,2,0,L|205:214,1,95
209,233,270529,1,0,0:0:0:0:
212,251,270606,2,0,L|203:297,1,47.5
192,373,270759,1,0,0:0:0:0:
120,218,270913,1,0,0:0:0:0:
308,256,271067,5,0,0:0:0:0:
266,54,271221,2,0,L|257:158,1,95
248,332,271529,1,0,0:0:0:0:
263,342,271606,1,0,0:0:0:0:
278,352,271683,2,0,L|338:348,1,47.5
442,251,271836,2,0,L|394:254,1,47.5
265,170,271990,1,0,0:0:0:0:
402,332,272144,1,0,0:0:0:0:
242,241,272298,6,0,B|191:250|191:250|131:233,1,95
72,104,272606,1,0,0:0:0:0:
180,322,272759,1,0,0:0:0:0:
180,322,272836,1,0,0:0:0:0:
180,322,272913,2,0,L|279:303,1,95
462,272,273221,1,0,0:0:0:0:
319,241,273375,1,0,0:0:0:0:
323,222,273452,1,0,0:0:0:0:
327,203,273529,5,0,0:0:0:0:
349,50,273683,1,0,0:0:0:0:
209,163,273836,1,0,0:0:0:0:
230,193,273912,1,0,0:0:0:0:
227,230,273989,1,0,0:0:0:0:
200,257,274066,1,0,0:0:0:0:
163,260,274143,1,0,0:0:0:0:
126,260,274220,1,0,0:0:0:0:
95,281,274297,1,0,0:0:0:0:
80,315,274374,1,0,0:0:0:0:
85,353,274452,2,0,P|65:365|35:368,1,47.5
264,287,274606,2,0,P|252:307|228:324,1,47.5
367,129,274759,5,0,0:0:0:0:
360,272,274913,1,0,0:0:0:0:
407,331,275067,1,0,0:0:0:0:
434,98,275221,1,0,0:0:0:0:
429,79,275298,1,0,0:0:0:0:
424,60,275375,1,0,0:0:0:0:
419,41,275452,1,0,0:0:0:0:
414,22,275529,1,0,0:0:0:0:
293,123,275683,2,0,L|322:235,1,95
146,350,275990,5,0,0:0:0:0:
400,258,276144,1,0,0:0:0:0:
389,333,276298,1,0,0:0:0:0:
228,206,276452,1,0,0:0:0:0:
232,187,276529,1,0,0:0:0:0:
236,168,276606,1,0,0:0:0:0:
240,149,276683,1,0,0:0:0:0:
244,130,276759,1,0,0:0:0:0:
341,14,276913,2,0,L|363:113,1,95
411,305,277221,5,0,0:0:0:0:
411,305,277375,1,0,0:0:0:0:
272,351,277529,1,0,0:0:0:0:
370,189,277683,1,0,0:0:0:0:
373,170,277759,1,0,0:0:0:0:
376,151,277836,1,0,0:0:0:0:
379,132,277913,1,0,0:0:0:0:
383,113,277990,1,0,0:0:0:0:
158,189,278144,2,0,L|174:282,1,95
376,332,278452,5,0,0:0:0:0:
207,362,278606,1,0,0:0:0:0:
95,233,278759,1,0,0:0:0:0:
95,233,278913,2,0,P|82:211|76:188,1,47.5
150,143,279067,2,0,P|154:117|168:97,1,47.5
254,106,279221,1,0,0:0:0:0:
254,106,279298,1,0,0:0:0:0:
254,106,279375,2,0,B|296:125|296:125|354:117,1,95
478,40,279683,6,0,P|447:69|439:125,1,95
389,343,279990,1,0,0:0:0:0:
475,301,280144,2,0,B|402:316|402:316|371:301|371:301|279:314,1,190
97,332,280606,2,0,P|129:321|159:258,1,95
121,39,280913,5,0,0:0:0:0:
90,260,281067,1,0,0:0:0:0:
227,157,281221,1,0,0:0:0:0:
310,273,281375,1,0,0:0:0:0:
319,289,281452,1,0,0:0:0:0:
328,305,281529,6,0,P|351:319|390:321,1,47.5
177,205,281683,2,0,P|183:231|209:260,1,47.5
404,249,281836,6,0,P|429:244|454:227,1,47.5
266,79,281990,2,0,P|251:100|246:129,1,47.5
279,348,282144,6,0,P|299:304|290:248,1,95
207,17,282452,1,0,0:0:0:0:
358,104,282606,1,0,0:0:0:0:
353,122,282683,1,0,0:0:0:0:
348,140,282760,1,0,0:0:0:0:
343,158,282837,1,0,0:0:0:0:
338,176,282914,1,0,0:0:0:0:
246,197,283067,1,0,0:0:0:0:
431,162,283221,1,0,0:0:0:0:
225,270,283375,5,0,0:0:0:0:
228,315,283451,1,0,0:0:0:0:
192,344,283528,1,0,0:0:0:0:
149,331,283605,1,0,0:0:0:0:
134,288,283682,1,0,0:0:0:0:
100,255,283759,1,0,0:0:0:0:
53,247,283836,1,0,0:0:0:0:
69,237,283913,1,0,0:0:0:0:
85,227,283990,1,0,0:0:0:0:
47,199,284066,1,0,0:0:0:0:
35,153,284143,1,0,0:0:0:0:
54,111,284220,1,0,0:0:0:0:
95,89,284298,1,0,0:0:0:0:
149,108,284375,1,0,0:0:0:0:
206,108,284452,1,0,0:0:0:0:
256,80,284529,1,0,0:0:0:0:
283,29,284606,6,0,L|288:128,1,95
104,160,284913,1,0,0:0:0:0:
296,224,285067,1,0,0:0:0:0:
330,232,285143,1,0,0:0:0:0:
365,229,285220,1,0,0:0:0:0:
398,215,285298,1,0,0:0:0:0:
424,191,285375,2,0,L|420:240,1,47.5
348,136,285529,2,0,L|343:41,1,95
508,176,285836,6,0,L|498:273,1,95
369,346,286144,1,0,0:0:0:0:
227,299,286298,1,0,0:0:0:0:
192,290,286374,1,0,0:0:0:0:
157,293,286451,1,0,0:0:0:0:
124,307,286529,1,0,0:0:0:0:
98,331,286606,2,0,L|102:282,1,47.5
208,188,286759,2,0,L|163:208,1,47.5
28,164,286913,2,0,L|67:192,1,47.5
227,299,287067,5,0,0:0:0:0:
313,227,287221,1,0,0:0:0:0:
132,116,287375,2,0,L|228:112,1,95
264,124,287606,1,0,0:0:0:0:
257,86,287682,1,0,0:0:0:0:
264,47,287759,1,0,0:0:0:0:
284,12,287836,1,0,0:0:0:0:
368,80,287990,2,0,L|416:78,1,47.5
417,183,288144,2,0,L|442:223,1,47.5
364,292,288298,6,0,L|319:377,1,95
297,192,288606,1,0,0:0:0:0:
148,303,288759,1,0,0:0:0:0:
141,307,288836,1,0,0:0:0:0:
136,312,288913,2,0,L|184:308,1,47.5
140,152,289067,2,0,L|119:195,1,47.5
279,235,289221,2,0,L|251:195,1,47.5
248,32,289375,2,0,L|233:76,1,47.5
140,152,289529,5,0,0:0:0:0:
346,120,289683,2,0,L|439:103,1,95
270,314,289990,1,0,0:0:0:0:
235,323,290066,1,0,0:0:0:0:
200,322,290143,1,0,0:0:0:0:
166,310,290220,1,0,0:0:0:0:
138,290,290298,2,0,L|184:281,1,47.5
356,347,290452,2,0,L|449:330,1,95
443,108,290759,5,0,0:0:0:0:
255,224,290913,1,0,0:0:0:0:
449,330,291067,1,0,0:0:0:0:
388,220,291221,1,0,0:0:0:0:
392,228,291297,1,0,0:0:0:0:
396,236,291375,2,0,L|349:227,1,47.5
131,183,291529,1,0,0:0:0:0:
127,191,291605,1,0,0:0:0:0:
123,199,291683,2,0,L|169:190,1,47.5
336,60,291836,2,0,L|289:51,1,47.5
136,100,291990,6,0,B|144:52|144:52|132:8,1,95
48,60,292298,1,0,0:0:0:0:
229,121,292452,1,0,0:0:0:0:
222,155,292528,1,0,0:0:0:0:
215,190,292605,1,0,0:0:0:0:
208,225,292682,1,0,0:0:0:0:
202,260,292759,1,0,0:0:0:0:
40,340,292913,2,0,L|21:246,1,95
342,143,293221,6,0,L|323:236,1,95
282,352,293529,1,0,0:0:0:0:
328,359,293605,1,0,0:0:0:0:
374,347,293682,1,0,0:0:0:0:
410,317,293759,1,0,0:0:0:0:
432,275,293836,1,0,0:0:0:0:
434,293,293912,1,0,0:0:0:0:
437,310,293989,1,0,0:0:0:0:
440,328,294066,1,0,0:0:0:0:
443,346,294144,5,0,0:0:0:0:
452,293,294220,1,0,0:0:0:0:
460,239,294297,1,0,0:0:0:0:
469,187,294374,1,0,0:0:0:0:
478,134,294452,6,0,L|496:28,1,95
308,60,294759,1,0,0:0:0:0:
332,236,294913,1,0,0:0:0:0:
332,236,294990,1,0,0:0:0:0:
332,236,295067,1,0,0:0:0:0:
332,236,295144,1,0,0:0:0:0:
332,236,295221,2,0,L|339:282,1,47.5
404,72,295375,1,0,0:0:0:0:
191,120,295529,1,0,0:0:0:0:
416,336,295683,6,0,B|432:292|432:292|424:244,1,95
320,128,295990,1,0,0:0:0:0:
184,280,296144,1,0,0:0:0:0:
191,279,296221,1,0,0:0:0:0:
199,279,296298,2,0,L|267:275,1,47.5
412,356,296452,2,0,L|364:353,1,47.5
216,196,296606,1,0,0:0:0:0:
472,96,296760,1,0,0:0:0:0:
430,367,296913,5,0,0:0:0:0:
384,224,297067,1,0,0:0:0:0:
479,272,297221,1,0,0:0:0:0:
336,318,297375,1,0,0:0:0:0:
301,326,297451,1,0,0:0:0:0:
266,324,297528,1,0,0:0:0:0:
233,311,297605,1,0,0:0:0:0:
205,289,297683,2,0,L|212:336,1,47.5
288,236,297836,2,0,L|294:189,1,47.5
100,236,297990,2,0,L|106:282,1,47.5
182,182,298144,6,0,L|195:88,1,95
107,123,298452,1,0,0:0:0:0:
270,146,298606,1,0,0:0:0:0:
304,145,298683,1,0,0:0:0:0:
337,133,298759,1,0,0:0:0:0:
366,112,298836,1,0,0:0:0:0:
386,83,298913,2,0,L|392:129,1,47.5
296,48,299067,2,0,L|302:1,1,47.5
476,118,299221,2,0,L|482:164,1,47.5
416,316,299375,6,0,B|400:272|400:272|408:224,1,95
491,262,299683,1,0,0:0:0:0:
320,328,299836,1,0,0:0:0:0:
284,323,299912,1,0,0:0:0:0:
249,318,299989,1,0,0:0:0:0:
214,313,300066,1,0,0:0:0:0:
178,308,300144,2,0,L|188:368,1,47.5
266,197,300298,2,0,L|280:103,1,95
15,148,300606,5,0,0:0:0:0:
192,138,300759,1,0,0:0:0:0:
3,53,300913,1,0,0:0:0:0:
108,188,301067,1,0,0:0:0:0:
112,172,301144,1,0,0:0:0:0:
116,156,301221,2,0,B|120:132|120:132|116:108,1,47.5
184,16,301375,2,0,B|180:40|180:40|183:62,1,47.5
265,243,301529,2,0,B|269:219|269:219|265:195,1,47.5
368,21,301683,2,0,B|364:45|364:45|367:67,1,47.5
410,313,301836,6,0,L|429:214,1,95
464,44,302144,1,0,0:0:0:0:
293,101,302298,1,0,0:0:0:0:
296,105,302374,1,0,0:0:0:0:
300,110,302451,1,0,0:0:0:0:
304,114,302528,1,0,0:0:0:0:
308,120,302606,2,0,L|248:112,1,47.5
112,28,302759,2,0,B|119:73|119:73|111:121,1,95
40,228,303067,5,0,0:0:0:0:
83,245,303143,1,0,0:0:0:0:
130,245,303220,1,0,0:0:0:0:
174,228,303297,1,0,0:0:0:0:
208,195,303374,1,0,0:0:0:0:
241,162,303452,1,0,0:0:0:0:
285,144,303529,1,0,0:0:0:0:
332,144,303606,1,0,0:0:0:0:
376,162,303682,1,0,0:0:0:0:
409,194,303759,1,0,0:0:0:0:
427,238,303836,5,0,0:0:0:0:
388,212,303913,1,0,0:0:0:0:
360,176,303990,1,0,0:0:0:0:
352,128,304067,1,0,0:0:0:0:
365,83,304144,1,0,0:0:0:0:
395,47,304221,1,0,0:0:0:0:
440,24,304298,5,0,0:0:0:0:
512,88,304913,1,0,0:0:0:0:
472,176,305375,5,0,0:0:0:0:
472,176,305452,1,0,0:0:0:0:
472,176,305529,1,0,0:0:0:0:
344,96,305836,1,0,0:0:0:0:
232,200,306143,1,0,0:0:0:0:
288,344,306451,1,0,0:0:0:0:
440,328,306759,1,0,0:0:0:0:
448,320,307375,5,0,0:0:0:0:
356,332,307529,1,0,0:0:0:0:
264,344,307683,1,0,0:0:0:0:
172,356,307836,1,0,0:0:0:0:
80,368,307990,5,0,0:0:0:0:
96,272,308606,1,0,0:0:0:0:
8,304,309221,1,0,0:0:0:0:
320,72,309836,5,0,0:0:0:0:
192,152,310144,1,0,0:0:0:0:
176,0,310452,1,0,0:0:0:0:
480,224,311067,5,0,0:0:0:0:
512,376,311375,1,0,0:0:0:0:
368,328,311683,5,0,0:0:0:0:
352,240,312298,1,0,0:0:0:0:
440,264,312759,1,0,0:0:0:0:
440,264,312836,1,0,0:0:0:0:
440,264,312913,2,0,L|448:120,1,142.5
447,121,313529,1,0,0:0:0:0:
360,248,313836,1,0,0:0:0:0:
480,344,314144,5,0,0:0:0:0:
168,120,314759,5,0,0:0:0:0:
40,40,315067,1,0,0:0:0:0:
24,192,315375,1,0,0:0:0:0:
32,200,315836,5,0,0:0:0:0:
80,280,315990,2,0,L|72:352,2,71.25
80,280,316606,1,0,0:0:0:0:
224,160,317221,2,0,L|216:88,2,71.25
224,160,317837,1,0,0:0:0:0:
360,312,318452,2,0,L|352:384,1,71.25
248,264,318913,5,0,0:0:0:0:
248,264,318990,1,0,0:0:0:0:
248,264,319067,2,0,P|312:200|408:200,1,190
416,192,319990,1,0,0:0:0:0:
408,288,320144,1,0,0:0:0:0:
400,384,320298,5,0,0:0:0:0:
488,344,320452,1,0,0:0:0:0:
328,232,320606,1,0,0:0:0:0:
504,152,320759,5,0,0:0:0:0:
504,152,320836,1,0,0:0:0:0:
504,152,320913,1,0,0:0:0:0:
488,148,320990,1,0,0:0:0:0:
472,144,321067,1,0,0:0:0:0:
456,140,321144,1,0,0:0:0:0:
440,136,321221,1,0,0:0:0:0:
424,132,321298,1,0,0:0:0:0:
408,128,321375,1,0,0:0:0:0:
392,124,321452,1,0,0:0:0:0:
376,120,321529,1,0,0:0:0:0:
