osu file format v14

[General]
AudioFilename: TearVid-Long mix-.mp3
AudioLeadIn: 2000
PreviewTime: 173583
Countdown: 0
SampleSet: Soft
StackLeniency: 0.7
Mode: 0
LetterboxInBreaks: 0
WidescreenStoryboard: 0

[Editor]
Bookmarks: 37891,131737,141583,212968,230044
DistanceSpacing: 1.4
BeatDivisor: 4
GridSize: 4
TimelineZoom: 2.999999

[Metadata]
Title:TearVid -Long mix-
TitleUnicode:TearVid -Long mix-
Artist:An
ArtistUnicode:An
Creator:DaxMasterix
Version:Shiiruno
Source:
Tags:BOF 2011 Intersection of conflict vividness.pf reku artcore bms of fighters AcuticNotes electronic instrumental
BeatmapID:569094
BeatmapSetID:247161

[Difficulty]
HPDrainRate:6.5
CircleSize:4
OverallDifficulty:9.2
ApproachRate:9.2
SliderMultiplier:1.6
SliderTickRate:1

[Events]
//Background and Video events
0,0,"tearvid.jpg",0,0
//Break Periods
2,134400,140983
2,193477,207445
//Storyboard Layer 0 (Background)
//Storyboard Layer 1 (Fail)
//Storyboard Layer 2 (Pass)
//Storyboard Layer 3 (Foreground)
//Storyboard Layer 4 (Overlay)
//Storyboard Sound Samples

[TimingPoints]
47,307.692307692308,4,2,0,35,1,0
1277,-400,4,2,1,35,0,0
2507,-200,4,2,1,35,0,0
11123,-100,4,1,1,45,0,0
13892,-200,4,1,0,45,0,0
14199,-100,4,1,0,45,0,0
18508,-100,4,2,0,35,0,0
20970,-100,4,2,1,60,0,0
23431,-100,4,1,1,60,0,0
61585,-200,4,2,1,60,0,0
62200,-200,4,2,1,100,0,0
62816,-200,4,2,1,40,0,0
72662,-200,4,1,1,60,0,0
82354,-133.333333333333,4,1,0,60,0,0
82431,-133.333333333333,4,2,0,30,0,0
82816,-133.333333333333,4,1,0,60,0,0
82893,-133.333333333333,4,2,0,30,0,0
83585,-133.333333333333,4,1,0,60,0,0
83662,-133.333333333333,4,2,0,30,0,0
84046,-133.333333333333,4,1,0,60,0,0
84200,-133.333333333333,4,2,0,30,0,0
84816,-133.333333333333,4,1,0,60,0,0
84893,-133.333333333333,4,2,0,30,0,0
85277,-133.333333333333,4,1,0,60,0,0
85354,-133.333333333333,4,2,0,30,0,0
86046,-133.333333333333,4,1,0,60,0,0
86123,-133.333333333333,4,2,0,30,0,0
86508,-133.333333333333,4,1,0,60,0,0
86585,-133.333333333333,4,2,0,30,0,0
87277,-100,4,1,1,40,0,0
92354,-100,4,1,1,60,0,1
101277,-100,4,2,2,70,0,1
102200,-100,4,1,1,60,0,1
110816,-100,4,2,2,70,0,0
112047,-100,4,1,1,60,0,1
120970,-100,4,2,2,70,0,1
121893,-100,4,1,1,60,0,1
130508,-100,4,2,1,70,0,1
131739,-100,4,1,1,60,0,0
131816,-100,4,2,1,10,0,0
141583,-100,4,2,0,50,0,0
141739,-100,4,2,0,20,0,0
142200,-100,4,2,0,47,0,0
142354,-100,4,2,0,20,0,0
142816,-100,4,2,0,45,0,0
142970,-100,4,2,0,20,0,0
143431,-100,4,2,0,42,0,0
143585,-100,4,2,0,20,0,0
144047,-100,4,2,0,40,0,0
144200,-100,4,2,0,20,0,0
144662,-100,4,2,0,37,0,0
144816,-100,4,2,0,20,0,0
145277,-100,4,2,0,35,0,0
145431,-100,4,2,0,20,0,0
145893,-100,4,2,0,32,0,0
146047,-100,4,2,0,20,0,0
146508,-100,4,2,0,30,0,0
146662,-100,4,2,0,20,0,0
147123,-100,4,2,0,27,0,0
147277,-100,4,2,0,20,0,0
147739,-100,4,2,0,25,0,0
147893,-100,4,2,0,20,0,0
148354,-100,4,2,0,22,0,0
148508,-100,4,2,0,20,0,0
150200,-100,4,2,0,15,0,0
151431,-100,4,2,1,90,0,0
153277,-100,4,2,1,40,0,0
153893,-100,4,1,1,60,0,0
172970,-100,4,2,1,100,0,0
173585,-200,4,1,1,60,0,0
180970,-200,4,1,0,60,0,0
183431,-200,4,1,1,60,0,0
208045,-200,4,2,1,10,0,0
208662,-200,4,2,1,20,0,0
209277,-200,4,2,1,30,0,0
209893,-200,4,2,1,40,0,0
210508,-200,4,2,1,50,0,0
211739,-200,4,2,1,60,0,0
212816,-200,4,2,1,5,0,0
212970,-400,4,2,1,25,0,0
214200,-200,4,2,1,25,0,0
220354,-400,4,2,1,25,0,0
221585,-200,4,2,1,25,0,0
232662,-100,4,2,1,60,0,0
234970,-200,4,2,0,25,0,0
244970,-200,4,1,1,40,0,0
254662,-100,4,1,0,60,0,0
254739,-100,4,2,0,30,0,0
255123,-100,4,1,0,60,0,0
255200,-100,4,2,0,30,0,0
255893,-100,4,1,0,60,0,0
255970,-100,4,2,0,30,0,0
256354,-100,4,1,0,60,0,0
256431,-100,4,2,0,30,0,0
257123,-100,4,1,0,60,0,0
257200,-100,4,2,0,30,0,0
257585,-100,4,1,0,60,0,0
257662,-100,4,2,0,30,0,0
258354,-100,4,1,0,60,0,0
258431,-100,4,2,0,30,0,0
258816,-100,4,1,0,60,0,0
258893,-100,4,2,0,30,0,0
259431,-100,4,2,0,10,0,0
259585,-100,4,1,1,40,0,0
264662,-100,4,1,1,60,0,1
273585,-100,4,2,2,70,0,1
274508,-100,4,1,1,60,0,1
283123,-100,4,2,2,70,0,0
284354,-100,4,1,1,60,0,1
293277,-100,4,2,2,70,0,1
294200,-100,4,1,1,60,0,1
302816,-100,4,2,1,60,0,1
304047,-400,4,2,1,25,0,1
305200,-200,4,2,1,25,0,0
320047,-100,4,2,2,70,0,0
321277,-100,4,1,1,70,0,0
321354,-100,4,2,1,10,0,0

[Colours]
Combo1 : 255,255,128
Combo2 : 128,125,157
Combo3 : 163,126,114
Combo4 : 117,155,119
Combo5 : 214,214,214
Combo6 : 96,96,96
Combo7 : 255,128,255

[HitObjects]
48,80,47,53,0,0:0:0:0:
136,112,662,1,0,0:0:0:0:
208,56,1277,6,0,P|288:56|360:32,1,140,2|0,0:0|0:0,0:0:0:0:
376,32,2431,1,0,0:0:0:0:
405,45,2508,2,0,L|467:100,1,80
384,152,3123,2,0,L|304:144,2,80,0|2|0,0:0|0:0|0:0,0:0:0:0:
384,152,4508,85,0,0:0:0:0:
328,216,4662,2,0,L|344:256,1,40,2|0,0:0|0:0,0:0:0:0:
416,296,4970,1,0,0:0:0:0:
424,312,5585,1,0,0:0:0:0:
432,328,6200,1,2,0:0:0:0:
440,344,6816,6,0,B|458:326|458:326|498:316|498:316|516:281,2,80,0|2|0,0:0|0:0|0:0,0:0:0:0:
296,280,8047,2,0,B|272:287|272:287|232:280|232:280|200:304,2,80,2|0|0,0:0|0:0|0:0,0:0:0:0:
296,280,9739,85,0,0:0:0:0:
296,280,9816,1,2,0:0:0:0:
296,280,9893,1,0,0:0:0:0:
128,256,10508,1,2,0:0:0:0:
216,232,10816,1,0,0:0:0:0:
48,208,11123,54,0,P|24:168|16:128,1,80,4|0,0:0|0:0,0:0:0:0:
144,64,11431,1,0,0:0:0:0:
48,48,11585,1,0,0:0:0:0:
48,48,11662,1,0,0:0:0:0:
48,48,11739,1,0,0:0:0:0:
232,32,11893,2,0,L|256:24,4,20
320,80,12200,1,0,0:0:0:0:
344,80,12277,1,0,0:0:0:0:
368,80,12354,5,0,0:0:0:0:
488,48,12508,1,0,0:0:0:0:
456,168,12662,1,0,0:0:0:0:
424,288,12816,1,0,0:0:0:0:
407,299,12893,1,0,0:0:0:0:
390,309,12970,1,0,0:0:0:0:
372,319,13047,1,0,0:0:0:0:
354,327,13123,1,0,0:0:0:0:
336,334,13200,1,0,0:0:0:0:
316,340,13277,1,0,0:0:0:0:
297,345,13354,1,0,0:0:0:0:
277,349,13431,1,0,0:0:0:0:
258,351,13508,1,0,0:0:0:0:
234,351,13585,5,0,0:0:0:0:
152,304,13739,1,0,0:0:0:0:
72,256,13893,2,0,L|40:264,3,20
72,256,14200,2,0,L|88:176,1,80
92,156,14431,1,0,0:0:0:0:
97,137,14508,1,0,0:0:0:0:
125,10,14662,1,0,0:0:0:0:
130,29,14739,1,0,0:0:0:0:
136,48,14816,69,0,0:0:0:0:
232,64,14970,1,0,0:0:0:0:
320,32,15123,1,0,0:0:0:0:
400,88,15277,1,0,0:0:0:0:
404,103,15354,1,0,0:0:0:0:
410,118,15431,1,0,0:0:0:0:
416,132,15508,1,0,0:0:0:0:
424,147,15585,1,0,0:0:0:0:
432,160,15662,1,0,0:0:0:0:
441,174,15739,1,0,0:0:0:0:
451,186,15816,1,0,0:0:0:0:
461,198,15893,1,0,0:0:0:0:
472,210,15970,1,0,0:0:0:0:
484,221,16047,6,0,P|480:264|464:304,1,80
280,256,16354,2,0,P|321:242|364:241,1,80
376,240,16585,1,0,0:0:0:0:
392,248,16662,1,0,0:0:0:0:
376,336,16816,1,0,0:0:0:0:
280,352,16970,2,0,P|240:336|208:312,1,80
232,160,17277,6,0,P|275:157|314:165,1,80
320,72,17585,2,0,P|360:87|392:111,1,80
232,160,17893,2,0,P|188:162|149:154,1,80
124,144,18123,1,0,0:0:0:0:
92,136,18200,2,0,P|48:134|9:142,1,80
4,288,18508,5,0,0:0:0:0:
4,288,19123,5,0,0:0:0:0:
256,192,19739,12,4,20970,0:0:0:0:
56,72,23431,38,0,P|104:64|136:56,1,80,4|0,0:0|0:0,0:0:0:0:
208,104,23739,1,8,0:0:0:0:
288,64,23893,1,0,0:0:0:0:
314,78,23970,1,0,0:0:0:0:
342,87,24047,1,0,0:0:0:0:
372,90,24123,1,0,0:0:0:0:
402,86,24200,1,0,0:0:0:0:
480,184,24354,2,0,P|424:176|368:176,1,80,8|0,0:0|0:0,0:0:0:0:
272,240,24662,6,0,P|328:248|384:248,1,80
440,264,24970,1,8,0:0:0:0:
224,312,25123,1,0,0:0:0:0:
198,298,25200,1,0,0:0:0:0:
170,289,25277,1,0,0:0:0:0:
140,286,25354,1,0,0:0:0:0:
110,290,25431,1,0,0:0:0:0:
56,216,25585,1,8,0:0:0:0:
104,136,25739,1,0,0:0:0:0:
50,62,25893,6,0,P|96:48|128:48,1,80
200,120,26200,2,0,P|239:118|277:105,1,80,8|0,0:0|0:0,0:0:0:0:
336,32,26508,2,0,P|376:24|416:24,1,80
512,80,26739,2,0,L|432:72,1,80
277,105,26970,1,0,0:0:0:0:
277,105,27123,70,0,P|312:136|344:152,1,80
448,232,27431,2,0,P|448:186|440:151,1,80,8|0,0:0|0:0,0:0:0:0:
376,304,27739,2,0,P|411:321|456:336,1,80
272,328,28047,2,0,P|300:360|328:384,1,80
176,304,28354,6,0,P|96:280|16:280,1,160,0|8,0:0|0:0,0:0:0:0:
79,368,28816,2,0,P|103:288|103:208,1,160,0|0,0:0|0:0,0:0:0:0:
196,49,29277,2,0,P|222:124|227:204,1,160,8|0,0:0|0:0,0:0:0:0:
141,142,29739,2,0,P|216:116|296:112,1,160,0|0,0:0|0:0,0:0:0:0:
376,56,30200,2,0,L|456:72,1,80,0|0,0:0|0:0,0:0:0:0:
336,200,30508,2,0,L|416:216,1,80,8|0,0:0|0:0,0:0:0:0:
296,344,30816,6,0,P|224:320|136:320,1,160,0|8,0:0|0:0,0:0:0:0:
296,344,31277,2,0,P|268:273|211:206,1,160
296,344,31739,2,0,P|332:277|347:190,1,160,8|0,0:0|0:0,0:0:0:0:
456,224,32200,1,0,0:0:0:0:
424,128,32354,1,8,0:0:0:0:
336,72,32508,2,0,B|296:56|224:80|176:64,2,160,0|0|0,0:0|0:0|0:0,0:0:0:0:
48,112,33277,70,0,P|88:128|128:136,1,80,4|0,0:0|0:0,0:0:0:0:
288,152,33585,2,0,P|248:160|211:175,1,80,8|0,0:0|0:0,0:0:0:0:
128,232,33893,1,0,0:0:0:0:
56,312,34047,1,0,0:0:0:0:
79,324,34123,1,0,0:0:0:0:
104,332,34200,1,8,0:0:0:0:
200,304,34354,1,0,0:0:0:0:
288,360,34508,5,0,0:0:0:0:
376,312,34662,1,0,0:0:0:0:
477,319,34816,2,0,P|496:272|504:240,1,80,8|0,0:0|0:0,0:0:0:0:
400,144,35123,2,0,P|403:194|409:227,1,80
504,160,35354,2,0,P|468:132|436:120,1,80
296,88,35585,1,0,0:0:0:0:
296,88,35739,6,0,P|216:104|128:104,1,160,0|8,0:0|0:0,0:0:0:0:
40,80,36200,1,0,0:0:0:0:
268,195,36354,2,0,P|188:175|108:138,1,160,0|8,0:0|0:0,0:0:0:0:
40,80,36816,1,0,0:0:0:0:
198,280,36970,2,0,P|134:229|77:161,1,160,0|8,0:0|0:0,0:0:0:0:
40,80,37431,1,0,0:0:0:0:
144,96,37585,2,0,P|184:88|224:64,1,80
384,56,37893,2,0,P|344:46|297:51,1,80,8|0,0:0|0:0,0:0:0:0:
464,112,38200,70,0,B|488:152|480:232|504:272,1,160,0|8,0:0|0:0,0:0:0:0:
448,344,38662,1,0,0:0:0:0:
352,336,38816,2,0,B|376:296|368:216|392:176,1,160,0|8,0:0|0:0,0:0:0:0:
312,120,39277,1,0,0:0:0:0:
234,181,39431,2,0,B|256:216|248:296|272:336,1,160,0|8,0:0|0:0,0:0:0:0:
176,344,39893,1,0,0:0:0:0:
122,266,40047,2,0,B|144:232|136:152|160:112,1,160,0|8,0:0|0:0,0:0:0:0:
240,48,40508,1,0,0:0:0:0:
80,56,40662,6,0,P|40:72|8:96,1,80
240,48,40970,2,0,P|283:50|322:42,1,80,8|0,0:0|0:0,0:0:0:0:
160,111,41277,1,0,0:0:0:0:
234,181,41431,1,0,0:0:0:0:
366,310,41585,1,8,0:0:0:0:
412,131,41739,1,0,0:0:0:0:
472,208,41893,6,0,L|488:288,2,80,0|0|8,0:0|0:0|0:0,0:0:0:0:
352,224,42354,1,0,0:0:0:0:
280,320,42508,1,0,0:0:0:0:
254,304,42585,1,0,0:0:0:0:
225,294,42662,1,0,0:0:0:0:
196,288,42739,1,0,0:0:0:0:
166,283,42816,1,8,0:0:0:0:
137,279,42893,1,0,0:0:0:0:
107,273,42970,1,0,0:0:0:0:
79,264,43047,1,0,0:0:0:0:
52,250,43123,70,0,B|56:192|96:152|96:152|152:200,1,160,4|8,0:0|0:0,0:0:0:0:
288,104,43585,1,0,0:0:0:0:
288,104,43739,2,0,B|284:162|244:202|244:202|188:154,1,160,0|8,0:0|0:0,0:0:0:0:
165,90,44200,1,0,0:0:0:0:
232,32,44354,6,0,P|272:24|312:24,1,80
376,88,44662,1,8,0:0:0:0:
464,72,44816,1,0,0:0:0:0:
288,104,44970,2,0,L|312:184,1,80
398,203,45277,1,8,0:0:0:0:
336,264,45431,1,0,0:0:0:0:
272,328,45585,6,0,P|192:312|112:304,1,160,0|8,0:0|0:0,0:0:0:0:
336,264,46047,2,0,P|414:279|493:287,1,160
240,240,46508,2,0,P|200:216|168:184,1,80,8|0,0:0|0:0,0:0:0:0:
304,176,46816,2,0,P|296:129|300:84,1,80
400,192,47123,2,0,P|430:156|467:130,1,80,8|0,0:0|0:0,0:0:0:0:
240,240,47431,2,0,P|209:275|172:301,1,80
336,264,47739,2,0,P|370:272|435:283,1,80,8|0,0:0|0:0,0:0:0:0:
272,328,48047,69,0,0:0:0:0:
240,240,48200,1,0,0:0:0:0:
173,173,48354,1,8,0:0:0:0:
84,141,48508,1,0,0:0:0:0:
40,224,48662,2,0,P|32:272|32:304,1,80
173,173,48970,2,0,P|181:125|181:93,1,80,8|0,0:0|0:0,0:0:0:0:
307,173,49277,5,0,0:0:0:0:
240,240,49431,1,0,0:0:0:0:
396,141,49585,2,0,P|376:96|352:56,1,80,8|0,0:0|0:0,0:0:0:0:
376,240,49893,2,0,P|423:253|469:260,1,80
272,88,50200,2,0,P|224:74|178:67,1,80,8|0,0:0|0:0,0:0:0:0:
396,141,50508,6,0,P|445:133|490:120,1,80
307,173,50816,1,8,0:0:0:0:
376,240,50970,1,0,0:0:0:0:
280,264,51123,2,0,P|230:271|185:284,1,80
345,328,51431,2,0,P|385:334|424:344,1,80,8|0,0:0|0:0,0:0:0:0:
216,192,51739,69,0,0:0:0:0:
307,173,51893,1,0,0:0:0:0:
189,283,52047,1,8,0:0:0:0:
280,264,52200,1,0,0:0:0:0:
111,328,52354,2,0,P|71:333|34:346,1,80
383,128,52662,2,0,P|423:121|461:109,1,80,8|0,0:0|0:0,0:0:0:0:
345,328,52970,6,0,B|384:296|400:240|400:240|448:272,1,160,0|8,0:0|0:0,0:0:0:0:
280,264,53431,1,0,0:0:0:0:
280,264,53585,2,0,B|232:288|188:283|188:283|152:216,1,160,0|8,0:0|0:0,0:0:0:0:
194,119,54047,1,0,0:0:0:0:
306,111,54200,6,0,P|346:115|383:127,1,80
280,264,54508,2,0,P|257:230|243:193,1,80,8|0,0:0|0:0,0:0:0:0:
432,216,54816,2,0,P|411:250|383:279,1,80
280,264,55123,1,8,0:0:0:0:
208,336,55277,1,0,0:0:0:0:
104,336,55431,70,0,B|70:303|57:224|23:191,1,160,0|8,0:0|0:0,0:0:0:0:
128,176,55893,2,0,B|104:135|112:55|88:15,1,160
24,112,56354,1,8,0:0:0:0:
200,72,56508,2,0,L|120:96,1,80
298,50,56816,1,0,0:0:0:0:
316,57,56893,1,0,0:0:0:0:
334,65,56970,1,8,0:0:0:0:
431,44,57123,1,0,0:0:0:0:
400,136,57277,2,0,L|432:216,1,80
332,230,57585,2,0,L|364:310,1,80,8|0,0:0|0:0,0:0:0:0:
264,336,57893,5,0,0:0:0:0:
232,248,58047,1,0,0:0:0:0:
168,320,58200,1,8,0:0:0:0:
136,232,58354,1,0,0:0:0:0:
72,304,58508,2,0,P|48:264|40:224,1,80
137,153,58816,2,0,P|143:192|136:232,1,80,8|0,0:0|0:0,0:0:0:0:
48,120,59123,5,0,0:0:0:0:
120,56,59277,1,0,0:0:0:0:
216,96,59431,2,0,P|256:88|296:72,1,80,8|0,0:0|0:0,0:0:0:0:
463,104,59739,2,0,P|424:111|387:126,1,80
288,176,60047,2,0,P|319:201|354:220,1,80,8|0,0:0|0:0,0:0:0:0:
456,208,60354,69,0,0:0:0:0:
416,304,60508,1,0,0:0:0:0:
312,304,60662,2,0,P|274:318|235:326,1,80,8|0,0:0|0:0,0:0:0:0:
144,216,60970,2,0,P|183:222|221:234,1,80
88,336,61277,1,8,0:0:0:0:
16,224,61431,1,0,0:0:0:0:
16,88,61585,5,6,0:0:0:0:
16,88,62200,5,8,0:0:0:0:
104,112,62354,1,0,0:0:0:0:
208,88,62508,1,8,0:0:0:0:
304,152,62662,1,8,0:0:0:0:
408,96,62816,6,0,B|440:120|440:120|456:160|496:184,2,120,6|2|2,0:0|0:0|0:0,0:0:0:0:
295,92,64047,2,0,L|272:160,1,53.3333333333333
320,184,64354,2,0,L|336:200,3,13.3333333333333
328,224,64585,1,0,0:0:0:0:
328,256,64662,2,0,B|352:280|352:280|384:304,2,60,2|2|2,0:0|0:0|0:0,0:0:0:0:
328,256,65277,5,0,0:0:0:0:
328,256,65893,2,0,B|304:232|304:232|283:216,2,60,0|0|2,0:0|0:0|0:0,0:0:0:0:
312,336,66508,1,0,0:0:0:0:
312,336,66816,2,0,B|321:350|321:350|337:366,1,40,2|0,0:0|0:0,0:0:0:0:
408,312,67277,2,0,B|425:315|425:315|447:315,2,40,0|2|0,0:0|0:0|0:0,0:0:0:0:
443,223,67739,85,0,0:0:0:0:
351,99,68200,1,2,0:0:0:0:
497,145,68662,1,0,0:0:0:0:
351,192,69123,1,2,0:0:0:0:
443,69,69585,1,0,0:0:0:0:
351,99,69893,1,2,0:0:0:0:
259,129,70200,5,2,0:0:0:0:
106,151,70662,1,0,0:0:0:0:
242,222,71123,1,2,0:0:0:0:
172,85,71585,1,0,0:0:0:0:
150,237,72047,1,2,0:0:0:0:
72,151,72354,1,2,0:0:0:0:
80,72,72662,38,0,L|72:152,1,80,4|0,0:0|0:0,0:0:0:0:
64,231,73123,1,0,0:0:0:0:
56,311,73277,2,0,L|136:336,1,80,8|0,0:0|0:0,0:0:0:0:
288,256,73893,2,0,L|208:264,2,80,0|0|8,0:0|0:0|0:0,0:0:0:0:
432,344,74816,1,0,0:0:0:0:
437,329,74893,1,0,0:0:0:0:
442,315,74970,1,0,0:0:0:0:
447,301,75047,1,0,0:0:0:0:
453,287,75123,6,0,L|440:208,1,80
360,256,75585,1,0,0:0:0:0:
344,80,75739,2,0,L|352:160,1,80,8|0,0:0|0:0,0:0:0:0:
240,296,76354,2,0,L|248:216,2,80,0|0|8,0:0|0:0|0:0,0:0:0:0:
200,96,77277,1,0,0:0:0:0:
180,91,77354,1,0,0:0:0:0:
160,88,77431,1,0,0:0:0:0:
140,87,77508,1,0,0:0:0:0:
120,87,77585,6,0,P|96:128|72:160,1,80
176,192,78047,1,0,0:0:0:0:
96,256,78200,2,0,P|120:297|144:329,1,80,8|0,0:0|0:0,0:0:0:0:
312,264,78816,2,0,P|264:268|225:276,2,80,0|0|8,0:0|0:0|0:0,0:0:0:0:
426,328,79739,1,0,0:0:0:0:
434,316,79816,1,0,0:0:0:0:
440,302,79893,1,0,0:0:0:0:
445,288,79970,1,0,0:0:0:0:
448,272,80047,70,0,P|424:239|404:204,1,80,0|0,0:0|0:0,0:0:0:0:
484,140,80508,1,0,0:0:0:0:
385,102,80662,2,0,P|407:70|427:35,1,80,8|0,0:0|0:0,0:3:0:0:
248,128,81277,2,0,P|261:165|278:201,2,80,0|0|8,0:0|0:0|0:0,0:0:0:0:
170,35,82047,1,0,0:0:0:0:
56,80,82200,1,0,0:0:0:0:
64,200,82354,6,0,P|95:250|144:304,1,120.000004577637
64,200,82816,2,0,P|121:213|194:216,1,120.000004577637
448,184,83585,6,0,P|417:134|368:80,1,120.000004577637
448,184,84047,2,0,P|426:178|371:169,1,60.0000022888184
288,232,84354,2,0,P|310:238|365:247,2,60.0000022888184
232,144,84816,70,0,B|192:112|200:72|144:48,1,120.000004577637
48,48,85277,2,0,B|88:80|80:120|136:144,1,120.000004577637
232,144,85739,2,0,B|221:128|221:128|206:100|194:78,1,60.0000022888184
280,240,86047,6,0,B|320:272|312:312|368:336,1,120.000004577637
464,336,86508,2,0,B|424:304|432:264|376:240,1,120.000004577637
280,240,86970,2,0,B|291:256|291:256|306:284|318:306,1,60.0000022888184
216,320,87277,6,0,P|144:280|64:272,1,160,4|0,0:0|0:0,0:0:0:0:
112,360,87739,2,0,L|168:208,1,160,8|0,0:0|0:0,0:0:0:0:
80,168,88200,1,8,0:0:0:0:
160,112,88354,1,0,0:0:0:0:
160,112,88508,70,0,P|238:102|308:63,1,160,0|0,0:0|0:0,0:0:0:0:
204,23,88970,2,0,L|260:175,1,160,8|0,0:0|0:0,0:0:0:0:
352,168,89431,1,8,0:0:0:0:
416,248,89585,1,0,0:0:0:0:
312,256,89739,6,0,P|256:304|168:336,1,160,0|0,0:0|0:0,0:0:0:0:
200,256,90200,2,0,P|256:304|344:336,1,160,8|0,0:0|0:0,0:0:0:0:
416,248,90662,1,8,0:0:0:0:
256,200,90816,1,0,0:0:0:0:
96,248,90970,6,0,P|72:288|48:312,2,80,0|0|0,0:0|0:0|0:0,0:0:0:0:
160,160,91431,2,0,P|184:120|208:96,2,80,8|0|0,0:0|0:0|0:0,0:0:0:0:
256,200,91893,1,8,0:0:0:0:
352,160,92047,1,0,0:0:0:0:
112,72,92200,1,0,0:0:0:0:
400,72,92354,69,4,0:0:0:0:
296,72,92508,1,0,0:0:0:0:
456,160,92662,1,8,0:0:0:0:
352,160,92816,1,0,0:0:0:0:
352,179,92893,1,0,0:0:0:0:
355,199,92970,1,0,0:0:0:0:
361,218,93047,1,0,0:0:0:0:
368,237,93123,1,0,0:0:0:0:
378,254,93200,1,0,0:0:0:0:
392,272,93277,1,8,0:0:0:0:
256,328,93431,1,0,0:0:0:0:
120,272,93585,6,0,P|88:248|48:232,1,80
256,328,93893,2,0,P|295:336|335:335,1,80,8|0,0:0|0:0,0:0:0:0:
344,200,94200,1,0,0:0:0:0:
216,152,94354,1,0,0:0:0:0:
198,142,94431,1,0,0:0:0:0:
181,132,94508,1,8,0:0:0:0:
88,144,94662,1,0,0:0:0:0:
296,104,94816,5,0,0:0:0:0:
176,40,94970,1,0,0:0:0:0:
352,32,95123,1,8,0:0:0:0:
407,156,95277,1,0,0:0:0:0:
397,139,95354,1,0,0:0:0:0:
392,120,95431,1,0,0:0:0:0:
480,216,95585,2,0,L|496:304,2,80,0|8|0,0:0|0:0|0:0,0:0:0:0:
344,328,96047,69,0,0:0:0:0:
392,248,96200,1,0,0:0:0:0:
248,336,96354,2,0,P|208:352|160:360,1,80,8|0,0:0|0:0,0:0:0:0:
96,256,96662,2,0,P|139:258|185:271,1,80,0|0,0:0|0:0,0:0:0:0:
40,344,96970,1,8,0:0:0:0:
27,320,97047,1,0,0:0:0:0:
18,295,97123,1,0,0:0:0:0:
11,269,97200,1,0,0:0:0:0:
8,243,97277,6,0,P|16:192|32:152,2,80,0|0|8,0:0|0:0|0:0,0:0:0:0:
112,144,97739,2,0,P|104:92|88:52,2,80,0|0|0,0:0|0:0|0:0,0:0:0:0:
16,88,98200,1,8,0:0:0:0:
176,40,98354,1,0,0:0:0:0:
328,96,98508,2,0,P|368:120|416:128,2,80,0|0|8,0:0|0:0|0:0,0:0:0:0:
488,112,98970,1,0,0:0:0:0:
416,216,99123,2,0,L|456:288,1,80
296,176,99431,2,0,L|336:248,1,80,8|0,0:0|0:0,0:0:0:0:
176,136,99739,6,0,P|136:112|88:96,1,80,0|0,0:0|0:0,0:0:0:0:
24,160,100047,1,8,0:0:0:0:
32,264,100200,1,0,0:0:0:0:
48,253,100277,1,0,0:0:0:0:
65,242,100354,1,0,0:0:0:0:
128,320,100508,1,0,0:0:0:0:
224,280,100662,2,0,L|304:320,1,80,8|0,0:0|0:0,0:0:0:0:
368,256,100970,2,0,L|456:272,1,80
480,176,101277,69,14,0:0:0:0:
468,159,101354,1,0,0:0:0:0:
455,144,101431,1,0,0:0:0:0:
441,129,101508,1,0,0:0:0:0:
426,116,101585,1,6,0:0:0:0:
411,104,101662,1,0,0:0:0:0:
394,92,101739,1,0,0:0:0:0:
377,82,101816,1,0,0:0:0:0:
359,73,101893,1,14,0:0:0:0:
341,65,101970,1,0,0:0:0:0:
322,58,102047,1,0,0:0:0:0:
303,53,102123,1,0,0:0:0:0:
280,48,102200,6,0,P|240:72|184:88,1,80,4|0,0:0|0:0,0:0:0:0:
104,96,102508,1,8,0:0:0:0:
48,176,102662,1,0,0:0:0:0:
55,194,102739,1,0,0:0:0:0:
62,213,102816,1,0,0:0:0:0:
168,224,102970,1,0,0:0:0:0:
104,312,103123,2,0,P|144:328|184:336,1,80,8|0,0:0|0:0,0:0:0:0:
350,261,103431,6,0,P|310:263|272:272,1,80
432,328,103739,1,8,0:0:0:0:
456,232,103893,1,0,0:0:0:0:
462,213,103970,1,0,0:0:0:0:
468,194,104047,1,0,0:0:0:0:
384,136,104200,1,0,0:0:0:0:
480,88,104354,2,0,P|448:56|408:32,1,80,8|0,0:0|0:0,0:0:0:0:
320,56,104662,70,0,P|280:72|208:88,1,80,0|0,0:0|0:0,0:0:0:0:
144,96,104970,1,8,0:0:0:0:
64,160,105123,1,0,0:0:0:0:
71,178,105200,1,0,0:0:0:0:
78,197,105277,1,0,0:0:0:0:
120,296,105431,1,0,0:0:0:0:
224,320,105585,2,0,P|264:312|304:296,1,80,8|0,0:0|0:0,0:0:0:0:
456,240,105893,6,0,P|416:248|376:264,1,80
440,344,106200,1,8,0:0:0:0:
472,136,106354,1,0,0:0:0:0:
459,120,106431,1,0,0:0:0:0:
447,104,106508,1,0,0:0:0:0:
360,160,106662,1,0,0:0:0:0:
280,96,106816,1,8,0:0:0:0:
267,80,106893,1,0,0:0:0:0:
255,64,106970,1,0,0:0:0:0:
240,48,107047,1,0,0:0:0:0:
224,32,107123,6,0,P|186:50|144:64,1,80,0|0,0:0|0:0,0:0:0:0:
48,80,107431,1,8,0:0:0:0:
190,188,107585,2,0,P|153:172|119:151,1,80,0|0,0:0|0:0,0:0:0:0:
48,80,107893,1,0,0:0:0:0:
56,259,108047,2,0,P|44:220|38:181,1,80,8|0,0:0|0:0,0:0:0:0:
48,80,108354,1,0,0:0:0:0:
224,32,108508,70,0,P|186:50|144:64,1,80,0|8,0:0|0:0,0:0:0:0:
270,192,108816,1,0,0:0:0:0:
270,192,108970,2,0,P|230:193|190:188,1,80
127,296,109277,2,0,P|90:280|56:259,1,80,8|0,0:0|0:0,0:0:0:0:
236,348,109585,6,0,P|273:329|316:316,1,80,0|0,0:0|0:0,0:0:0:0:
412,300,109893,1,8,0:0:0:0:
269,192,110047,2,0,P|305:207|339:228,1,80,0|0,0:0|0:0,0:0:0:0:
412,300,110354,1,0,0:0:0:0:
404,121,110508,2,0,P|415:159|421:198,1,80,8|0,0:0|0:0,0:0:0:0:
304,110,110816,5,6,0:0:0:0:
277,95,110893,1,0,0:0:0:0:
253,78,110970,1,0,0:0:0:0:
232,56,111047,1,0,0:0:0:0:
214,31,111123,1,14,0:0:0:0:
189,47,111200,1,0,0:0:0:0:
163,62,111277,1,0,0:0:0:0:
135,72,111354,1,0,0:0:0:0:
105,78,111431,1,6,0:0:0:0:
111,108,111508,1,0,0:0:0:0:
121,136,111585,1,0,0:0:0:0:
136,162,111662,1,0,0:0:0:0:
152,187,111739,1,14,0:0:0:0:
127,205,111816,1,0,0:0:0:0:
105,226,111893,1,0,0:0:0:0:
88,250,111970,1,0,0:0:0:0:
73,277,112047,70,0,P|112:312|144:328,1,80,4|0,0:0|0:0,0:0:0:0:
232,288,112354,1,8,0:0:0:0:
408,304,112508,2,0,P|357:288|322:287,1,80,0|0,0:0|0:0,0:0:0:0:
504,272,112816,1,0,0:0:0:0:
424,200,112970,2,0,P|424:152|432:120,1,80,8|0,0:0|0:0,0:0:0:0:
344,64,113277,6,0,P|304:80|256:88,2,80,0|0|8,0:0|0:0|0:0,0:0:0:0:
197,33,113739,1,0,0:0:0:0:
178,40,113816,1,0,0:0:0:0:
160,48,113893,1,0,0:0:0:0:
176,152,114047,1,0,0:0:0:0:
72,120,114200,2,0,L|24:192,1,80,8|0,0:0|0:0,0:0:0:0:
136,320,114508,6,0,L|120:241,2,80,0|0|8,0:0|0:0|0:0,0:0:0:0:
232,240,114970,1,0,0:0:0:0:
250,247,115047,1,0,0:0:0:0:
269,254,115123,1,0,0:0:0:0:
392,304,115277,1,0,0:0:0:0:
373,311,115354,1,0,0:0:0:0:
354,318,115431,1,8,0:0:0:0:
480,248,115585,1,0,0:0:0:0:
384,200,115739,70,0,P|384:152|392:120,1,80,0|0,0:0|0:0,0:0:0:0:
496,120,116047,1,8,0:0:0:0:
320,48,116200,1,0,0:0:0:0:
144,120,116354,2,0,P|96:112|64:104,1,80
241,63,116662,2,0,P|280:54|320:48,1,80,8|0,0:0|0:0,0:0:0:0:
240,168,116970,6,0,P|249:206|255:246,2,80,0|0|8,0:0|0:0|0:0,0:0:0:0:
168,304,117431,2,0,P|158:265|152:225,2,80,0|0|0,0:0|0:0|0:0,0:0:0:0:
264,352,117893,1,8,0:0:0:0:
350,292,118047,1,0,0:0:0:0:
382,193,118200,1,0,0:0:0:0:
144,120,118354,1,0,0:0:0:0:
58,180,118508,1,8,0:0:0:0:
26,279,118662,1,0,0:0:0:0:
264,352,118816,2,0,L|224:272,1,80,0|0,0:0|0:0,0:0:0:0:
144,120,119123,2,0,L|192:216,1,80,8|0,0:0|0:0,0:0:0:0:
208,192,119354,1,0,0:0:0:0:
240,192,119431,6,0,P|264:152|296:120,1,80
462,188,119739,2,0,P|415:195|370:191,1,80,8|0,0:0|0:0,0:0:0:0:
400,88,120047,1,0,0:0:0:0:
256,32,120200,1,0,0:0:0:0:
260,51,120277,1,0,0:0:0:0:
264,71,120354,1,8,0:0:0:0:
144,120,120508,1,0,0:0:0:0:
72,200,120662,2,0,P|84:249|104:280,1,80
180,329,120970,69,14,0:0:0:0:
208,338,121047,1,0,0:0:0:0:
237,345,121123,1,0,0:0:0:0:
267,347,121200,1,0,0:0:0:0:
297,343,121277,1,6,0:0:0:0:
326,335,121354,1,0,0:0:0:0:
353,322,121431,1,0,0:0:0:0:
362,295,121508,1,0,0:0:0:0:
374,267,121585,1,14,0:0:0:0:
390,242,121662,1,0,0:0:0:0:
411,221,121739,1,0,0:0:0:0:
435,203,121816,1,0,0:0:0:0:
462,189,121893,6,0,P|480:152|488:112,1,80,4|0,0:0|0:0,0:0:0:0:
432,24,122200,1,8,0:0:0:0:
336,56,122354,2,0,P|318:93|310:133,1,80,0|0,0:0|0:0,0:0:0:0:
256,224,122662,1,0,0:0:0:0:
201,131,122816,2,0,P|193:92|176:56,1,80,8|0,0:0|0:0,0:0:0:0:
80,24,123123,5,0,0:0:0:0:
24,114,123277,1,0,0:0:0:0:
30,133,123354,1,0,0:0:0:0:
37,152,123431,1,8,0:0:0:0:
141,237,123585,1,0,0:0:0:0:
134,219,123662,1,0,0:0:0:0:
128,200,123739,1,0,0:0:0:0:
104,336,123893,1,0,0:0:0:0:
216,320,124047,2,0,L|296:336,1,80,8|0,0:0|0:0,0:0:0:0:
408,336,124354,69,0,0:0:0:0:
504,296,124508,1,0,0:0:0:0:
416,232,124662,2,0,P|408:192|408:136,1,80,8|0,0:0|0:0,0:0:0:0:
408,128,124893,1,0,0:0:0:0:
408,96,124970,2,0,L|328:64,1,80
256,200,125277,2,0,L|256:120,1,80,8|0,0:0|0:0,0:0:0:0:
104,96,125585,6,0,L|184:64,2,80,0|0|8,0:0|0:0|0:0,0:0:0:0:
144,192,126047,1,0,0:0:0:0:
131,207,126123,1,0,0:0:0:0:
119,223,126200,1,0,0:0:0:0:
152,320,126354,1,0,0:0:0:0:
256,344,126508,1,8,0:0:0:0:
274,336,126585,1,0,0:0:0:0:
293,329,126662,1,0,0:0:0:0:
311,322,126739,1,0,0:0:0:0:
336,312,126816,6,0,L|424:280,2,80,0|0|8,0:0|0:0|0:0,0:0:0:0:
376,112,127277,2,0,L|344:24,2,80,0|0|0,0:0|0:0|0:0,0:0:0:0:
176,72,127739,2,0,L|88:104,2,80,8|0|0,0:0|0:0|0:0,0:0:0:0:
136,272,128200,2,0,L|168:360,2,80,0|8|0,0:0|0:0|0:0,0:0:0:0:
336,312,128662,69,0,0:0:0:0:
176,72,128816,1,0,0:0:0:0:
376,112,128970,1,8,0:0:0:0:
136,272,129123,1,0,0:0:0:0:
136,272,129277,6,0,P|88:288|48:296,1,80,0|0,0:0|0:0,0:0:0:0:
200,192,129585,2,0,P|248:176|288:168,1,80,8|0,0:0|0:0,0:0:0:0:
112,152,129893,2,0,P|64:168|24:176,1,80,0|0,0:0|0:0,0:0:0:0:
176,72,130200,2,0,P|224:56|264:48,1,80,8|0,0:0|0:0,0:0:0:0:
376,112,130508,5,0,0:0:0:0:
383,127,130585,1,0,0:0:0:0:
391,143,130662,1,0,0:0:0:0:
398,159,130739,1,0,0:0:0:0:
406,174,130816,1,8,0:0:0:0:
414,190,130893,1,0,0:0:0:0:
421,206,130970,1,0,0:0:0:0:
429,222,131047,1,0,0:0:0:0:
437,237,131123,1,0,0:0:0:0:
444,253,131200,1,0,0:0:0:0:
452,269,131277,1,8,0:0:0:0:
460,285,131354,1,0,0:0:0:0:
467,300,131431,1,8,0:0:0:0:
475,316,131508,1,0,0:0:0:0:
483,332,131585,1,0,0:0:0:0:
490,348,131662,1,0,0:0:0:0:
498,363,131739,5,4,0:0:0:0:
256,192,131816,12,0,134200,0:0:0:0:
312,111,141585,5,2,0:0:0:0:
307,122,141739,1,0,0:0:0:0:
294,115,141893,1,0,0:0:0:0:
301,102,142047,1,0,0:0:0:0:
336,248,142200,85,2,0:0:0:0:
329,259,142354,1,0,0:0:0:0:
317,252,142508,1,0,0:0:0:0:
324,239,142662,1,0,0:0:0:0:
199,272,142816,5,2,0:0:0:0:
204,261,142970,1,0,0:0:0:0:
217,268,143123,1,0,0:0:0:0:
210,281,143277,1,0,0:0:0:0:
175,135,143431,85,2,0:0:0:0:
182,124,143585,1,0,0:0:0:0:
194,131,143739,1,0,0:0:0:0:
187,144,143893,1,0,0:0:0:0:
362,129,144047,5,2,0:0:0:0:
350,139,144200,1,0,0:0:0:0:
339,124,144354,1,0,0:0:0:0:
354,113,144508,1,0,0:0:0:0:
317,297,144662,85,2,0:0:0:0:
303,306,144816,1,0,0:0:0:0:
293,292,144970,1,0,0:0:0:0:
308,281,145123,1,0,0:0:0:0:
149,252,145277,5,2,0:0:0:0:
160,242,145431,1,0,0:0:0:0:
171,257,145585,1,0,0:0:0:0:
156,268,145739,1,0,0:0:0:0:
194,84,145893,85,2,0:0:0:0:
208,75,146047,1,0,0:0:0:0:
217,90,146200,1,0,0:0:0:0:
203,101,146354,1,0,0:0:0:0:
409,177,146508,5,2,0:0:0:0:
391,182,146662,1,0,0:0:0:0:
386,160,146816,1,0,0:0:0:0:
408,155,146970,1,0,0:0:0:0:
269,343,147123,85,2,0:0:0:0:
249,346,147277,1,0,0:0:0:0:
245,325,147431,1,0,0:0:0:0:
268,320,147585,1,0,0:0:0:0:
102,204,147739,5,2,0:0:0:0:
121,199,147893,1,0,0:0:0:0:
125,221,148047,1,0,0:0:0:0:
103,226,148200,1,0,0:0:0:0:
242,37,148354,85,2,0:0:0:0:
263,35,148508,1,0,0:0:0:0:
266,56,148662,1,0,0:0:0:0:
244,61,148816,1,0,0:0:0:0:
437,256,148970,5,2,0:0:0:0:
413,252,149123,1,0,0:0:0:0:
420,224,149277,1,0,0:0:0:0:
448,231,149431,1,0,0:0:0:0:
190,371,149585,85,2,0:0:0:0:
166,363,149739,1,0,0:0:0:0:
173,337,149893,1,0,0:0:0:0:
201,344,150047,1,0,0:0:0:0:
76,124,150200,5,2,0:0:0:0:
99,128,150354,1,0,0:0:0:0:
92,156,150508,1,0,0:0:0:0:
64,150,150662,1,0,0:0:0:0:
322,10,150816,85,2,0:0:0:0:
346,18,150970,1,0,0:0:0:0:
339,44,151123,1,0,0:0:0:0:
311,37,151277,1,0,0:0:0:0:
256,192,151431,53,4,0:0:0:0:
256,192,153277,69,4,0:0:0:0:
256,192,153893,22,0,P|288:168|320:128,1,80,4|0,0:0|0:0,0:0:0:0:
424,112,154200,1,8,0:0:0:0:
344,40,154354,1,0,0:0:0:0:
392,208,154508,2,0,P|400:280|432:352,1,120
432,312,154816,6,0,P|384:304|328:312,1,80,8|0,0:0|0:0,0:0:0:0:
176,328,155123,2,0,P|224:336|280:328,1,80,0|0,0:0|0:0,0:0:0:0:
96,272,155431,2,0,P|48:264|-8:272,1,80,8|0,0:0|0:0,0:0:0:0:
189,152,155739,2,0,P|191:192|184:232,1,80,0|0,0:0|0:0,0:0:0:0:
96,104,156047,1,8,0:0:0:0:
116,82,156123,1,0,0:0:0:0:
141,65,156200,1,0,0:0:0:0:
169,53,156277,1,0,0:0:0:0:
198,48,156354,6,0,P|256:72|336:80,1,120,0|0,0:0|0:0,0:0:0:0:
288,64,156662,2,0,L|328:152,1,80,8|0,0:0|0:0,0:0:0:0:
430,248,156970,2,0,L|464:176,1,80
288,288,157277,2,0,L|321:360,1,80,8|0,0:0|0:0,0:0:0:0:
144,248,157585,69,0,0:0:0:0:
48,360,157739,1,0,0:0:0:0:
0,216,157893,2,0,L|32:136,1,80,8|0,0:0|0:0,0:0:0:0:
184,96,158200,2,0,L|152:16,1,80
328,80,158508,1,8,0:0:0:0:
353,95,158585,1,0,0:0:0:0:
381,105,158662,1,0,0:0:0:0:
411,111,158739,1,0,0:0:0:0:
440,112,158816,6,0,P|470:175|470:255,1,120
464,240,159123,2,0,P|442:273|432:312,1,80,8|0,0:0|0:0,0:0:0:0:
328,296,159431,1,0,0:0:0:0:
186,334,159585,1,0,0:0:0:0:
205,327,159662,1,0,0:0:0:0:
224,320,159739,1,8,0:0:0:0:
88,304,159893,1,0,0:0:0:0:
168,232,160047,6,0,L|184:152,1,80,0|0,0:0|0:0,0:0:0:0:
256,32,160354,2,0,L|256:120,1,80,8|0,0:0|0:0,0:0:0:0:
344,232,160662,2,0,L|328:152,1,80,0|0,0:0|0:0,0:0:0:0:
344,136,160893,1,0,0:0:0:0:
368,128,160970,2,0,L|440:168,1,80,8|0,0:0|0:0,0:0:0:0:
456,288,161277,70,0,P|416:336|352:360,1,120,0|0,0:0|0:0,0:0:0:0:
336,360,161585,2,0,P|288:344|256:312,1,80,8|0,0:0|0:0,0:0:0:0:
224,208,161893,1,0,0:0:0:0:
344,232,162047,1,0,0:0:0:0:
144,296,162200,1,8,0:0:0:0:
24,320,162354,1,0,0:0:0:0:
224,208,162508,6,0,B|240:192|240:192|246:155|246:155|264:136,1,80,0|0,0:0|0:0,0:0:0:0:
144,296,162816,2,0,B|128:312|128:312|122:348|122:348|104:368,1,80,8|0,0:0|0:0,0:0:0:0:
240,304,163123,2,0,B|256:320|256:320|292:326|292:326|312:344,1,80,0|0,0:0|0:0,0:0:0:0:
128,200,163431,1,8,0:0:0:0:
113,185,163508,1,0,0:0:0:0:
94,181,163585,1,0,0:0:0:0:
75,177,163662,1,0,0:0:0:0:
60,164,163739,1,0,0:0:0:0:
112,56,163893,6,0,L|192:72,1,80,0|8,0:0|0:0,0:0:0:0:
240,304,164200,2,0,L|318:288,1,80,0|0,0:0|0:0,0:0:0:0:
288,88,164508,1,0,0:0:0:0:
360,160,164662,1,8,0:0:0:0:
392,64,164816,1,0,0:0:0:0:
264,184,164970,2,0,P|320:240|408:256,1,160,0|8,0:0|0:0,0:0:0:0:
240,304,165431,2,0,P|184:248|96:232,1,160
144,328,165893,1,8,0:0:0:0:
168,152,166047,1,0,0:0:0:0:
8,216,166200,70,0,P|8:136|32:56,1,160,0|8,0:0|0:0,0:0:0:0:
168,152,166662,2,0,P|127:221|67:278,1,160
128,64,167123,1,8,0:0:0:0:
232,80,167277,1,0,0:0:0:0:
336,96,167431,1,0,0:0:0:0:
408,176,167585,2,0,L|488:200,1,80,0|8,0:0|0:0,0:0:0:0:
304,200,167893,1,0,0:0:0:0:
412,326,168047,2,0,L|336:304,1,80
488,200,168354,1,8,0:0:0:0:
468,205,168431,1,0,0:0:0:0:
449,211,168508,1,0,0:0:0:0:
430,217,168585,1,0,0:0:0:0:
408,224,168662,6,0,L|344:104,1,120,0|0,0:0|0:0,0:0:0:0:
336,96,168970,2,0,L|288:168,1,80,8|0,0:0|0:0,0:0:0:0:
232,80,169277,1,0,0:0:0:0:
93,84,169431,1,0,0:0:0:0:
110,74,169508,1,0,0:0:0:0:
128,64,169585,1,8,0:0:0:0:
40,168,169739,1,0,0:0:0:0:
128,232,169893,6,0,P|112:288|72:344,1,120
64,352,170200,2,0,L|144:336,1,80,8|0,0:0|0:0,0:0:0:0:
256,320,170508,1,0,0:0:0:0:
256,320,170662,1,0,0:0:0:0:
369,336,170816,2,0,L|448:352,1,80,8|0,0:0|0:0,0:0:0:0:
328,232,171123,2,0,B|377:202|383:151|383:151|352:152|318:139,1,160,0|8,0:0|0:0,0:0:0:0:
256,64,171585,1,0,0:0:0:0:
186,141,171739,2,0,B|160:152|128:151|128:151|134:202|184:232,2,160,0|8|0,0:0|0:0|0:0,0:0:0:0:
256,64,172508,69,0,0:0:0:0:
326,141,172662,2,0,B|345:134|345:134|381:144|381:144|402:136,1,80,0|0,0:0|0:0,0:0:0:0:
186,141,172970,2,0,B|166:134|166:134|130:144|130:144|109:136,1,80,8|0,0:0|0:0,0:0:0:0:
396,218,173277,2,0,B|415:211|415:211|451:221|451:221|472:213,1,80,8|8,0:0|0:0,0:0:0:0:
116,218,173585,6,0,B|96:211|96:211|60:221|60:221|39:213,1,80,4|0,0:0|0:0,0:0:0:0:
128,320,174047,1,0,0:0:0:0:
208,256,174200,2,0,P|224:296|224:344,1,80,8|0,0:0|0:0,0:0:0:0:
396,218,174816,2,0,P|360:240|320:272,2,80,0|0|8,0:0|0:0|0:0,0:0:0:0:
299,83,175739,1,0,0:0:0:0:
280,76,175816,1,0,0:0:0:0:
261,69,175893,1,0,0:0:0:0:
242,62,175970,1,0,0:0:0:0:
224,56,176047,6,0,L|144:80,1,80
216,152,176508,1,0,0:0:0:0:
35,145,176662,2,0,L|112:168,1,80,8|0,0:0|0:0,0:0:0:0:
190,326,177277,2,0,L|176:248,2,80,0|0|8,0:0|0:0|0:0,0:0:0:0:
321,326,178200,1,0,0:0:0:0:
325,307,178277,1,0,0:0:0:0:
328,287,178354,1,0,0:0:0:0:
332,267,178431,1,0,0:0:0:0:
336,248,178508,70,0,P|384:232|408:216,1,80,0|0,0:0|0:0,0:0:0:0:
328,152,178970,1,0,0:0:0:0:
424,112,179123,2,0,P|454:71|464:44,1,80,8|0,0:0|0:0,0:0:0:0:
176,248,179739,6,0,P|128:232|104:216,1,80,0|0,0:0|0:0,0:0:0:0:
184,152,180200,1,0,0:0:0:0:
88,112,180354,2,0,P|57:71|47:44,1,80,8|0,0:0|0:0,0:0:0:0:
256,40,180970,22,0,B|272:40|272:40|320:64|320:64|336:64,1,80,4|0,0:0|0:0,0:0:0:0:
256,344,181431,2,0,B|240:344|240:344|192:320|192:320|176:320,1,80,4|0,0:0|0:0,0:0:0:0:
408,192,181893,2,0,B|408:208|408:208|384:256|384:256|384:272,1,80,4|0,0:0|0:0,0:0:0:0:
104,192,182354,2,0,B|104:176|104:176|128:128|128:128|128:112,1,80,4|0,0:0|0:0,0:0:0:0:
432,88,182816,6,0,L|472:72,1,40,4|0,0:0|0:0,0:0:0:0:
80,296,183123,2,0,L|40:312,1,40,4|0,0:0|0:0,0:0:0:0:
184,272,183431,38,0,P|224:264|264:240,1,80,4|0,0:0|0:0,0:0:0:0:
344,192,183893,1,0,0:0:0:0:
352,288,184047,2,0,B|384:312|384:312|392:344,2,60,8|0|0,0:0|0:0|0:0,0:0:0:0:
344,192,184662,2,0,L|360:112,1,80
256,24,185277,1,8,0:0:0:0:
152,113,185585,1,0,0:0:0:0:
156,133,185662,1,0,0:0:0:0:
160,152,185739,1,0,0:0:0:0:
164,172,185816,1,0,0:0:0:0:
168,192,185893,6,0,P|136:224|104:240,1,80
208,272,186354,1,0,0:0:0:0:
56,328,186508,2,0,P|120:328|152:336,1,80,8|0,0:0|0:0,0:0:0:0:
376,320,187123,2,0,P|312:320|280:312,2,80,0|0|8,0:0|0:0|0:0,0:0:0:0:
459,221,188047,1,0,0:0:0:0:
454,202,188123,1,0,0:0:0:0:
449,182,188200,1,0,0:0:0:0:
444,163,188277,1,0,0:0:0:0:
440,144,188354,6,0,P|408:120|384:80,1,80,0|0,0:0|0:0,0:0:0:0:
496,56,188816,1,0,0:0:0:0:
296,24,188970,2,0,P|264:48|240:88,1,80,8|0,0:0|0:0,0:0:0:0:
256,192,189431,1,0,0:0:0:0:
269,302,189585,2,0,P|247:336|216:360,1,80,0|0,0:0|0:0,0:0:0:0:
16,328,190047,1,0,0:0:0:0:
74,238,190200,2,0,P|106:262|128:296,1,80,8|0,0:0|0:0,0:0:0:0:
145,286,190585,1,0,0:0:0:0:
162,276,190662,1,0,0:0:0:0:
180,266,190739,1,0,0:0:0:0:
200,256,190816,70,0,L|288:240,1,80
384,192,191277,1,0,0:0:0:0:
440,280,191431,2,0,L|361:294,1,80,8|0,0:0|0:0,0:0:0:0:
328,104,192047,2,0,L|406:89,2,80,0|0|8,0:0|0:0|0:0,0:0:0:0:
184,104,192970,1,0,0:0:0:0:
164,100,193047,1,0,0:0:0:0:
144,96,193123,1,0,0:0:0:0:
124,93,193200,1,0,0:0:0:0:
105,89,193277,37,4,0:0:0:0:
256,192,208047,12,0,212816,0:0:0:0:
48,88,212970,6,0,P|128:88|200:64,1,140,2|0,0:0|0:0,0:0:0:0:
216,64,214123,1,0,0:0:0:0:
245,77,214200,2,0,L|307:132,1,80
462,49,214816,2,0,L|384:64,2,80,0|2|0,0:0|0:0|0:0,0:0:0:0:
448,208,216200,85,0,0:0:0:0:
344,216,216354,2,0,L|304:264,1,40,2|0,0:0|0:0,0:0:0:0:
272,336,216662,1,0,0:0:0:0:
480,320,217277,1,0,0:0:0:0:
272,336,217893,1,2,0:0:0:0:
120,192,218508,5,0,0:0:0:0:
56,272,218816,1,2,0:0:0:0:
160,288,219123,1,0,0:0:0:0:
264,112,219739,1,2,0:0:0:0:
328,192,220047,1,0,0:0:0:0:
224,208,220354,86,0,P|173:159|144:96,1,140,2|0,0:0|0:0,0:0:0:0:
112,88,221508,1,0,0:0:0:0:
80,96,221585,2,0,P|40:120|0:136,1,80
232,48,222200,2,0,P|278:43|321:45,1,80,2|2,0:0|0:0,0:0:0:0:
448,104,222816,6,0,L|480:272,1,160
384,336,223739,1,2,0:0:0:0:
384,336,224047,2,0,L|360:216,1,120
256,152,224662,1,2,0:0:0:0:
256,152,224893,1,2,0:0:0:0:
256,152,225123,1,2,0:0:0:0:
151,218,225277,86,0,L|128:336,1,120
34,261,225893,1,2,0:0:0:0:
34,261,226123,1,2,0:0:0:0:
34,261,226354,1,2,0:0:0:0:
151,218,226508,6,0,P|128:152|64:88,1,160,0|2,0:0|0:0,0:0:0:0:
176,40,227354,1,2,0:0:0:0:
280,96,227585,1,0,0:0:0:0:
280,96,227662,1,2,0:0:0:0:
280,96,227739,86,0,P|352:112|440:104,1,160,0|0,0:0|0:0,0:0:0:0:
456,272,228662,1,0,0:0:0:0:
496,184,228816,1,2,0:0:0:0:
392,192,228970,2,0,L|328:264,1,80,0|2,0:0|0:0,0:0:0:0:
280,184,229585,2,0,L|200:216,1,80,0|2,0:0|0:0,0:0:0:0:
80,216,230200,5,0,0:0:0:0:
80,216,230816,85,0,0:0:0:0:
256,192,231431,12,4,232662,0:0:0:0:
96,216,234970,54,0,P|152:208|216:184,1,120,0|2,0:0|0:0,0:0:0:0:
416,168,236200,2,0,P|360:176|296:200,1,120,0|2,0:0|0:0,0:0:0:0:
392,280,236816,2,0,L|408:328,1,40
256,312,237123,2,0,L|256:360,1,40
120,280,237431,6,0,B|101:335|101:335|48:368,1,120,2|0,0:0|0:0,0:0:0:0:
216,184,238200,1,2,0:0:0:0:
312,160,238354,1,0,0:0:0:0:
240,88,238508,1,0,0:0:0:0:
144,112,238662,2,0,B|112:88|112:88|72:104|72:104|24:104,2,120,2|0|2,0:0|0:0|0:0,0:0:0:0:
312,160,239893,6,0,B|344:184|344:184|384:168|384:168|432:168,1,120,0|2,0:0|0:0,0:0:0:0:
256,240,240662,1,0,0:0:0:0:
256,240,240816,1,0,0:0:0:0:
256,240,241123,70,0,B|224:264|224:264|184:248|184:248|136:248,1,120,0|2,0:0|0:0,0:0:0:0:
312,320,241893,1,0,0:0:0:0:
312,320,242047,1,0,0:0:0:0:
312,320,242200,1,0,0:0:0:0:
312,320,242354,6,0,B|344:344|344:344|384:328|384:328|432:328,1,120,0|2,0:0|0:0,0:0:0:0:
496,224,243123,1,0,0:0:0:0:
496,224,243277,1,0,0:0:0:0:
496,224,243431,1,0,0:0:0:0:
496,224,243585,6,0,B|464:200|464:200|424:216|424:216|376:216,1,120,0|2,0:0|0:0,0:0:0:0:
272,120,244200,2,0,L|328:104,1,40,0|0,0:0|0:0,0:0:0:0:
416,120,244508,2,0,L|472:104,1,40,2|2,0:0|0:0,0:0:0:0:
160,72,244816,1,0,0:0:0:0:
160,72,244970,70,0,P|127:107|88:136,1,80
64,40,245431,1,0,0:0:0:0:
8,160,245585,2,0,P|32:192|80:224,1,80,8|0,0:0|0:0,0:0:0:0:
240,192,246200,2,0,L|160:200,1,80,0|0,0:0|0:0,0:0:0:0:
264,272,246662,6,0,L|248:312,1,40,0|8,0:0|0:0,0:0:0:0:
352,272,246970,2,0,L|368:312,1,40
368,192,247277,1,0,0:0:0:0:
304,128,247431,6,0,P|344:112|392:104,1,80
368,192,247893,1,0,0:0:0:0:
248,64,248047,2,0,L|280:32,1,40,8|0,0:0|0:0,0:0:0:0:
136,96,248354,2,0,L|168:64,1,40
52,99,248662,70,0,L|24:174,1,80
24,174,249047,1,0,0:0:0:0:
24,174,249123,1,0,0:0:0:0:
160,200,249277,2,0,L|132:275,1,80,8|0,0:0|0:0,0:0:0:0:
131,274,249662,1,0,0:0:0:0:
132,275,249739,1,0,0:0:0:0:
267,300,249893,6,0,L|239:375,1,80,0|0,0:0|0:0,0:0:0:0:
368,280,250354,1,0,0:0:0:0:
470,260,250508,1,8,0:0:0:0:
470,260,250662,2,0,L|498:185,1,80,0|0,0:0|0:0,0:0:0:0:
416,120,251123,2,0,L|444:45,1,80,0|0,0:0|0:0,0:0:0:0:
324,152,251739,6,0,L|316:192,1,40,8|0,0:0|0:0,0:0:0:0:
256,40,252047,2,0,L|256:88,1,40,0|0,0:0|0:0,0:0:0:0:
196,192,252354,2,0,L|178:113,1,80,0|0,0:0|0:0,0:0:0:0:
96,176,252816,1,0,0:0:0:0:
72,280,252970,2,0,L|48:312,1,40,8|0,0:0|0:0,0:0:0:0:
192,288,253277,2,0,L|184:328,1,40
312,296,253585,70,0,L|408:272,1,80
328,192,254047,1,0,0:0:0:0:
432,184,254200,2,0,L|464:160,1,40,8|0,0:0|0:0,0:0:0:0:
256,112,254508,1,0,0:0:0:0:
256,112,254662,6,0,P|200:72|112:48,1,160
256,112,255123,2,0,P|188:123|108:168,1,160
256,272,255893,6,0,P|312:312|400:336,1,160
256,272,256354,2,0,P|312:264|352:248,1,80
504,208,256662,2,0,P|448:216|408:232,2,80
352,152,257123,70,0,B|360:104|360:104|400:88|456:32,1,160
352,152,257585,2,0,B|323:112|323:112|340:72|340:-6,1,160
352,152,258047,2,0,B|304:144|304:144|288:112,1,80
160,232,258354,6,0,B|152:280|152:280|112:296|56:352,1,160
160,232,258816,2,0,B|188:271|188:271|171:311|171:390,1,160
160,232,259277,2,0,B|208:240|208:240|224:272,1,80
264,344,259585,6,0,B|296:384|296:384|352:368|392:304,1,160
448,224,260047,2,0,B|416:184|416:184|360:200|320:264,1,160,8|0,0:0|0:0,0:0:0:0:
472,312,260508,1,8,0:0:0:0:
448,224,260662,1,0,0:0:0:0:
448,224,260816,70,0,B|448:160|448:160|400:152|352:112,1,160,0|0,0:0|0:0,0:0:0:0:
208,64,261277,2,0,B|208:128|208:128|256:136|304:176,1,160,8|0,0:0|0:0,0:0:0:0:
304,48,261739,1,8,0:0:0:0:
208,64,261893,1,0,0:0:0:0:
208,64,262047,6,0,B|160:72|160:72|120:120|120:120|72:136,1,160,0|0,0:0|0:0,0:0:0:0:
0,288,262508,2,0,B|48:280|48:280|88:232|88:232|136:216,1,160,8|0,0:0|0:0,0:0:0:0:
0,192,262970,1,8,0:0:0:0:
0,288,263123,1,0,0:0:0:0:
0,288,263277,6,0,L|80:320,2,80,0|0|0,0:0|0:0|0:0,0:0:0:0:
0,192,263739,2,0,L|80:160,2,80,8|0|0,0:0|0:0|0:0,0:0:0:0:
144,344,264200,1,8,0:0:0:0:
144,136,264354,1,0,0:0:0:0:
216,368,264508,1,0,0:0:0:0:
216,112,264662,70,0,L|272:56,1,80,4|0,0:0|0:0,0:0:0:0:
376,32,264970,1,8,0:0:0:0:
344,128,265123,1,0,0:0:0:0:
347,147,265200,1,0,0:0:0:0:
350,167,265277,1,0,0:0:0:0:
433,270,265431,2,0,L|448:192,1,80,0|8,0:0|0:0,0:0:0:0:
384,352,265739,1,0,0:0:0:0:
216,368,265893,6,0,L|296:344,2,80,0|0|8,0:0|0:0|0:0,0:0:0:0:
144,304,266354,1,0,0:0:0:0:
144,304,266431,1,0,0:0:0:0:
144,304,266508,2,0,L|67:326,1,80,0|0,0:0|0:0,0:0:0:0:
160,208,266816,1,8,0:0:0:0:
179,202,266893,1,0,0:0:0:0:
198,196,266970,1,0,0:0:0:0:
217,190,267047,1,0,0:0:0:0:
236,185,267123,5,0,0:0:0:0:
216,80,267277,1,0,0:0:0:0:
312,112,267431,1,8,0:0:0:0:
344,216,267585,1,0,0:0:0:0:
360,228,267662,1,0,0:0:0:0:
376,240,267739,1,0,0:0:0:0:
456,120,267893,1,0,0:0:0:0:
440,132,267970,1,0,0:0:0:0:
424,144,268047,1,8,0:0:0:0:
488,224,268200,1,0,0:0:0:0:
392,48,268354,69,0,0:0:0:0:
312,112,268508,1,0,0:0:0:0:
216,80,268662,1,8,0:0:0:0:
136,144,268816,1,0,0:0:0:0:
116,147,268893,1,0,0:0:0:0:
96,151,268970,1,0,0:0:0:0:
24,224,269123,1,0,0:0:0:0:
104,288,269277,1,8,0:0:0:0:
123,284,269354,1,0,0:0:0:0:
143,280,269431,1,0,0:0:0:0:
162,276,269508,1,0,0:0:0:0:
184,272,269585,6,0,P|208:232|224:184,2,80,0|0|8,0:0|0:0|0:0,0:0:0:0:
240,344,270047,2,0,P|285:332|330:310,2,80,0|0|0,0:0|0:0|0:0,0:0:0:0:
320,224,270508,1,8,0:0:0:0:
408,280,270662,1,0,0:0:0:0:
504,248,270816,2,0,P|512:200|512:160,2,80,0|0|8,0:0|0:0|0:0,0:0:0:0:
488,348,271277,1,0,0:0:0:0:
424,176,271431,2,0,L|404:96,1,80,0|0,0:0|0:0,0:0:0:0:
300,146,271739,2,0,L|320:224,1,80,8|0,0:0|0:0,0:0:0:0:
216,272,272047,6,0,P|184:304|152:328,1,80
64,304,272354,1,8,0:0:0:0:
113,184,272508,1,0,0:0:0:0:
116,204,272585,1,0,0:0:0:0:
120,224,272662,1,0,0:0:0:0:
48,104,272816,1,0,0:0:0:0:
152,88,272970,2,0,L|232:104,1,80,8|0,0:0|0:0,0:0:0:0:
216,272,273277,2,0,L|296:256,1,80
416,336,273585,69,14,0:0:0:0:
426,319,273662,1,0,0:0:0:0:
436,301,273739,1,0,0:0:0:0:
445,283,273816,1,0,0:0:0:0:
452,265,273893,1,6,0:0:0:0:
459,246,273970,1,0,0:0:0:0:
464,226,274047,1,0,0:0:0:0:
468,207,274123,1,0,0:0:0:0:
471,187,274200,1,14,0:0:0:0:
473,167,274277,1,0,0:0:0:0:
474,147,274354,1,0,0:0:0:0:
474,127,274431,1,0,0:0:0:0:
472,104,274508,6,0,P|456:64|432:24,1,80
336,8,274816,1,8,0:0:0:0:
240,48,274970,1,0,0:0:0:0:
247,66,275047,1,0,0:0:0:0:
254,85,275123,1,0,0:0:0:0:
360,104,275277,1,0,0:0:0:0:
168,144,275431,2,0,L|136:64,1,80,8|0,0:0|0:0,0:0:0:0:
280,184,275739,6,0,L|312:264,1,80,0|0,0:0|0:0,0:0:0:0:
176,344,276047,1,8,0:0:0:0:
80,304,276200,1,0,0:0:0:0:
88,285,276277,1,0,0:0:0:0:
95,266,276354,1,0,0:0:0:0:
200,248,276508,1,0,0:0:0:0:
309,258,276662,2,0,L|384:288,1,80,8|0,0:0|0:0,0:0:0:0:
168,144,276970,70,0,L|93:114,1,80,0|0,0:0|0:0,0:0:0:0:
128,16,277277,1,8,0:0:0:0:
240,48,277431,1,0,0:0:0:0:
258,55,277508,1,0,0:0:0:0:
277,62,277585,1,0,0:0:0:0:
296,168,277739,1,0,0:0:0:0:
392,120,277893,2,0,L|467:150,1,80,8|0,0:0|0:0,0:0:0:0:
168,144,278200,6,0,L|93:114,1,80,0|0,0:0|0:0,0:0:0:0:
216,248,278508,1,8,0:0:0:0:
296,168,278662,1,0,0:0:0:0:
308,184,278739,1,0,0:0:0:0:
320,200,278816,1,0,0:0:0:0:
96,232,278970,1,0,0:0:0:0:
320,312,279123,1,8,0:0:0:0:
332,327,279200,1,0,0:0:0:0:
344,343,279277,1,0,0:0:0:0:
357,358,279354,1,0,0:0:0:0:
368,376,279431,6,0,P|408:368|456:336,1,80,0|0,0:0|0:0,0:0:0:0:
512,256,279739,1,8,0:0:0:0:
320,200,279893,2,0,P|353:222|410:233,1,80,0|0,0:0|0:0,0:0:0:0:
512,256,280200,1,0,0:0:0:0:
440,80,280354,2,0,P|447:120|479:168,1,80,8|0,0:0|0:0,0:0:0:0:
512,256,280662,1,0,0:0:0:0:
368,376,280816,70,0,P|408:368|456:336,1,80,0|8,0:0|0:0,0:0:0:0:
241,193,281123,1,0,0:0:0:0:
241,193,281277,2,0,P|280:202|320:200,1,80
371,40,281585,2,0,P|402:65|440:80,1,80,8|0,0:0|0:0,0:0:0:0:
144,8,281893,6,0,P|104:16|56:48,1,80,0|0,0:0|0:0,0:0:0:0:
0,128,282200,1,8,0:0:0:0:
192,184,282354,2,0,P|158:161|101:150,1,80,0|0,0:0|0:0,0:0:0:0:
0,128,282662,1,0,0:0:0:0:
72,304,282816,2,0,P|64:264|32:216,1,80,8|0,0:0|0:0,0:0:0:0:
176,280,283123,5,6,0:0:0:0:
203,295,283200,1,0,0:0:0:0:
227,312,283277,1,0,0:0:0:0:
248,334,283354,1,0,0:0:0:0:
266,359,283431,1,14,0:0:0:0:
291,343,283508,1,0,0:0:0:0:
317,328,283585,1,0,0:0:0:0:
345,318,283662,1,0,0:0:0:0:
375,312,283739,1,6,0:0:0:0:
369,282,283816,1,0,0:0:0:0:
359,254,283893,1,0,0:0:0:0:
344,228,283970,1,0,0:0:0:0:
328,203,284047,1,14,0:0:0:0:
353,185,284123,1,0,0:0:0:0:
375,164,284200,1,0,0:0:0:0:
392,140,284277,1,0,0:0:0:0:
407,113,284354,70,0,P|368:78|336:62,1,80,4|0,0:0|0:0,0:0:0:0:
249,101,284662,1,8,0:0:0:0:
73,85,284816,2,0,P|124:101|159:102,1,80,0|0,0:0|0:0,0:0:0:0:
0,152,285123,1,0,0:0:0:0:
176,200,285277,2,0,P|125:184|90:183,1,80,8|0,0:0|0:0,0:0:0:0:
304,216,285585,6,0,P|355:232|390:233,2,80,0|0|8,0:0|0:0|0:0,0:0:0:0:
472,184,286047,1,0,0:0:0:0:
472,184,286123,1,0,0:0:0:0:
472,184,286200,2,0,P|480:232|480:272,1,80
368,128,286508,2,0,P|399:90|429:64,1,80,8|0,0:0|0:0,0:0:0:0:
304,216,286816,6,0,P|272:253|242:279,2,80,0|0|8,0:0|0:0|0:0,0:0:0:0:
248,120,287277,1,0,0:0:0:0:
229,112,287354,1,0,0:0:0:0:
210,105,287431,1,0,0:0:0:0:
160,208,287585,1,0,0:0:0:0:
141,215,287662,1,0,0:0:0:0:
122,222,287739,1,8,0:0:0:0:
72,120,287893,1,0,0:0:0:0:
112,336,288047,70,0,P|152:336|192:328,1,80
280,280,288354,1,8,0:0:0:0:
344,200,288508,1,0,0:0:0:0:
368,96,288662,2,0,L|448:80,1,80
422,215,288970,2,0,L|344:200,1,80,8|0,0:0|0:0,0:0:0:0:
148,96,289277,6,0,P|109:106|72:120,2,80,0|0|8,0:0|0:0|0:0,0:0:0:0:
248,184,289739,2,0,P|268:149|285:113,2,80
128,224,290200,1,8,0:0:0:0:
200,296,290354,1,0,0:0:0:0:
304,296,290508,1,0,0:0:0:0:
460,185,290662,1,0,0:0:0:0:
388,113,290816,1,8,0:0:0:0:
284,113,290970,1,0,0:0:0:0:
424,256,291123,2,0,P|472:264|504:264,1,80
128,224,291431,2,0,P|80:216|48:216,1,80,8|0,0:0|0:0,0:0:0:0:
24,208,291662,1,0,0:0:0:0:
0,200,291739,6,0,L|32:120,1,80
128,224,292047,2,0,L|96:304,1,80,8|0,0:0|0:0,0:0:0:0:
248,184,292354,1,0,0:0:0:0:
328,88,292508,1,0,0:0:0:0:
346,80,292585,1,0,0:0:0:0:
365,73,292662,1,8,0:0:0:0:
200,64,292816,1,0,0:0:0:0:
384,208,292970,2,0,P|416:232|456:256,1,80,0|0,0:0|0:0,0:0:0:0:
345,328,293277,69,14,0:0:0:0:
317,319,293354,1,0,0:0:0:0:
288,312,293431,1,0,0:0:0:0:
258,310,293508,1,0,0:0:0:0:
228,314,293585,1,6,0:0:0:0:
199,322,293662,1,0,0:0:0:0:
172,335,293739,1,0,0:0:0:0:
156,308,293816,1,0,0:0:0:0:
144,280,293893,1,14,0:0:0:0:
128,255,293970,1,0,0:0:0:0:
107,234,294047,1,0,0:0:0:0:
83,216,294123,1,0,0:0:0:0:
56,202,294200,6,0,P|38:165|30:125,1,80,4|0,0:0|0:0,0:0:0:0:
96,40,294508,1,8,0:0:0:0:
200,64,294662,2,0,P|218:101|226:141,1,80,0|0,0:0|0:0,0:0:0:0:
216,240,294970,1,0,0:0:0:0:
315,198,295123,2,0,P|354:190|392:176,1,80,8|0,0:0|0:0,0:0:0:0:
320,96,295431,5,0,0:0:0:0:
421,83,295585,1,0,0:0:0:0:
438,93,295662,1,0,0:0:0:0:
456,104,295739,1,8,0:0:0:0:
458,291,295893,1,0,0:0:0:0:
440,280,295970,1,0,0:0:0:0:
423,270,296047,1,0,0:0:0:0:
368,360,296200,1,0,0:0:0:0:
288,296,296354,2,0,L|232:352,1,80,8|0,0:0|0:0,0:0:0:0:
216,240,296662,69,0,0:0:0:0:
104,232,296816,1,0,0:0:0:0:
168,144,296970,2,0,L|224:88,1,80,8|0,0:0|0:0,0:0:0:0:
256,72,297200,1,0,0:0:0:0:
288,88,297277,2,0,L|344:144,1,80
456,104,297585,2,0,L|400:48,1,80,8|0,0:0|0:0,0:0:0:0:
290,241,297893,6,0,L|346:297,2,80,0|0|8,0:0|0:0|0:0,0:0:0:0:
196,288,298354,1,0,0:0:0:0:
196,308,298431,1,0,0:0:0:0:
196,328,298508,1,0,0:0:0:0:
104,232,298662,1,0,0:0:0:0:
196,136,298816,1,8,0:0:0:0:
203,117,298893,1,0,0:0:0:0:
212,99,298970,1,0,0:0:0:0:
222,82,299047,1,0,0:0:0:0:
232,64,299123,6,0,L|312:40,2,80,0|0|8,0:0|0:0|0:0,0:0:0:0:
448,152,299585,2,0,L|425:228,2,80,0|0|0,0:0|0:0|0:0,0:0:0:0:
280,320,300047,2,0,L|200:344,2,80,8|0|0,0:0|0:0|0:0,0:0:0:0:
64,232,300508,2,0,L|86:155,2,80,0|8|0,0:0|0:0|0:0,0:0:0:0:
232,64,300970,69,0,0:0:0:0:
280,320,301123,1,0,0:0:0:0:
448,152,301277,1,8,0:0:0:0:
64,232,301431,1,0,0:0:0:0:
64,232,301585,6,0,L|144:256,1,80,0|0,0:0|0:0,0:0:0:0:
160,72,301893,2,0,L|192:152,1,80,8|0,0:0|0:0,0:0:0:0:
352,72,302200,2,0,L|320:152,1,80,0|0,0:0|0:0,0:0:0:0:
448,232,302508,2,0,L|371:254,1,80,8|0,0:0|0:0,0:0:0:0:
256,344,302816,5,0,0:0:0:0:
245,326,302893,1,0,0:0:0:0:
239,308,302970,1,0,0:0:0:0:
236,288,303047,1,0,0:0:0:0:
237,268,303123,1,8,0:0:0:0:
240,248,303200,1,0,0:0:0:0:
244,229,303277,1,0,0:0:0:0:
249,209,303354,1,0,0:0:0:0:
255,190,303431,1,0,0:0:0:0:
261,171,303508,1,0,0:0:0:0:
267,152,303585,1,8,0:0:0:0:
271,132,303662,1,0,0:0:0:0:
274,113,303739,1,8,0:0:0:0:
275,93,303816,1,0,0:0:0:0:
273,73,303893,1,0,0:0:0:0:
267,54,303970,1,0,0:0:0:0:
256,36,304047,6,0,P|192:24|112:32,1,140,2|0,0:0|0:0,0:0:0:0:
84,48,305200,1,0,0:0:0:0:
56,80,305277,2,0,L|32:168,1,80
152,144,305893,2,0,L|176:232,2,80,0|2|0,0:0|0:0|0:0,0:0:0:0:
152,144,307277,5,0,0:0:0:0:
248,168,307431,2,0,L|288:192,1,40,2|0,0:0|0:0,0:0:0:0:
352,256,307739,1,0,0:0:0:0:
264,272,308354,1,0,0:0:0:0:
320,336,308970,1,2,0:0:0:0:
320,336,309585,86,0,B|328:328|328:328|384:320|384:320|392:312,2,80,0|2|0,0:0|0:0|0:0,0:0:0:0:
264,272,310816,2,0,B|256:280|256:280|200:288|200:288|192:296,2,80,2|0|2,0:0|0:0|0:0,0:0:0:0:
264,272,312508,1,0,0:0:0:0:
264,272,312585,1,2,0:0:0:0:
264,272,312662,1,0,0:0:0:0:
72,240,313277,1,2,0:0:0:0:
160,296,313585,1,0,0:0:0:0:
264,272,313893,6,0,P|344:256|408:208,1,160,2|0,0:0|0:0,0:0:0:0:
432,112,314816,1,2,0:0:0:0:
360,40,315123,2,0,P|303:60|257:98,1,120,0|0,0:0|0:0,0:0:0:0:
112,80,315739,1,2,0:0:0:0:
112,80,315970,1,2,0:0:0:0:
112,80,316200,1,2,0:0:0:0:
176,176,316354,86,4,P|232:196|278:234,1,120,0|0,0:0|0:0,0:0:0:0:
424,216,316970,1,2,0:0:0:0:
424,216,317200,1,2,0:0:0:0:
424,216,317431,1,2,0:0:0:0:
360,312,317585,6,0,P|303:332|257:370,1,120
199,234,318200,1,2,0:0:0:0:
199,234,318431,1,2,0:0:0:0:
112,352,318662,1,0,0:0:0:0:
112,352,318739,1,2,0:0:0:0:
112,352,318816,86,0,L|88:192,1,160,0|0,0:0|0:0,0:0:0:0:
128,80,319739,1,0,0:0:0:0:
160,72,319893,1,2,0:0:0:0:
192,64,320047,37,0,0:0:0:0:
312,168,320200,1,0,0:0:0:0:
464,128,320354,1,0,0:0:0:0:
424,280,320508,2,0,L|416:320,1,40
312,168,320662,2,0,L|304:208,1,40
200,280,320816,2,0,L|192:320,1,40
88,168,320970,2,0,L|80:208,1,40
60,304,321123,1,0,0:0:0:0:
60,304,321200,1,0,0:0:0:0:
60,304,321277,85,4,0:0:0:0:
256,192,321354,12,0,323739,0:0:0:0:
