osu file format v14

[General]
AudioFilename: audio.mp3
AudioLeadIn: 0
PreviewTime: 72940
Countdown: 0
SampleSet: None
StackLeniency: 0.7
Mode: 0
LetterboxInBreaks: 0
WidescreenStoryboard: 1

[Editor]
DistanceSpacing: 1.2
BeatDivisor: 4
GridSize: 4
TimelineZoom: 3.799999

[Metadata]
Title:Saigo
TitleUnicode:最後
Artist:An
ArtistUnicode:An
Creator:aigoh
Version:Saigo
Source:
Tags:AcuticNotes Nega Fragments Streliteela LunaSaika 春M3 ACAL-0007
BeatmapID:1631291
BeatmapSetID:771732

[Difficulty]
HPDrainRate:6
CircleSize:4.2
OverallDifficulty:8.5
ApproachRate:9.2
SliderMultiplier:2.2
SliderTickRate:1

[Events]
//Background and Video events
0,0,"S aigoh.jpg",0,0
//Break Periods
2,4384,10289
2,15709,67889
2,72109,103889
2,106459,141689
//Storyboard Layer 0 (Background)
//Storyboard Layer 1 (Fail)
//Storyboard Layer 2 (Pass)
//Storyboard Layer 3 (Foreground)
//Storyboard Sound Samples

[TimingPoints]
59,300,4,2,0,30,1,0
59,-166.666666666667,4,2,0,30,0,0
8309,-100,4,2,0,15,0,0
8384,-100,4,2,7,5,0,0
9059,-100,4,2,7,10,0,0
9359,-100,4,2,7,15,0,0
9659,-100,4,2,7,20,0,0
9959,-100,4,2,7,25,0,0
10259,-100,4,2,7,30,0,0
10859,-125,4,2,1,45,0,0
11909,-62.5,4,2,1,45,0,0
12059,-125,4,2,1,45,0,0
28859,-166.666666666667,4,2,1,55,0,0
29234,-166.666666666667,4,2,7,5,0,0
29309,-125,4,2,7,35,0,0
30059,-166.666666666667,4,2,10,35,0,0
30134,-166.666666666667,4,2,7,35,0,0
32459,-166.666666666667,4,2,10,35,0,0
32534,-166.666666666667,4,2,7,35,0,0
34859,-166.666666666667,4,2,10,35,0,0
34934,-166.666666666667,4,2,7,35,0,0
37259,-166.666666666667,4,2,10,35,0,0
37334,-166.666666666667,4,2,7,35,0,0
38309,-166.666666666667,4,2,10,35,0,0
38384,-166.666666666667,4,2,7,35,0,0
39659,-166.666666666667,4,2,10,35,0,0
39734,-166.666666666667,4,2,7,35,0,0
42059,-166.666666666667,4,2,10,35,0,0
42134,-166.666666666667,4,2,7,35,0,0
44459,-166.666666666667,4,2,10,35,0,0
44534,-166.666666666667,4,2,7,35,0,0
46859,-166.666666666667,4,2,10,35,0,0
46934,-166.666666666667,4,2,7,35,0,0
47909,-166.666666666667,4,2,10,60,0,0
49259,-125,4,2,7,45,0,0
56459,-125,4,2,1,45,0,0
57059,-125,4,2,1,40,0,0
57134,-125,4,2,1,45,0,0
59234,-125,4,2,7,45,0,0
67259,-125,4,2,1,45,0,0
68459,-100,4,2,7,50,0,0
70859,-100,4,2,1,50,0,0
71909,-100,4,2,1,55,0,0
73259,-100,4,2,1,70,0,1
75059,-100,4,2,1,80,0,1
75134,-100,4,2,1,70,0,1
78059,-100,4,2,1,80,0,1
78584,-100,4,2,1,70,0,1
79859,-100,4,2,1,80,0,1
79934,-100,4,2,1,70,0,1
80459,-100,4,2,1,80,0,1
81659,-100,4,2,1,40,0,1
92459,-100,4,2,1,40,0,0
93509,-100,4,2,7,5,0,0
94859,-100,4,2,7,10,0,0
95159,-100,4,2,7,15,0,0
95459,-100,4,2,7,20,0,0
95759,-100,4,2,7,25,0,0
96059,-100,4,2,7,30,0,0
96359,-100,4,2,7,35,0,0
96659,-100,4,2,7,40,0,0
96959,-100,4,2,7,45,0,0
97259,-100,4,2,1,40,0,0
100109,-58.8235294117647,4,2,1,60,0,0
100409,-100,4,2,1,60,0,0
101459,-250,4,2,1,60,0,0
101759,-100,4,2,1,40,0,0
104459,-100,4,2,7,50,0,0
106259,-100,4,2,1,55,0,0
106859,-100,4,2,1,50,0,1
109709,-58.8235294117647,4,2,1,50,0,1
110009,-100,4,2,1,50,0,1
110459,-100,4,2,1,45,0,1
110759,-100,4,2,1,40,0,1
111059,-100,4,2,1,35,0,1
111359,-100,4,2,1,50,0,1
114209,-58.8235294117647,4,2,1,50,0,1
114359,-100,4,2,1,50,0,1
119309,-58.8235294117647,4,2,1,50,0,1
119459,-100,4,2,1,50,0,1
120059,-100,4,2,1,45,0,1
120359,-100,4,2,1,40,0,1
120659,-100,4,2,1,35,0,1
120959,-100,4,2,1,50,0,1
123659,-100,4,2,7,50,0,1
125309,-500,4,2,1,50,0,0
126059,-100,4,2,1,50,0,1
134459,-100,4,2,1,55,0,1
134984,-100,4,2,1,50,0,1
142859,-100,4,2,7,50,0,1
144209,-100,4,2,1,55,0,1
145259,-200,4,2,0,50,0,0
147659,-200,4,2,1,20,0,0
154709,-125,4,2,1,45,0,0
155234,-125,4,2,7,45,0,0
163259,-100,4,2,1,50,0,0
164459,-100,4,2,7,50,0,0
166859,-100,4,2,1,50,0,0
167909,-200,4,2,1,55,0,0
168884,-200,4,2,1,20,0,0
168959,-500,4,2,1,50,0,0
169409,-200,4,2,1,25,0,0
170459,-200,4,2,1,50,0,0
178859,-100,4,2,1,40,0,0
180059,-100,4,2,1,40,0,1
189659,-100,4,2,1,40,0,0
191909,-250,4,2,1,30,0,0
194459,-100,4,2,1,60,0,1
194534,-100,4,2,1,50,0,0
197159,-133.333333333333,4,2,1,50,0,0
200459,-125,4,2,1,45,0,0
219659,-166.666666666667,4,2,0,50,0,0
219734,-166.666666666667,4,2,0,30,0,0
220409,-166.666666666667,4,2,0,45,0,0
220484,-166.666666666667,4,2,0,30,0,0
221309,625,4,2,0,40,1,0
221621,480,4,2,0,40,1,0
222101,600,4,2,0,30,1,0

[Colours]
Combo1 : 92,112,80
Combo2 : 129,129,192
Combo3 : 66,125,125
Combo4 : 125,66,66

[HitObjects]
252,128,59,6,0,L|260:212,1,65.9999979858399
320,256,359,1,0,0:0:0:0:
168,84,509,2,0,P|104:93|53:54,1,131.99999597168
128,8,959,1,0,0:0:0:0:
320,60,1109,2,0,P|383:50|434:89,1,131.99999597168
364,132,1559,2,0,L|344:244,1,98.9999969787599
340,260,1859,2,0,P|380:240|424:236,1,65.9999979858399
276,384,2159,2,0,P|278:339|297:299,1,65.9999979858399
436,376,2459,2,0,L|356:320,1,65.9999979858399
252,240,2759,1,0,0:0:0:0:
27,255,2909,2,0,P|80:293|145:286,1,131.99999597168
172,200,3359,1,0,0:0:0:0:
359,116,3509,2,0,P|300:128|228:120,1,131.99999597168
131,119,3959,2,0,P|183:115|243:123,1,98.9999969787599
337,101,10859,6,0,P|316:92|295:85,1,44
204,43,11009,2,0,P|183:50|162:58,1,44
136,232,11159,2,0,L|104:120,1,88
75,308,11459,2,0,P|159:325|235:256,1,176
372,360,11909,2,0,B|376:336|376:336|356:296|352:232,1,88
448,228,12059,5,0,0:0:0:0:
413,201,12134,1,0,0:0:0:0:
370,190,12209,1,0,0:0:0:0:
327,197,12284,1,0,0:0:0:0:
290,219,12359,2,0,P|276:175|275:104,1,88
282,40,12659,1,0,0:0:0:0:
106,76,12809,2,0,L|206:84,1,88
211,276,13109,2,0,L|72:264,1,132
8,260,13409,1,0,0:0:0:0:
75,348,13559,2,0,L|171:358,1,88
352,360,13859,2,0,L|380:240,1,88
393,182,14159,1,0,0:0:0:0:
304,48,14309,2,0,B|252:32|252:32|228:60|228:60|160:36|108:64,1,176
68,92,14759,1,0,0:0:0:0:
84,284,14909,1,0,0:0:0:0:
252,184,15059,1,0,0:0:0:0:
68,92,15209,1,0,0:0:0:0:
124,196,15359,1,0,0:0:0:0:
252,184,15509,1,0,0:0:0:0:
132,76,68459,5,0,0:0:0:0:
116,176,68609,1,0,0:0:0:0:
184,252,68759,1,0,0:0:0:0:
88,48,68909,5,0,0:0:0:0:
16,216,69059,1,0,0:0:0:0:
168,284,69209,1,0,0:0:0:0:
24,112,69359,5,0,0:0:0:0:
56,292,69509,1,0,0:0:0:0:
232,176,69659,1,0,0:0:0:0:
264,292,69809,5,0,0:0:0:0:
412,200,69959,1,0,0:0:0:0:
204,60,70109,1,0,0:0:0:0:
132,256,70259,5,0,0:0:0:0:
412,200,70409,1,0,0:0:0:0:
8,184,70559,1,0,0:0:0:0:
284,256,70709,1,0,0:0:0:0:
56,360,70859,5,0,0:0:0:0:
368,356,71009,1,0,0:0:0:0:
212,152,71159,1,0,0:0:0:0:
284,256,71309,2,0,P|339:261|390:242,1,110
132,256,71609,2,0,P|77:251|26:270,1,110
308,372,71909,1,0,0:0:0:0:
76,80,104459,5,0,0:0:0:0:
264,0,104609,1,0,0:0:0:0:
128,188,104759,1,0,0:0:0:0:
376,108,104909,1,0,0:0:0:0:
100,292,105059,1,0,0:0:0:0:
424,268,105209,1,0,0:0:0:0:
276,376,105359,5,0,0:0:0:0:
276,376,105509,1,0,0:0:0:0:
424,308,105659,5,0,0:0:0:0:
96,212,105809,1,0,0:0:0:0:
408,184,105959,1,0,0:0:0:0:
168,88,106109,1,0,0:0:0:0:
276,352,106259,5,0,0:0:0:0:
76,312,142259,5,0,0:0:0:0:
176,252,142409,1,0,0:0:0:0:
160,360,142559,1,0,0:0:0:0:
88,216,142709,1,0,0:0:0:0:
276,288,142859,5,0,0:0:0:0:
76,312,143009,1,0,0:0:0:0:
92,112,143159,1,0,0:0:0:0:
312,144,143309,5,0,0:0:0:0:
176,252,143459,1,0,0:0:0:0:
204,68,143609,1,0,0:0:0:0:
416,160,143759,5,0,0:0:0:0:
284,312,143909,1,0,0:0:0:0:
304,24,144059,1,0,0:0:0:0:
260,160,144209,2,0,L|144:216,1,110
364,344,144509,2,0,L|520:380,1,110
268,133,144809,2,0,B|314:124|314:124|332:137,1,55
306,186,144959,2,0,B|328:226|328:226|321:248,1,55
240,240,145109,2,0,B|208:274|208:274|185:274,1,55
152,180,145259,6,0,B|109:160|109:160|52:116|144:24|248:44|248:44|316:96|424:64,2,440
