osu file format v14

[General]
AudioFilename: audio.mp3
AudioLeadIn: 0
PreviewTime: 72940
Countdown: 0
SampleSet: Soft
StackLeniency: 0.7
Mode: 0
LetterboxInBreaks: 0
WidescreenStoryboard: 1

[Editor]
DistanceSpacing: 0.9
BeatDivisor: 4
GridSize: 8
TimelineZoom: 1.7

[Metadata]
Title:Saigo
TitleUnicode:最後
Artist:An
ArtistUnicode:An
Creator:aigoh
Version:Normal
Source:
Tags:AcuticNotes Nega Fragments Streliteela LunaSaika 春M3 ACAL-0007
BeatmapID:1622460
BeatmapSetID:771732

[Difficulty]
HPDrainRate:3
CircleSize:3.3
OverallDifficulty:5
ApproachRate:5
SliderMultiplier:1
SliderTickRate:1

[Events]
//Background and Video events
0,0,"S aigoh.jpg",0,0
//Break Periods
2,92659,96059
2,147859,153509
2,169159,178109
2,194659,195959
//Storyboard Layer 0 (Background)
//Storyboard Layer 1 (Fail)
//Storyboard Layer 2 (Pass)
//Storyboard Layer 3 (Foreground)
//Storyboard Sound Samples

[TimingPoints]
59,300,4,2,0,30,1,0
59,-100,4,2,0,20,0,0
8309,-100,4,2,0,15,0,0
10859,-100,4,2,10,60,0,0
28859,-100,4,2,0,70,0,0
30059,-100,4,2,0,25,0,0
49259,-100,4,2,0,50,0,0
73259,-100,4,2,0,60,0,1
82859,-100,4,2,0,70,0,1
92459,-100,4,2,0,40,0,0
97259,-100,4,2,0,60,0,0
106859,-100,4,2,0,70,0,1
125309,-100,4,2,0,50,0,0
126059,-100,4,2,0,70,0,1
145259,-100,4,2,0,50,0,0
145859,-100,4,2,0,40,0,0
146459,-100,4,2,0,30,0,0
147059,-100,4,2,0,20,0,0
147659,-100,4,2,0,10,0,0
154709,-100,4,2,0,50,0,0
168959,-100,4,2,0,30,0,0
180059,-100,4,2,0,80,0,1
189659,-100,4,2,0,60,0,0
191909,-100,4,2,0,50,0,0
194459,-100,4,2,0,60,0,1
194534,-100,4,2,0,50,0,0
200459,-100,4,2,0,60,0,0
219659,-100,4,2,0,30,0,0
221309,625,4,2,0,50,1,0
221621,480,4,2,0,40,1,0
222101,600,4,2,0,40,1,0

[Colours]
Combo1 : 91,116,75
Combo2 : 129,129,192
Combo3 : 64,128,128
Combo4 : 128,64,64

[HitObjects]
425,113,59,6,0,P|350:106|276:95,1,150,0|0,0:3|0:3,0:3:0:0:
187,82,809,1,0,0:0:0:0:
121,143,1109,2,0,P|92:211|107:283,1,150
181,335,1859,2,0,P|176:359|173:384,2,50
263,297,2459,5,0,0:0:0:0:
391,339,2909,2,0,P|441:330|491:325,1,100,0|0,0:3|0:3,0:3:0:0:
471,236,3509,2,0,P|396:229|322:218,1,150,0|0,0:3|0:3,0:3:0:0:
236,195,4259,1,0,0:0:0:0:
172,258,4559,1,0,0:0:0:0:
204,343,4859,6,0,B|278:354|278:354|337:308,1,150
322,218,5609,1,0,0:0:0:0:
399,172,5909,2,0,P|391:97|381:23,1,150,0|0,0:3|0:3,0:3:0:0:
297,58,6659,2,0,P|296:82|293:107,2,50
213,24,7259,6,0,P|139:14|74:49,1,150
11,113,8009,1,0,0:0:0:0:
35,200,8309,1,0,0:0:0:0:
35,200,10859,6,0,P|84:204|134:212,1,100,0|0,0:3|0:3,0:3:0:0:
184,286,11459,2,0,P|257:283|308:335,1,150
441,314,12359,2,0,P|448:239|458:165,1,150,0|0,0:3|0:3,0:3:0:0:
390,105,13109,6,0,P|322:134|250:119,1,150
166,88,13859,1,0,0:0:0:0:
113,212,14309,2,0,B|63:198|63:198|15:206,2,100,0|0|0,0:3|0:3|0:3,0:3:0:0:
197,243,15209,1,0,0:0:0:0:
312,312,15659,6,0,P|361:304|411:299,1,100,0|0,0:3|0:3,0:3:0:0:
464,226,16259,2,0,P|435:157|450:85,1,150
322,39,17159,2,0,P|247:49|173:56,1,150,0|0,0:3|0:3,0:3:0:0:
121,130,17909,6,0,P|149:198|134:270,1,150
93,351,18659,1,0,0:0:0:0:
227,351,19109,2,0,B|276:337|276:337|324:345,1,100,0|0,0:3|0:3,0:3:0:0:
392,286,19709,2,0,B|440:294|440:294|489:280,1,100,0|0,0:3|0:3,0:3:0:0:
485,144,20459,6,0,P|471:96|476:46,1,100,0|0,0:3|0:3,0:3:0:0:
394,10,21059,2,0,P|328:44|255:35,1,150
128,82,21959,2,0,P|120:156|111:230,1,150,0|0,0:3|0:3,0:3:0:0:
154,309,22709,6,0,P|211:353|283:340,1,150
353,282,23459,1,0,0:0:0:0:
398,155,23909,2,0,B|448:160|448:160|494:143,2,100,0|0|0,3:3|0:3|3:3,0:3:0:0:
307,151,24809,1,0,0:0:0:0:
233,266,25259,6,0,P|185:280|136:292,1,100,0|0,0:3|0:3,0:3:0:0:
67,233,25859,2,0,P|34:166|44:93,1,150
175,62,26759,2,0,P|248:62|309:21,1,150
385,69,27509,6,0,P|367:140|394:209,1,150
455,275,28259,1,0,0:0:0:0:
283,328,28859,2,0,B|184:319|184:319|89:356,1,200,0|0,3:3|0:3,0:3:0:0:
30,186,30059,6,0,P|21:85|86:6,1,200
150,125,31109,1,0,0:0:0:0:
284,142,31559,2,0,P|308:136|332:129,2,50
147,260,32459,6,0,P|99:275|51:288,2,100,0|0|0,0:3|0:3|0:3,0:3:0:0:
282,258,33509,2,0,P|354:271|405:324,1,150
492,297,34259,2,0,P|497:247|505:197,1,100,0|0,0:3|0:3,0:3:0:0:
498,108,34859,6,0,P|400:114|323:54,1,200
189,54,35909,1,0,0:0:0:0:
105,160,36359,2,0,P|80:163|55:165,2,50
180,209,36959,1,0,0:0:0:0:
255,258,37259,6,0,B|371:225|333:288|449:256,1,200
503,131,38309,1,0,0:0:0:0:
503,131,39659,6,0,B|429:116|429:116|384:120|384:120|306:103,1,200
174,76,40709,1,0,0:0:0:0:
71,163,41159,2,0,P|46:155|22:149,2,50
141,218,41759,1,0,0:0:0:0:
211,274,42059,6,0,P|203:323|198:372,2,100,0|0|0,0:3|0:3|0:3,0:3:0:0:
338,229,43109,2,0,P|410:214|479:242,1,150
507,157,43859,2,0,P|498:107|493:57,1,100,0|0,0:3|0:3,0:3:0:0:
407,29,44459,6,0,P|371:117|276:133,1,200
150,86,45509,1,0,0:0:0:0:
54,181,45959,2,0,P|31:169|10:156,2,50
91,262,46559,1,0,0:0:0:0:
179,248,46859,6,0,P|187:198|198:150,2,100,0|0|0,0:3|0:3|0:3,0:3:0:0:
159,381,47909,1,0,0:0:0:0:
159,381,49259,6,0,P|209:372|259:367,1,100,0|0,0:3|0:3,0:3:0:0:
335,320,49859,2,0,P|384:328|433:333,1,100,0|0,0:3|0:3,0:3:0:0:
478,255,50459,2,0,P|499:220|409:99,1,200
287,215,51659,6,0,P|236:213|190:194,1,100
109,231,52259,2,0,P|74:194|55:148,1,100
46,59,52859,1,0,0:0:0:0:
225,75,53459,2,0,P|274:69|324:61,1,100,0|0,0:3|0:3,0:3:0:0:
413,82,54059,6,0,P|443:175|403:264,1,200
342,330,54959,1,0,0:0:0:0:
254,350,55259,2,0,B|138:317|176:380|60:348,1,200
5,274,56159,1,0,0:0:0:0:
62,203,56459,6,0,P|57:154|49:104,1,100,0|0,0:3|0:3,0:3:0:0:
113,40,57059,2,0,P|181:68|254:53,1,150
303,126,57809,2,0,P|287:174|274:222,2,100,0|0|0,0:3|0:3|0:3,0:3:0:0:
388,96,58709,1,0,0:0:0:0:
485,188,59159,6,0,P|444:217|396:230,1,100,0|0,0:3|0:3,0:3:0:0:
307,215,59759,1,0,0:0:0:0:
237,272,60059,2,0,P|137:262|38:249,1,200,0|0,0:3|0:3,0:3:0:0:
54,69,61259,6,0,P|103:61|153:55,1,100,0|0,0:3|0:3,0:3:0:0:
239,29,61859,2,0,P|336:22|413:82,1,200
452,164,62759,1,0,0:0:0:0:
452,254,63059,2,0,P|426:296|419:346,1,100,0|0,0:3|0:3,0:3:0:0:
329,334,63659,6,0,B|253:338|253:338|211:354|211:354|131:357,1,200
22,215,64859,2,0,B|86:139|86:139|110:41,1,200,0|0,3:3|0:3,0:3:0:0:
289,37,66059,6,0,P|370:91|467:77,2,200
256,192,68459,12,0,71909,0:0:0:0:
398,43,73259,6,0,P|351:25|301:23,1,100
210,23,73859,2,0,P|160:25|114:43,1,100
63,117,74459,2,0,B|78:191|78:191|74:236|74:236|91:314,1,200
268,312,75659,6,0,P|315:327|362:345,1,100,0|0,0:3|0:3,0:3:0:0:
425,280,76259,2,0,P|406:233|391:185,1,100,0|0,0:3|0:3,0:3:0:0:
473,148,76859,2,0,P|461:53|372:19,1,200
199,63,78059,6,0,L|48:84,2,150,0|0|0,0:3|0:3|0:3,0:3:0:0:
306,145,79409,2,0,P|332:214|315:286,1,150
151,361,80459,6,0,P|146:311|138:262,1,100,0|0,0:3|0:3,0:3:0:0:
98,181,81059,2,0,P|48:189|0:194,2,100,0|0|0,0:3|0:3|0:3,0:3:0:0:
221,187,82109,1,0,0:0:0:0:
298,231,82409,1,0,0:0:0:0:
442,214,82859,6,0,P|450:164|455:115,2,100,0|0|0,0:3|0:3|0:3,0:3:0:0:
427,303,83759,1,0,0:0:0:0:
336,313,84059,2,0,P|341:337|344:362,2,50
298,231,84659,2,0,P|249:236|199:244,1,100,0|0,0:3|0:3,0:3:0:0:
118,285,85259,6,0,P|125:334|131:384,2,100,0|0|0,0:3|0:3|0:3,0:3:0:0:
91,198,86159,1,0,0:0:0:0:
53,116,86459,2,0,P|29:121|4:124,2,50
129,68,87059,1,0,0:0:0:0:
205,19,87359,1,0,0:0:0:0:
291,43,87659,6,0,P|300:118|309:193,1,150,0|0,0:3|0:3,0:3:0:0:
359,317,88559,2,0,P|432:323|494:283,2,150
180,330,90059,6,0,P|131:316|82:307,1,100,0|0,0:3|0:3,0:3:0:0:
59,220,90659,2,0,P|96:187|131:151,1,100,0|0,0:3|0:3,0:3:0:0:
222,153,91259,2,0,P|265:212|259:285,2,150
131,151,92459,5,0,0:0:0:0:
131,151,97259,6,0,P|59:167|0:126,2,150
244,77,98609,1,0,0:0:0:0:
378,64,99059,1,0,0:0:0:0:
427,138,99359,1,0,0:0:0:0:
386,218,99659,6,0,B|289:265|289:265|247:258,1,150
114,278,100559,2,0,P|104:328|91:376,2,100,0|0|0,0:3|0:3|0:3,0:3:0:0:
46,219,101459,2,0,P|56:169|69:121,1,100,0|0,0:3|0:3,0:3:0:0:
148,79,102059,6,0,B|222:85|222:85|293:58,1,150,0|0,3:3|0:3,0:3:0:0:
419,107,102959,2,0,P|409:182|402:256,1,150,0|0,0:3|0:3,0:3:0:0:
336,373,103859,1,0,0:0:0:0:
266,315,104159,1,0,0:0:0:0:
176,332,104459,6,0,P|84:347|50:262,1,200
85,178,105359,1,0,0:0:0:0:
6,134,105659,2,0,P|6:84|23:37,1,100
112,19,106259,1,0,0:0:0:0:
112,19,106859,6,0,L|223:33,1,100
281,88,107459,2,0,L|380:75,1,100
467,99,108059,2,0,P|481:146|480:196,1,100
417,258,108659,1,0,0:0:0:0:
331,235,108959,1,0,0:0:0:0:
253,279,109259,6,0,L|100:318,1,150
103,181,110159,2,0,L|-5:208,2,100
190,159,111059,2,0,P|185:109|165:64,1,100
245,22,111659,6,0,P|320:32|394:39,1,150,0|0,0:3|0:3,0:3:0:0:
432,168,112559,2,0,P|357:175|283:184,1,150,0|0,0:3|0:3,0:3:0:0:
148,169,113459,1,0,0:0:0:0:
84,232,113759,1,0,0:0:0:0:
150,349,114209,6,0,B|187:370|187:370|300:358,1,150
383,345,114959,1,0,0:0:0:0:
413,260,115259,2,0,P|422:211|414:161,1,100
331,125,115859,1,0,0:0:0:0:
331,125,116459,6,0,P|284:141|244:173,1,100
168,221,117059,2,0,P|118:230|68:222,1,100
47,135,117659,2,0,P|93:118|133:86,1,100
210,39,118259,2,0,P|259:30|309:37,1,100
392,68,118859,6,0,P|376:141|359:214,1,150,0|0,0:3|0:3,0:3:0:0:
288,329,119759,2,0,P|267:283|250:236,2,100,0|0|0,0:3|0:3|0:3,0:3:0:0:
376,348,120659,2,0,P|414:316|449:280,1,100,0|0,0:3|0:3,0:3:0:0:
505,212,121259,6,0,B|468:147|468:147|463:72,1,150,0|0,3:3|0:3,0:3:0:0:
329,41,122159,2,0,B|291:107|291:107|230:149,1,150,0|0,3:3|0:3,0:3:0:0:
95,155,123059,1,0,0:0:0:0:
56,236,123359,1,0,0:0:0:0:
74,324,123659,6,0,B|119:339|172:316|172:316|225:339|256:369|256:369|286:339|339:316|339:316|392:339|436:324,1,400
400,194,125309,1,0,0:0:0:0:
400,194,126059,6,0,P|385:122|413:53,1,150
277,42,126959,2,0,P|204:59|130:74,1,150,0|0,0:3|0:3,0:3:0:0:
38,172,127859,2,0,P|60:216|66:265,1,100
151,295,128459,6,0,B|208:248|208:248|282:231,1,150,0|0,3:3|0:3,0:3:0:0:
411,268,129359,1,0,0:0:0:0:
462,194,129659,2,0,P|464:120|422:59,1,150
341,19,130409,1,0,0:0:0:0:
259,57,130709,6,0,B|220:74|220:74|114:54,1,150
4,196,131759,2,0,P|13:270|20:344,1,150,0|0,0:3|0:3,0:3:0:0:
155,333,132659,2,0,P|227:348|295:319,1,150
393,226,133559,6,0,B|414:153|414:153|403:79,1,150,0|0,3:3|0:3,0:3:0:0:
272,45,134459,2,0,B|199:66|199:66|125:55,1,150,0|0,3:3|0:3,0:3:0:0:
38,34,135209,1,0,0:0:0:0:
58,167,135659,6,0,P|85:235|69:307,1,150
198,349,136559,2,0,B|374:298|316:394|492:345,1,300
405,187,138059,6,0,P|381:117|323:71,1,150
188,71,138959,2,0,P|129:116|106:186,2,150
327,187,140459,6,0,B|364:208|364:208|470:196,1,150
485,61,141359,2,0,B|372:71|372:71|305:58|305:58|188:71,1,300
41,177,142859,6,0,B|147:188|147:188|184:167,1,150
303,102,143759,1,0,0:0:0:0:
410,184,144209,2,0,B|394:267|394:267|398:282,2,100
256,192,145259,12,0,147659,0:0:0:0:
193,108,154709,5,0,0:0:0:0:
59,124,155159,2,0,P|45:172|37:221,1,100,0|0,0:3|0:3,0:3:0:0:
84,348,155909,2,0,P|150:316|223:330,1,150
309,358,156659,1,0,0:0:0:0:
407,207,157259,6,0,P|392:159|394:109,1,100
412,21,157859,1,0,0:0:0:0:
277,35,158309,2,0,P|202:43|127:49,1,150,0|0,0:3|0:3,0:3:0:0:
39,58,159059,1,0,0:0:0:0:
143,204,159659,6,0,B|172:244|172:244|179:294,1,100,0|0,0:3|0:3,0:3:0:0:
196,383,160259,1,0,0:0:0:0:
328,358,160709,2,0,P|339:283|353:210,1,150,0|0,0:3|0:3,0:3:0:0:
368,122,161459,1,0,0:0:0:0:
195,69,162059,6,0,P|147:82|97:92,1,100,0|0,0:3|0:3,0:3:0:0:
29,150,162659,2,0,P|27:199|41:247,1,100
71,332,163259,1,0,0:0:0:0:
256,192,164459,12,0,168959,0:0:0:0:
177,126,179309,5,0,0:0:0:0:
264,103,179609,1,0,0:0:0:0:
396,129,180059,6,0,B|388:81|388:81|402:32,2,100,0|0|0,0:3|0:3|0:3,0:3:0:0:
411,218,180959,1,0,0:0:0:0:
427,306,181259,2,0,P|451:309|476:310,2,50
337,298,181859,1,0,0:0:0:0:
249,291,182159,1,0,0:0:0:0:
161,284,182459,6,0,P|147:333|129:379,2,100,0|0|0,0:3|0:3|0:3,0:3:0:0:
153,194,183359,1,0,0:0:0:0:
68,163,183659,2,0,P|42:173|16:181,2,50
100,78,184259,1,0,0:0:0:0:
185,70,184559,1,0,0:0:0:0:
231,149,184859,6,0,B|337:166|337:166|375:148,1,150
507,118,185759,2,0,P|472:53|403:16,2,150
502,297,187259,6,0,P|451:292|406:272,1,100
327,229,187859,2,0,P|281:208|231:204,1,100
147,235,188459,2,0,P|156:309|164:384,2,150,0|0|0,0:3|0:3|0:3,0:3:0:0:
57,226,189659,6,0,P|28:157|43:84,1,150
93,11,190409,1,0,0:0:0:0:
181,25,190709,2,0,B|230:39|230:39|278:31,1,100,0|0,0:3|0:3,0:3:0:0:
361,65,191309,2,0,B|409:57|409:57|458:71,1,100,0|0,0:3|0:3,0:3:0:0:
484,157,191909,6,0,B|509:269|471:332|383:357|295:332|258:269|283:157|283:157|171:76|10:185,1,750
4,275,194459,1,0,0:0:0:0:
4,275,197159,6,0,B|54:271|101:258|101:258|139:288|194:295|194:295|236:264|286:258|286:258|332:265|381:282,1,400
382,282,200459,6,0,P|367:234|368:184,1,100
301,124,201059,2,0,P|226:133|151:141,1,150,0|0,0:3|0:3,0:3:0:0:
17,158,201959,2,0,P|2:85|31:17,1,150
122,32,202709,6,0,P|196:24|271:14,1,150,0|0,0:3|0:3,0:3:0:0:
360,4,203459,1,0,0:0:0:0:
402,132,203909,2,0,B|399:132|437:128|437:128|500:141,2,100
318,165,204809,1,0,0:0:0:0:
336,298,205259,6,0,P|287:310|238:317,1,100,0|0,0:3|0:3,0:3:0:0:
153,349,205859,2,0,P|80:363|12:334,1,150
13,199,206759,2,0,P|7:126|56:72,1,150
146,63,207509,6,0,P|220:58|295:53,1,150,0|0,0:3|0:3,0:3:0:0:
385,50,208259,1,0,0:0:0:0:
490,131,208709,2,0,B|479:194|479:194|484:231|484:231,1,100
408,277,209309,2,0,B|416:325|416:325|402:374,1,100,0|0,0:3|0:3,0:3:0:0:
273,332,210059,6,0,P|223:340|175:354,1,100,0|0,0:3|0:3,0:3:0:0:
87,371,210659,2,0,P|58:303|72:230,1,150
207,222,211559,2,0,P|221:149|192:81,1,150
251,14,212309,6,0,P|318:42|391:28,1,150
477,7,213059,1,0,0:0:0:0:
418,128,213509,2,0,B|354:134|354:134|319:148|319:148,2,100
481,192,214409,1,0,0:0:0:0:
491,326,214859,6,0,P|442:314|395:297,1,100,0|0,0:3|0:3,0:3:0:0:
311,266,215459,2,0,P|237:271|179:316,1,150
44,319,216359,2,0,P|36:244|26:169,1,150,0|0,0:3|0:3,0:3:0:0:
91,107,217108,6,0,P|159:135|231:122,1,150
315,89,217859,1,0,0:0:0:0:
442,132,218309,2,0,B|429:194|429:194|432:232|432:232,1,100
379,303,218909,2,0,B|328:293|328:293|281:305,2,100,0|0|0,0:3|0:3|0:3,0:3:0:0:
