osu file format v14

[General]
AudioFilename: audio.mp3
AudioLeadIn: 0
PreviewTime: 72940
Countdown: 0
SampleSet: Soft
StackLeniency: 0.7
Mode: 0
LetterboxInBreaks: 0
WidescreenStoryboard: 0

[Editor]
Bookmarks: 31109,143759,203909,208709
DistanceSpacing: 1
BeatDivisor: 4
GridSize: 4
TimelineZoom: 3.799999

[Metadata]
Title:Saigo
TitleUnicode:最後
Artist:An
ArtistUnicode:An
Creator:aigoh
Version:Extra
Source:
Tags:AcuticNotes Nega Fragments Streliteela LunaSaika 春M3 ACAL-0007
BeatmapID:1622458
BeatmapSetID:771732

[Difficulty]
HPDrainRate:6
CircleSize:4.2
OverallDifficulty:8.5
ApproachRate:9.2
SliderMultiplier:1.8
SliderTickRate:1

[Events]
//Background and Video events
0,0,"S aigoh.jpg",0,0
//Break Periods
2,147859,154139
2,170659,178289
//Storyboard Layer 0 (Background)
//Storyboard Layer 1 (Fail)
//Storyboard Layer 2 (Pass)
//Storyboard Layer 3 (Foreground)
//Storyboard Sound Samples

[TimingPoints]
59,300,4,2,0,30,1,0
59,-153.846153846154,4,2,0,30,0,0
8309,-100,4,2,0,15,0,0
8384,-100,4,2,7,5,0,0
9059,-100,4,2,7,10,0,0
9359,-100,4,2,7,15,0,0
9659,-100,4,2,7,20,0,0
9959,-100,4,2,7,25,0,0
10259,-100,4,2,7,30,0,0
10859,-125,4,2,1,45,0,0
28859,-153.846153846154,4,2,1,55,0,0
29234,-153.846153846154,4,2,7,5,0,0
29309,-125,4,2,7,35,0,0
30059,-153.846153846154,4,2,10,35,0,0
30134,-153.846153846154,4,2,7,35,0,0
32459,-153.846153846154,4,2,10,35,0,0
32534,-153.846153846154,4,2,7,35,0,0
34859,-153.846153846154,4,2,10,35,0,0
34934,-153.846153846154,4,2,7,35,0,0
37259,-153.846153846154,4,2,10,35,0,0
37334,-153.846153846154,4,2,7,35,0,0
38309,-153.846153846154,4,2,10,35,0,0
38384,-153.846153846154,4,2,7,35,0,0
39659,-153.846153846154,4,2,10,35,0,0
39734,-153.846153846154,4,2,7,35,0,0
42059,-153.846153846154,4,2,10,35,0,0
42134,-153.846153846154,4,2,7,35,0,0
44459,-153.846153846154,4,2,10,35,0,0
44534,-153.846153846154,4,2,7,35,0,0
46859,-153.846153846154,4,2,10,35,0,0
46934,-153.846153846154,4,2,7,35,0,0
47909,-153.846153846154,4,2,10,60,0,0
49259,-125,4,2,7,45,0,0
56459,-125,4,2,1,45,0,0
57059,-125,4,2,1,40,0,0
57134,-125,4,2,1,45,0,0
59234,-125,4,2,7,45,0,0
67259,-125,4,2,1,45,0,0
68459,-100,4,2,7,50,0,0
70859,-100,4,2,1,50,0,0
71909,-100,4,2,1,55,0,0
73259,-100,4,2,1,70,0,0
75059,-100,4,2,1,80,0,0
75134,-100,4,2,1,70,0,0
78059,-100,4,2,1,80,0,0
78584,-100,4,2,1,70,0,0
79859,-100,4,2,1,80,0,0
79934,-100,4,2,1,70,0,0
80459,-100,4,2,1,80,0,0
81659,-100,4,2,1,40,0,0
92459,-100,4,2,1,40,0,0
93509,-100,4,2,7,5,0,0
94859,-100,4,2,7,10,0,0
95159,-100,4,2,7,15,0,0
95459,-100,4,2,7,20,0,0
95759,-100,4,2,7,25,0,0
96059,-100,4,2,7,30,0,0
96359,-100,4,2,7,35,0,0
96659,-100,4,2,7,40,0,0
96959,-100,4,2,7,45,0,0
97259,-100,4,2,1,40,0,0
100109,-58.8235294117647,4,2,1,60,0,0
100409,-100,4,2,1,60,0,0
101459,-250,4,2,1,60,0,0
101759,-100,4,2,1,40,0,0
104459,-100,4,2,7,50,0,0
106259,-100,4,2,1,55,0,0
106859,-100,4,2,1,50,0,1
109709,-58.8235294117647,4,2,1,50,0,1
110009,-100,4,2,1,50,0,1
110459,-100,4,2,1,45,0,1
110759,-100,4,2,1,40,0,1
111059,-100,4,2,1,35,0,1
111359,-100,4,2,1,50,0,1
114209,-58.8235294117647,4,2,1,50,0,1
114359,-100,4,2,1,50,0,1
119309,-58.8235294117647,4,2,1,50,0,1
119459,-100,4,2,1,50,0,1
120059,-100,4,2,1,45,0,1
120359,-100,4,2,1,40,0,1
120659,-100,4,2,1,35,0,1
120959,-100,4,2,1,50,0,1
123659,-100,4,2,7,50,0,1
125309,-500,4,2,1,50,0,0
126059,-100,4,2,1,50,0,1
134459,-100,4,2,1,55,0,1
134984,-100,4,2,1,50,0,1
142859,-100,4,2,7,50,0,1
144209,-100,4,2,1,55,0,1
145259,-200,4,2,0,50,0,0
147659,-200,4,2,1,20,0,0
154709,-125,4,2,1,45,0,0
155234,-125,4,2,7,45,0,0
163259,-100,4,2,1,50,0,0
164459,-100,4,2,7,50,0,0
166859,-100,4,2,1,50,0,0
167909,-200,4,2,1,55,0,0
168884,-200,4,2,1,20,0,0
168959,-500,4,2,1,50,0,0
169859,-200,4,2,1,25,0,0
170459,-200,4,2,1,50,0,0
178859,-100,4,2,1,40,0,0
179609,-200,4,2,1,40,0,0
180059,-100,4,2,1,40,0,1
189659,-100,4,2,1,40,0,0
191909,-250,4,2,1,30,0,0
194459,-100,4,2,1,60,0,1
194534,-100,4,2,1,50,0,0
197159,-133.333333333333,4,2,1,50,0,0
200459,-125,4,2,1,45,0,0
219659,-153.846153846154,4,2,0,50,0,0
219734,-153.846153846154,4,2,0,30,0,0
220409,-153.846153846154,4,2,0,45,0,0
220484,-153.846153846154,4,2,0,30,0,0
221309,625,4,2,0,40,1,0
221621,480,4,2,0,40,1,0
222101,600,4,2,0,30,1,0

[Colours]
Combo1 : 92,112,80
Combo2 : 129,129,192
Combo3 : 66,125,125
Combo4 : 125,66,66

[HitObjects]
220,318,59,6,0,P|214:289|199:265,1,58.4999973220826,2|0,0:0|0:0,0:0:0:0:
126,241,359,1,0,0:0:0:0:
16,273,509,2,0,P|74:267|125:241,1,116.999994644165,2|0,0:0|0:0,0:0:0:0:
195,144,959,1,0,0:0:0:0:
350,171,1109,2,0,P|297:197|240:202,1,116.999994644165,2|0,0:0|0:0,0:0:0:0:
125,169,1559,1,0,0:0:0:0:
125,161,1859,1,2,0:0:0:0:
138,87,2009,1,0,0:0:0:0:
208,62,2159,1,2,0:0:0:0:
265,111,2309,1,0,0:0:0:0:
336,87,2459,6,0,P|363:77|388:62,1,58.4999973220826,2|0,0:0|0:0,0:0:0:0:
334,12,2759,1,0,0:0:0:0:
265,111,2909,2,0,P|271:169|257:226,1,116.999994644165,2|0,0:0|0:0,0:0:0:0:
183,299,3359,1,0,0:0:0:0:
68,215,3509,2,0,P|126:208|183:223,1,116.999994644165,2|0,0:0|0:0,0:0:0:0:
258,301,3959,1,0,0:0:0:0:
262,305,4259,1,2,0:0:0:0:
336,334,4409,1,0,0:0:0:0:
401,297,4559,1,2,0:0:0:0:
412,223,4709,1,0,0:0:0:0:
363,170,4859,6,0,P|355:141|356:112,1,58.4999973220826,2|0,0:0|0:0,0:0:0:0:
413,64,5159,1,0,0:0:0:0:
299,65,5309,2,0,P|240:60|183:71,1,116.999994644165,2|0,0:0|0:0,0:0:0:0:
131,178,5759,1,0,0:0:0:0:
240,251,5909,2,0,P|227:195|199:144,1,116.999994644165,2|0,0:0|0:0,0:0:0:0:
112,59,6359,1,0,0:0:0:0:
108,63,6659,1,2,0:0:0:0:
74,130,6809,1,0,0:0:0:0:
127,182,6959,1,2,0:0:0:0:
195,148,7109,1,0,0:0:0:0:
269,142,7259,6,0,P|297:146|326:144,1,58.4999973220826,2|0,0:0|0:0,0:0:0:0:
401,136,7559,1,0,0:0:0:0:
368,252,7709,2,0,P|340:201|327:145,1,116.999994644165,2|0,0:0|0:0,0:0:0:0:
356,76,8159,1,0,0:0:0:0:
339,322,8309,1,4,0:1:0:0:
256,192,8384,12,0,10559,0:0:0:0:
125,266,10859,6,0,P|121:303|110:335,1,72,4|0,1:0|0:0,0:0:0:0:
91,184,11159,2,0,P|60:162|38:136,1,72,0|0,1:0|0:0,0:0:0:0:
176,197,11459,2,0,P|244:178|314:195,1,144,8|0,0:0|0:0,0:0:0:0:
485,278,11909,2,0,L|341:278,1,144,12|0,0:3|0:0,0:0:0:0:
255,278,12359,1,0,1:0:0:0:
411,225,12509,1,0,0:0:0:0:
315,359,12659,1,2,0:0:0:0:
314,195,12809,1,8,1:2:0:0:
412,327,12959,1,2,0:0:0:0:
228,359,13109,6,0,P|157:364|98:325,1,144,0|0,1:0|0:0,0:0:0:0:
0,336,13559,2,0,P|9:302|29:272,1,72,0|0,1:0|0:0,0:0:0:0:
170,124,13859,2,0,L|176:204,1,72,8|0,1:2|0:0,0:0:0:0:
180,281,14159,1,2,0:0:0:0:
332,245,14309,6,0,B|367:259|367:259|400:253|400:253|430:269|430:269|468:264,1,144,8|2,0:0|0:0,0:0:0:0:
498,108,14759,1,0,1:0:0:0:
367,169,14909,1,0,0:0:0:0:
458,184,15059,5,2,0:0:0:0:
436,46,15209,1,8,1:2:0:0:
367,169,15359,1,2,0:0:0:0:
361,81,15509,1,0,0:0:0:0:
203,172,15659,6,0,P|194:207|189:243,1,72,4|0,1:0|0:0,0:0:0:0:
279,130,15959,2,0,P|269:95|255:62,1,72,0|0,1:0|0:0,0:0:0:0:
151,101,16259,2,0,P|83:114|26:74,1,144,8|0,0:0|0:0,0:0:0:0:
354,89,16709,2,0,P|422:102|479:62,1,144,12|0,0:3|0:0,0:0:0:0:
403,12,17159,1,0,1:0:0:0:
263,86,17309,1,0,0:0:0:0:
398,171,17459,1,2,0:0:0:0:
224,170,17609,5,8,1:2:0:0:
393,198,17759,1,2,0:0:0:0:
243,291,17909,6,0,P|172:296|113:257,1,144,0|0,1:0|0:0,0:0:0:0:
15,298,18359,2,0,P|18:262|31:229,1,72,0|0,1:0|0:0,0:0:0:0:
305,166,18659,2,0,L|316:238,1,72,8|0,1:2|0:0,0:0:0:0:
328,323,18959,1,2,0:0:0:0:
192,104,19109,6,0,B|155:88|155:88|123:94|123:94|57:68,1,144,8|2,0:0|0:0,0:0:0:0:
241,32,19559,1,0,1:0:0:0:
246,171,19709,2,0,B|239:206|239:206|241:242,1,72,2|0,0:0|0:0,0:0:0:0:
324,56,20009,2,0,B|349:31|349:31|369:1,1,72,8|0,1:2|0:0,0:0:0:0:
326,142,20309,1,2,0:0:0:0:
308,301,20459,6,0,P|309:350|311:395,1,72,4|0,1:2|0:0,0:0:0:0:
391,280,20759,2,0,P|390:231|388:186,1,72,0|0,1:0|0:0,0:0:0:0:
241,242,21059,2,0,P|175:214|105:227,1,144,8|0,0:0|0:0,0:0:0:0:
41,384,21509,2,0,L|18:224,1,144,12|0,0:3|0:0,0:0:0:0:
167,92,21959,5,0,1:0:0:0:
180,183,22109,1,0,0:0:0:0:
96,142,22259,1,2,0:0:0:0:
106,227,22409,5,8,1:2:0:0:
91,60,22559,1,2,0:0:0:0:
245,126,22709,6,0,P|313:142|381:120,1,144,0|0,1:0|0:0,0:0:0:0:
512,75,23159,2,0,P|479:61|444:59,1,72,0|0,1:0|0:0,0:0:0:0:
306,238,23459,2,0,L|376:225,1,72,8|0,3:2|0:0,0:0:0:0:
462,209,23759,1,2,0:0:0:0:
274,319,23909,6,0,B|237:336|203:337|203:337|175:327|144:301,1,144,8|0,0:0|0:0,0:0:0:0:
20,177,24359,5,0,1:0:0:0:
81,238,24509,1,0,0:0:0:0:
59,321,24659,1,2,0:0:0:0:
212,164,24809,5,8,1:2:0:0:
144,301,24959,1,2,0:0:0:0:
102,154,25109,1,0,0:0:0:0:
218,250,25259,6,0,P|252:263|288:267,1,72,4|0,1:2|0:0,0:0:0:0:
404,267,25559,2,0,P|439:262|473:249,1,72,0|0,1:0|0:0,0:0:0:0:
298,180,25859,2,0,P|288:251|278:328,1,144,8|0,0:0|0:0,0:0:0:0:
420,171,26309,2,0,P|411:99|403:28,1,144,12|0,0:3|0:0,0:0:0:0:
176,75,26759,5,0,1:0:0:0:
231,141,26909,1,0,0:0:0:0:
261,60,27059,1,2,0:0:0:0:
202,222,27209,5,8,1:2:0:0:
94,87,27359,1,2,0:0:0:0:
209,230,27509,6,0,P|273:259|343:251,1,144,0|0,1:0|0:0,0:0:0:0:
306,102,27959,2,0,P|293:135|288:170,1,72,0|0,1:0|0:0,0:0:0:0:
512,333,28259,2,0,L|505:262,1,72,8|0,0:0|0:0,0:0:0:0:
422,213,28559,1,2,0:0:0:0:
422,300,28709,1,8,0:0:0:0:
505,175,28859,6,0,P|525:104|501:33,1,146.249993305207,12|0,1:3|0:0,0:0:0:0:
500,34,29309,6,0,B|465:41|465:41|429:35,1,72,2|0,0:1|0:0,0:0:0:0:
302,88,29609,2,0,B|309:123|309:123|303:158,1,72,2|0,0:1|0:0,0:0:0:0:
185,15,29909,1,2,0:1:0:0:
7,123,30059,6,0,L|123:111,1,116.999994644165,6|0,1:2|0:0,0:0:0:0:
247,251,30659,2,0,L|131:262,1,116.999994644165,2|0,0:0|0:0,0:0:0:0:
7,123,31109,2,0,P|-9:179|0:237,1,116.999994644165,4|0,1:3|0:0,0:0:0:0:
54,296,31559,2,2,L|40:353,2,58.4999973220826,4|0|0,1:3|0:0|0:0,0:0:0:0:
294,320,32159,2,0,L|351:334,1,58.4999973220826,0|2,0:0|0:0,0:0:0:0:
407,163,32459,6,0,P|395:219|407:276,1,116.999994644165,6|0,1:2|0:0,0:0:0:0:
429,359,32909,1,0,0:0:0:0:
511,354,33059,2,0,P|502:326|488:301,1,58.4999973220826,2|0,0:0|0:0,0:0:0:0:
407,276,33359,1,2,0:0:0:0:
253,248,33509,2,0,P|195:245|143:220,1,116.999994644165,4|0,1:3|0:0,0:0:0:0:
48,252,33959,2,0,P|52:223|63:196,1,58.4999973220826,0|2,1:3|0:0,0:0:0:0:
132,142,34259,1,2,0:0:0:0:
69,189,34409,1,0,0:0:0:0:
29,59,34559,1,2,0:0:0:0:
2,136,34709,1,0,0:0:0:0:
110,61,34859,6,0,P|162:38|220:37,1,116.999994644165,6|0,1:2|0:0,0:0:0:0:
346,128,35459,2,0,P|354:101|358:72,1,58.4999973220826,2|0,0:0|0:0,0:0:0:0:
300,15,35759,1,2,0:0:0:0:
362,206,35909,2,0,P|415:228|473:227,1,116.999994644165,4|0,1:3|0:0,0:0:0:0:
415,315,36359,2,2,L|473:309,2,58.4999973220826,4|0|0,1:3|0:0|0:0,0:0:0:0:
133,286,36959,2,0,L|138:344,1,58.4999973220826,0|2,0:0|0:0,0:0:0:0:
158,207,37259,6,0,P|218:181|285:189,1,116.999994644165,6|0,1:2|0:0,0:0:0:0:
133,286,37709,1,0,0:0:0:0:
78,221,37859,1,0,0:0:0:0:
26,159,38009,1,2,0:0:0:0:
108,145,38159,1,0,0:0:0:0:
52,298,38309,1,2,1:2:0:0:
0,235,39659,6,0,L|13:100,1,116.999994644165,6|0,1:2|0:0,0:0:0:0:
303,186,40259,2,0,L|289:51,1,116.999994644165,2|0,0:0|0:0,0:0:0:0:
383,171,40709,2,0,P|439:159|496:172,1,116.999994644165,4|0,1:3|0:0,0:0:0:0:
356,249,41159,2,2,L|349:316,2,58.4999973220826,4|0|0,1:3|0:0|0:0,0:0:0:0:
219,189,41759,2,0,L|213:130,1,58.4999973220826,0|2,0:0|0:0,0:0:0:0:
154,239,42059,6,0,P|97:225|40:238,1,116.999994644165,6|0,1:2|0:0,0:0:0:0:
6,315,42509,1,0,0:0:0:0:
101,372,42659,2,0,P|104:343|102:313,1,58.4999973220826,2|0,0:0|0:0,0:0:0:0:
41,238,42959,1,2,0:0:0:0:
196,314,43109,2,0,P|254:315|307:293,1,116.999994644165,4|0,1:3|0:0,0:0:0:0:
402,379,43559,2,0,P|396:350|394:321,1,58.4999973220826,0|2,1:3|0:0,0:0:0:0:
453,262,43859,1,2,0:0:0:0:
483,339,44009,1,0,0:0:0:0:
372,242,44159,1,2,0:0:0:0:
308,293,44309,1,0,0:0:0:0:
431,183,44459,6,0,P|454:128|446:65,1,116.999994644165,6|0,1:2|0:0,0:0:0:0:
352,164,45059,2,0,L|346:106,1,58.4999973220826,2|0,0:0|0:0,0:0:0:0:
338,23,45359,1,2,0:0:0:0:
186,72,45509,2,0,L|70:62,1,116.999994644165,4|0,1:3|0:0,0:0:0:0:
1,161,45959,2,2,P|-3:132|0:103,2,58.4999973220826,4|0|0,1:3|0:0|0:0,0:0:0:0:
210,152,46559,2,0,L|269:158,1,58.4999973220826,0|2,0:0|0:0,0:0:0:0:
372,65,46859,5,6,1:2:0:0:
353,174,47009,1,0,0:0:0:0:
288,76,47159,1,2,0:0:0:0:
292,77,47459,5,0,0:0:0:0:
425,126,47609,1,2,0:0:0:0:
495,4,47759,1,0,0:0:0:0:
452,207,47909,1,0,1:0:0:0:
433,205,49259,6,0,B|382:200|382:200|342:212|342:212|292:206,1,144,4|0,1:2|0:0,0:0:0:0:
222,152,49709,1,0,0:0:0:0:
151,337,49859,2,0,P|171:269|148:203,1,144,8|0,0:0|0:0,0:0:0:0:
78,152,50309,1,0,1:0:0:0:
10,264,50459,6,0,P|46:270|82:269,1,72,2|0,0:0|0:0,0:0:0:0:
238,355,50759,2,0,P|273:356|309:350,1,72,0|0,1:0|0:0,0:0:0:0:
489,296,51059,2,0,P|417:286|347:273,1,144,8|0,0:0|0:0,0:0:0:0:
292,206,51509,1,0,0:0:0:0:
419,162,51659,6,0,P|424:197|424:233,1,72,0|0,1:0|0:0,0:0:0:0:
370,89,51959,2,0,P|384:55|404:25,1,72,0|0,1:0|0:0,0:0:0:0:
287,114,52259,2,0,P|218:129|155:100,1,144,8|0,0:0|0:0,0:0:0:0:
79,41,52709,1,0,1:0:0:0:
60,123,52859,1,2,0:0:0:0:
64,127,53159,6,0,P|56:162|51:197,1,72,0|0,1:0|0:0,0:0:0:0:
151,314,53459,1,8,0:0:0:0:
134,228,53609,1,0,0:0:0:0:
68,283,53759,1,2,0:0:0:0:
84,368,53909,1,0,0:0:0:0:
215,257,54059,6,0,P|250:265|285:269,1,72,0|0,1:0|0:0,0:0:0:0:
361,313,54359,2,0,P|375:345|385:380,1,72,0|0,1:0|0:0,0:0:0:0:
359,226,54659,2,0,P|383:185|421:155,2,96,10|0|0,0:0|0:0|0:0,0:0:0:0:
221,128,55259,2,0,P|213:80|190:38,2,96,2|0|0,0:0|0:0|0:0,0:0:0:0:
140,162,55859,2,2,P|94:173|47:167,1,96,10|0,0:0|0:0,0:0:0:0:
47,167,56259,2,0,L|50:190,1,24,2|0,0:0|0:0,0:0:0:0:
0,318,56459,5,0,1:0:0:0:
147,279,56609,1,2,0:0:0:0:
47,167,56759,1,0,1:0:0:0:
60,249,56909,1,2,0:0:0:0:
221,225,57059,5,8,0:0:0:0:
162,111,57209,1,2,0:0:0:0:
134,196,57359,1,0,0:0:0:0:
248,138,57509,1,2,0:0:0:0:
210,316,57659,5,2,0:0:0:0:
309,208,57809,1,0,1:0:0:0:
221,225,57959,1,0,0:0:0:0:
352,287,58109,1,0,1:0:0:0:
292,354,58259,1,2,0:0:0:0:
292,354,58409,1,8,1:2:0:0:
328,368,58709,6,0,P|399:360|471:351,1,144,8|0,0:0|0:0,0:0:0:0:
509,246,59159,2,0,P|474:250|442:266,1,72,12|0,0:0|0:0,0:0:0:0:
337,277,59459,2,0,P|328:242|319:207,1,72,8|0,0:0|0:0,0:0:0:0:
404,87,59759,1,2,0:0:0:0:
465,147,59909,1,0,1:0:0:0:
323,120,60059,6,0,P|269:112|224:81,1,108,2|0,0:0|0:0,0:0:0:0:
224,88,60359,2,0,P|233:53|243:18,1,72,0|0,1:0|0:0,0:0:0:0:
141,113,60659,1,8,0:0:0:0:
203,168,60809,1,0,0:0:0:0:
156,27,60959,1,2,0:0:0:0:
74,54,61109,1,0,0:0:0:0:
15,170,61259,6,0,P|68:182|121:194,1,108,0|0,1:0|0:0,0:0:0:0:
122,199,61559,2,0,P|129:234|136:269,1,72,0|0,1:0|0:0,0:0:0:0:
205,365,61859,2,0,P|208:329|223:296,1,72,8|0,0:0|0:0,0:0:0:0:
288,351,62159,1,2,0:0:0:0:
136,269,62309,1,0,1:0:0:0:
261,218,62459,1,2,0:0:0:0:
264,213,62759,2,0,P|299:206|334:199,1,72,0|0,1:0|0:0,0:0:0:0:
349,63,63059,2,0,P|314:70|279:77,1,72,8|0,0:0|0:0,0:0:0:0:
107,76,63359,5,2,0:0:0:0:
193,100,63509,1,0,0:0:0:0:
128,163,63659,2,0,L|105:240,1,72,0|0,1:0|0:0,0:0:0:0:
76,337,63959,1,0,1:0:0:0:
20,183,64109,1,0,0:0:0:0:
204,233,64259,1,8,0:0:0:0:
208,237,64559,5,2,0:0:0:0:
297,250,64709,1,0,1:0:0:0:
342,171,64859,2,0,L|297:92,1,72
189,143,65159,1,0,1:0:0:0:
157,311,65309,1,0,0:0:0:0:
304,337,65459,1,8,0:0:0:0:
308,341,65759,5,2,0:0:0:0:
395,358,65909,1,0,0:0:0:0:
477,328,66059,2,0,P|486:275|471:223,1,108,0|0,1:0|0:0,0:0:0:0:
468,220,66359,2,0,P|435:235|399:238,1,72,0|0,1:0|0:0,0:0:0:0:
259,205,66659,2,0,P|250:152|265:100,1,108,8|0,0:0|0:0,0:0:0:0:
268,97,66959,2,0,P|301:112|337:115,1,72,0|0,0:0|1:0,0:0:0:0:
83,37,67259,1,4,3:2:0:0:
65,33,68459,6,0,L|80:121,1,90,0|0,1:0|0:0,0:0:0:0:
8,174,68759,1,8,0:0:0:0:
152,68,68909,1,0,1:0:0:0:
181,226,69059,1,8,0:0:0:0:
8,174,69209,1,0,1:0:0:0:
79,33,69359,5,0,1:0:0:0:
83,212,69509,1,8,0:0:0:0:
224,137,69659,1,0,1:0:0:0:
66,115,69809,1,8,0:0:0:0:
181,226,69959,1,0,1:0:0:0:
235,55,70109,1,8,0:0:0:0:
141,152,70259,5,0,1:0:0:0:
310,92,70409,1,8,0:0:0:0:
123,285,70559,1,0,1:0:0:0:
263,210,70709,1,8,0:0:0:0:
195,376,70859,5,12,0:0:0:0:
199,380,71009,2,0,P|242:369|287:363,1,90,8|0,0:0|0:0,0:0:0:0:
441,193,71309,6,0,P|397:187|353:176,1,90,12|0,1:2|0:0,0:0:0:0:
459,184,71609,2,0,P|415:178|371:167,1,90,12|0,1:2|0:0,0:0:0:0:
477,175,71909,1,14,1:2:0:0:
477,175,73259,6,0,P|433:169|389:158,1,90,4|0,1:2|0:0,0:0:0:0:
319,96,73559,2,0,P|282:69|243:47,1,90,0|0,1:0|0:0,0:0:0:0:
304,187,73859,2,0,P|260:198|215:204,1,90,0|0,1:0|0:0,0:0:0:0:
134,167,74159,1,0,1:0:0:0:
72,232,74309,1,0,0:0:0:0:
116,311,74459,5,0,1:0:0:0:
333,354,74609,2,0,P|340:309|347:265,1,90,8|0,0:3|1:0,0:0:0:0:
204,294,74909,1,0,0:0:0:0:
424,221,75059,2,0,P|402:181|379:142,1,90,4|0,1:3|0:0,0:0:0:0:
303,187,75359,1,0,1:0:0:0:
347,265,75509,1,0,0:0:0:0:
441,77,75659,6,0,P|403:55|359:54,1,90,0|0,1:0|0:0,0:0:0:0:
238,123,75959,2,0,P|215:162|215:206,1,90,0|0,1:0|0:0,0:0:0:0:
283,328,76259,2,0,P|321:350|365:350,1,90,0|0,1:0|0:0,0:0:0:0:
508,244,76559,1,0,1:0:0:0:
364,204,76709,1,0,0:0:0:0:
283,328,76859,6,0,P|194:347|134:285,1,180,4|0,1:0|1:0,0:0:0:0:
85,215,77309,1,0,0:0:0:0:
226,170,77459,2,0,P|228:215|222:260,1,90,0|0,1:0|0:0,0:0:0:0:
85,215,77759,1,0,1:0:0:0:
140,145,77909,1,0,0:0:0:0:
311,138,78059,6,0,P|356:136|400:125,1,90,2|0,1:2|0:0,0:0:0:0:
271,58,78359,1,0,1:0:0:0:
460,194,78509,2,0,P|448:284|437:373,1,180,2|0,0:0|0:0,0:0:0:0:
285,373,78959,1,0,1:0:0:0:
276,283,79109,1,0,0:0:0:0:
358,321,79259,5,0,1:0:0:0:
200,334,79409,2,0,P|191:248|257:193,1,180,8|0,0:3|0:0,0:0:0:0:
105,214,79859,2,0,P|62:206|22:184,1,90,4|0,1:3|0:0,0:0:0:0:
245,106,80159,5,0,1:0:0:0:
325,135,80309,1,0,0:0:0:0:
228,277,80459,5,6,1:2:0:0:
176,160,80609,1,0,0:0:0:0:
258,193,80759,5,2,1:2:0:0:
245,106,80909,1,0,0:0:0:0:
343,221,81059,1,2,1:2:0:0:
310,51,81209,1,0,0:0:0:0:
405,164,81359,1,2,1:2:0:0:
386,81,81509,1,0,0:0:0:0:
258,193,81659,5,8,1:2:0:0:
258,193,81809,2,0,P|251:237|248:282,1,90,8|0,1:2|0:0,0:0:0:0:
169,83,82109,6,0,P|124:90|79:91,1,90,12|0,1:2|0:0,0:0:0:0:
178,63,82409,2,0,P|133:70|88:71,1,90,12|2,1:2|0:0,0:0:0:0:
185,45,82709,1,0,0:0:0:0:
313,130,82859,6,0,L|303:237,1,90,0|0,1:0|1:0,0:0:0:0:
341,299,83159,2,0,P|385:298|428:283,2,90,8|0|0,0:0|0:0|0:0,0:0:0:0:
253,293,83609,1,0,1:0:0:0:
182,349,83759,2,0,P|167:306|166:261,1,90,8|0,0:0|0:0,0:0:0:0:
190,169,84059,5,0,0:0:0:0:
167,256,84209,1,0,1:0:0:0:
80,279,84359,1,8,0:0:0:0:
103,192,84509,1,0,1:0:0:0:
254,233,84659,2,0,B|305:216|305:216|358:223,1,90,0|0,0:0|1:0,0:0:0:0:
492,145,84959,2,0,B|441:162|441:162|388:155,1,90,8|0,0:0|0:0,0:0:0:0:
302,45,85259,6,0,P|312:88|317:133,1,90,0|0,1:0|0:0,0:0:0:0:
419,333,85559,2,0,P|420:288|427:243,2,90,8|0|0,0:0|0:0|0:0,0:0:0:0:
501,295,86009,1,0,1:0:0:0:
333,362,86159,2,0,L|223:347,1,90,8|0,0:0|0:0,0:0:0:0:
18,328,86459,5,0,0:0:0:0:
175,302,86609,1,0,1:0:0:0:
106,374,86759,1,8,0:0:0:0:
17,229,86909,1,0,1:0:0:0:
145,195,87059,6,0,P|189:207|234:207,1,90,0|0,0:0|1:0,0:0:0:0:
321,183,87359,2,0,P|359:161|391:129,1,90,8|0,0:0|0:0,0:0:0:0:
203,90,87659,6,0,P|185:50|177:6,1,90,0|0,0:0|1:0,0:0:0:0:
290,66,87959,1,8,0:0:0:0:
141,156,88109,2,0,P|99:175|55:183,1,90
75,96,88409,1,0,1:0:0:0:
208,219,88559,2,0,P|226:259|234:303,1,90,8|0,0:0|0:0,0:0:0:0:
147,286,88859,1,0,0:0:0:0:
269,153,89009,2,0,P|310:133|354:125,1,90,0|8,1:0|0:0,0:0:0:0:
337,214,89308,1,0,0:0:0:0:
383,289,89459,6,0,B|393:341|393:341|384:376,1,90,0|0,0:0|1:0,0:0:0:0:
447,122,89759,2,0,B|436:69|436:69|445:34,1,90,8|0,0:0|0:0,0:0:0:0:
429,210,90059,5,0,1:0:0:0:
303,335,90209,1,0,1:0:0:0:
256,162,90359,1,8,0:0:0:0:
383,289,90509,1,0,0:0:0:0:
208,335,90659,5,0,0:0:0:0:
256,162,90809,1,0,1:0:0:0:
303,335,90959,1,8,0:0:0:0:
128,287,91109,1,0,0:0:0:0:
256,162,91259,5,0,0:0:0:0:
208,335,91409,1,0,1:0:0:0:
83,206,91559,1,8,0:0:0:0:
256,251,91709,1,0,1:0:0:0:
256,251,92009,1,0,1:0:0:0:
159,142,92159,2,0,L|168:33,1,90,8|0,1:2|0:0,0:0:0:0:
353,142,92459,5,12,1:2:0:0:
256,192,93509,12,0,96959,0:0:0:0:
294,254,97259,6,0,P|251:267|206:267,1,90,0|0,1:0|0:0,0:0:0:0:
117,255,97559,1,0,1:0:0:0:
160,175,97709,1,8,0:0:0:0:
131,345,97859,1,0,0:0:0:0:
38,295,98009,1,2,0:0:0:0:
55,190,98159,2,0,P|34:149|26:105,1,90,0|0,2:0|0:0,0:0:0:0:
38,17,98459,5,0,1:0:0:0:
305,166,98609,1,8,0:0:0:0:
305,166,98909,5,0,1:0:0:0:
305,166,99059,2,0,L|394:173,1,90,0|0,1:0|0:0,0:0:0:0:
413,176,99284,1,0,0:0:0:0:
431,177,99359,2,0,P|442:220|439:265,1,90
232,294,99659,6,0,P|220:250|223:205,1,90,4|0,1:0|0:0,0:0:0:0:
305,166,99959,1,0,1:0:0:0:
247,384,100109,6,0,L|94:370,1,153.000002918243,12|0,1:2|0:0,0:0:0:0:
7,362,100409,1,0,0:0:0:0:
111,226,100559,6,2,L|117:270,3,45
11,246,100859,2,2,L|23:203,1,45,2|2,1:2|0:0,0:0:0:0:
190,180,101009,2,2,L|212:217,2,45,10|2|2,1:2|0:0|0:0,0:0:0:0:
80,133,101309,5,0,0:0:0:0:
89,135,101384,1,0,0:0:0:0:
98,137,101459,2,0,L|90:83,1,54,4|0,1:0|0:0,0:0:0:0:
24,25,101759,6,0,L|4:65,2,45,2|0|0,0:0|0:0|0:0,0:0:0:0:
140,8,102059,5,4,1:0:0:0:
214,58,102209,2,0,B|256:73|256:73|298:58,1,90,2|0,0:0|1:0,0:0:0:0:
451,29,102509,2,0,P|456:74|467:118,1,90,8|0,0:0|0:0,0:0:0:0:
491,205,102808,1,0,0:0:0:0:
441,357,102959,2,0,P|436:312|426:269,1,90,0|0,1:0|0:0,0:0:0:0:
404,182,103259,1,0,1:0:0:0:
228,172,103409,2,0,P|272:168|316:158,1,90,8|0,0:0|0:0,0:0:0:0:
381,95,103709,1,0,1:0:0:0:
207,261,103859,2,0,P|162:255|118:243,1,90,0|0,1:0|0:0,0:0:0:0:
103,235,104084,1,0,0:0:0:0:
87,227,104159,2,0,P|87:182|103:139,1,90
295,282,104459,5,12,1:2:0:0:
304,367,104609,1,8,0:0:0:0:
207,261,104759,1,0,1:0:0:0:
157,332,104909,1,8,0:0:0:0:
167,168,105059,1,2,1:2:0:0:
103,235,105209,1,8,0:0:0:0:
270,192,105359,5,2,1:2:0:0:
270,192,105509,1,10,0:0:0:0:
207,261,105659,5,4,1:2:0:0:
334,126,105809,1,8,0:0:0:0:
295,282,105959,1,0,1:0:0:0:
244,103,106109,1,8,0:0:0:0:
373,216,106259,1,12,1:2:0:0:
13,346,106559,6,0,L|21:256,1,90
31,163,106784,1,0,0:0:0:0:
49,169,106859,6,0,P|92:176|136:163,1,90,4|0,1:0|0:0,0:0:0:0:
87,88,107159,1,8,0:0:0:0:
22,256,107309,1,0,0:0:0:0:
168,247,107459,1,0,1:0:0:0:
99,304,107609,1,0,0:0:0:0:
272,379,107759,2,0,P|271:334|256:292,1,90,8|0,0:0|0:0,0:0:0:0:
183,342,108059,1,0,1:0:0:0:
349,303,108209,1,0,0:0:0:0:
406,225,108359,2,0,P|363:211|319:211,1,90,8|0,0:0|0:0,0:0:0:0:
481,118,108659,6,0,P|485:73|486:28,1,90,0|0,1:0|0:0,0:0:0:0:
478,14,108884,1,0,0:0:0:0:
465,3,108959,2,0,L|376:18,1,90,8|0,0:0|0:0,0:0:0:0:
288,34,109259,1,0,1:0:0:0:
319,211,109409,1,0,0:0:0:0:
392,107,109559,1,8,0:0:0:0:
215,138,109709,6,0,P|139:135|68:163,1,153.000002918243,6|0,0:0|1:0,0:0:0:0:
17,238,110009,1,0,0:0:0:0:
0,366,110159,5,8,0:0:0:0:
35,356,110234,1,0,0:0:0:0:
70,346,110309,1,0,0:0:0:0:
105,336,110384,1,2,0:0:0:0:
142,360,110459,5,0,1:0:0:0:
169,352,110534,1,0,0:0:0:0:
196,344,110609,1,0,0:0:0:0:
223,336,110684,1,2,0:0:0:0:
261,360,110759,5,12,0:0:0:0:
280,355,110834,1,0,0:0:0:0:
299,350,110909,1,0,0:0:0:0:
318,345,110984,1,2,0:0:0:0:
355,368,111059,6,0,B|420:349|420:349|463:297,1,135,0|0,2:0|0:0,0:0:0:0:
467,293,111359,2,0,L|444:254,2,45,8|0|0,0:0|0:0|0:0,0:0:0:0:
512,371,111659,5,0,1:0:0:0:
486,174,111809,2,0,B|440:168|440:168|409:138,1,90,0|8,0:0|0:0,0:0:0:0:
281,240,112109,2,0,L|368:218,1,90,0|0,0:0|1:0,0:0:0:0:
409,138,112409,1,0,0:0:0:0:
171,142,112559,2,0,P|185:185|193:230,1,90,8|0,0:0|0:0,0:0:0:0:
195,317,112859,1,0,1:0:0:0:
424,341,113009,2,0,P|430:296|444:253,1,90,0|8,0:0|0:0,0:0:0:0:
486,174,113309,1,0,0:0:0:0:
372,48,113459,6,0,L|270:55,1,90,0|0,1:0|0:0,0:0:0:0:
263,55,113684,1,0,0:0:0:0:
246,57,113759,2,0,B|245:103|245:103|266:142,1,90,8|0,0:0|0:0,0:0:0:0:
313,219,114059,5,0,1:0:0:0:
154,160,114209,2,0,B|157:122|157:122|140:88,1,76.5000014591217,6|0,0:0|0:0,0:0:0:0:
116,91,114359,6,0,P|71:94|26:99,1,90,8|0,0:0|0:0,0:0:0:0:
20,261,114659,2,0,P|86:271|150:250,1,135,0|0,1:0|0:0,0:0:0:0:
227,208,114959,6,0,L|267:231,1,45,8|0,0:0|0:0,0:0:0:0:
218,316,115109,2,0,L|181:341,1,45
383,246,115259,6,0,L|427:236,1,45,0|0,1:0|0:0,0:0:0:0:
434,377,115409,2,0,L|405:344,1,45
315,306,115559,6,0,L|308:350,2,45,8|0|0,0:0|0:0|0:0,0:0:0:0:
334,167,115859,1,12,1:2:0:0:
218,316,116159,6,0,L|112:337,1,90
37,346,116384,1,0,0:0:0:0:
22,336,116459,6,0,P|17:290|32:249,1,90,4|0,1:2|0:0,0:0:0:0:
150,150,116759,1,8,0:0:0:0:
207,217,116909,1,0,0:0:0:0:
121,233,117059,1,0,1:0:0:0:
60,164,117209,1,0,0:0:0:0:
238,135,117359,2,0,B|273:162|273:162|292:204,1,90,8|0,0:0|0:0,0:0:0:0:
150,150,117659,5,0,1:0:0:0:
93,80,117809,1,0,0:0:0:0:
180,64,117959,2,0,B|221:44|221:44|266:47,1,90,8|0,0:0|0:0,0:0:0:0:
410,245,118259,6,0,P|365:234|323:216,1,90,0|0,1:0|0:0,0:0:0:0:
308,210,118484,1,0,0:0:0:0:
292,204,118559,2,0,P|299:160|315:118,1,90,8|0,0:0|0:0,0:0:0:0:
491,206,118859,1,0,1:0:0:0:
410,245,119009,1,0,0:0:0:0:
478,117,119159,1,8,0:0:0:0:
456,323,119309,6,0,B|367:351|394:304|307:331,1,153.000002918243,6|0,0:0|0:0,0:0:0:0:
225,370,119609,1,0,0:0:0:0:
143,330,119759,1,8,0:0:0:0:
112,308,119834,1,0,0:0:0:0:
84,284,119909,1,0,0:0:0:0:
58,259,119984,1,2,0:0:0:0:
77,218,120059,5,0,1:0:0:0:
66,192,120134,1,0,0:0:0:0:
57,165,120209,1,0,0:0:0:0:
48,139,120284,1,2,0:0:0:0:
78,105,120359,5,8,0:0:0:0:
80,83,120434,1,0,0:0:0:0:
84,61,120509,1,0,0:0:0:0:
89,40,120584,1,0,0:0:0:0:
124,12,120659,6,0,B|180:48|180:48|246:37,1,135,0|0,1:0|0:0,0:0:0:0:
251,40,120959,2,0,L|240:83,2,45,8|0|0,0:0|0:0|0:0,0:0:0:0:
320,125,121259,5,0,1:0:0:0:
396,77,121409,2,0,B|441:87|441:87|474:116,1,90,0|8,0:0|0:0,0:0:0:0:
367,206,121709,2,0,P|323:215|279:210,1,90,0|0,0:0|1:0,0:0:0:0:
194,169,122009,1,0,0:0:0:0:
39,233,122159,2,0,P|84:227|128:236,1,90,8|0,0:0|0:0,0:0:0:0:
174,320,122459,1,0,1:0:0:0:
439,340,122609,2,0,P|395:349|350:343,1,90,0|8,0:0|0:0,0:0:0:0:
265,302,122909,1,0,0:0:0:0:
461,167,123059,6,0,P|470:123|464:78,1,90,0|0,1:0|0:0,0:0:0:0:
450,67,123284,1,0,0:0:0:0:
434,58,123359,2,0,L|343:63,1,90,8|0,0:0|0:0,0:0:0:0:
153,57,123659,1,0,1:0:0:0:
296,161,123809,1,8,0:0:0:0:
255,44,123959,1,0,1:0:0:0:
141,180,124109,1,8,0:0:0:0:
224,215,124259,5,0,1:0:0:0:
72,96,124409,1,8,0:0:0:0:
108,264,124559,1,0,1:0:0:0:
213,126,124709,1,8,0:0:0:0:
141,180,124859,5,0,1:0:0:0:
224,215,125009,1,8,0:0:0:0:
296,161,125159,1,0,1:0:0:0:
235,304,125309,6,2,L|240:346,2,36,10|2|2,1:2|0:0|0:0,0:0:0:0:
348,234,126059,6,0,P|387:288|426:338,1,90,4|0,1:0|0:0,0:0:0:0:
456,378,126359,1,8,0:0:0:0:
441,174,126509,2,0,L|263:152,1,180,0|0,0:0|1:0,0:0:0:0:
475,90,126959,2,0,L|297:68,1,180,8|0,0:0|0:0,0:0:0:0:
217,25,127409,5,0,1:0:0:0:
176,188,127559,2,0,P|189:231|195:275,1,90,8|0,0:0|1:0,0:0:0:0:
107,126,127859,2,0,P|115:82|128:39,1,90,0|0,0:0|1:0,0:0:0:0:
87,216,128159,2,0,P|44:231|0:241,1,90,8|0,0:0|0:0,0:0:0:0:
261,340,128459,6,0,P|303:355|347:365,1,90,4|0,1:0|0:0,0:0:0:0:
428,327,128759,1,8,0:0:0:0:
503,276,128909,2,0,P|425:235|347:287,1,180,0|0,0:0|1:0,0:0:0:0:
347,366,129359,1,8,0:0:0:0:
173,363,129509,1,0,0:0:0:0:
173,363,129584,1,0,0:0:0:0:
173,363,129659,6,0,P|159:274|142:185,1,180,0|8,0:0|0:0,0:0:0:0:
86,115,130109,2,0,P|42:99|2:82,1,90,0|0,1:0|0:0,0:0:0:0:
174,101,130409,2,0,P|210:73|243:44,1,90,0|8,1:0|0:0,0:0:0:0:
142,186,130709,1,0,0:0:0:0:
111,282,130859,6,0,P|155:274|200:265,1,90,0|0,1:0|1:0,0:0:0:0:
290,255,131159,1,8,0:0:0:0:
393,328,131309,2,0,P|384:284|378:239,1,90
305,343,131609,1,0,1:0:0:0:
512,188,131759,2,0,P|426:166|377:93,1,180,8|0,0:0|0:0,0:0:0:0:
358,4,132209,5,0,1:0:0:0:
216,118,132359,2,0,P|172:127|128:130,1,90,8|0,0:0|1:0,0:0:0:0:
168,39,132659,1,0,0:0:0:0:
292,168,132809,1,0,1:0:0:0:
192,233,132959,1,8,0:0:0:0:
291,66,133109,1,0,0:0:0:0:
350,235,133259,6,0,P|340:278|337:323,1,90,0|0,1:0|1:0,0:0:0:0:
72,337,133559,2,0,P|161:319|250:306,1,180,8|0,0:0|0:0,0:0:0:0:
337,323,134009,1,0,1:0:0:0:
103,248,134159,2,0,P|147:239|192:233,1,90,8|0,0:0|0:0,0:0:0:0:
423,295,134459,5,0,0:0:0:0:
272,186,134609,2,0,B|260:144|260:144|277:100,1,90,4|0,1:2|0:0,0:0:0:0:
441,113,134909,2,0,B|453:155|453:155|436:199,1,90,12|0,1:2|0:0,0:0:0:0:
277,100,135209,1,2,0:0:0:0:
233,92,135284,1,0,0:0:0:0:
191,75,135359,1,2,0:0:0:0:
150,49,135434,1,0,0:0:0:0:
120,87,135509,1,2,0:0:0:0:
87,117,135584,1,0,0:0:0:0:
48,140,135659,5,4,1:0:0:0:
43,39,135809,1,0,1:0:0:0:
168,153,135959,1,8,0:0:0:0:
35,230,136109,2,0,P|28:275|30:320,1,90
112,368,136409,1,0,1:0:0:0:
350,250,136559,2,0,L|180:309,1,180,8|0,0:0|0:0,0:0:0:0:
128,236,137009,5,0,1:0:0:0:
416,305,137159,2,0,P|447:336|483:363,1,90,8|0,0:0|1:0,0:0:0:0:
356,123,137459,2,0,P|312:134|268:140,1,90,0|0,0:0|1:0,0:0:0:0:
431,220,137759,2,0,P|440:176|447:131,1,90,8|0,0:0|0:0,0:0:0:0:
365,34,138059,5,0,1:0:0:0:
356,123,138209,1,0,1:0:0:0:
454,41,138359,1,8,0:0:0:0:
211,66,138509,2,0,P|175:144|221:218,1,180,0|0,0:0|1:0,0:0:0:0:
16,317,138959,2,0,B|79:305|79:305|129:317|129:317|193:304,1,180,8|0,0:0|0:0,0:0:0:0:
281,289,139409,5,0,1:0:0:0:
377,274,139559,2,0,P|365:318|349:360,1,90,8|0,0:0|1:0,0:0:0:0:
452,244,139859,2,0,P|475:133|345:76,1,270,2|0,0:0|0:0,0:0:0:0:
236,168,140384,1,0,0:0:0:0:
221,195,140459,6,0,P|178:208|133:209,1,90,0|0,1:0|1:0,0:0:0:0:
48,178,140759,1,8,0:0:0:0:
162,105,140909,2,0,L|194:305,1,180,0|0,1:0|1:0,0:0:0:0:
372,384,141359,2,0,L|400:206,1,180,8|0,0:0|0:0,0:0:0:0:
414,116,141809,5,0,1:0:0:0:
481,56,141959,2,0,P|498:98|500:152,1,90,8|0,0:0|1:0,0:0:0:0:
302,239,142259,1,2,0:0:0:0:
217,208,142409,1,0,1:0:0:0:
248,123,142559,1,10,0:0:0:0:
332,154,142709,1,0,0:0:0:0:
233,295,142859,5,0,1:0:0:0:
209,41,143009,1,8,0:0:0:0:
389,223,143159,1,0,1:0:0:0:
135,246,143309,5,8,0:0:0:0:
316,66,143459,1,0,1:0:0:0:
340,321,143609,1,8,0:0:0:0:
160,139,143759,5,8,0:0:0:0:
414,116,143909,1,0,1:0:0:0:
233,295,144059,1,8,0:0:0:0:
31,192,144209,6,0,P|25:147|23:102,1,90,4|0,1:0|0:0,0:0:0:0:
78,291,144509,2,0,P|75:335|70:380,1,90,4|0,1:0|0:0,0:0:0:0:
169,230,144809,1,2,1:2:0:0:
207,207,144884,1,0,0:0:0:0:
251,205,144959,1,2,0:0:0:0:
291,225,145034,1,0,0:0:0:0:
317,261,145109,1,2,0:0:0:0:
323,305,145184,1,0,0:0:0:0:
307,347,145259,5,4,1:0:0:0:
256,192,145334,12,2,147659,0:0:0:0:
312,217,154709,6,0,B|362:218|362:218|401:202|401:202|454:205,1,144,8|0,0:0|0:0,0:0:0:0:
267,292,155159,2,0,P|270:329|265:367,1,72,12|0,0:0|0:0,0:0:0:0:
174,187,155459,2,0,P|171:150|176:112,1,72,8|0,0:0|0:0,0:0:0:0:
255,152,155759,1,2,0:0:0:0:
311,218,155909,1,0,1:0:0:0:
182,274,156059,6,0,L|74:277,1,108,2|0,0:0|0:0,0:0:0:0:
70,272,156359,2,0,P|50:243|36:210,1,72,0|0,1:0|0:0,0:0:0:0:
0,39,156659,1,8,0:0:0:0:
105,100,156809,1,0,0:0:0:0:
22,124,156959,1,2,0:0:0:0:
83,17,157109,1,0,0:0:0:0:
189,77,157259,6,0,P|247:89|322:104,1,108,0|0,1:0|0:0,0:0:0:0:
299,94,157559,2,0,P|311:60|316:24,1,72,0|0,1:0|0:0,0:0:0:0:
167,160,157859,2,0,L|196:301,1,144,8|2,0:0|0:0,0:0:0:0:
276,343,158309,1,0,1:0:0:0:
335,279,158459,1,2,0:0:0:0:
347,277,158759,2,0,P|383:284|419:284,1,72,0|0,1:0|0:0,0:0:0:0:
512,364,159059,2,0,P|476:366|442:376,1,72,8|0,0:0|0:0,0:0:0:0:
419,284,159359,5,2,0:0:0:0:
441,376,159509,1,0,0:0:0:0:
508,274,159659,2,0,P|509:239|511:203,1,72,0|0,1:0|0:0,0:0:0:0:
429,108,159959,1,0,1:0:0:0:
336,189,160109,1,0,0:0:0:0:
419,284,160259,1,8,0:0:0:0:
419,284,160559,5,2,0:0:0:0:
424,196,160709,1,0,1:0:0:0:
429,108,160859,2,0,P|430:72|432:36,1,72,0|0,0:0|0:0,0:0:0:0:
346,12,161159,1,0,1:0:0:0:
252,95,161309,1,0,0:0:0:0:
336,189,161459,1,8,0:0:0:0:
336,189,161759,5,2,0:0:0:0:
341,100,161909,1,0,0:0:0:0:
247,184,162059,2,0,P|198:204|144:206,1,108,0|0,1:0|0:0,0:0:0:0:
140,202,162359,2,0,P|124:169|120:133,1,72,0|0,1:0|0:0,0:0:0:0:
5,118,162659,2,0,P|7:65|28:15,1,108,8|0,0:0|0:0,0:0:0:0:
33,14,162959,2,0,P|69:13|103:25,1,72,0|0,0:0|1:0,0:0:0:0:
395,89,163259,1,12,3:2:0:0:
399,93,164459,6,0,L|374:182,1,90,0|0,1:0|0:0,0:0:0:0:
439,242,164759,1,8,0:0:0:0:
312,116,164909,1,0,1:0:0:0:
352,266,165059,1,8,0:0:0:0:
462,156,165209,1,0,1:0:0:0:
501,304,165359,5,0,1:0:0:0:
352,266,165509,1,8,0:0:0:0:
462,156,165659,1,0,1:0:0:0:
416,329,165809,1,8,0:0:0:0:
266,290,165959,1,0,1:0:0:0:
376,180,166109,1,8,0:0:0:0:
329,353,166259,5,0,1:0:0:0:
204,228,166409,1,8,0:0:0:0:
243,377,166559,1,0,1:0:0:0:
289,203,166709,1,8,0:0:0:0:
180,314,166859,5,12,0:0:0:0:
180,314,167009,2,0,P|135:308|91:296,1,90,8|0,0:0|0:0,0:0:0:0:
210,135,167309,6,0,P|192:93|180:50,1,90,12|0,1:2|0:0,0:0:0:0:
226,140,167609,2,0,P|231:94|242:51,1,90,12|0,1:2|0:0,0:0:0:0:
398,225,167909,6,0,B|341:218|299:205|299:205|256:221|214:236|214:236|172:221|115:216,1,292.5,14|0,1:2|0:0,0:0:0:0:
116,216,168959,6,2,L|110:252,3,36
131,135,170459,1,12,1:0:0:0:
68,211,178859,5,8,1:2:0:0:
135,274,179009,2,0,P|152:313|175:353,1,90,8|0,1:2|0:0,0:0:0:0:
149,256,179309,2,0,P|184:281|223:304,1,90,12|0,1:2|0:0,0:0:0:0:
156,236,179609,6,0,B|202:239|202:239|242:222,1,90,12|0,1:2|0:0,0:0:0:0:
487,229,180059,6,0,P|456:196|415:178,1,90,4|0,1:0|1:0,0:0:0:0:
370,16,180359,2,0,P|356:58|361:103,2,90,8|0|0,0:0|0:0|0:0,0:0:0:0:
447,68,180809,1,0,1:0:0:0:
271,113,180959,2,0,P|226:119|181:125,1,90,8|0,0:0|0:0,0:0:0:0:
125,53,181259,5,0,0:0:0:0:
271,113,181409,1,0,1:0:0:0:
146,208,181559,1,8,0:0:0:0:
181,125,181709,1,0,1:0:0:0:
201,280,181859,2,0,P|206:324|198:368,1,90,0|0,0:0|1:0,0:0:0:0:
55,220,182159,2,0,P|49:175|57:131,1,90,8|0,0:0|0:0,0:0:0:0:
120,322,182459,6,0,P|76:324|33:337,1,90,0|0,1:0|0:0,0:0:0:0:
291,268,182759,2,0,P|333:281|378:283,2,90,8|0|0,0:0|0:0|0:0,0:0:0:0:
235,195,183209,1,0,1:0:0:0:
423,363,183359,2,0,P|468:289|432:210,1,180,8|0,0:0|0:0,0:0:0:0:
349,178,183809,1,0,1:0:0:0:
419,121,183959,2,0,B|472:120|472:120|520:95,1,90,8|0,0:0|1:0,0:0:0:0:
336,86,184259,2,0,B|301:45|301:45|288:-5,1,90,0|0,0:0|1:0,0:0:0:0:
408,32,184559,1,8,0:0:0:0:
433,211,184709,1,0,0:0:0:0:
266,144,184859,6,0,P|205:158|176:162,1,90,0|0,0:0|1:0,0:0:0:0:
23,170,185159,1,8,0:0:0:0:
80,33,185309,2,0,P|92:76|99:121,1,90,0|0,0:0|0:0,0:0:0:0:
105,211,185609,1,0,1:0:0:0:
10,349,185759,2,0,P|17:305|29:262,1,90,8|0,0:0|0:0,0:0:0:0:
177,267,186059,5,0,0:0:0:0:
202,354,186209,1,0,1:0:0:0:
102,318,186359,1,8,0:0:0:0:
207,181,186509,1,0,0:0:0:0:
266,268,186659,2,0,P|310:274|355:273,1,90,0|0,0:0|1:0,0:0:0:0:
510,93,186959,2,0,P|465:87|421:89,1,90,8|0,0:0|0:0,0:0:0:0:
256,84,187259,5,0,1:0:0:0:
410,173,187409,1,0,1:0:0:0:
355,42,187559,1,8,0:0:0:0:
256,174,187709,1,0,0:0:0:0:
333,219,187859,5,0,0:0:0:0:
178,129,188009,1,0,1:0:0:0:
256,264,188159,1,8,0:0:0:0:
333,129,188309,1,0,0:0:0:0:
101,173,188459,5,0,0:0:0:0:
256,174,188609,1,0,1:0:0:0:
156,42,188759,1,8,0:0:0:0:
178,219,188909,1,0,1:0:0:0:
178,219,189209,5,0,1:0:0:0:
366,131,189359,2,0,L|355:42,1,90,8|0,1:2|0:0,0:0:0:0:
315,283,189659,6,0,L|329:372,1,90,12|0,1:2|0:0,0:0:0:0:
279,201,189959,1,0,1:0:0:0:
213,263,190109,2,0,P|125:304|51:243,1,180,8|0,0:0|0:0,0:0:0:0:
36,181,190559,1,0,1:0:0:0:
127,125,190709,6,0,P|140:168|137:213,1,90,2|0,0:0|1:0,0:0:0:0:
203,350,191009,2,0,P|199:305|213:262,1,90,6|0,1:2|0:0,0:0:0:0:
287,212,191309,2,0,L|411:222,1,90,0|0,1:0|0:0,0:0:0:0:
393,211,191534,1,0,0:0:0:0:
409,203,191609,2,0,L|514:195,1,90,0|0,1:0|0:0,0:0:0:0:
486,60,191909,6,2,B|429:78|362:36|362:36|294:78|256:126|256:126|217:78|149:36|149:36|82:79|26:60,1,540,4|2,1:0|0:0,0:0:0:0:
267,215,194459,6,0,L|256:125,1,90,4|0,1:2|0:0,0:0:0:0:
24,324,197159,6,2,B|59:322|59:322|85:335|85:335|134:307|198:292|198:292|256:316|256:316|261:221|383:192|452:279|412:366,1,540.000020599366
256,192,198434,12,0,200309,0:0:0:0:
205,213,200459,6,0,P|199:247|199:283,1,72,4|0,1:2|0:0,0:0:0:0:
233,118,200759,2,0,P|232:82|227:46,1,72
149,142,201059,2,0,P|78:139|20:96,1,144,8|0,0:0|0:0,0:0:0:0:
288,188,201509,6,0,P|359:191|416:234,1,144,12|0,0:3|0:0,0:0:0:0:
512,341,201959,1,0,1:0:0:0:
370,312,202109,1,0,0:0:0:0:
502,254,202259,1,2,0:0:0:0:
430,377,202409,1,8,1:2:0:0:
416,234,202559,1,2,0:0:0:0:
286,334,202709,6,0,P|221:362|151:347,1,144,0|0,1:0|0:0,0:0:0:0:
4,288,203159,2,0,P|40:295|71:313,1,72,0|0,1:0|0:0,0:0:0:0:
155,264,203459,2,0,L|159:186,1,72,8|0,1:2|0:0,0:0:0:0:
162,104,203759,1,2,0:0:0:0:
373,81,203909,6,0,B|302:98|302:98|239:65,1,144,8|2,0:0|0:0,0:0:0:0:
168,20,204359,1,0,1:0:0:0:
86,145,204509,1,0,0:0:0:0:
236,153,204659,1,2,0:0:0:0:
91,58,204809,5,8,1:2:0:0:
159,192,204959,1,0,0:0:0:0:
239,65,205109,1,2,0:0:0:0:
307,199,205259,6,0,P|315:233|322:269,1,72,4|0,1:2|0:0,0:0:0:0:
197,332,205559,2,0,P|172:307|150:279,1,72,0|0,1:0|0:0,0:0:0:0:
313,115,205859,2,0,P|356:49|429:23,1,144,8|0,0:0|0:0,0:0:0:0:
236,153,206309,2,0,P|158:148|99:98,1,144,12|0,0:3|0:0,0:0:0:0:
204,34,206759,1,0,1:0:0:0:
279,76,206909,1,0,0:0:0:0:
354,120,207059,1,2,0:0:0:0:
236,153,207209,5,8,1:2:0:0:
321,1,207359,1,2,0:0:0:0:
440,111,207509,6,0,P|463:179|482:249,1,144,0|0,1:0|0:0,0:0:0:0:
376,210,207959,2,0,P|372:246|365:282,1,72,0|0,1:0|0:0,0:0:0:0:
282,126,208259,2,0,L|354:120,1,72,8|0,1:2|0:0,0:0:0:0:
440,111,208559,1,2,0:0:0:0:
325,358,208709,6,0,B|277:342|277:342|235:342|235:342|187:324,1,144,8|0,0:0|0:0,0:0:0:0:
103,303,209159,1,0,1:0:0:0:
16,314,209309,2,0,B|11:336|11:336|19:384,1,72,2|0,0:0|0:0,0:0:0:0:
160,236,209609,2,0,B|164:213|164:213|156:165,1,72,8|0,1:2|0:0,0:0:0:0:
49,233,209909,1,2,0:0:0:0:
225,110,210059,6,0,P|258:124|291:136,1,72,4|0,1:2|0:0,0:0:0:0:
409,104,210359,2,0,P|432:76|454:48,1,72,0|0,1:0|0:0,0:0:0:0:
330,42,210659,2,0,P|348:112|367:181,1,144,8|0,0:0|0:0,0:0:0:0:
299,372,211109,2,0,P|281:302|262:233,1,144,12|0,0:3|0:0,0:0:0:0:
367,181,211559,1,0,1:0:0:0:
475,217,211709,1,0,0:0:0:0:
386,296,211859,1,2,0:0:0:0:
439,135,212009,5,8,1:2:0:0:
475,303,212159,1,2,0:0:0:0:
310,251,212309,6,0,P|239:253|183:210,1,144,0|0,1:0|0:0,0:0:0:0:
90,271,212759,2,0,P|87:235|96:201,1,72,0|0,1:0|0:0,0:0:0:0:
0,190,213059,2,0,L|43:133,1,72,8|0,3:2|0:0,0:0:0:0:
89,60,213358,1,2,0:0:0:0:
224,134,213509,2,0,B|297:115|294:131|290:147|365:128,1,144,8|0,0:0|0:0,0:0:0:0:
442,87,213959,1,0,1:0:0:0:
325,51,214109,1,0,0:0:0:0:
407,205,214259,1,2,0:0:0:0:
401,11,214409,5,8,1:2:0:0:
290,169,214559,1,2,0:0:0:0:
483,164,214709,1,0,0:0:0:0:
331,246,214859,6,0,P|321:280|316:316,1,72,4|0,1:2|0:0,0:0:0:0:
203,313,215159,2,0,P|212:347|217:383,1,72,0|0,1:0|0:0,0:0:0:0:
157,242,215459,2,0,P|92:270|22:255,1,144,8|0,0:0|0:0,0:0:0:0:
203,167,215909,2,0,P|175:102|190:32,1,144,12|0,0:3|0:0,0:0:0:0:
362,11,216359,5,0,1:0:0:0:
328,90,216509,1,0,0:0:0:0:
277,22,216659,1,2,0:0:0:0:
380,159,216809,5,8,1:2:0:0:
447,0,216959,1,2,0:0:0:0:
295,170,217109,6,0,P|319:304|325:341,1,144,0|0,1:0|0:0,0:0:0:0:
415,293,217559,2,0,P|403:327|391:361,1,72,0|0,1:0|0:0,0:0:0:0:
269,381,217859,2,0,P|245:353|222:325,1,72,8|0,0:0|0:0,0:0:0:0:
167,258,218159,1,2,0:0:0:0:
3,363,218309,6,0,B|46:377|75:376|75:376|104:364|135:340,1,144,8|0,0:0|0:0,0:0:0:0:
167,258,218759,5,0,0:0:0:0:
78,203,218909,2,0,B|72:225|72:225|81:273,1,72,2|0,0:1|0:0,0:0:0:0:
252,242,219209,2,0,B|243:194|243:194|231:175,1,72,2|0,0:1|0:0,0:0:0:0:
41,119,219509,1,2,0:1:0:0:
236,86,219659,6,0,P|258:66|282:51,1,58.4999973220826,2|0,0:0|0:0,0:0:0:0:
356,72,219959,1,0,0:0:0:0:
473,110,220109,2,0,P|489:133|502:160,1,58.4999973220826,2|0,0:0|0:0,0:0:0:0:
302,124,220409,6,0,P|328:138|356:147,1,58.4999973220826,2|0,0:0|0:0,0:0:0:0:
485,34,220709,2,0,P|456:38|429:48,1,58.4999973220826,2|0,0:0|0:0,0:0:0:0:
429,172,221009,1,2,0:0:0:0:
387,310,221309,6,0,L|371:222,1,90,2|2,0:0|0:0,0:0:0:0:
286,29,222101,6,0,L|281:63,1,22.5,2|0,0:0|0:0,0:0:0:0:
303,125,222326,1,2,0:0:0:0:
