osu file format v14

[General]
AudioFilename: audio.mp3
AudioLeadIn: 0
PreviewTime: 72940
Countdown: 0
SampleSet: Soft
StackLeniency: 0.7
Mode: 0
LetterboxInBreaks: 0
WidescreenStoryboard: 1

[Editor]
DistanceSpacing: 0.9
BeatDivisor: 2
GridSize: 16
TimelineZoom: 0.9000002

[Metadata]
Title:Saigo
TitleUnicode:最後
Artist:An
ArtistUnicode:An
Creator:aigoh
Version:Easy
Source:
Tags:AcuticNotes Nega Fragments Streliteela LunaSaika 春M3 ACAL-0007
BeatmapID:1622457
BeatmapSetID:771732

[Difficulty]
HPDrainRate:3
CircleSize:3
OverallDifficulty:3
ApproachRate:4
SliderMultiplier:0.8
SliderTickRate:1

[Events]
//Background and Video events
0,0,"S aigoh.jpg",0,0
//Break Periods
2,92658,95939
2,147859,153389
2,169159,178739
2,194659,195839
//Storyboard Layer 0 (Background)
//Storyboard Layer 1 (Fail)
//Storyboard Layer 2 (Pass)
//Storyboard Layer 3 (Foreground)
//Storyboard Sound Samples

[TimingPoints]
59,300,4,2,0,30,1,0
59,-100,4,2,0,30,0,0
8309,-100,4,2,0,15,0,0
10859,-100,4,2,10,60,0,0
28859,-100,4,2,0,70,0,0
30059,-100,4,2,0,25,0,0
49259,-100,4,2,0,50,0,0
73259,-100,4,2,0,60,0,1
82859,-100,4,2,0,70,0,1
92459,-100,4,2,0,40,0,0
97259,-100,4,2,0,60,0,0
106859,-100,4,2,0,70,0,1
125309,-100,4,2,0,50,0,0
126059,-100,4,2,0,70,0,1
145259,-100,4,2,0,50,0,0
145859,-100,4,2,0,40,0,0
146459,-100,4,2,0,30,0,0
147059,-100,4,2,0,20,0,0
147659,-100,4,2,0,10,0,0
154709,-100,4,2,0,50,0,0
168959,-100,4,2,0,30,0,0
180059,-100,4,2,0,80,0,1
189659,-100,4,2,0,60,0,0
191909,-100,4,2,0,50,0,0
194459,-100,4,2,0,60,0,1
194534,-100,4,2,0,50,0,0
200459,-100,4,2,0,60,0,0
219659,-100,4,2,0,30,0,0
221309,625,4,2,0,50,1,0
221621,480,4,2,0,40,1,0
222101,600,4,2,0,40,1,0

[Colours]
Combo1 : 91,116,75
Combo2 : 129,129,192
Combo3 : 64,128,128
Combo4 : 128,64,64

[HitObjects]
322,326,59,6,0,P|308:267|321:209,1,120
378,77,1109,2,0,B|275:51|280:72|285:93|182:67,1,200
63,149,2459,2,0,L|68:269,1,120
195,336,3509,2,0,P|281:289|378:304,1,200
464,189,4859,6,0,L|459:69,1,120
317,46,5909,2,0,P|230:93|133:78,1,200
81,212,7259,2,0,L|188:266,1,120
330,241,8309,1,0,0:0:0:0:
330,241,10859,6,0,P|329:161|290:93,1,160
182,105,11909,2,0,L|65:148,1,120
24,321,13109,2,0,P|116:285|213:304,1,200
308,355,14309,2,0,B|387:345|387:345|432:353|432:353|508:345,1,200
440,217,15659,6,0,P|420:141|441:65,1,160
339,30,16709,2,0,L|219:40,1,120
64,121,17909,2,0,P|128:195|226:215,1,200
318,267,19109,2,0,P|296:322|307:380,2,120
425,257,20459,6,0,L|461:101,1,160
387,23,21509,2,0,P|360:65|359:135,1,120
213,238,22709,2,0,P|116:257|23:221,1,200
28,113,23909,2,0,P|127:121|227:130,1,200
371,143,25259,6,0,P|371:67|441:3,1,160
471,106,26309,2,0,L|498:232,1,120
327,287,27509,2,0,P|252:236|202:311,1,200
61,288,28859,2,0,B|41:189|41:189|-8:139,1,160
70,21,30059,6,0,P|146:43|223:64,1,160
332,61,31109,2,0,P|391:59|442:89,1,120
329,271,32459,2,0,P|256:300|183:271,1,160
256,191,33509,2,0,L|235:46,1,120
61,195,34859,6,0,L|83:353,1,160
187,322,35909,2,0,P|238:291|297:292,1,120
458,147,37259,2,0,P|487:72|369:129,1,280
357,94,39659,6,0,P|279:73|202:50,1,160
141,139,40709,2,0,P|183:180|198:237,1,120
389,338,42059,2,0,B|409:239|409:239|458:189,1,160
353,147,43109,2,0,P|368:89|352:32,1,120
176,158,44459,6,0,P|98:145|29:183,1,160
61,286,45509,2,0,P|119:275|179:265,1,120
385,333,46859,2,0,B|408:185|380:195|351:204|374:58,1,280
374,58,49259,6,0,P|296:72|221:44,1,160
211,187,50459,2,0,P|288:172|362:200,1,160
491,262,51659,2,0,L|509:77,2,160
392,367,53459,1,0,0:0:0:0:
249,350,54059,6,0,P|273:201|148:115,1,320
143,257,55858,1,0,0:0:0:0:
38,357,56459,2,0,P|2:286|7:208,2,160
143,257,58259,2,0,L|172:120,2,120
277,307,59759,6,0,P|393:322|482:247,1,240
353,182,61259,2,0,P|370:103|387:25,2,160
277,307,63059,1,0,0:0:0:0:
151,376,63659,6,0,P|135:298|160:223,1,160
298,181,64859,2,0,P|313:103|288:28,1,160
153,77,66059,2,0,B|78:105|78:105|-1:91,2,160
256,192,68459,12,0,71909,0:0:0:0:
85,175,73259,6,0,B|81:260|113:245|110:331,1,160
251,359,74459,2,0,B|326:331|326:331|405:346,1,160
506,243,75659,2,0,B|485:144|485:144|507:89,1,160
368,50,76859,2,0,B|287:79|292:44|211:74,1,160
79,132,78059,6,0,P|121:242|99:358,1,240
204,383,79409,2,0,P|212:324|251:279,1,120
366,192,80459,2,0,P|443:205|513:167,1,160
474,31,81659,2,0,P|414:41|355:51,1,120
180,92,82859,6,0,B|118:75|118:75|81:76|81:76|24:62,1,160
23,206,84059,2,0,P|38:283|9:357,1,160
152,377,85259,2,0,P|163:228|309:198,1,320
434,269,87059,1,0,0:0:0:0:
494,138,87659,6,0,B|470:39|470:39|427:0,2,160
291,342,90059,2,0,P|216:316|142:342,1,160
21,266,91258,2,0,L|13:106,2,160
21,266,97259,6,0,L|140:252,1,120
246,268,98159,2,0,P|239:327|259:383,2,120
176,141,99659,2,0,P|183:82|165:25,1,120
271,6,100559,2,0,P|288:132|248:236,1,240
130,320,102059,6,0,P|70:314|10:309,1,120
8,200,102959,2,0,P|1:140|20:83,2,120
151,213,104459,2,0,P|197:323|255:136,1,480
163,37,106859,6,0,P|242:47|314:6,2,160
19,21,108659,1,0,0:0:0:0:
77,153,109259,2,0,B|71:236|14:266|14:266|-4:308|43:367,2,240
221,169,111659,6,0,L|340:182,1,120
447,193,112559,2,0,B|452:129|452:129|484:83,1,120
391,29,113459,2,0,B|316:35|316:35|271:26|271:26|192:35,1,200
69,169,114959,2,0,P|179:211|295:188,1,240
433,235,116459,6,0,P|437:156|399:86,2,160
362,360,118259,1,0,0:0:0:0:
234,294,118859,2,0,B|110:262|116:288|122:313|-1:282,2,240
339,196,121259,6,0,B|375:210|375:210|454:193,1,120
489,87,122159,2,0,B|453:73|453:73|374:90,1,120
266,112,123059,1,0,0:0:0:0:
256,255,123659,2,0,B|117:253|50:186|50:186|63:91|166:8,1,440,0|0,3:0|3:0,3:0:0:0:
345,24,126059,6,0,L|329:143,1,120
346,249,126959,2,0,P|401:226|460:232,2,120
225,327,128459,2,0,P|169:349|110:343,1,120
9,198,129659,5,0,0:0:0:0:
116,189,130109,2,0,L|299:172,1,160
382,166,131159,1,0,0:0:0:0:
382,166,132659,6,0,L|254:121,1,120
184,191,133559,2,0,P|204:247|204:306,1,120
306,343,134459,2,0,P|344:297|395:267,1,120
461,98,135659,6,0,L|341:86,1,120
233,90,136559,2,0,P|117:75|28:150,1,240
156,214,138059,2,0,P|134:268|142:326,1,120
241,282,138959,2,0,B|363:262|355:288|346:312|476:292,1,240
492,149,140459,2,0,P|501:90|478:35,1,120
373,59,141359,2,0,B|256:91|256:91|141:59,1,240
204,189,142859,6,0,P|214:306|306:186,1,360
256,192,145259,12,0,147659,0:0:0:0:
211,346,154709,5,0,0:0:0:0:
169,246,155159,2,0,P|153:160|258:57,1,240
394,42,156659,1,0,0:0:0:0:
481,156,157259,2,0,P|409:186|330:171,2,160
394,42,159059,1,0,0:0:0:0:
252,58,159659,6,0,L|92:44,1,160
53,183,160859,2,0,P|68:260|40:334,1,160
176,380,162059,2,0,P|160:303|188:229,2,160
256,192,164459,12,0,168959,0:0:0:0:
186,215,180059,6,0,L|346:223,1,160
491,230,181259,2,0,P|477:152|499:76,1,160
355,68,182459,2,0,P|366:146|345:223,1,160
251,331,183659,2,0,B|155:298|155:298|87:316,1,160
38,182,184859,6,0,P|23:124|39:67,1,120
140,29,185759,2,0,B|262:57|256:31|249:6|375:35,1,240
457,155,187259,6,0,P|381:179|304:163,1,160
160,153,188459,2,0,B|211:239|211:239|210:340,1,200
317,327,189659,6,0,L|435:311,1,120
401,170,190709,2,0,B|335:172|275:186|275:186|203:173|203:173|147:186|84:186,1,320
84,186,194459,5,0,0:0:0:0:
84,186,197159,6,0,B|119:183|119:183|161:173|161:173|205:190|270:196|270:196|324:174|324:174|375:175|435:188,1,360
435,188,200459,6,0,P|451:265|425:340,1,160
320,365,201509,2,0,B|263:344|263:344|204:355,1,120
80,224,202709,2,0,P|49:139|134:109,1,200
242,111,203909,2,0,B|316:105|316:105|359:90|359:90|438:86,1,200
507,212,205259,6,0,P|480:286|493:365,1,160
385,363,206309,2,0,L|257:354,1,120
95,296,207509,2,0,P|119:200|88:106,1,200
173,39,208709,2,0,L|292:30,2,120
89,106,210059,6,0,B|68:188|85:184|101:180|81:262,1,160
161,334,211109,2,0,P|212:304|271:305,1,120
448,269,212309,2,0,P|478:175|454:79,1,200
353,41,213509,2,0,B|256:67|256:67|161:41,1,200
55,139,214859,6,0,L|81:313,1,160
178,339,215909,2,0,B|252:323|252:323|293:339,1,120
473,333,217109,2,0,P|450:236|482:143,1,200
388,90,218309,2,0,P|340:152|266:189,1,160
89,205,219659,5,0,0:0:0:0:
