osu file format v14

[General]
AudioFilename: orvid192fixedbymeyrink.mp3
AudioLeadIn: 0
PreviewTime: 462483
Countdown: 0
SampleSet: Soft
StackLeniency: 0.5
Mode: 0
LetterboxInBreaks: 0
WidescreenStoryboard: 1

[Editor]
Bookmarks: 41861,162483,206793,315106,462498,552501,651583
DistanceSpacing: 0.8
BeatDivisor: 4
GridSize: 4
TimelineZoom: 1.199999

[Metadata]
Title:OrVid
TitleUnicode:OrVid
Artist:An
ArtistUnicode:An
Creator:RLC
Version:Unity
Source:
Tags:acuticnotes an-fillnote revid tear tearvid encrpted encryption axi axivid quad her hervid recoll
BeatmapID:1281221
BeatmapSetID:578332

[Difficulty]
HPDrainRate:7.5
CircleSize:4.2
OverallDifficulty:8
ApproachRate:9.1
SliderMultiplier:1.9
SliderTickRate:1

[Events]
//Background and Video events
0,0,"asdf.png",0,0
//Break Periods
2,482528,490206
2,592066,610975
2,674066,686359
2,691451,696359
//Storyboard Layer 0 (Background)
//Storyboard Layer 1 (Fail)
//Storyboard Layer 2 (Pass)
//Storyboard Layer 3 (Foreground)
//Storyboard Sound Samples

[TimingPoints]
41868,307.692307692308,4,2,1,60,1,0
63982,-200,4,2,1,60,0,0
82329,-200,4,2,1,60,0,0
82637,-200,4,2,0,20,0,0
83098,-200,4,2,1,60,0,0
83714,-100,4,2,3,60,0,1
102175,-200,4,2,1,60,0,0
102753,-100,4,2,1,60,0,0
103369,-200,4,2,1,60,0,0
123062,-133.333333333333,4,2,1,60,0,0
142755,-133.333333333333,4,2,1,60,0,0
162449,-133.333333333333,4,2,2,40,0,0
166757,-700,4,2,2,40,0,0
167372,-133.333333333333,4,2,2,40,0,0
171680,-700,4,2,2,40,0,0
172295,-133.333333333333,4,2,2,50,0,0
176603,-700,4,2,2,50,0,0
177219,-133.333333333333,4,2,2,60,0,0
181527,-700,4,2,2,60,0,0
182142,-100,4,2,1,60,0,0
185329,-100,4,2,2,60,0,0
185483,-100,4,2,1,60,0,0
190252,-100,4,2,2,60,0,0
190406,-100,4,2,1,60,0,0
195175,-100,4,2,2,60,0,0
195329,-100,4,2,1,60,0,0
200098,-100,4,2,2,60,0,0
200252,-100,4,2,1,60,0,0
206759,-200,4,2,1,60,0,0
215990,-100,4,2,0,60,0,0
226452,-100,4,2,1,60,0,0
245992,-111.111111111111,4,2,1,60,0,0
255992,-133.333333333333,4,2,2,40,0,0
264300,-111.111111111111,4,2,2,60,0,0
265868,-111.111111111111,4,2,1,60,0,0
267993,-100,4,2,1,60,0,0
268329,-100,4,2,1,60,0,1
295406,-100,4,2,0,60,0,0
305225,-100,4,2,1,60,0,0
315072,-117.647058823529,4,2,2,40,0,0
324919,-117.647058823529,4,2,1,40,0,0
333534,-117.647058823529,4,2,0,80,0,0
334098,-117.647058823529,4,2,0,40,0,0
334304,-153.846153846154,4,2,0,80,0,0
334637,-153.846153846154,4,2,0,40,0,0
334765,-100,4,2,4,60,0,0
354252,-100,4,2,4,60,0,0
354459,-200,4,2,4,60,0,0
355074,-83.3333333333333,4,2,1,60,0,0
355382,-100,4,2,1,60,0,0
355714,-100,4,2,4,60,0,0
356920,-200,4,2,4,60,0,0
357536,-83.3333333333333,4,2,1,60,0,0
357843,-100,4,2,1,60,0,0
358175,-100,4,2,4,60,0,0
358920,-200,4,2,4,60,0,0
359997,-83.3333333333333,4,2,1,60,0,0
360305,-100,4,2,1,60,0,0
360613,-100,4,2,4,60,0,0
361844,-200,4,2,4,60,0,0
362459,-83.3333333333333,4,2,1,60,0,0
362767,-100,4,2,1,60,0,0
363074,-100,4,2,4,60,0,0
363844,-200,4,2,4,60,0,0
364921,-83.3333333333333,4,2,1,60,0,0
365228,-100,4,2,1,60,0,0
365560,-100,4,2,4,60,0,0
366767,-200,4,2,4,60,0,0
367382,-83.3333333333333,4,2,1,60,0,0
367690,-100,4,2,1,60,0,0
368021,-100,4,2,4,60,0,0
368767,-200,4,2,4,60,0,0
369844,-83.3333333333333,4,2,1,60,0,0
370152,-100,4,2,1,60,0,0
370483,-100,4,2,4,60,0,0
371844,-200,4,2,4,60,0,0
372306,-83.3333333333333,4,2,1,60,0,0
372613,-100,4,2,1,60,0,0
372944,-100,4,2,4,60,0,0
373690,-200,4,2,4,60,0,0
374152,-117.647058823529,4,2,1,40,0,0
375483,-117.647058823529,4,2,2,40,0,0
375637,-117.647058823529,4,2,1,40,0,0
380406,-117.647058823529,4,2,2,40,0,0
380560,-117.647058823529,4,2,1,40,0,0
385329,-117.647058823529,4,2,2,40,0,0
385483,-117.647058823529,4,2,1,40,0,0
390252,-117.647058823529,4,2,2,40,0,0
390406,-117.647058823529,4,2,1,40,0,0
393845,-133.333333333333,4,2,2,60,0,0
394021,-133.333333333333,4,2,2,50,0,0
394175,-133.333333333333,4,2,2,40,0,0
394483,-133.333333333333,4,2,2,50,0,0
394791,-133.333333333333,4,2,2,40,0,0
394868,-133.333333333333,4,2,2,60,0,0
403692,-133.333333333333,4,2,1,60,0,0
403791,-133.333333333333,4,2,4,60,0,0
404868,-133.333333333333,4,2,1,60,0,0
405021,-133.333333333333,4,2,4,60,0,0
406175,-133.333333333333,4,2,1,60,0,0
406252,-133.333333333333,4,2,4,60,0,0
413329,-133.333333333333,4,2,0,60,0,0
413385,-117.647058823529,4,2,2,60,0,0
423406,-100,4,2,4,60,0,1
443098,-133.333333333333,4,2,2,50,0,0
460329,-83.3333333333333,4,2,0,60,0,1
460618,-133.333333333333,4,2,1,60,0,1
460926,-100,4,2,1,60,0,1
461233,-100,4,2,1,60,0,1
461560,-66.6666666666667,4,2,1,60,0,1
461868,-66.6666666666667,4,2,4,60,0,1
462175,-66.6666666666667,4,1,1,60,0,1
462483,-66.6666666666667,4,1,1,60,0,0
462636,307.692307692308,4,2,0,60,1,0
462636,-133.333333333333,4,2,0,60,0,0
471079,-133.333333333333,4,2,4,60,0,0
471849,-100,4,2,4,60,0,0
472328,-100,4,2,3,60,0,0
482020,-100,4,2,1,60,0,0
482311,-133.333333333333,4,2,1,60,0,0
492157,-100,4,2,3,60,0,0
500789,-100,4,2,4,60,0,0
502004,-133.333333333333,4,2,3,60,0,0
511697,-117.647058823529,4,2,1,60,0,0
521697,-100,4,2,1,60,0,0
531544,-200,4,2,1,60,0,0
531789,-200,4,2,2,60,0,0
532467,-100,4,2,1,60,0,0
532789,-100,4,2,3,60,0,1
551251,-200,4,2,1,60,0,0
552468,-100,4,2,1,60,0,0
553084,-133.333333333333,4,2,1,60,0,0
553699,-100,4,2,1,60,0,0
554930,-133.333333333333,4,2,4,60,0,0
555545,-200,4,2,1,60,0,0
556161,-100,4,2,3,60,0,0
556776,-200,4,2,1,60,0,0
557392,-100,4,2,1,60,0,0
559251,-100,4,2,3,60,0,0
560405,-100,4,2,1,60,0,0
560559,-100,4,2,3,60,0,0
562007,-133.333333333333,4,2,2,60,0,0
562315,-100,4,2,4,60,0,0
562943,-100,4,2,1,60,0,0
563559,-100,4,2,3,60,0,0
564174,-100,4,2,1,60,0,0
564777,-133.333333333333,4,2,4,60,0,0
565405,-200,4,2,2,60,0,0
566007,-100,4,2,3,60,0,0
566623,-200,4,2,2,60,0,0
567238,-100,4,2,1,60,0,0
569097,-100,4,2,3,60,0,0
569700,-200,4,2,3,60,0,0
570328,-200,4,2,1,60,0,0
570482,-200,4,2,3,60,0,0
570931,-100,4,2,1,60,0,0
571238,-133.333333333333,4,2,1,60,0,0
572162,-100,4,2,4,60,0,0
572251,-100,4,2,3,60,0,0
573482,-100,4,2,4,60,0,0
573789,-100,4,2,3,60,0,0
574316,-133.333333333333,4,2,3,60,0,0
574623,-100,4,2,4,60,0,0
574712,-100,4,2,3,60,0,0
575943,-100,4,2,4,60,0,0
576251,-100,4,2,3,60,0,0
578405,-100,4,2,4,60,0,0
578712,-100,4,2,3,60,0,0
579559,-100,4,2,4,60,0,0
579636,-100,4,2,3,60,0,0
580866,-100,4,2,4,60,0,0
581174,-100,4,2,3,60,0,0
582020,-100,4,2,4,60,0,0
582097,-100,4,2,3,60,0,0
583328,-100,4,2,4,60,0,0
583636,-100,4,2,3,60,0,0
584482,-100,4,2,4,60,0,0
584559,-100,4,2,3,60,0,0
585866,-100,4,2,4,60,0,0
586097,-100,4,2,3,60,0,0
586866,-100,4,2,4,60,0,0
587020,-100,4,2,3,60,0,0
588251,-100,4,2,4,60,0,0
588559,-100,4,2,3,60,0,0
589328,-100,4,2,4,60,0,0
589482,-100,4,2,3,60,0,0
590712,-100,4,2,4,60,0,0
591020,-100,4,2,3,60,0,0
591855,-100,4,2,1,60,0,0
611548,-133.333333333333,4,2,5,35,0,0
631242,-200,4,2,1,60,0,0
651559,307.692307692308,4,2,1,60,1,0
651559,-200,4,2,1,60,0,0
661396,-100,4,2,3,60,0,0
671243,-100,4,2,1,35,0,0
671866,-100,4,2,1,40,0,0
672482,-100,4,2,1,45,0,0
673097,-100,4,2,1,50,0,0
673866,-100,4,2,1,40,0,0
688328,-100,4,2,1,50,0,0
689712,-100,4,2,1,60,0,0
691251,-100,4,2,4,35,0,0
696936,-133.333333333333,4,2,2,60,0,0
706937,-111.111111111111,4,2,3,50,0,0
716630,-133.333333333333,4,2,2,60,0,0
721553,-133.333333333333,4,2,1,60,0,0
726635,-100,4,2,3,60,0,1
728251,-100,4,2,4,60,0,1
728405,-100,4,2,3,60,0,1
728751,-100,4,2,4,60,0,1
728828,-100,4,2,3,60,0,1
730712,-100,4,2,1,60,0,1
731328,-100,4,2,3,60,0,1
732866,-100,4,2,4,60,0,1
733020,-100,4,2,3,60,0,1
733405,-100,4,2,4,60,0,1
733482,-100,4,2,3,60,0,1
735712,-100,4,2,1,60,0,1
736251,-100,4,2,3,60,0,1
738174,-100,4,2,4,60,0,1
738251,-100,4,2,3,60,0,1
738597,-100,4,2,4,60,0,1
738674,-100,4,2,3,60,0,1
740559,-100,4,2,1,60,0,1
741174,-100,4,2,3,60,0,1
742712,-100,4,2,4,60,0,1
742866,-100,4,2,3,60,0,1
743251,-100,4,2,4,60,0,1
743328,-100,4,2,3,60,0,1
745866,-100,4,2,3,40,0,1
746020,-100,4,2,3,50,0,1
746174,-100,4,2,3,60,0,1
746328,-133.333333333333,4,2,1,60,0,0
763555,-100,4,2,1,60,0,0
764786,-700,4,2,0,20,0,0
765863,-700,4,2,0,60,0,0
766478,-200,4,2,3,60,0,0
767097,-100,4,2,3,60,0,1
776943,-133.333333333333,4,2,3,60,0,0
779405,-100,4,2,3,60,0,1
784328,-100,4,2,3,60,0,0

[Colours]
Combo1 : 255,202,149
Combo2 : 201,255,151
Combo3 : 255,151,151
Combo4 : 145,255,219
Combo5 : 251,247,170
Combo6 : 176,176,217
Combo7 : 255,179,255
Combo8 : 210,166,166

[HitObjects]
100,339,64021,6,0,P|185:343|251:262,1,190,4|8,3:1|0:0,0:0:0:0:
250,269,64944,1,2,0:2:0:0:
370,220,65252,2,0,L|381:119,1,95,2|4,0:1|0:3,0:0:0:0:
348,54,65714,1,2,0:2:0:0:
348,54,65868,2,0,P|302:68|246:62,1,95,8|2,0:0|0:2,0:0:0:0:
188,122,66329,1,0,3:0:0:0:
188,122,66483,22,0,P|131:117|51:163,1,142.5,0|0,3:0|3:0,0:0:0:0:
260,194,67098,2,0,L|269:265,2,71.25,8|2|2,0:0|0:0|0:0,0:0:0:0:
292,106,67714,1,2,0:1:0:0:
182,218,68021,1,4,0:3:0:0:
59,118,68329,2,0,L|47:263,1,142.5,8|0,0:0|3:0,0:0:0:0:
123,365,68944,22,0,P|161:341|126:250,1,142.5,0|2,3:0|0:0,0:0:0:0:
48,261,69560,2,0,B|31:227|31:227|57:173,1,95,8|2,0:0|0:0,0:0:0:0:
270,330,70175,2,0,L|330:319,1,47.5,2|2,0:1|0:2,0:0:0:0:
394,309,70483,1,4,0:3:0:0:
256,192,70791,1,8,0:0:0:0:
118,75,71098,2,0,L|175:89,1,47.5,0|0,3:2|3:0,0:0:0:0:
208,106,71406,22,0,B|171:131|171:131|167:194|217:215,1,142.5,0|2,3:0|3:2,0:0:0:0:
286,252,72021,2,0,B|304:289|304:289|284:341,1,95,8|2,0:0|0:2,0:0:0:0:
286,252,72637,2,0,L|278:204,1,47.5,2|2,0:1|0:2,0:0:0:0:
276,120,72944,2,0,L|284:70,2,47.5,4|2|8,0:3|0:2|0:0,0:0:0:0:
286,252,73406,2,0,P|238:273|194:278,1,95,0|0,0:0|3:0,0:0:0:0:
197,279,73868,22,0,L|177:378,1,95,0|0,3:0|0:0,0:0:0:0:
368,184,74483,2,0,L|475:199,1,95,8|0,0:0|0:0,0:0:0:0:
144,184,75098,2,0,L|43:200,1,95,2|4,0:1|0:3,0:0:0:0:
314,279,75714,2,0,L|330:355,2,71.25,8|2|2,0:0|0:0|3:2,0:0:0:0:
267,119,76329,21,0,3:0:0:0:
412,167,76637,2,0,L|405:222,1,47.5,0|0,0:0|3:0,0:0:0:0:
314,279,76944,2,0,L|328:168,1,95,8|0,0:0|0:0,0:0:0:0:
42,92,77560,21,2,0:1:0:0:
167,80,77868,1,4,0:3:0:0:
470,292,78175,21,8,0:0:0:0:
345,304,78483,2,0,L|336:245,1,47.5,0|0,3:0|3:0,0:0:0:0:
214,168,78791,22,0,B|161:175|161:175|133:199|133:199|72:209,1,142.5,0|0,3:0|0:0,0:0:0:0:
30,145,79406,1,8,0:0:0:0:
199,342,79714,2,0,P|217:298|208:252,1,95,0|2,0:0|0:1,0:0:0:0:
80,291,80175,1,0,0:0:0:0:
80,291,80329,2,0,P|117:288|145:298,1,47.5,4|0,0:3|0:0,0:0:0:0:
208,252,80637,2,0,L|308:240,1,95,8|0,0:0|0:0,0:0:0:0:
381,202,81098,1,0,3:0:0:0:
381,202,81252,22,0,P|407:253|390:339,1,142.5,0|0,3:0|3:0,0:0:0:0:
314,144,81868,2,0,L|299:91,2,47.5,8|2|2,0:0|0:0|0:0,0:0:0:0:
436,141,82329,2,0,L|450:40,1,95,2|0,0:0|0:0,0:0:0:0:
137,354,83098,2,0,L|119:363,14,11.875,2|0|0|0|0|0|0|0|0|0|0|0|0|0|0,0:0|0:0|0:0|0:0|0:0|0:0|0:0|0:0|0:0|0:0|0:0|0:0|0:0|0:0|0:0,0:0:0:0:
161,348,83714,102,0,P|177:307|180:254,1,95,4|0,1:2|0:0,0:0:0:0:
180,256,83944,1,0,0:0:0:0:
180,256,84021,1,8,1:2:0:0:
130,180,84175,1,0,3:0:0:0:
346,138,84329,1,0,1:0:0:0:
269,195,84483,1,2,3:2:0:0:
207,110,84637,2,0,L|111:93,1,95,8|2,1:2|0:2,0:0:0:0:
85,86,84868,1,2,0:2:0:0:
56,87,84944,21,0,1:0:0:0:
117,209,85098,1,0,0:0:0:0:
207,110,85252,2,0,P|263:87|360:92,1,142.5,8|0,1:2|3:0,0:0:0:0:
343,87,85560,1,2,1:2:0:0:
272,190,85714,2,0,L|245:211,4,23.75,2|0|2|0|8,3:2|0:0|0:2|0:0|1:2,0:0:0:0:
374,100,86021,1,2,0:2:0:0:
393,289,86175,22,0,P|377:238|367:191,1,95,4|0,1:2|0:0,0:0:0:0:
445,156,86483,1,8,1:2:0:0:
289,267,86637,1,0,3:2:0:0:
284,290,86714,1,0,0:0:0:0:
280,313,86791,1,0,1:0:0:0:
276,336,86868,1,0,0:0:0:0:
271,358,86944,1,2,3:2:0:0:
193,259,87098,1,8,1:2:0:0:
35,246,87252,2,0,L|77:225,1,47.5,2|0,0:2|0:0,0:0:0:0:
104,200,87406,22,0,L|83:299,1,95,0|0,1:2|0:0,0:0:0:0:
253,141,87714,2,0,L|279:247,1,95,8|0,1:2|3:2,0:0:0:0:
45,149,88021,1,0,1:0:0:0:
239,66,88175,1,8,3:2:0:0:
184,206,88329,1,8,1:2:0:0:
100,11,88483,1,2,0:2:0:0:
144,110,88637,22,0,B|250:95|219:156|344:139,1,190,4|8,1:2|1:2,0:0:0:0:
449,241,89098,1,0,3:1:0:0:
449,241,89175,1,0,3:0:0:0:
449,241,89252,2,0,B|402:251|402:251|359:230,1,95,0|2,1:0|3:2,0:0:0:0:
382,66,89560,2,0,B|429:56|429:56|472:77,1,95,8|2,1:2|0:2,0:0:0:0:
416,154,89868,21,0,1:0:0:0:
331,215,90021,2,0,L|346:308,1,95,0|8,0:0|1:2,0:0:0:0:
235,177,90329,2,0,L|241:122,1,47.5,0|0,3:0|3:0,0:0:0:0:
231,106,90483,1,0,1:0:0:0:
301,48,90637,2,0,L|340:41,4,23.75,2|0|2|0|8,3:2|0:0|0:0|0:0|1:2,0:0:0:0:
150,73,90944,1,2,0:2:0:0:
108,241,91098,22,0,B|93:196|93:196|112:143,1,95,4|0,1:2|0:0,0:0:0:0:
221,272,91406,1,8,1:2:0:0:
291,217,91560,1,0,3:0:0:0:
272,195,91637,1,0,0:0:0:0:
244,186,91714,1,0,1:0:0:0:
215,182,91791,1,0,0:0:0:0:
187,189,91868,1,2,3:2:0:0:
283,28,92021,2,0,B|298:73|298:73|279:126,1,95,8|2,1:2|0:2,0:0:0:0:
281,117,92252,1,2,0:2:0:0:
281,117,92329,22,0,L|389:134,1,95,0|0,1:0|0:0,0:0:0:0:
455,198,92637,1,8,1:2:0:0:
426,201,92714,1,0,0:0:0:0:
397,204,92791,2,0,L|344:210,1,47.5,0|0,3:2|3:0,0:0:0:0:
281,117,92944,22,0,L|474:100,1,190,0|8,1:0|1:2,0:0:0:0:
101,192,93560,21,4,1:2:0:0:
198,231,93714,1,0,0:0:0:0:
264,157,93868,2,0,P|273:111|288:66,1,95,8|0,1:2|3:0,0:0:0:0:
288,65,94098,1,0,3:0:0:0:
288,65,94175,1,0,1:0:0:0:
175,134,94329,1,2,3:2:0:0:
287,250,94483,1,8,1:2:0:0:
139,328,94637,1,2,0:2:0:0:
303,260,94791,22,0,P|359:273|412:277,1,95,0|0,1:0|0:0,0:0:0:0:
198,231,95098,1,8,1:2:0:0:
139,328,95252,1,0,3:0:0:0:
139,328,95329,1,0,3:0:0:0:
139,328,95406,1,0,1:0:0:0:
85,219,95560,2,0,L|74:187,4,23.75,2|0|2|0|10,3:2|0:2|0:2|0:2|1:2,0:2:0:0:
247,287,95868,1,2,3:2:0:0:
19,267,96021,22,0,L|165:245,1,142.5,4|0,1:2|0:0,0:0:0:0:
159,245,96329,1,8,1:2:0:0:
52,178,96483,2,0,L|34:128,2,47.5,0|0|0,3:0|3:0|1:0,0:0:0:0:
186,245,96791,1,2,3:2:0:0:
155,55,96944,2,0,L|139:155,1,95,8|2,1:2|0:2,0:0:0:0:
206,241,97252,21,0,1:0:0:0:
358,89,97406,2,0,L|377:146,1,47.5
448,162,97560,2,0,L|460:52,1,95,8|0,1:2|3:0,0:0:0:0:
345,216,97868,2,0,L|272:149,1,95,0|10,1:0|3:2,0:0:0:0:
322,328,98175,2,0,L|177:353,1,142.5,8|2,1:2|0:2,0:0:0:0:
181,352,98483,22,0,P|176:298|167:247,1,95,4|0,1:2|0:0,0:0:0:0:
158,163,98791,2,0,P|162:216|171:267,1,95,8|0,1:2|3:0,0:0:0:0:
169,257,99021,1,0,3:0:0:0:
169,257,99098,1,0,1:0:0:0:
244,196,99252,1,2,3:2:0:0:
78,224,99406,1,8,1:2:0:0:
244,196,99560,1,2,0:2:0:0:
97,313,99714,21,0,1:0:0:0:
158,163,99868,2,0,L|166:59,1,95,0|8,0:0|1:2,0:0:0:0:
24,160,100175,2,0,L|89:151,1,47.5,0|0,3:0|3:0,0:0:0:0:
165,183,100329,1,0,1:0:0:0:
60,65,100483,2,0,L|28:55,4,23.75,2|0|2|0|10,3:2|0:2|0:2|0:2|1:2,0:2:0:0:
171,204,100791,1,2,0:2:0:0:
256,125,100944,22,0,B|329:112|329:112|374:129|374:129|450:115,1,190,4|8,1:2|1:2,0:0:0:0:
504,45,101406,2,0,B|458:25|458:25|398:36,1,95,0|0,3:0|1:0,0:0:0:0:
319,200,101714,1,2,3:2:0:0:
319,200,101791,1,2,0:2:0:0:
319,200,101868,2,0,B|365:220|365:220|425:209,1,95,8|2,1:2|0:2,0:0:0:0:
466,126,102175,22,0,L|365:113,1,95,4|0,0:2|0:0,0:0:0:0:
371,113,102560,1,0,0:0:0:0:
371,113,102637,1,0,0:0:0:0:
371,113,102714,1,0,0:0:0:0:
371,113,102791,1,0,0:0:0:0:
256,192,102868,12,4,103407,1:0:0:0:
286,281,103714,102,0,L|296:340,1,47.5,0|0,3:0|3:0,0:0:0:0:
211,319,104021,2,0,L|117:330,1,95,8|0,0:1|0:2,0:0:0:0:
39,323,104483,1,2,0:2:0:0:
36,332,104560,1,0,0:2:0:0:
34,341,104637,1,2,0:2:0:0:
69,257,104791,2,0,L|59:200,1,47.5,2|0,0:0|3:0,0:0:0:0:
56,183,105098,1,0,3:0:0:0:
154,269,105252,2,0,L|168:158,1,95,8|0,0:1|0:3,0:0:0:0:
260,78,105714,1,0,0:2:0:0:
260,78,105868,22,0,L|315:87,1,47.5,0|0,3:0|0:3,0:0:0:0:
466,104,106175,2,0,L|411:113,1,47.5,0|0,3:3|3:0,0:0:0:0:
269,163,106483,2,0,B|305:167|305:167|323:179|323:179|367:184,1,95,8|2,0:1|0:2,0:0:0:0:
359,183,107098,2,0,L|365:238,1,47.5
371,106,107406,2,0,L|377:161,1,47.5,0|0,3:0|3:0,0:0:0:0:
359,275,107714,1,8,0:1:0:0:
359,275,107868,1,2,0:0:0:0:
158,309,108175,1,2,0:0:0:0:
223,363,108329,22,0,B|242:320|242:320|231:266,1,95,0|0,3:0|0:0,0:0:0:0:
83,96,108944,2,0,B|64:139|64:139|75:193,1,95,8|0,0:1|0:2,0:0:0:0:
147,228,109406,1,2,0:2:0:0:
155,224,109483,1,0,0:2:0:0:
163,220,109560,1,2,0:2:0:0:
219,153,109714,2,0,L|273:161,1,47.5,2|0,0:2|3:0,0:0:0:0:
342,143,110021,1,0,3:0:0:0:
333,255,110175,2,0,L|238:264,1,95,8|0,0:1|0:0,0:0:0:0:
407,165,110637,1,0,0:0:0:0:
415,155,110791,22,0,L|425:213,1,47.5,0|0,3:0|0:0,0:0:0:0:
341,301,111098,2,0,L|333:255,1,47.5,0|0,3:0|3:0,0:0:0:0:
423,146,111406,2,0,L|443:253,1,95,8|2,0:1|0:0,0:0:0:0:
440,239,112021,2,0,L|385:229,1,47.5
436,62,112329,2,0,L|381:72,1,47.5,0|0,3:0|3:0,0:0:0:0:
325,148,112637,1,8,0:1:0:0:
315,148,112791,1,2,0:0:0:0:
45,254,113098,1,2,0:0:0:0:
55,254,113252,21,4,1:0:0:0:
227,240,113560,2,0,L|219:293,1,47.5,0|0,3:0|3:0,0:0:0:0:
154,349,113868,2,0,B|130:320|130:320|140:250,1,95,8|0,0:1|0:2,0:0:0:0:
155,172,114329,1,2,0:2:0:0:
146,176,114406,1,0,0:2:0:0:
137,180,114483,1,2,0:2:0:0:
223,193,114637,2,0,L|279:197,1,47.5,2|0,0:2|3:0,0:0:0:0:
347,203,114944,1,0,3:0:0:0:
286,110,115098,2,0,B|262:139|262:139|272:209,1,95,8|0,0:1|0:0,0:0:0:0:
291,283,115560,1,0,0:0:0:0:
291,283,115714,22,0,L|276:341,1,47.5,0|0,3:0|0:0,0:0:0:0:
382,286,116021,2,0,L|395:347,1,47.5,0|0,3:0|3:0,0:0:0:0:
450,231,116329,2,0,L|504:264,1,47.5,8|0,0:1|0:0,0:0:0:0:
468,143,116637,1,2,0:2:0:0:
273,178,116944,1,0,0:0:0:0:
273,178,117098,1,0,0:0:0:0:
201,230,117252,1,0,3:0:0:0:
48,160,117560,2,0,L|158:171,1,95,8|0,0:1|0:0,0:0:0:0:
207,109,118021,1,0,0:0:0:0:
207,109,118175,22,0,B|224:63|224:63|211:17,1,95,0|0,3:0|0:0,0:0:0:0:
244,264,118791,2,0,B|227:310|227:310|240:356,1,95,8|0,0:1|0:2,0:0:0:0:
309,313,119252,1,2,0:2:0:0:
318,312,119329,1,0,0:2:0:0:
327,311,119406,1,2,0:2:0:0:
244,264,119560,2,0,B|217:258|217:258|186:259,1,47.5,2|0,0:2|3:0,0:0:0:0:
305,199,119868,1,0,3:0:0:0:
379,244,120021,2,0,B|425:255|425:255|470:227,1,95,8|0,0:1|0:0,0:0:0:0:
465,229,120637,22,0,L|472:130,1,95,0|0,3:0|3:0,0:0:0:0:
471,134,121098,1,0,3:0:0:0:
361,173,121252,2,0,L|341:63,2,95,8|2|0,0:1|0:2|0:0,0:0:0:0:
292,240,122021,1,0,0:0:0:0:
411,260,122175,2,0,L|359:252,1,47.5,0|0,3:0|3:0,0:0:0:0:
217,226,122483,2,0,L|269:234,1,47.5,8|2,0:1|0:2,0:0:0:0:
457,267,122791,2,0,L|405:259,1,47.5,0|2,0:0|0:2,0:0:0:0:
338,308,123098,22,0,P|336:263|342:163,1,142.500005435944,4|8,0:1|0:1,0:0:0:0:
427,120,123560,2,0,P|428:154|425:191,1,71.2500027179719,2|0,0:0|0:0,0:0:0:0:
348,84,123868,1,0,0:0:0:0:
254,139,124021,2,0,P|253:105|255:67,1,71.2500027179719,8|0,0:1|0:0,0:0:0:0:
261,51,124252,1,0,0:0:0:0:
270,35,124329,22,0,P|220:32|190:24,1,71.2500027179719,0|2,0:0|0:0,0:0:0:0:
254,139,124637,1,8,0:1:0:0:
168,105,124791,2,0,P|107:111|22:150,1,142.500005435944,0|0,0:0|0:1,0:0:0:0:
32,142,125252,1,8,0:1:0:0:
137,357,125560,22,0,L|146:280,2,71.2500027179719,0|0|8,0:0|0:0|0:1,0:0:0:0:
233,178,126021,1,0,0:0:0:0:
233,178,126098,1,0,0:0:0:0:
233,178,126175,2,0,L|224:255,2,71.2500027179719,0|0|8,0:0|0:0|0:1,0:0:0:0:
369,329,126791,22,0,P|414:336|446:336,1,71.2500027179719
280,352,127098,1,8,0:1:0:0:
416,256,127252,2,0,P|417:185|396:117,1,142.500005435944
396,117,127714,1,8,0:1:0:0:
62,239,128021,22,0,B|159:221|116:259|202:242,1,142.500005435944,2|8,0:0|0:1,0:0:0:0:
242,148,128483,2,0,P|202:154|159:152,1,71.2500027179719,2|0,0:0|0:0,0:0:0:0:
62,239,128791,1,0,0:0:0:0:
166,334,128944,2,0,P|206:328|249:330,1,71.2500027179719,8|0,0:1|0:0,0:0:0:0:
253,333,129175,1,0,0:0:0:0:
269,340,129252,21,0,0:0:0:0:
320,199,129406,2,0,P|319:234|325:269,1,71.2500027179719,2|8,0:0|0:1,0:0:0:0:
441,336,129714,2,0,B|357:322|393:363|289:350,1,142.500005435944,2|0,0:0|0:0,0:0:0:0:
189,321,130175,22,0,L|162:169,1,142.500005435944,8|0,0:1|0:0,0:0:0:0:
164,180,130560,1,0,0:0:0:0:
164,180,130637,1,0,0:0:0:0:
81,252,130791,1,8,0:1:0:0:
267,217,130944,1,0,0:0:0:0:
267,217,131021,1,0,0:0:0:0:
267,217,131098,2,0,L|276:127,2,71.2500027179719,0|0|8,0:0|0:0|0:1,0:0:0:0:
66,119,131714,22,0,L|21:111,2,35.625001358986
267,217,132021,2,0,P|212:203|150:215,1,106.875004076958,8|0,0:1|0:0,0:0:0:0:
164,210,132329,2,0,L|149:140,1,71.2500027179719
180,54,132637,1,8,0:1:0:0:
394,225,132944,22,0,L|377:380,1,142.500005435944,2|8,0:0|0:1,0:0:0:0:
300,215,133406,2,0,B|289:181|289:181|299:140,1,71.2500027179719,2|0,0:0|0:0,0:0:0:0:
474,92,133714,1,0,0:0:0:0:
474,92,133868,2,0,B|485:126|485:126|475:167,1,71.2500027179719,8|0,0:1|0:0,0:0:0:0:
464,237,134098,1,0,0:0:0:0:
464,237,134175,22,0,L|387:223,2,71.2500027179719,0|2|8,0:0|0:0|0:1,0:0:0:0:
358,301,134637,2,0,B|301:313|301:313|278:328|278:328|222:337,1,142.500005435944
221,337,135098,1,8,0:1:0:0:
107,158,135406,22,0,P|100:203|97:244,1,71.2500027179719
46,93,135714,1,8,0:1:0:0:
185,212,135868,2,0,P|182:279|173:366,1,142.500005435944
174,354,136329,1,8,0:1:0:0:
295,298,136483,1,0,0:0:0:0:
295,298,136560,1,0,0:0:0:0:
295,298,136637,22,0,L|244:287,2,35.625001358986
114,222,136944,2,0,L|195:210,1,71.2500027179719,8|0,0:1|0:0,0:0:0:0:
206,193,137175,1,0,0:0:0:0:
228,210,137252,1,0,0:0:0:0:
255,218,137329,1,0,0:0:0:0:
283,216,137406,1,0,0:0:0:0:
274,64,137560,2,0,L|263:157,1,71.2500027179719,8|0,0:1|0:0,0:0:0:0:
390,71,137868,22,0,P|382:117|382:213,1,142.500005435944,2|8,0:0|0:1,0:0:0:0:
350,319,138329,1,2,0:0:0:0:
350,319,138406,1,0,0:0:0:0:
350,319,138483,2,0,L|358:370,2,35.625001358986
256,268,138791,2,0,P|251:236|227:184,1,71.2500027179719,8|0,0:1|0:0,0:0:0:0:
196,350,139098,21,0,0:0:0:0:
160,256,139252,2,0,P|115:238|12:250,2,142.500005435944,2|2|0,0:0|0:0|0:0,0:0:0:0:
12,340,140021,2,0,L|87:322,1,71.2500027179719,8|0,0:1|0:0,0:0:0:0:
211,169,140329,22,0,L|136:151,1,71.2500027179719
11,248,140637,1,8,0:1:0:0:
44,71,140791,1,0,0:0:0:0:
44,71,140868,1,0,0:0:0:0:
44,71,140944,2,0,B|54:105|54:105|49:140,1,71.2500027179719
107,295,141252,2,0,B|97:261|97:261|102:226,1,71.2500027179719,8|0,0:1|0:2,0:0:0:0:
102,225,142175,21,2,0:1:0:0:
193,252,142329,1,2,0:2:0:0:
240,126,142483,1,2,0:1:0:0:
240,126,142637,1,2,0:2:0:0:
383,181,142791,22,0,P|438:168|517:222,1,142.500005435944,4|0,1:0|0:0,0:0:0:0:
365,283,143252,1,0,1:0:0:0:
302,213,143406,2,0,P|294:175|297:130,1,71.2500027179719,8|0,0:0|0:0,0:0:0:0:
268,300,143714,2,0,P|236:278|213:242,1,71.2500027179719,2|0,0:2|0:0,0:0:0:0:
81,183,144021,22,0,L|209:168,2,106.875004076958,0|0|0,1:0|1:0|1:0,0:0:0:0:
225,81,144637,2,0,L|154:88,1,71.2500027179719,8|0,0:0|0:0,0:0:0:0:
51,272,144944,2,0,L|121:264,1,71.2500027179719,2|0,0:2|0:0,0:0:0:0:
325,172,145252,22,0,B|382:182|382:182|404:198|404:198|471:210,1,142.500005435944,0|0,1:0|0:0,0:0:0:0:
331,257,145714,1,0,1:0:0:0:
249,213,145868,2,0,B|238:189|238:189|252:113,1,71.2500027179719,8|0,0:0|0:0,0:0:0:0:
446,52,146175,2,0,B|457:76|457:76|443:152,1,71.2500027179719,2|0,0:0|0:0,0:0:0:0:
355,175,146483,22,0,L|335:58,2,106.875004076958,0|0|0,1:0|1:0|1:0,0:0:0:0:
245,200,147098,2,0,L|233:283,1,71.2500027179719,8|0,0:0|0:0,0:0:0:0:
229,40,147406,2,0,L|217:123,1,71.2500027179719,2|0,0:0|0:0,0:0:0:0:
151,182,147714,22,0,P|112:186|12:130,1,142.500005435944,0|0,1:0|0:0,0:0:0:0:
192,267,148175,1,0,1:0:0:0:
132,330,148329,2,0,P|87:340|54:354,1,71.2500027179719,8|0,0:0|0:0,0:0:0:0:
243,197,148637,2,0,P|288:187|321:173,1,71.2500027179719,2|0,0:0|0:0,0:0:0:0:
398,206,148944,21,0,1:0:0:0:
245,110,149175,1,0,1:0:0:0:
255,298,149406,1,0,1:0:0:0:
351,289,149560,2,0,L|502:308,1,142.500005435944,8|2,0:0|0:0,0:0:0:0:
492,306,150175,21,8,3:3:0:0:
292,195,150329,1,2,0:0:0:0:
282,160,150406,1,0,0:0:0:0:
291,125,150483,1,2,0:0:0:0:
367,159,150637,1,4,3:3:0:0:
442,123,150791,1,2,0:0:0:0:
452,158,150868,1,0,0:0:0:0:
443,193,150944,1,2,0:0:0:0:
367,159,151098,22,0,B|316:169|316:169|286:194|286:194|230:204,1,142.500005435944,4|0,1:1|0:0,0:0:0:0:
235,203,151560,2,0,L|222:287,1,71.2500027179719,2|0,0:0|0:0,0:0:0:0:
147,216,151868,1,2,0:0:0:0:
313,276,152021,2,0,L|321:320,2,35.625001358986,2|0|2,0:0|0:0|0:0,0:0:0:0:
223,128,152329,1,2,0:0:0:0:
188,119,152406,1,0,0:0:0:0:
153,129,152483,1,2,0:0:0:0:
129,156,152560,1,0,0:0:0:0:
118,190,152637,22,0,P|80:200|37:203,1,71.2500027179719,0|2,1:0|0:2,0:0:0:0:
149,276,152944,2,0,P|115:303|82:318,1,71.2500027179719,8|0,0:1|1:0,0:0:0:0:
203,207,153252,1,8,0:0:0:0:
300,327,153406,2,0,L|331:370,2,35.625001358986,2|0|8,0:2|0:2|0:1,0:0:0:0:
203,207,153714,1,2,0:2:0:0:
218,366,153868,21,0,1:0:0:0:
82,227,154021,1,2,0:2:0:0:
68,240,154098,2,0,B|61:279|61:279|72:324,1,71.2500027179719,0|2,1:0|0:0,0:0:0:0:
82,325,154329,1,0,1:0:0:0:
149,276,154483,2,0,L|-8:258,1,142.500005435944,8|8,0:0|0:1,0:0:0:0:
193,194,154944,1,2,0:2:0:0:
193,194,155021,1,0,0:2:0:0:
193,194,155098,22,0,B|204:159|204:159|196:114,2,71.2500027179719,0|2|8,1:0|0:2|0:1,0:0:0:0:
115,150,155560,1,0,1:0:0:0:
277,222,155714,2,0,L|325:233,2,35.625001358986,8|0|2,0:0|0:0|0:2,0:0:0:0:
288,122,156021,2,0,L|331:116,2,35.625001358986,8|0|2,0:1|0:0|0:2,0:0:0:0:
402,104,156329,22,0,L|395:196,1,71.2500027179719,0|2,1:0|0:2,0:0:0:0:
394,197,156560,2,0,L|478:186,1,71.2500027179719,0|2,1:0|0:0,0:0:0:0:
484,183,156791,1,0,1:0:0:0:
370,276,156944,2,0,B|276:260|276:260|214:287,1,142.500005435944,8|8,0:0|0:1,0:0:0:0:
207,304,157329,1,0,0:0:0:0:
173,316,157406,1,2,0:0:0:0:
137,309,157483,1,0,0:0:0:0:
108,288,157560,22,0,L|97:185,1,71.2500027179719,0|2,1:0|0:0,0:0:0:0:
242,196,157868,2,0,L|184:237,1,71.2500027179719,8|0,0:1|1:0,0:0:0:0:
94,125,158175,2,0,L|159:153,1,71.2500027179719,8|2,0:0|0:2,0:0:0:0:
329,125,158483,2,0,L|324:79,2,35.625001358986,8|0|2,0:1|0:0|0:2,0:0:0:0:
275,279,158791,21,0,1:0:0:0:
432,247,158944,1,2,0:0:0:0:
442,242,159021,2,0,L|351:227,1,71.2500027179719,0|2,1:0|0:0,0:0:0:0:
347,227,159252,1,0,1:0:0:0:
408,162,159406,21,8,0:0:0:0:
366,306,159560,1,2,0:0:0:0:
261,194,159714,1,8,0:1:0:0:
231,173,159791,1,0,0:0:0:0:
195,169,159868,1,2,0:0:0:0:
161,181,159944,1,0,0:0:0:0:
134,204,160021,21,0,1:0:0:0:
117,97,160175,1,2,0:0:0:0:
34,157,160329,1,8,0:1:0:0:
204,252,160483,21,0,1:0:0:0:
297,40,160637,1,8,0:0:0:0:
467,173,160791,21,2,0:0:0:0:
377,201,160944,1,8,0:1:0:0:
393,107,161098,1,2,0:0:0:0:
393,107,161175,1,0,0:0:0:0:
393,107,161252,1,0,1:0:0:0:
475,163,162483,22,0,B|425:173|425:173|403:208|403:208|339:222,1,142.500005435944,4|0,1:0|0:0,0:0:0:0:
274,178,162944,1,2,0:0:0:0:
343,117,163098,1,0,0:0:0:0:
274,178,163252,2,0,B|260:210|260:210|270:249,1,71.2500027179719,2|0,0:0|3:0,0:0:0:0:
278,267,163483,1,0,3:0:0:0:
250,272,163560,1,0,3:0:0:0:
222,278,163637,1,0,3:0:0:0:
194,283,163714,22,0,L|121:277,1,71.2500027179719,0|0,3:0|3:0,0:0:0:0:
54,318,164021,1,0,0:0:0:0:
54,318,164175,1,0,0:0:0:0:
16,189,164329,2,0,L|107:199,2,71.2500027179719
440,158,164944,22,0,L|454:71,1,71.2500027179719,0|0,0:0|0:2,0:0:0:0:
351,150,165252,2,0,L|337:63,1,71.2500027179719,0|2,0:0|0:0,0:0:0:0:
282,198,165560,2,0,L|234:135,1,71.2500027179719,0|2,0:0|0:0,0:0:0:0:
380,252,165868,1,0,0:0:0:0:
380,252,166021,1,0,0:0:0:0:
297,279,166175,21,0,3:0:0:0:
299,285,166252,1,0,3:0:0:0:
301,291,166329,1,0,3:0:0:0:
303,297,166406,1,0,3:0:0:0:
305,303,166483,1,0,3:0:0:0:
217,288,166637,1,0,3:0:0:0:
136,311,166791,22,0,L|92:304,1,40.7142857142857,2|0,0:3|0:2,0:0:0:0:
136,311,167406,22,0,B|160:266|160:266|131:164,1,142.500005435944,0|0,1:0|0:0,0:0:0:0:
246,124,167868,1,2,0:0:0:0:
134,177,168021,1,0,0:0:0:0:
246,124,168175,2,0,L|231:205,1,71.2500027179719,2|0,0:0|3:0,0:0:0:0:
234,221,168406,1,0,3:0:0:0:
261,213,168483,1,0,3:0:0:0:
289,212,168560,1,0,3:0:0:0:
316,219,168637,22,0,B|352:229|352:229|397:211,1,71.2500027179719,0|0,3:0|3:0,0:0:0:0:
452,172,168944,1,0,0:0:0:0:
452,172,169098,1,0,0:0:0:0:
346,61,169252,2,0,L|361:150,2,71.2500027179719
86,313,169868,22,0,P|126:320|171:331,1,71.2500027179719
104,164,170175,2,0,P|77:195|45:228,1,71.2500027179719,0|2,0:0|0:0,0:0:0:0:
224,251,170483,2,0,P|210:212|197:168,1,71.2500027179719,0|2,0:0|0:0,0:0:0:0:
140,249,170791,1,0,0:0:0:0:
140,249,170944,1,0,0:0:0:0:
171,111,171098,21,0,3:0:0:0:
173,104,171175,1,0,3:0:0:0:
175,97,171252,1,0,3:0:0:0:
178,90,171329,1,0,3:0:0:0:
181,83,171406,1,0,3:0:0:0:
94,97,171560,1,0,3:0:0:0:
264,62,171714,22,0,L|306:66,1,40.7142857142857,2|0,0:3|0:2,0:0:0:0:
264,62,172329,22,0,B|211:43|211:43|185:85|216:128,1,142.500005435944,0|0,1:1|0:0,0:0:0:0:
293,186,172791,2,0,L|377:170,1,71.2500027179719,2|0,0:0|0:0,0:0:0:0:
449,159,173098,1,2,0:0:0:0:
449,159,173252,2,0,L|440:204,1,35.625001358986,8|0,0:2|0:0,0:0:0:0:
293,186,173406,22,0,B|208:153|208:153|163:176,1,142.500005435944,0|0,1:0|0:0,0:0:0:0:
22,191,173791,1,0,0:0:0:0:
22,191,173868,2,0,B|77:179|77:179|106:186|106:186|171:174,1,142.500005435944,0|2,1:0|0:2,0:0:0:0:
110,95,174329,1,2,0:0:0:0:
161,175,174483,2,0,L|153:255,1,71.2500027179719,2|8,0:2|0:2,0:2:0:0:
232,357,174791,22,0,L|244:208,1,142.500005435944,0|0,1:0|0:0,0:0:0:0:
243,214,175252,1,2,0:2:0:0:
127,298,175406,2,0,L|212:279,1,71.2500027179719,0|2,0:0|0:2,0:0:0:0:
325,253,175714,1,8,0:2:0:0:
170,186,175868,22,0,B|141:125|141:125|187:44,1,142.500005435944,0|0,1:0|0:0,0:0:0:0:
297,62,176252,1,0,0:0:0:0:
297,62,176329,2,0,P|307:101|300:140,1,71.2500027179719,0|2,1:0|0:2,0:0:0:0:
170,186,176637,22,0,L|167:145,1,40.7142857142857,2|0,0:3|0:0,0:0:0:0:
170,186,177252,22,0,B|159:284|159:284|206:314,1,142.500005435944,0|0,1:0|0:0,0:0:0:0:
282,264,177714,2,0,L|368:250,1,71.2500027179719,2|0,0:2|0:0,0:0:0:0:
440,292,178021,1,2,0:2:0:0:
440,292,178175,2,0,L|445:243,1,35.625001358986,8|0,0:2|0:0,0:0:0:0:
352,252,178329,22,0,B|315:219|315:219|332:332,1,142.500005435944,0|0,1:0|0:0,0:0:0:0:
361,155,178714,1,0,0:0:0:0:
361,155,178791,2,0,B|398:188|398:188|381:75,1,142.500005435944,0|2,1:0|0:2,0:0:0:0:
352,252,179252,1,2,0:2:0:0:
384,97,179406,2,0,L|395:13,1,71.2500027179719,2|8,0:2|0:2,0:0:0:0:
440,184,179714,22,0,B|351:165|383:220|290:204,1,142.500005435944,0|0,1:0|0:0,0:0:0:0:
163,146,180175,2,0,P|214:145|249:134,1,71.2500027179719,2|0,0:2|0:0,0:0:0:0:
329,47,180483,2,0,P|321:90|319:135,1,71.2500027179719,2|8,0:2|0:2,0:0:0:0:
224,268,180791,22,0,B|198:205|198:205|238:130,1,142.500005435944,0|0,1:0|0:0,0:0:0:0:
167,333,181175,1,0,0:0:0:0:
167,333,181252,2,0,B|129:351|129:351|90:338,1,71.2500027179719,0|2,1:0|0:2,0:0:0:0:
303,299,181560,22,2,L|345:302,1,40.7142857142857,2|2,0:3|0:1,0:1:0:0:
436,341,182175,6,0,L|284:329,1,142.500005435944,4|0,1:0|0:0,0:0:0:0:
293,329,182483,1,2,0:1:0:0:
330,244,182637,1,0,0:1:0:0:
221,165,182791,2,0,L|236:263,1,95,8|4,0:2|3:3,0:1:0:0:
285,70,183098,1,8,3:3:0:0:
461,92,183252,2,0,P|413:152|281:136,1,190,4|0,1:2|0:1,0:0:0:0:
49,230,183714,2,0,P|97:213|152:210,1,95,4|0,1:2|0:1,0:0:0:0:
163,214,183944,1,0,0:0:0:0:
185,222,184021,5,8,0:0:0:0:
371,327,184175,1,0,3:0:0:0:
229,300,184329,1,0,3:0:0:0:
358,202,184483,1,0,3:0:0:0:
287,365,184637,6,0,L|266:216,1,142.5,0|0,1:0|0:0,0:0:0:0:
267,223,184944,1,2,0:1:0:0:
358,202,185098,1,0,0:0:0:0:
239,127,185252,2,2,P|190:136|137:145,1,95,8|2,0:2|3:1,0:1:0:0:
335,99,185560,1,2,3:2:0:0:
188,43,185714,6,0,B|131:23|131:23|93:96|157:155,1,190,4|0,1:2|0:1,0:0:0:0:
249,264,186175,2,0,P|248:324|232:364,1,95,4|0,1:2|0:1,0:0:0:0:
71,303,186483,2,0,P|72:243|88:203,1,95,8|2,0:0|3:2,0:0:0:0:
164,241,186791,1,2,0:0:0:0:
155,328,186944,1,2,0:2:0:0:
254,210,187098,6,0,B|358:190|329:265|449:237,1,190,0|2,1:0|0:1,0:0:0:0:
284,310,187560,1,0,0:0:0:0:
164,241,187714,2,0,P|162:187|188:130,1,95,8|4,0:0|3:3,0:0:0:0:
254,210,188021,1,8,3:3:0:0:
149,336,188175,2,0,P|102:311|69:261,1,95,4|0,1:2|0:0,0:0:0:0:
197,127,188483,1,0,0:0:0:0:
104,58,188637,2,0,L|118:174,1,95,4|0,1:2|0:0,0:0:0:0:
119,176,188868,1,0,0:0:0:0:
122,199,188944,5,8,0:0:0:0:
36,147,189098,1,0,3:0:0:0:
133,288,189252,1,0,3:0:0:0:
197,127,189406,1,0,3:0:0:0:
219,349,189560,6,0,P|225:293|238:194,1,142.5,0|0,1:0|0:0,0:0:0:0:
236,207,189868,1,2,0:1:0:0:
119,186,190021,1,0,0:0:0:0:
119,186,190098,1,0,0:0:0:0:
119,186,190175,1,8,0:0:0:0:
101,306,190329,1,2,3:1:0:0:
252,203,190483,1,2,3:2:0:0:
393,281,190637,6,0,L|487:267,1,95,4|0,1:2|0:0,0:0:0:0:
257,366,190944,1,0,0:0:0:0:
252,203,191098,2,0,P|198:179|89:199,1,142.5,4|0,1:2|0:0,0:0:0:0:
116,185,191406,2,0,P|125:238|132:289,1,95,8|2,0:0|0:2,0:0:0:0:
324,158,191714,2,0,P|330:110|339:64,1,95,2|2,0:2|0:2,0:0:0:0:
36,254,192021,5,4,1:0:0:0:
185,63,192329,1,2,0:1:0:0:
185,63,192483,1,0,0:0:0:0:
104,106,192637,2,0,P|109:158|121:211,1,95,8|4,0:0|3:3,0:0:0:0:
187,258,192944,1,8,3:3:0:0:
304,184,193098,2,0,P|253:178|207:169,1,95,4|0,1:2|0:0,0:0:0:0:
104,106,193406,1,0,0:0:0:0:
24,214,193560,2,0,P|70:205|117:199,1,95,4|0,1:2|0:0,0:0:0:0:
242,77,193868,5,8,0:0:0:0:
365,96,194021,1,0,3:0:0:0:
221,102,194175,5,0,3:0:0:0:
389,75,194329,1,0,3:0:0:0:
297,15,194483,6,0,L|312:169,1,142.5,0|0,1:0|0:0,0:0:0:0:
310,156,194791,2,0,B|357:144|357:144|412:161,1,95,2|0,0:1|0:0,0:0:0:0:
242,235,195098,1,8,0:0:0:0:
396,327,195252,2,0,B|348:338|348:338|293:321,1,95,2|2,3:1|3:2,0:0:0:0:
242,235,195560,6,0,L|437:251,1,190,4|0,1:2|0:0,0:0:0:0:
136,189,196021,1,4,1:2:0:0:
152,323,196175,1,0,0:0:0:0:
242,235,196329,2,0,B|259:191|259:191|246:135,1,95,8|2,0:0|0:2,0:0:0:0:
63,36,196637,2,0,B|46:80|46:80|59:136,1,95,2|2,0:2|0:2,0:0:0:0:
76,204,196868,1,0,0:0:0:0:
76,204,196944,6,0,L|228:182,1,142.5,0|0,1:0|0:0,0:0:0:0:
235,190,197252,2,0,P|234:140|245:87,1,95,2|0,0:1|0:0,0:0:0:0:
361,346,197560,2,0,P|314:312|277:293,1,95,8|4,0:0|3:3,0:0:0:0:
173,287,197868,1,8,3:3:0:0:
331,216,198021,2,0,P|389:203|518:261,1,190,4|0,1:2|0:0,0:0:0:0:
362,78,198483,2,0,P|309:94|248:98,1,95,4|0,1:2|0:0,0:0:0:0:
246,95,198714,1,0,0:0:0:0:
222,89,198791,5,8,0:0:0:0:
236,189,198944,1,0,3:0:0:0:
123,98,199098,2,0,L|117:205,1,95,0|0,3:0|3:0,0:0:0:0:
249,259,199406,6,0,B|171:247|196:298|105:286,1,142.5,0|0,1:0|0:0,0:0:0:0:
113,286,199714,2,0,P|113:342|103:380,1,95,2|0,0:1|0:0,0:0:0:0:
214,171,200021,1,8,0:0:0:0:
324,352,200175,2,0,L|210:337,1,95,2|2,3:1|3:2,0:0:0:0:
23,180,200483,2,0,L|137:195,1,95,4|0,1:2|0:0,0:0:0:0:
214,171,200791,5,0,0:0:0:0:
272,254,200944,1,4,1:2:0:0:
361,207,201098,1,0,0:0:0:0:
361,207,201175,1,0,0:0:0:0:
361,207,201252,1,8,0:0:0:0:
200,167,201406,5,2,0:2:0:0:
354,299,201560,1,2,0:2:0:0:
320,110,201714,1,2,0:2:0:0:
240,351,201868,1,4,1:0:0:0:
256,192,204329,12,0,206637,0:0:0:0:
82,354,206791,53,0,0:0:0:0:
116,275,206944,1,0,0:0:0:0:
53,217,207098,1,0,0:0:0:0:
150,75,207252,21,0,0:0:0:0:
116,154,207406,1,0,0:0:0:0:
179,212,207560,2,0,L|235:218,1,47.5
312,247,207868,22,0,P|348:234|404:221,1,95,2|2,0:0|0:0,0:0:0:0:
244,184,208329,2,0,L|236:132,2,47.5,0|0|2,0:0|0:0|0:0,0:0:0:0:
249,313,208791,1,0,0:0:0:0:
249,313,208944,2,0,L|247:362,1,47.5,2|0,0:0|0:0,0:0:0:0:
439,104,209406,1,0,0:0:0:0:
365,148,209560,1,0,0:0:0:0:
365,62,209714,1,0,0:0:0:0:
306,215,209868,22,0,L|362:223,1,47.5
440,216,210175,2,0,L|384:208,1,47.5
242,124,210483,22,0,P|207:108|152:92,2,95,2|2|2,0:0|0:0|0:0,0:0:0:0:
231,215,211252,1,0,0:0:0:0:
242,124,211406,2,0,L|251:73,1,47.5,2|0,0:0|0:0,0:0:0:0:
150,167,211714,21,0,0:0:0:0:
95,232,211868,1,0,0:0:0:0:
13,204,212021,1,0,0:0:0:0:
180,247,212175,22,0,L|193:293,1,47.5,2|0,0:0|0:0,0:0:0:0:
242,124,212483,2,0,L|255:170,1,47.5,2|0,0:0|0:0,0:0:0:0:
333,239,212791,22,0,L|433:230,1,95,2|0,0:0|0:0,0:0:0:0:
427,230,213252,2,0,P|433:187|421:133,1,95,2|0,0:0|0:0,0:0:0:0:
340,112,213714,1,0,0:0:0:0:
381,30,213868,1,0,0:0:0:0:
464,68,214021,1,0,0:0:0:0:
164,344,214329,22,0,L|151:279,1,47.5
218,219,214637,2,0,L|227:276,1,47.5,2|0,0:0|0:0,0:0:0:0:
157,366,214944,1,2,0:0:0:0:
360,234,215252,1,2,0:0:0:0:
360,234,215406,2,0,L|202:218,1,142.5
219,220,216021,22,0,P|214:274|203:331,1,95,0|2,0:0|0:0,0:0:0:0:
284,140,216329,2,0,P|305:191|318:236,1,95,0|2,0:0|0:0,0:0:0:0:
127,171,216637,1,4,1:0:0:0:
34,275,216791,2,0,L|136:257,1,95
219,220,217098,1,2,0:0:0:0:
416,348,217406,1,2,0:0:0:0:
473,139,217714,22,0,B|367:150|418:219|307:232,1,190
292,43,218175,2,0,P|301:93|315:140,1,95
223,269,218483,2,0,P|214:219|200:172,1,95,2|0,0:0|0:0,0:0:0:0:
313,135,218791,2,0,P|378:143|483:52,1,190,2|0,0:0|0:0,0:0:0:0:
189,82,219252,22,0,L|201:178,1,95,2|0,0:0|0:0,0:0:0:0:
168,371,219560,2,0,L|156:275,1,95
80,152,219868,2,0,B|87:225|87:225|70:267|70:267|79:347,1,190,2|2,0:0|0:0,0:0:0:0:
350,108,220483,22,0,L|339:13,2,95,2|0|0,0:0|0:0|0:0,0:0:0:0:
432,232,220944,2,0,B|425:159|425:159|442:117|442:117|433:37,1,190,2|0,0:0|0:0,0:0:0:0:
434,46,221406,1,2,0:0:0:0:
382,310,221714,22,0,P|428:324|488:334,2,95,2|0|0,0:0|0:0|0:0,0:0:0:0:
322,215,222175,1,0,0:0:0:0:
191,359,222329,2,0,P|234:330|285:303,1,95,2|0,0:0|0:0,0:0:0:0:
441,238,222637,1,2,0:0:0:0:
356,138,222791,21,2,0:0:0:0:
319,130,222868,1,0,0:0:0:0:
281,137,222944,1,2,0:0:0:0:
252,161,223021,1,0,0:0:0:0:
238,196,223098,1,2,0:0:0:0:
170,126,223252,2,0,L|66:113,1,95,2|0,0:0|0:0,0:0:0:0:
42,343,223560,2,0,P|99:354|205:278,1,190,2|0,0:0|0:0,0:0:0:0:
256,370,224021,22,0,L|224:180,1,190,2|0,0:0|0:0,0:0:0:0:
224,182,224483,2,0,B|271:198|271:198|333:179,1,95,2|0,0:0|0:0,0:0:0:0:
323,38,224791,2,0,B|276:22|276:22|214:41,1,95
74,99,225098,22,0,L|182:104,1,95,2|0,0:0|0:0,0:0:0:0:
270,114,225406,1,0,0:0:0:0:
270,114,225560,1,0,0:0:0:0:
240,288,225714,22,0,L|231:177,1,95,2|0,0:0|0:0,0:0:0:0:
221,37,226021,1,2,0:0:0:0:
221,37,226175,1,2,0:0:0:0:
151,192,226329,1,2,0:0:0:0:
339,125,226483,5,4,1:0:0:0:
395,226,226637,2,0,P|439:238|495:237,1,95,0|8,1:0|1:0,0:0:0:0:
304,281,226944,1,2,0:0:0:0:
245,183,227098,1,0,1:2:0:0:
210,167,227175,1,0,0:0:0:0:
172,169,227252,1,2,0:2:0:0:
137,185,227329,1,0,0:2:0:0:
114,215,227406,1,8,1:0:0:0:
77,75,227560,6,0,L|84:134,2,47.5,0|0|0,0:0|0:0|1:0,0:0:0:0:
221,125,227868,1,0,1:1:0:0:
178,350,228021,2,0,L|193:246,1,95,8|2,1:0|0:2,0:0:0:0:
182,218,228252,1,0,0:0:0:0:
219,224,228329,1,0,1:0:0:0:
256,219,228406,1,0,0:0:0:0:
285,195,228483,1,2,0:2:0:0:
479,210,228637,2,0,B|435:196|435:196|381:212,1,95,8|0,1:0|0:0,0:0:0:0:
375,224,228868,1,0,0:0:0:0:
364,239,228944,5,0,1:0:0:0:
358,140,229098,1,0,1:0:0:0:
439,286,229252,1,8,1:0:0:0:
285,195,229406,1,2,0:2:0:0:
416,80,229560,1,0,1:0:0:0:
384,57,229637,1,0,0:0:0:0:
346,52,229714,1,2,0:2:0:0:
311,67,229791,1,0,0:0:0:0:
286,96,229868,1,8,1:0:0:0:
197,47,230021,6,0,L|143:36,2,47.5,0|0|0,0:0|0:0|1:0,0:0:0:0:
361,142,230329,1,0,1:0:0:0:
252,220,230483,2,0,L|265:119,1,95,8|2,1:0|0:0,0:0:0:0:
6,217,230791,2,0,P|57:224|146:178,1,142.5,4|0,1:2|0:0,0:0:0:0:
137,187,231098,2,0,L|150:288,1,95,8|2,1:1|0:2,0:0:0:0:
228,340,231406,5,0,1:0:0:0:
338,256,231560,2,0,L|242:241,1,95,4|8,1:2|1:0,0:0:0:0:
432,170,231868,1,2,0:0:0:0:
432,170,231944,1,0,0:0:0:0:
432,170,232021,2,0,L|486:162,2,47.5,0|0|2,1:0|0:0|0:0,0:0:0:0:
334,10,232329,2,0,B|321:57|321:57|337:108,1,95,8|0,1:0|0:0,0:0:0:0:
430,283,232637,5,0,1:0:0:0:
395,266,232714,1,0,0:0:0:0:
356,266,232791,1,0,1:0:0:0:
323,285,232868,1,0,0:0:0:0:
303,317,232944,1,8,1:0:0:0:
349,165,233098,2,0,L|360:110,2,47.5,2|0|0,0:0|0:0|1:0,0:0:0:0:
185,183,233406,2,0,P|232:198|282:207,1,95,2|8,0:2|1:0,0:3:0:0:
102,271,233714,1,0,0:0:0:0:
214,368,233868,6,0,P|203:319|186:271,1,95,0|0,1:0|1:0,0:0:0:0:
276,112,234175,2,0,P|274:162|276:206,1,95,8|2,1:0|0:0,0:0:0:0:
174,107,234483,1,0,1:0:0:0:
211,111,234560,1,0,0:0:0:0:
247,99,234637,1,2,0:0:0:0:
276,75,234714,1,0,0:0:0:0:
291,40,234791,1,8,1:0:0:0:
79,92,234944,6,0,L|63:39,2,47.5,0|0|0,0:0|0:0|1:0,0:0:0:0:
202,278,235252,1,0,1:0:0:0:
68,195,235406,1,8,1:0:0:0:
174,107,235560,2,0,L|167:220,1,95,2|0,0:0|1:0,0:0:0:0:
92,285,235868,1,2,0:0:0:0:
279,314,236021,2,0,B|293:268|293:268|273:216,1,95,8|0,1:0|0:0,0:0:0:0:
259,200,236252,1,0,0:0:0:0:
237,181,236329,6,0,L|338:188,1,95,0|2,1:0|0:0,0:0:0:0:
475,21,236637,2,0,L|378:31,1,95,8|2,1:0|0:0,0:0:0:0:
300,107,236944,1,4,1:2:0:0:
337,100,237021,1,0,0:0:0:0:
372,114,237098,1,2,0:1:0:0:
406,129,237175,1,0,0:0:0:0:
443,122,237252,1,8,1:0:0:0:
324,282,237406,6,0,L|332:177,1,95,2|0,0:1|1:0,0:0:0:0:
111,119,237714,1,2,0:0:0:0:
217,60,237868,2,0,L|225:165,1,95,8|2,1:0|0:0,0:0:0:0:
212,191,238098,1,0,0:0:0:0:
185,218,238175,1,4,1:2:0:0:
147,226,238252,1,0,0:0:0:0:
110,215,238329,1,0,0:2:0:0:
18,327,238483,2,0,L|115:302,1,95,8|0,1:1|0:2,0:0:0:0:
147,143,238791,5,0,1:0:0:0:
270,259,238944,1,2,0:0:0:0:
183,358,239098,1,8,1:0:0:0:
212,191,239252,1,2,0:0:0:0:
351,250,239406,1,0,1:0:0:0:
388,256,239483,1,0,0:0:0:0:
424,247,239560,1,2,0:1:0:0:
453,222,239637,1,0,0:0:0:0:
469,187,239714,1,8,1:0:0:0:
314,225,239868,6,0,P|325:272|330:319,1,95,2|0,0:1|1:0,0:0:0:0:
211,216,240175,1,2,0:0:0:0:
277,37,240329,1,8,1:0:0:0:
380,167,240483,1,2,0:0:0:0:
210,126,240637,2,0,L|365:142,1,142.5,4|0,1:2|0:0,0:0:0:0:
380,167,240944,2,0,B|371:121|371:121|390:71,1,95,8|2,1:0|0:0,0:0:0:0:
314,225,241252,5,0,1:0:0:0:
463,131,241406,1,4,0:2:0:0:
310,59,241560,1,8,1:0:0:0:
398,255,241714,1,2,0:0:0:0:
398,255,241791,1,0,0:0:0:0:
398,255,241868,2,0,L|463:263,1,47.5,4|0,1:2|0:0,0:0:0:0:
484,247,242021,2,0,L|470:347,1,95,2|8,0:1|1:0,0:0:0:0:
376,167,242329,1,2,0:1:0:0:
240,222,242483,5,0,1:0:0:0:
204,235,242560,1,0,0:0:0:0:
166,232,242637,1,2,0:0:0:0:
131,216,242714,1,0,0:0:0:0:
109,186,242791,1,8,1:0:0:0:
208,321,242944,2,0,L|237:360,2,47.5,2|0|0,0:0|0:0|1:2,0:0:0:0:
11,308,243252,2,0,L|115:291,1,95,4|8,0:0|1:0,0:0:0:0:
195,140,243560,1,2,0:0:0:0:
109,186,243714,6,0,B|91:142|91:142|101:88,1,95,0|2,1:0|0:0,0:0:0:0:
276,78,244021,2,0,B|294:122|294:122|284:176,1,95,8|2,1:0|0:0,0:0:0:0:
277,186,244252,1,0,0:0:0:0:
269,203,244329,2,0,L|202:198,1,47.5,4|0,1:2|0:0,0:0:0:0:
383,165,244483,2,0,L|450:170,1,47.5,2|0,0:1|0:0,0:0:0:0:
333,275,244637,2,0,L|324:376,1,95,8|2,1:0|0:1,0:0:0:0:
147,301,244944,6,0,P|191:298|244:266,1,95,0|0,1:0|0:0,0:0:0:0:
269,203,245175,1,0,0:0:0:0:
269,203,245252,2,0,P|266:159|234:106,1,95,0|0,1:0|0:0,0:0:0:0:
175,83,245483,1,0,0:0:0:0:
175,83,245560,1,0,1:0:0:0:
376,164,245714,2,0,L|410:172,6,23.75,0|0|0|0|0|0|0,1:0|0:0|0:0|0:0|0:0|0:0|0:0,0:0:0:0:
356,156,246021,86,0,B|414:137|414:137|456:193|405:266,1,170.999994781494,0|0,1:0|0:0,0:0:0:0:
278,300,246483,2,0,B|376:279|346:351|456:326,1,170.999994781494,8|0,0:0|0:0,0:0:0:0:
440,329,247098,1,2,0:0:0:0:
278,300,247252,22,0,B|258:272|258:272|274:211,1,85.4999973907472,0|0,1:0|0:0,0:0:0:0:
347,188,247560,1,0,0:0:0:0:
294,322,247714,2,0,B|230:334|230:334|203:361|203:361|135:374,1,170.999994781494,8|0,0:0|0:0,0:0:0:0:
136,373,248329,1,2,0:0:0:0:
155,286,248483,22,0,P|150:242|134:190,1,85.4999973907472,0|0,1:0|0:0,0:0:0:0:
64,258,248791,1,0,0:0:0:0:
70,138,248944,2,0,P|127:181|246:174,2,170.999994781494,8|0|2,0:0|0:0|0:0,0:0:0:0:
160,10,249714,22,0,B|178:53|178:53|167:95,1,85.4999973907472,0|0,1:0|0:0,0:0:0:0:
265,236,250021,2,0,B|247:193|247:193|258:151,1,85.4999973907472,0|8,0:0|0:0,0:0:0:0:
256,155,250329,2,0,L|345:165,1,85.4999973907472
467,95,250637,1,2,0:0:0:0:
425,84,250714,1,0,0:0:0:0:
383,93,250791,1,2,0:0:0:0:
354,124,250868,1,0,0:0:0:0:
340,164,250944,21,4,1:2:0:0:
428,212,251098,2,0,L|482:200,2,42.7499986953736,2|0|2,0:0|0:0|0:0,0:0:0:0:
184,292,251406,2,0,L|284:303,1,85.4999973907472,8|2,0:0|0:0,0:0:0:0:
277,302,251637,1,0,0:0:0:0:
285,303,251714,1,2,0:0:0:0:
346,243,251868,1,0,0:0:0:0:
354,244,251944,1,0,0:0:0:0:
362,245,252021,1,2,0:0:0:0:
297,165,252175,21,4,1:2:0:0:
189,353,252483,1,2,0:0:0:0:
136,251,252637,1,8,0:0:0:0:
90,330,252791,1,2,0:0:0:0:
81,331,252868,1,0,0:0:0:0:
72,332,252944,1,2,0:0:0:0:
23,267,253098,1,0,0:0:0:0:
14,268,253175,1,0,0:0:0:0:
5,269,253252,1,2,0:0:0:0:
66,191,253406,21,4,1:2:0:0:
156,224,253560,2,0,L|172:286,2,42.7499986953736,2|0|2,0:0|0:0|0:0,0:0:0:0:
196,43,253868,2,0,L|206:88,1,42.7499986953736,8|0,0:0|0:0,0:0:0:0:
243,103,254021,2,0,L|226:162,1,42.7499986953736,2|0,0:0|0:0,0:0:0:0:
221,186,254175,1,2,0:0:0:0:
256,209,254252,1,0,0:0:0:0:
298,216,254329,1,0,0:0:0:0:
340,208,254406,1,0,0:0:0:0:
373,182,254483,1,2,0:0:0:0:
472,246,254637,21,4,1:2:0:0:
383,314,254791,2,0,L|388:271,2,42.7499986953736,2|0|2,0:0|0:0|0:0,0:0:0:0:
288,94,255098,2,0,L|301:154,1,42.7499986953736,8|0,0:0|0:0,0:0:0:0:
229,175,255252,2,0,L|218:122,1,42.7499986953736,2|0,0:0|0:0,0:0:0:0:
162,84,255406,1,2,0:0:0:0:
153,82,255483,1,0,0:0:0:0:
144,81,255560,1,2,0:0:0:0:
135,80,255637,1,0,0:0:0:0:
126,79,255714,1,2,0:0:0:0:
52,308,256021,21,4,1:0:0:0:
128,346,256175,1,0,0:0:0:0:
179,277,256329,1,0,0:0:0:0:
262,295,256483,2,0,P|311:306|406:296,1,142.500005435944
179,277,256944,2,0,P|174:235|168:204,1,71.2500027179719
297,144,257252,2,0,P|302:186|310:226,1,71.2500027179719
156,193,257560,22,0,L|78:202,1,71.2500027179719,2|0,0:0|0:0,0:0:0:0:
319,228,257868,2,0,L|404:221,1,71.2500027179719,2|0,0:0|0:0,0:0:0:0:
67,204,258175,1,2,0:0:0:0:
409,232,258483,1,2,0:0:0:0:
409,232,259406,21,0,0:0:0:0:
341,169,259560,1,0,0:0:0:0:
255,187,259714,2,0,P|249:154|256:102,1,71.2500027179719,2|0,0:0|0:0,0:0:0:0:
247,213,260021,1,0,0:0:0:0:
163,244,260175,2,0,P|169:277|162:329,1,71.2500027179719,2|0,0:0|0:0,0:0:0:0:
249,357,260483,1,0,0:0:0:0:
315,288,260637,1,2,0:0:0:0:
315,288,260791,1,0,0:0:0:0:
388,333,260944,22,0,P|448:335|520:274,1,142.500005435944,2|0,0:0|0:0,0:0:0:0:
487,87,261406,2,0,P|427:85|355:146,1,142.500005435944,2|0,0:0|0:0,0:0:0:0:
434,246,261868,2,0,P|441:206|443:174,1,71.2500027179719
281,29,262175,21,2,0:0:0:0:
473,105,262791,1,2,0:0:0:0:
205,61,263406,1,2,0:0:0:0:
205,61,264329,21,0,0:0:0:0:
251,133,264483,1,0,0:0:0:0:
208,207,264637,2,0,P|200:252|197:297,2,85.4999973907472,2|0|0,0:0|0:0|0:0,0:0:0:0:
383,365,265098,2,0,B|403:333|414:290|414:290|408:246|389:191,1,170.999994781494,2|0,0:0|0:0,0:0:0:0:
309,283,265560,1,0,3:0:0:0:
495,329,265714,1,0,3:0:0:0:
388,176,265868,22,0,B|315:187|315:187|289:210|289:210|224:222,1,170.999994781494,2|0,1:2|0:0,0:0:0:0:
82,180,266329,2,0,B|155:169|155:169|181:146|181:146|246:134,1,170.999994781494,2|0,1:2|0:0,0:0:0:0:
106,17,266791,2,0,B|88:57|88:57|99:108,1,85.4999973907472,2|0,1:2|0:0,0:0:0:0:
242,134,267098,1,0,3:0:0:0:
222,305,267252,2,0,L|233:207,1,85.4999973907472,2|0,1:2|0:0,0:0:0:0:
251,49,267560,2,0,L|240:147,1,85.4999973907472,2|0,1:2|0:0,0:0:0:0:
151,75,267868,1,2,1:2:0:0:
312,189,268021,2,0,P|367:194|463:124,1,142.5,2|0,3:2|0:0,0:0:0:0:
442,154,268329,70,0,P|441:208|456:256,1,95,4|0,1:0|1:0,0:0:0:0:
477,72,268637,1,8,0:2:0:0:
354,95,268791,1,2,0:2:0:0:
317,83,268868,1,0,0:0:0:0:
279,89,268944,1,2,0:2:0:0:
247,109,269021,1,0,0:0:0:0:
227,141,269098,1,2,1:2:0:0:
155,77,269252,2,0,P|112:70|52:54,1,95,8|2,0:2|0:2,0:0:0:0:
312,176,269560,21,0,1:0:0:0:
177,280,269714,1,0,1:0:0:0:
227,141,269868,1,8,0:0:0:0:
284,336,270021,1,2,0:2:0:0:
284,336,270098,1,0,0:0:0:0:
284,336,270175,2,0,B|262:292|262:292|276:232,1,95,2|2,0:2|1:2,0:0:0:0:
510,280,270483,2,0,B|414:258|414:258|366:280,1,142.5,8|0,0:0|0:2,0:0:0:0:
352,288,270791,21,0,1:0:0:0:
178,231,270944,2,0,L|276:248,1,95,0|8,1:0|0:0,0:0:0:0:
421,158,271252,1,2,0:2:0:0:
383,164,271329,1,0,0:0:0:0:
346,155,271406,1,2,0:2:0:0:
313,134,271483,1,0,0:0:0:0:
297,99,271560,1,2,1:2:0:0:
458,140,271714,2,0,L|469:249,1,95,8|2,0:0|0:2,0:0:0:0:
467,234,271944,1,0,0:0:0:0:
467,234,272021,21,0,1:0:0:0:
249,194,272175,2,0,B|292:173|292:173|348:184,1,95,0|8,1:0|0:0,0:0:0:0:
364,340,272483,1,2,0:2:0:0:
364,340,272560,1,0,0:0:0:0:
364,340,272637,2,0,B|321:361|321:361|265:350,1,95,2|2,0:2|1:2,0:0:0:0:
144,281,272944,2,0,L|297:264,1,142.5,8|0,0:0|0:0,0:0:0:0:
310,273,273252,21,0,1:0:0:0:
191,367,273406,1,0,1:0:0:0:
249,194,273560,2,0,P|259:150|260:95,1,95,8|2,0:0|0:2,0:0:0:0:
252,62,273791,1,0,0:0:0:0:
284,82,273868,1,2,0:2:0:0:
319,94,273944,1,0,0:0:0:0:
357,95,274021,1,2,1:2:0:0:
171,135,274175,2,0,L|73:147,1,95,8|2,0:0|0:2,0:0:0:0:
35,345,274483,22,0,L|23:280,1,47.5,0|0,1:0|0:0,0:0:0:0:
117,248,274637,2,0,L|129:313,1,47.5,2|2,1:2|0:2,0:0:0:0:
52,356,274791,22,0,L|40:291,1,47.5,8|0,0:0|0:0,0:0:0:0:
134,259,274944,2,0,L|146:324,1,47.5,2|0,0:2|0:0,0:0:0:0:
40,203,275098,21,0,0:0:0:0:
66,222,275175,1,0,0:0:0:0:
95,236,275252,1,2,1:2:0:0:
128,237,275329,1,2,0:2:0:0:
160,232,275406,1,8,0:0:0:0:
189,217,275483,1,0,0:0:0:0:
214,195,275560,1,2,0:2:0:0:
232,167,275637,1,0,0:0:0:0:
241,135,275714,21,4,1:2:0:0:
359,63,275868,2,0,L|350:8,2,47.5,0|0|8,1:0|0:0|0:0,0:0:0:0:
451,185,276175,1,2,0:2:0:0:
415,199,276252,1,0,0:0:0:0:
376,198,276329,1,2,0:2:0:0:
345,175,276406,1,0,0:0:0:0:
321,143,276483,1,2,1:2:0:0:
134,295,276637,2,0,P|182:281|234:279,1,95,8|2,0:2|0:2,0:0:0:0:
249,286,276868,1,0,0:0:0:0:
268,299,276944,22,0,L|260:205,1,95,0|0,1:0|1:0,0:0:0:0:
179,139,277252,1,8,0:0:0:0:
134,295,277406,1,2,0:2:0:0:
19,149,277560,2,0,P|43:147|72:141,1,47.5,2|0,0:2|0:0,0:0:0:0:
171,222,277714,2,0,P|147:217|124:215,1,47.5,2|0,1:1|0:0,0:0:0:0:
53,247,277868,2,0,L|44:341,1,95,8|2,0:0|0:1,0:0:0:0:
43,341,278098,1,0,0:0:0:0:
43,341,278175,21,4,1:2:0:0:
260,248,278329,2,0,P|213:241|170:221,1,95,0|8,1:0|0:0,0:0:0:0:
354,299,278637,1,2,0:2:0:0:
375,267,278714,1,0,0:0:0:0:
410,253,278791,1,2,0:2:0:0:
447,251,278868,1,0,0:0:0:0:
481,267,278944,1,2,1:2:0:0:
329,199,279098,1,8,0:0:0:0:
491,156,279252,1,2,0:2:0:0:
425,337,279406,21,0,1:0:0:0:
404,130,279560,2,0,L|409:187,2,47.5,0|0|8,1:0|0:0|0:0,0:0:0:0:
263,248,279868,2,0,B|243:206|243:206|257:149,1,95,2|2,0:2|0:2,0:0:0:0:
279,129,280098,1,0,0:0:0:0:
241,133,280175,1,2,1:1:0:0:
205,118,280252,1,0,0:0:0:0:
184,86,280329,1,8,0:0:0:0:
333,196,280483,1,2,0:1:0:0:
358,35,280637,22,0,L|252:53,1,95,4|0,1:2|1:0,0:0:0:0:
24,124,280944,2,0,L|130:142,1,95,8|2,0:0|0:2,0:0:0:0:
137,152,281175,1,0,0:0:0:0:
155,166,281252,2,0,P|151:118|167:71,1,95,2|2,0:2|1:2,0:0:0:0:
438,150,281560,2,0,P|442:198|426:245,1,95,8|2,0:0|0:2,0:0:0:0:
412,260,281791,1,0,0:0:0:0:
394,276,281868,21,0,1:0:0:0:
330,109,282021,1,0,1:0:0:0:
299,313,282175,2,0,P|308:260|321:211,1,95,8|2,0:0|0:2,0:0:0:0:
349,197,282406,1,0,0:0:0:0:
311,194,282483,1,2,0:2:0:0:
276,178,282560,1,0,0:0:0:0:
252,148,282637,1,2,1:1:0:0:
216,250,282791,2,0,L|122:267,1,95,8|2,0:0|0:1,0:0:0:0:
21,67,283098,21,4,1:2:0:0:
37,231,283252,1,0,1:0:0:0:
157,116,283406,2,0,P|162:70|165:18,1,95,8|2,0:0|0:2,0:0:0:0:
119,198,283714,1,2,0:2:0:0:
141,167,283791,1,0,0:0:0:0:
175,151,283868,1,2,1:2:0:0:
212,152,283944,1,0,0:0:0:0:
245,169,284021,2,0,P|257:226|271:277,1,95,8|2,0:0|0:2,0:0:0:0:
347,188,284329,21,0,1:0:0:0:
188,293,284483,2,0,L|134:302,2,47.5,0|0|8,1:0|0:0|0:0,0:0:0:0:
461,288,284791,2,0,P|409:270|329:315,1,142.5,2|0,0:2|0:0,0:0:0:0:
317,340,285098,1,2,1:1:0:0:
239,136,285252,2,0,P|249:193|254:239,1,95,8|2,0:0|0:1,0:0:0:0:
161,209,285560,21,4,1:2:0:0:
223,42,285714,1,0,1:0:0:0:
330,182,285868,1,8,0:0:0:0:
111,108,286021,2,0,L|166:118,2,47.5,2|0|2,0:2|0:0|0:2,0:0:0:0:
239,136,286329,1,2,1:2:0:0:
243,378,286483,2,0,L|223:232,1,142.5,8|2,0:0|0:2,0:0:0:0:
206,218,286791,22,0,B|256:227|256:227|307:204,1,95,0|0,1:0|1:0,0:0:0:0:
489,231,287098,2,0,B|439:222|439:222|388:245,1,95,8|2,0:0|0:2,0:0:0:0:
383,251,287329,1,0,0:0:0:0:
371,266,287406,2,0,P|369:227|366:203,1,47.5,2|0,0:2|0:0,0:0:0:0:
401,136,287560,2,0,P|403:97|406:73,1,47.5,2|0,1:1|0:0,0:0:0:0:
286,255,287714,1,8,0:0:0:0:
481,133,287868,21,2,0:1:0:0:
481,133,287944,1,0,0:0:0:0:
481,133,288021,1,4,1:2:0:0:
304,55,288175,2,0,L|319:170,1,95,0|8,1:0|0:0,0:0:0:0:
208,229,288483,1,2,0:2:0:0:
243,215,288560,1,0,0:0:0:0:
278,227,288637,1,2,0:2:0:0:
313,239,288714,1,0,0:0:0:0:
349,229,288791,1,2,1:2:0:0:
138,296,288944,2,0,L|123:181,1,95,8|2,0:0|0:2,0:0:0:0:
125,201,289175,1,0,0:0:0:0:
125,201,289252,22,0,P|78:208|29:202,1,95,0|0,1:0|1:0,0:0:0:0:
201,129,289560,1,8,0:0:0:0:
52,303,289714,2,0,L|45:356,2,47.5,2|0|2,0:2|0:0|0:2,0:0:0:0:
79,121,290021,1,2,1:1:0:0:
219,287,290175,2,0,P|266:280|315:286,1,95,8|2,0:0|0:1,0:0:0:0:
397,306,290483,21,4,1:2:0:0:
269,369,290637,1,0,1:0:0:0:
230,204,290791,2,0,B|219:159|219:159|243:108,1,95,8|2,0:0|0:2,0:0:0:0:
185,59,291021,1,0,0:0:0:0:
185,59,291098,2,0,L|135:62,2,47.5,2|0|2,0:2|0:0|1:2,0:0:0:0:
312,166,291406,1,8,0:0:0:0:
171,267,291560,1,2,0:2:0:0:
239,114,291714,21,0,1:0:0:0:
257,306,291868,2,0,L|261:379,2,47.5,0|0|8,1:0|0:0|0:0,0:0:0:0:
455,232,292175,1,2,0:2:0:0:
429,203,292252,1,0,0:0:0:0:
392,192,292329,1,0,0:2:0:0:
354,199,292406,1,0,0:0:0:0:
328,226,292483,1,2,1:1:0:0:
230,185,292637,2,0,P|180:195|133:201,1,95,8|2,0:0|0:1,0:0:0:0:
315,131,292944,21,4,1:2:0:0:
377,363,293098,2,0,L|393:260,1,95,0|8,1:0|0:0,0:0:0:0:
230,185,293406,1,2,0:2:0:0:
436,85,293560,1,2,0:2:0:0:
401,72,293637,1,0,0:0:0:0:
364,77,293714,1,2,1:2:0:0:
332,97,293791,1,0,0:0:0:0:
315,131,293868,2,0,L|328:233,1,95,8|2,0:0|0:2,0:0:0:0:
94,178,294175,22,0,L|91:233,1,47.5,0|0,1:0|0:0,0:0:0:0:
187,255,294329,2,0,L|190:200,1,47.5,2|0,0:0|0:0,0:0:0:0:
104,186,294483,22,0,L|101:241,1,47.5
197,263,294637,2,0,L|200:208,1,47.5,4|0,0:2|0:0,0:0:0:0:
95,322,294791,21,0,0:0:0:0:
122,296,294868,1,0,0:0:0:0:
158,286,294944,1,2,0:2:0:0:
195,290,295021,1,0,0:0:0:0:
227,309,295098,1,2,0:2:0:0:
259,327,295175,1,0,0:0:0:0:
296,333,295252,1,2,0:2:0:0:
332,320,295329,1,0,0:0:0:0:
360,294,295406,69,4,1:0:0:0:
270,148,295560,2,0,L|288:250,1,95
227,309,295868,1,2,0:0:0:0:
145,138,296175,1,2,0:0:0:0:
37,268,296483,22,0,P|110:287|193:198,1,190
310,62,296944,2,0,P|260:53|213:39,1,95
189,216,297252,2,0,P|239:225|286:239,1,95,2|0,0:0|0:0,0:0:0:0:
470,88,297560,2,0,P|401:150|308:149,1,190,2|0,0:0|0:0,0:0:0:0:
473,323,298021,22,0,L|485:227,1,95,2|0,0:0|0:0,0:0:0:0:
296,55,298329,2,0,L|308:151,1,95
391,282,298637,2,0,B|384:216|384:216|403:166|403:166|394:88,1,190,2|2,0:0|0:0,0:0:0:0:
200,240,299252,22,0,L|212:341,2,95,2|0|0,0:0|0:0|0:0,0:0:0:0:
121,102,299714,2,0,B|128:168|128:168|109:218|109:218|118:296,1,190,2|0,0:0|0:0,0:0:0:0:
117,287,300175,1,2,0:0:0:0:
443,300,300483,22,0,B|395:308|395:308|347:287,2,95,2|0|0,0:0|0:0|0:0,0:0:0:0:
308,204,300944,1,0,0:0:0:0:
371,136,301098,2,0,B|419:128|419:128|461:146,2,95,2|0|0,0:0|0:0|0:0,0:0:0:0:
99,192,301560,21,2,0:0:0:0:
136,184,301637,1,0,0:0:0:0:
174,191,301714,1,2,0:0:0:0:
203,215,301791,1,0,0:0:0:0:
217,250,301868,1,2,0:0:0:0:
336,151,302021,2,0,L|232:138,1,95,2|0,0:0|0:0,0:0:0:0:
25,116,302329,2,0,P|82:127|188:51,1,190,2|0,0:0|0:0,0:0:0:0:
205,222,302791,22,0,P|194:269|186:324,2,95,2|0|0,0:0|0:0|0:0,0:0:0:0:
454,224,303252,2,0,B|337:220|398:287|263:284,1,190,2|0,0:0|0:0,0:0:0:0:
433,313,303714,1,0,0:0:0:0:
296,196,303868,22,0,P|291:149|312:89,1,95,2|0,0:0|0:0,0:0:0:0:
381,157,304175,1,0,0:0:0:0:
381,157,304329,1,0,0:0:0:0:
244,278,304483,2,0,P|216:243|204:189,1,95,2|0,0:0|0:0,0:0:0:0:
340,262,304791,1,2,0:0:0:0:
306,360,304944,1,2,0:0:0:0:
404,344,305098,1,2,0:0:0:0:
244,278,305252,5,4,1:0:0:0:
420,158,305406,2,0,L|432:273,1,95,0|8,1:0|1:0,0:0:0:0:
306,360,305714,1,2,0:0:0:0:
292,203,305868,1,0,1:0:0:0:
256,190,305944,1,0,0:0:0:0:
218,192,306021,1,2,0:0:0:0:
186,212,306098,1,0,0:0:0:0:
167,245,306175,1,8,1:0:0:0:
107,120,306329,6,0,L|168:137,2,47.5,0|0|0,0:0|0:0|1:0,0:0:0:0:
253,270,306637,1,0,1:0:0:0:
96,304,306791,2,0,P|82:262|86:199,1,95,8|2,1:0|0:0,0:0:0:0:
299,87,307098,2,0,P|313:129|309:192,1,95,0|2,1:0|0:0,0:0:0:0:
305,201,307329,1,0,0:0:0:0:
295,222,307406,5,8,1:0:0:0:
403,171,307560,2,0,L|458:164,2,47.5,0|0|0,0:0|0:0|1:0,0:0:0:0:
229,150,307868,1,0,1:0:0:0:
378,259,308021,1,8,1:0:0:0:
339,87,308175,1,2,0:0:0:0:
198,232,308329,2,0,B|248:236|248:236|289:213,1,95,0|2,1:0|0:0,0:0:0:0:
255,68,308637,2,0,B|205:64|205:64|164:87,1,95,8|0,1:0|0:0,0:0:0:0:
153,106,308868,1,0,0:0:0:0:
140,126,308944,6,0,L|42:114,1,95,0|0,1:0|1:0,0:0:0:0:
229,150,309252,1,8,1:0:0:0:
164,343,309406,1,2,0:0:0:0:
55,275,309560,2,0,L|202:262,1,142.5,4|0,1:2|0:0,0:0:0:0:
197,263,309868,2,0,P|195:217|208:162,1,95,8|2,1:0|0:0,0:0:0:0:
276,305,310175,5,0,1:0:0:0:
293,140,310329,1,4,1:2:0:0:
449,246,310483,2,0,L|353:237,1,95,8|2,1:0|0:0,0:0:0:0:
360,320,310714,1,0,0:0:0:0:
360,320,310791,2,0,L|374:373,2,47.5,0|0|2,1:0|0:0|0:0,0:0:0:0:
401,71,311098,2,0,B|419:113|419:113|407:160,1,95,8|0,1:0|0:0,0:0:0:0:
174,149,311406,5,0,1:0:0:0:
209,162,311483,1,0,0:0:0:0:
246,160,311560,1,0,1:0:0:0:
280,143,311637,1,0,0:0:0:0:
303,112,311714,1,8,1:0:0:0:
214,250,311868,2,0,L|180:292,2,47.5,2|0|0,0:0|0:0|1:0,0:0:0:0:
399,244,312175,2,0,L|306:226,1,95,2|8,0:0|1:0,0:0:0:0:
222,74,312483,1,0,0:0:0:0:
77,198,312637,6,0,P|133:200|213:143,1,142.5,0|0,1:0|0:0,0:0:0:0:
204,155,312944,2,0,P|207:211|213:252,1,95,8|2,1:0|0:0,0:0:0:0:
333,306,313252,1,0,1:0:0:0:
296,295,313329,1,0,0:0:0:0:
264,316,313406,1,2,0:0:0:0:
233,338,313483,1,0,0:0:0:0:
196,327,313560,1,8,1:0:0:0:
324,204,313714,1,0,0:0:0:0:
404,359,313868,6,0,B|421:314|421:314|407:264,1,95,0|0,1:0|1:0,0:0:0:0:
192,119,314175,2,0,B|175:164|175:164|189:214,1,95,8|2,1:0|0:0,0:0:0:0:
217,241,314406,1,0,0:0:0:0:
217,241,314483,2,0,L|105:252,1,95,0|2,1:0|0:0,0:0:0:0:
270,165,314791,1,8,1:0:0:0:
0,188,314944,21,0,0:0:0:0:
0,188,315021,1,0,0:0:0:0:
0,188,315098,1,0,3:3:0:0:
23,276,315252,2,0,L|41:359,2,80.750001540184
84,213,315714,2,0,P|132:212|172:232,1,80.750001540184
181,313,316021,1,2,0:0:0:0:
343,342,316175,22,0,P|395:348|493:277,1,161.500003080368,2|2,0:0|0:3,0:0:0:0:
484,292,316791,1,0,0:0:0:0:
388,248,316944,2,0,P|380:205|371:163,1,80.750001540184,2|0,0:0|0:0,0:0:0:0:
412,13,317252,2,0,P|420:56|429:98,1,80.750001540184,2|0,0:0|0:0,0:0:0:0:
455,178,317560,22,0,B|365:164|390:214|289:196,1,161.500003080368,2|0,0:0|0:0,0:0:0:0:
209,161,318021,1,0,0:0:0:0:
142,228,318175,1,0,0:0:0:0:
110,99,318329,21,2,0:0:0:0:
228,250,318483,1,2,0:0:0:0:
236,61,318637,1,2,0:0:0:0:
142,228,318791,22,0,L|62:218,1,80.750001540184
228,250,319098,1,2,0:0:0:0:
228,250,319252,1,2,0:0:0:0:
403,130,319406,2,0,L|484:120,1,80.750001540184,0|2,0:0|0:0,0:0:0:0:
327,151,319714,1,2,0:2:0:0:
327,151,319868,1,0,0:0:0:0:
242,108,320021,21,0,0:3:0:0:
322,236,320175,1,2,0:0:0:0:
337,65,320329,1,2,0:0:0:0:
166,140,320483,2,0,P|245:147|334:152,1,161.500003080368,0|2,0:0|0:2,0:0:0:0:
327,151,320944,1,0,0:0:0:0:
228,226,321098,22,0,P|187:231|148:237,1,80.750001540184,2|0,0:0|0:0,0:0:0:0:
119,60,321406,2,0,P|159:55|199:49,1,80.750001540184,2|2,0:3|0:2,0:0:0:0:
297,51,321714,1,0,0:0:0:0:
228,226,321868,1,0,0:0:0:0:
172,136,322021,2,0,L|3:163,1,161.500003080368,2|2,0:0|0:0,0:0:0:0:
12,161,322483,1,0,0:3:0:0:
166,305,322637,21,2,0:0:0:0:
100,242,322791,1,0,0:0:0:0:
81,333,322944,1,2,0:0:0:0:
249,243,323098,21,0,0:0:0:0:
265,331,323252,1,0,0:0:0:0:
453,259,323406,21,2,0:0:0:0:
362,354,323560,2,0,B|344:253|380:299|359:186,1,161.500003080368,2|0,0:0|0:0,0:0:0:0:
432,82,324021,2,0,P|440:136|440:167,1,80.750001540184
278,234,324329,2,0,P|270:180|270:149,1,80.750001540184,0|2,0:0|0:0,0:0:0:0:
344,87,324637,1,2,0:0:0:0:
344,87,324944,21,0,3:0:0:0:
149,84,325098,1,0,1:0:0:0:
247,179,325252,2,0,L|256:129,2,40.375000770092,0|0|2,0:0|0:0|3:2,0:0:0:0:
149,84,325560,2,0,L|162:169,1,80.750001540184,0|0,1:0|3:0,0:0:0:0:
93,243,325868,1,0,0:0:0:0:
149,316,326021,22,0,L|143:362,2,40.375000770092,0|0|0,0:0|0:0|3:0,0:0:0:0:
241,277,326329,1,0,0:0:0:0:
256,281,326406,1,2,0:2:0:0:
247,179,326560,1,2,0:2:0:0:
263,176,326637,1,0,3:0:0:0:
141,218,326791,1,0,1:0:0:0:
69,146,326944,1,0,3:0:0:0:
206,61,327098,1,0,0:0:0:0:
219,69,327175,1,0,0:0:0:0:
233,74,327252,1,0,0:0:0:0:
248,77,327329,1,0,0:0:0:0:
264,78,327406,22,0,P|326:72|354:61,1,80.750001540184,0|0,3:0|1:0,0:0:0:0:
430,80,327714,1,0,0:0:0:0:
428,96,327791,1,0,0:0:0:0:
428,112,327868,1,2,3:2:0:0:
510,98,328021,1,0,1:0:0:0:
422,213,328175,21,0,3:0:0:0:
346,145,328329,1,0,0:0:0:0:
267,203,328483,1,0,3:0:0:0:
267,203,328560,1,0,3:0:0:0:
267,203,328637,2,0,B|206:217|206:217|150:191,1,121.125002310276,0|2,3:0|0:2,0:0:0:0:
50,121,328944,21,4,0:2:0:0:
66,119,329021,1,0,0:0:0:0:
82,117,329098,2,0,L|136:111,1,40.375000770092,2|0,3:2|0:0,0:0:0:0:
203,101,329252,1,0,1:0:0:0:
87,302,329406,1,0,3:0:0:0:
87,302,329560,2,0,L|182:307,1,80.750001540184
190,316,329791,1,0,0:0:0:0:
212,326,329868,21,0,3:0:0:0:
67,314,330021,1,0,1:2:0:0:
173,229,330175,2,0,L|237:212,2,40.375000770092,0|0|2,0:0|0:0|3:2,0:0:0:0:
314,354,330483,2,0,B|298:318|298:318|308:272,1,80.750001540184,0|0,1:0|3:0,0:0:0:0:
325,98,330791,2,0,B|341:134|341:134|331:180,1,80.750001540184
321,186,331021,1,0,0:0:0:0:
308,196,331098,21,0,3:0:0:0:
463,336,331252,1,0,0:0:0:0:
479,338,331329,1,2,0:2:0:0:
306,277,331483,1,2,0:2:0:0:
290,279,331560,1,0,3:0:0:0:
400,253,331714,1,0,1:0:0:0:
380,351,331868,1,0,3:0:0:0:
219,212,332021,1,0,0:0:0:0:
202,211,332098,1,0,0:0:0:0:
186,213,332175,1,0,0:0:0:0:
170,218,332252,1,0,0:0:0:0:
156,226,332329,22,0,P|124:215|66:205,1,80.750001540184,0|0,3:0|1:0,0:0:0:0:
40,118,332637,1,0,0:0:0:0:
114,55,332791,1,2,3:2:0:0:
341,143,332944,21,0,1:0:0:0:
201,292,333098,1,0,3:0:0:0:
218,125,333252,1,0,0:0:0:0:
349,268,333406,1,0,0:0:0:0:
349,268,333483,1,0,0:0:0:0:
349,268,333560,22,0,L|366:350,1,80.750001540184
163,268,333868,2,0,L|146:350,1,80.750001540184
256,216,334175,1,0,0:0:0:0:
256,368,334329,2,0,L|256:240,1,123.499994346619
256,216,334791,5,4,1:1:0:0:
344,288,334944,2,0,B|369:261|369:261|355:197,1,95
256,216,335252,1,0,0:0:0:0:
240,64,335406,2,0,B|186:44|186:44|134:110|188:174,1,190,8|0,0:1|0:0,0:0:0:0:
132,252,335868,1,0,0:0:0:0:
132,252,335944,1,0,0:0:0:0:
132,252,336021,6,0,L|27:268,1,95,0|0,0:1|0:0,0:0:0:0:
18,320,336252,2,0,B|28:271|28:271|7:214,1,95
1,197,336483,1,0,0:0:0:0:
132,252,336637,2,0,B|185:245|185:245|224:271|224:271|284:279,1,142.5,8|0,0:1|0:0,0:0:0:0:
290,273,336944,1,0,0:0:0:0:
164,340,337098,1,0,0:0:0:0:
256,192,337252,5,0,0:0:0:0:
181,66,337406,2,0,B|155:103|155:103|175:166,1,95
256,192,337714,1,0,0:0:0:0:
325,347,337868,2,0,B|342:228|342:228|316:265|278:279,1,190,8|0,0:1|0:0,0:0:0:0:
286,109,338329,1,0,0:0:0:0:
286,109,338406,1,0,0:0:0:0:
286,109,338483,6,0,P|340:114|387:93,1,95
450,115,338714,2,0,L|441:181,1,47.5,0|4,0:0|0:2,0:0:0:0:
265,226,338944,1,0,0:0:0:0:
246,222,339021,1,0,0:0:0:0:
227,219,339098,1,8,0:1:0:0:
361,281,339252,2,0,L|345:174,2,95,2|2|0,3:2|3:2|0:0,0:0:0:0:
256,143,339714,5,0,0:0:0:0:
160,195,339868,2,0,B|144:241|144:241|160:288,1,95
256,143,340175,1,0,0:0:0:0:
353,284,340329,2,0,B|368:241|368:241|352:195,1,95,8|0,0:1|0:0,0:0:0:0:
224,350,340637,1,0,0:0:0:0:
275,245,340791,1,0,0:0:0:0:
275,245,340868,1,0,0:0:0:0:
275,245,340944,6,0,B|228:252|228:252|203:249|203:249|180:260|180:260|125:267,1,142.5
109,271,341252,1,0,0:0:0:0:
135,57,341406,1,0,0:0:0:0:
220,173,341560,1,8,0:1:0:0:
24,155,341714,2,0,L|133:165,1,95
220,173,342021,1,0,0:0:0:0:
256,56,342175,5,0,0:0:0:0:
333,169,342329,2,0,B|357:144|357:144|345:81,1,95
256,56,342637,1,0,0:0:0:0:
333,169,342791,1,8,0:1:0:0:
186,226,342944,2,0,L|170:126,1,95
161,311,343252,1,0,0:0:0:0:
161,311,343329,1,0,0:0:0:0:
161,311,343406,6,0,B|207:317|207:317|255:292,1,95
328,250,343637,2,0,L|325:329,1,47.5,0|4,0:0|0:2,0:0:0:0:
470,307,343868,1,0,0:0:0:0:
474,325,343944,1,0,0:0:0:0:
478,343,344021,1,8,0:1:0:0:
325,321,344175,1,2,3:2:0:0:
472,230,344329,2,0,L|481:128,1,95,2|0,3:2|0:0,0:0:0:0:
339,220,344637,5,0,0:0:0:0:
219,347,344791,1,0,0:0:0:0:
171,188,344944,2,0,P|224:190|277:222,1,95,8|2,0:0|0:2,0:0:0:0:
320,136,345175,1,0,0:0:0:0:
320,136,345252,2,0,P|268:149|234:189,1,95,2|2,0:2|0:2,0:0:0:0:
202,269,345483,1,0,0:0:0:0:
202,269,345560,1,8,0:0:0:0:
276,60,345714,1,4,0:2:0:0:
132,173,345868,5,0,0:0:0:0:
381,297,346021,1,0,0:0:0:0:
381,297,346098,1,0,0:0:0:0:
381,297,346175,2,0,L|433:214,1,95,8|2,0:0|0:2,0:0:0:0:
325,214,346406,1,0,0:0:0:0:
325,214,346483,2,0,L|330:112,1,95,2|2,0:2|0:2,0:0:0:0:
230,172,346714,1,0,0:0:0:0:
230,172,346791,2,0,L|201:76,1,95,8|8,0:0|0:0,0:0:0:0:
66,358,347098,5,0,0:2:0:0:
207,252,347252,1,0,0:0:0:0:
105,167,347406,2,0,P|95:214|101:276,1,95,8|2,0:0|0:2,0:0:0:0:
151,324,347637,1,0,0:0:0:0:
151,324,347714,2,0,P|198:334|260:328,1,95,2|2,0:2|0:2,0:0:0:0:
306,281,347944,1,0,0:0:0:0:
306,281,348021,1,8,0:0:0:0:
263,119,348175,1,4,0:2:0:0:
437,190,348329,5,0,0:0:0:0:
221,215,348483,1,0,0:0:0:0:
221,215,348560,1,0,0:0:0:0:
221,215,348637,2,0,B|169:227|169:227|101:204,1,95,8|2,0:0|0:2,0:0:0:0:
64,178,348868,1,0,0:0:0:0:
64,178,348944,2,0,L|51:125,2,47.5,2|0|10,0:0|0:0|0:0,0:0:0:0:
186,128,349252,1,8,0:0:0:0:
109,311,349406,1,2,0:0:0:0:
186,128,349560,5,0,0:0:0:0:
317,197,349714,2,0,L|213:207,1,95,2|8,0:0|0:0,0:0:0:0:
414,157,350021,1,0,0:0:0:0:
392,253,350175,1,0,0:0:0:0:
334,106,350329,2,0,B|318:1,1,95,2|8,0:0|0:0,0:0:0:0:
475,293,350637,2,0,L|482:233,1,47.5,4|0,0:2|0:0,0:0:0:0:
494,173,350791,5,0,0:0:0:0:
303,245,350944,1,2,0:0:0:0:
285,247,351021,1,0,0:0:0:0:
267,249,351098,1,8,0:0:0:0:
210,324,351252,1,0,0:0:0:0:
297,157,351406,1,0,0:0:0:0:
367,309,351560,2,0,L|466:325,1,95,2|8,0:0|0:0,0:0:0:0:
96,171,351868,2,0,L|150:178,1,47.5,8|0,0:0|0:0,0:0:0:0:
220,187,352021,5,0,0:0:0:0:
80,253,352175,1,2,0:0:0:0:
191,109,352329,1,8,0:0:0:0:
173,336,352483,2,0,B|153:308|153:308|167:246,1,95
89,83,352791,1,2,0:0:0:0:
89,83,352868,1,0,0:0:0:0:
89,83,352944,2,0,B|109:111|109:111|95:173,1,95,8|4,0:0|0:0,0:0:0:0:
34,269,353252,5,0,0:0:0:0:
173,336,353406,1,0,0:0:0:0:
173,336,353483,1,0,0:0:0:0:
173,336,353560,1,8,0:0:0:0:
255,200,353714,1,8,0:0:0:0:
301,319,353868,5,0,0:0:0:0:
217,121,354021,1,8,0:0:0:0:
340,104,354175,1,2,0:0:0:0:
187,253,354329,1,8,0:0:0:0:
400,220,354483,5,4,1:1:0:0:
400,220,354637,2,0,L|485:232,1,71.25,0|0,3:0|3:0,0:0:0:0:
490,236,354944,1,0,3:0:0:0:
340,287,355098,6,0,B|281:291|281:291|226:268|226:268|171:300,1,170.999994781494,0|0,1:2|2:0,0:0:0:0:
103,321,355406,2,0,P|99:299|108:246,2,63.3333333333333,2|2|2,0:2|0:2|0:2,0:0:0:0:
233,357,355714,5,0,0:0:0:0:
216,239,355868,1,0,0:0:0:0:
216,239,355944,2,0,L|201:132,1,95
291,168,356175,2,0,L|300:107,2,47.5,0|0|8,0:0|0:0|0:1,0:0:0:0:
129,218,356483,1,2,0:2:0:0:
395,249,356637,2,0,B|349:240|349:240|302:261,1,95,2|0,0:0|0:0,0:0:0:0:
202,144,356944,5,0,3:0:0:0:
202,144,357098,2,0,B|196:110|196:110|208:66,1,71.25,0|0,3:0|3:0,0:0:0:0:
212,56,357406,1,0,3:0:0:0:
285,99,357560,6,0,B|299:158|281:216|281:216|308:205|340:212,1,170.999994781494,0|0,1:0|0:0,0:0:0:0:
401,284,357868,2,0,L|474:292,2,63.3333333333333,2|2|2,0:0|0:0|0:0,0:0:0:0:
317,291,358175,5,0,0:0:0:0:
171,215,358329,1,0,0:0:0:0:
168,205,358406,1,0,0:0:0:0:
165,195,358483,1,0,0:0:0:0:
223,289,358637,1,0,0:0:0:0:
269,200,358791,1,0,0:0:0:0:
269,200,358944,2,2,L|372:194,1,95,0|0,0:2|0:2,0:2:0:0:
208,79,359406,5,4,1:1:0:0:
127,247,359560,2,0,L|48:250,1,71.25,0|0,3:0|3:0,0:0:0:0:
37,252,359868,1,0,3:0:0:0:
133,151,360021,6,0,B|188:163|188:163|227:210|227:210|296:201,1,170.999994781494,0|0,1:0|0:0,0:0:0:0:
413,260,360329,2,0,L|347:256,2,63.3333333333333,2|2|2,0:0|0:0|0:0,0:0:0:0:
280,203,360637,6,0,B|260:252|260:252|277:318,1,95
333,355,360868,1,0,0:0:0:0:
333,355,360944,2,0,L|446:340,1,95
339,130,361252,1,8,0:1:0:0:
339,130,361406,1,2,0:0:0:0:
280,203,361560,2,0,B|233:217|233:217|171:200,1,95,2|0,0:0|0:0,0:0:0:0:
48,285,361868,5,0,3:0:0:0:
48,285,362021,2,0,L|129:276,1,71.25,0|0,3:0|3:0,0:0:0:0:
133,275,362329,1,0,3:0:0:0:
280,203,362483,6,0,B|242:199|242:199|216:189|216:189|180:203|180:203|151:193|151:193|109:190,1,170.999994781494,0|0,1:0|0:0,0:0:0:0:
133,275,362791,2,0,L|146:344,2,63.3333333333333,2|2|2,0:0|0:0|0:0,0:0:0:0:
42,159,363098,5,0,0:0:0:0:
141,101,363252,1,0,0:0:0:0:
143,91,363329,1,0,0:0:0:0:
145,81,363406,1,0,0:0:0:0:
215,194,363560,1,0,0:0:0:0:
110,277,363714,1,0,0:0:0:0:
128,181,363868,2,2,L|237:166,1,95,0|0,0:2|3:2,0:2:0:0:
307,155,364329,5,4,1:1:0:0:
464,228,364483,2,0,L|381:240,1,71.25,0|0,3:0|3:0,0:0:0:0:
379,240,364791,1,0,3:0:0:0:
307,155,364944,6,0,B|330:124|330:124|400:103|400:103|448:137,1,170.999994781494,0|0,1:0|0:0,0:0:0:0:
250,222,365252,5,2,0:0:0:0:
219,181,365355,1,2,0:0:0:0:
228,131,365457,1,2,0:0:0:0:
199,89,365560,6,0,B|144:92|144:92|110:106|110:106|51:108,2,142.5
36,90,366175,1,8,0:1:0:0:
164,170,366329,1,2,0:0:0:0:
62,226,366483,2,0,L|52:332,1,95,2|0,0:0|0:0,0:0:0:0:
229,193,366791,5,0,3:0:0:0:
229,193,366944,2,0,L|243:270,1,71.25,0|0,3:0|3:0,0:0:0:0:
246,281,367252,1,0,3:0:0:0:
132,190,367406,6,0,B|149:189|178:180|178:180|211:198|211:198|246:187|246:187|271:192|298:195,1,170.999994781494,0|0,1:0|0:0,0:0:0:0:
350,138,367714,5,2,0:0:0:0:
376,181,367816,1,2,0:0:0:0:
366,230,367919,1,2,0:0:0:0:
394,271,368021,5,0,0:0:0:0:
463,174,368175,1,0,0:0:0:0:
472,173,368252,1,0,0:0:0:0:
480,172,368329,1,0,0:0:0:0:
377,94,368483,1,0,0:0:0:0:
294,194,368637,1,0,0:0:0:0:
394,271,368791,2,2,L|380:370,1,95,0|0,0:0|0:0,0:0:0:0:
385,183,369252,5,4,1:0:0:0:
247,124,369406,2,0,B|234:90|234:90|247:38,1,71.25,0|0,3:0|3:0,0:0:0:0:
311,86,369714,1,0,3:0:0:0:
238,236,369868,6,0,B|183:212|183:212|139:264|179:327,1,170.999994781494,0|0,1:0|0:0,0:0:0:0:
316,279,370175,5,2,0:0:0:0:
327,229,370278,1,2,0:0:0:0:
303,184,370380,1,2,0:0:0:0:
323,143,370483,6,0,L|422:156,1,95
435,134,370714,2,0,L|425:194,1,47.5
255,361,370944,2,0,L|250:300,1,47.5
238,236,371098,1,8,0:1:0:0:
451,271,371252,1,2,0:0:0:0:
344,171,371406,2,0,L|351:280,1,95,2|0,0:0|0:0,0:0:0:0:
337,77,371714,5,0,3:0:0:0:
229,260,371868,2,0,B|198:267|198:267|161:252,1,71.25,0|0,3:0|3:0,0:0:0:0:
205,193,372175,1,0,3:0:0:0:
31,171,372329,6,0,B|93:177|142:142|142:142|120:171|120:213,1,170.999994781494,0|0,1:0|0:0,0:0:0:0:
205,193,372637,5,2,0:0:0:0:
224,146,372739,1,2,0:0:0:0:
210,97,372842,1,2,0:0:0:0:
168,68,372944,5,0,0:0:0:0:
332,168,373098,1,0,0:0:0:0:
332,168,373175,1,0,0:0:0:0:
332,168,373252,1,0,0:0:0:0:
297,32,373406,1,0,0:0:0:0:
205,193,373560,1,0,0:0:0:0:
395,105,373714,2,2,L|498:117,1,95,0|0,0:0|0:0,0:0:0:0:
244,115,374175,69,4,1:1:0:0:
244,115,374483,2,0,P|201:117|164:118,1,80.750001540184,0|8,0:0|0:0,0:0:0:0:
118,289,374791,2,0,P|161:287|198:286,1,80.750001540184,0|0,1:0|3:0,0:0:0:0:
355,192,375098,2,0,L|180:201,1,161.500003080368,8|0,0:0|3:0,0:0:0:0:
83,204,375560,21,2,0:3:0:0:
83,204,375868,1,8,0:0:0:0:
62,106,376021,1,0,1:1:0:0:
162,87,376175,1,0,3:0:0:0:
183,186,376329,1,2,0:0:0:0:
186,197,376406,1,0,0:0:0:0:
189,208,376483,1,2,0:0:0:0:
192,219,376560,1,0,0:0:0:0:
195,230,376637,22,0,P|191:270|181:322,1,80.750001540184,0|0,3:0|0:0,0:0:0:0:
100,256,376944,2,0,L|54:259,2,40.375000770092
173,80,377252,2,0,L|263:91,1,80.750001540184,0|0,1:1|3:0,0:0:0:0:
183,309,377560,1,2,0:0:0:0:
208,277,377637,1,0,0:0:0:0:
213,236,377714,1,2,0:0:0:0:
198,198,377791,1,0,0:0:0:0:
170,169,377868,22,0,L|43:179,1,121.125002310276,0|0,3:0|0:0,0:0:0:0:
49,178,378175,1,4,0:0:0:0:
284,228,378329,1,0,0:0:0:0:
284,228,378406,1,0,0:0:0:0:
284,228,378483,1,0,1:1:0:0:
352,101,378637,1,2,3:2:0:0:
237,41,378791,2,0,P|229:90|231:130,1,80.750001540184,2|0,0:2|0:0,0:0:0:0:
161,331,379098,21,0,3:0:0:0:
161,331,379406,2,0,L|157:241,1,80.750001540184,0|8,0:0|0:0,0:0:0:0:
357,273,379714,2,0,L|361:363,1,80.750001540184,0|0,1:1|3:0,0:0:0:0:
257,316,380021,2,0,L|249:142,1,161.500003080368,8|0,0:0|3:0,0:0:0:0:
244,50,380483,21,2,0:3:0:0:
244,50,380791,1,8,0:0:0:0:
199,227,380944,1,0,1:0:0:0:
145,123,381098,1,0,3:0:0:0:
290,159,381252,1,2,0:0:0:0:
301,160,381329,1,0,0:0:0:0:
312,161,381406,1,2,0:0:0:0:
323,162,381483,1,0,0:0:0:0:
334,164,381560,22,0,L|423:153,1,80.750001540184,0|0,3:0|0:0,0:0:0:0:
228,134,381868,2,0,L|223:83,2,40.375000770092
436,233,382175,2,0,L|429:318,1,80.750001540184,0|0,1:0|3:0,0:0:0:0:
281,363,382483,1,2,0:0:0:0:
265,325,382560,1,0,0:0:0:0:
268,284,382637,1,2,0:0:0:0:
285,247,382714,1,0,0:0:0:0:
316,221,382791,22,0,L|474:237,1,121.125002310276,0|0,3:0|0:0,0:0:0:0:
436,233,383098,1,4,0:2:0:0:
230,173,383252,1,0,0:0:0:0:
230,173,383329,1,0,0:0:0:0:
230,173,383406,1,0,1:0:0:0:
386,133,383560,2,0,L|483:115,1,80.750001540184,2|2,3:2|0:2,0:0:0:0:
352,308,383868,1,0,0:0:0:0:
230,173,384021,22,0,P|187:156|68:164,1,161.500003080368,0|0,3:0|0:0,0:0:0:0:
73,161,384406,1,0,0:0:0:0:
73,161,384483,1,8,0:0:0:0:
99,256,384637,2,0,P|107:300|113:343,1,80.750001540184,0|0,1:0|3:0,0:0:0:0:
9,228,384944,1,8,0:0:0:0:
162,114,385098,2,0,L|170:67,2,40.375000770092,0|0|0,0:0|0:0|3:0,0:0:0:0:
99,256,385406,22,0,B|194:238|168:291|269:273,1,161.500003080368,2|8,0:3|0:0,0:0:0:0:
377,183,385868,2,0,P|330:190|293:189,1,80.750001540184,0|0,1:0|3:0,0:0:0:0:
306,366,386175,2,0,P|353:359|390:360,1,80.750001540184,2|2,0:0|0:0,0:0:0:0:
493,267,386483,22,0,L|322:272,1,161.500003080368,0|0,3:0|0:0,0:0:0:0:
331,271,386868,1,0,0:0:0:0:
331,271,386944,1,0,0:0:0:0:
414,184,387098,2,0,L|429:99,1,80.750001540184,0|0,1:0|3:0,0:0:0:0:
151,141,387406,1,2,0:0:0:0:
186,159,387483,1,0,0:0:0:0:
226,160,387560,1,2,0:0:0:0:
261,139,387637,1,0,0:0:0:0:
282,105,387714,22,0,L|306:232,1,121.125002310276,0|0,3:0|0:0,0:0:0:0:
304,224,388021,1,4,0:2:0:0:
202,71,388175,2,0,L|208:25,2,40.375000770092,0|0|0,0:0|0:0|1:0,0:0:0:0:
174,206,388483,1,2,3:2:0:0:
115,143,388637,2,0,L|26:150,1,80.750001540184,2|0,0:0|0:0,0:0:0:0:
15,305,388944,22,0,L|179:291,1,161.500003080368,0|0,3:0|0:0,0:0:0:0:
175,291,389329,1,0,0:0:0:0:
175,291,389406,1,8,0:0:0:0:
284,299,389560,2,0,P|307:338|318:375,1,80.750001540184,0|0,1:0|3:0,0:0:0:0:
227,212,389868,1,8,0:0:0:0:
379,237,390021,2,0,P|387:210|393:186,2,40.375000770092,0|0|0,0:0|0:0|3:0,0:0:0:0:
295,71,390329,22,0,L|306:159,2,80.750001540184,2|0|8,0:3|0:0|0:0,0:0:0:0:
210,132,390791,1,0,1:0:0:0:
394,179,390944,2,0,P|405:127|365:15,1,161.500003080368,0|2,3:0|0:0,0:0:0:0:
373,25,391329,1,0,0:0:0:0:
373,25,391406,1,0,3:0:0:0:
144,120,391714,22,0,L|136:63,2,40.375000770092
129,276,392021,1,0,1:0:0:0:
54,113,392175,1,0,3:0:0:0:
221,83,392329,1,2,0:0:0:0:
234,121,392406,1,0,0:0:0:0:
226,160,392483,1,2,0:0:0:0:
203,192,392560,1,0,0:0:0:0:
165,205,392637,22,0,L|33:189,1,121.125002310276,0|0,3:0|0:0,0:0:0:0:
44,190,392944,1,4,0:2:0:0:
241,261,393098,2,0,L|293:267,2,40.375000770092,0|0|0,0:0|0:0|1:0,0:0:0:0:
54,113,393406,22,2,L|76:287,1,161.500003080368,2|2,3:2|0:2,0:0:0:0:
59,355,393868,22,0,P|112:345|139:334,1,71.2500027179719,4|2,1:1|0:0,0:0:0:0:
277,319,394175,2,0,P|320:327|357:343,2,71.2500027179719,0|2|2,0:0|0:0|0:0,0:0:0:0:
192,279,394637,1,2,0:3:0:0:
192,279,394714,1,0,0:0:0:0:
192,279,394791,1,2,0:0:0:0:
241,196,394944,22,0,P|247:148|204:44,1,142.500005435944,2|0,0:3|0:0,0:0:0:0:
347,38,395406,2,0,P|330:82|311:117,1,71.2500027179719,0|0,0:0|3:0,0:0:0:0:
319,103,395637,1,0,3:0:0:0:
319,103,395714,1,0,3:0:0:0:
394,161,395868,1,0,3:0:0:0:
466,111,396021,1,2,3:2:0:0:
434,28,396175,1,0,3:0:0:0:
390,173,396329,21,2,3:2:0:0:
456,226,396483,2,0,P|476:229|498:228,2,35.625001358986,0|2|0,0:0|0:0|0:0,0:0:0:0:
376,257,396791,1,2,0:0:0:0:
296,301,396944,2,0,P|235:307|174:330,2,106.875004076958,2|2|2,3:3|3:3|3:3,0:0:0:0:
306,220,397560,22,0,L|313:175,1,35.625001358986,2|0,3:2|0:0,0:0:0:0:
236,192,397714,2,0,L|235:148,1,35.625001358986,2|0,0:0|0:0,0:0:0:0:
160,186,397868,2,0,L|151:135,1,35.625001358986,2|0,0:0|0:0,0:0:0:0:
86,200,398021,2,0,L|68:158,1,35.625001358986,2|0,3:2|3:0,0:0:0:0:
138,258,398175,22,0,L|183:270,1,35.625001358986,2|0,3:2|0:0,0:0:0:0:
160,186,398329,2,0,L|206:188,1,35.625001358986,2|0,3:2|0:0,0:0:0:0:
167,111,398483,2,0,L|216:103,1,35.625001358986,2|0,3:2|0:0,0:0:0:0:
155,38,398637,2,0,L|195:26,1,35.625001358986,2|0,3:2|0:0,0:0:0:0:
80,43,398791,22,0,P|76:87|71:129,1,71.2500027179719,2|0,3:2|0:0,0:0:0:0:
35,194,399098,1,0,0:0:0:0:
197,162,399252,2,0,L|241:154,2,35.625001358986,2|0|0,0:0|0:0|0:0,0:0:0:0:
149,250,399560,2,0,P|151:202|160:85,1,142.500005435944,2|2,0:3|0:3,0:0:0:0:
432,43,400021,22,0,P|436:87|441:129,1,71.2500027179719,2|0,3:2|0:0,0:0:0:0:
477,194,400329,1,0,0:0:0:0:
315,162,400483,1,2,3:2:0:0:
315,162,400560,1,0,3:0:0:0:
315,162,400637,1,0,3:0:0:0:
363,250,400791,2,0,P|361:202|352:85,1,142.500005435944,2|2,3:2|3:2,0:0:0:0:
354,107,401252,22,0,L|432:118,1,71.2500027179719,0|2,3:0|0:0,0:0:0:0:
326,79,401560,2,0,L|248:68,1,71.2500027179719,2|2,0:0|0:0,0:0:0:0:
394,192,401868,2,0,L|512:203,2,106.875004076958,2|2|2,3:0|3:0|3:0,0:0:0:0:
270,144,402483,22,0,L|222:150,7,35.625001358986,0|0|0|0|0|0|0|0,3:0|0:0|0:0|0:0|0:0|0:0|3:0|3:0,0:0:0:0:
187,146,403098,1,2,3:2:0:0:
168,124,403175,1,2,0:0:0:0:
141,112,403252,1,0,3:0:0:0:
112,114,403329,1,2,0:0:0:0:
88,130,403406,1,2,3:2:0:0:
72,153,403483,1,0,0:0:0:0:
67,181,403560,1,2,3:2:0:0:
75,208,403637,1,2,0:0:0:0:
93,229,403714,22,0,L|81:322,1,71.2500027179719,2|0,1:1|1:0,0:0:0:0:
187,146,404175,2,0,L|204:228,1,71.2500027179719,8|0,0:0|0:0,0:0:0:0:
249,37,404637,2,0,L|296:113,1,71.2500027179719,8|0,0:0|0:0,0:0:0:0:
363,188,404944,21,2,1:1:0:0:
247,233,405098,1,0,1:0:0:0:
377,194,405252,1,4,0:2:0:0:
286,97,405406,1,2,0:2:0:0:
433,259,405560,21,8,0:0:0:0:
306,176,405714,1,8,0:2:0:0:
364,323,405868,2,0,L|271:317,1,71.2500027179719,8|0,0:1|0:0,0:0:0:0:
284,325,406098,1,0,0:0:0:0:
276,332,406175,21,2,1:1:0:0:
242,216,406329,2,0,L|149:222,1,71.2500027179719,0|0,1:0|0:0,0:0:0:0:
94,288,406637,2,0,B|81:201|81:201|109:154,1,142.500005435944,8|0,0:0|0:0,0:0:0:0:
125,21,407098,2,0,B|138:108|138:108|109:154,1,142.500005435944,8|0,0:0|1:0,0:0:0:0:
53,93,407560,21,0,1:0:0:0:
221,55,407714,2,0,L|229:109,3,35.625001358986,4|0|2|2,0:2|0:0|0:2|0:2,0:0:0:0:
307,48,408021,2,0,L|354:37,1,35.625001358986,8|0,0:0|0:0,0:0:0:0:
314,70,408175,2,0,L|361:71,1,35.625001358986,8|0,0:2|0:0,0:0:0:0:
310,90,408329,1,8,0:1:0:0:
344,260,408483,1,0,0:0:0:0:
344,260,408560,1,0,0:0:0:0:
344,260,408637,22,0,P|389:254|428:243,1,71.2500027179719,0|0,1:1|1:0,0:0:0:0:
498,272,408944,1,0,0:0:0:0:
504,123,409098,2,0,P|486:164|476:204,1,71.2500027179719,8|0,0:0|0:0,0:0:0:0:
394,362,409406,1,0,0:0:0:0:
365,176,409560,2,0,L|346:21,1,142.500005435944,8|0,0:0|1:0,0:0:0:0:
340,289,410021,1,0,1:0:0:0:
461,308,410175,1,4,0:2:0:0:
479,199,410329,21,2,0:2:0:0:
479,199,410406,1,2,0:2:0:0:
479,199,410483,1,8,0:0:0:0:
365,176,410637,1,8,0:0:0:0:
245,200,410791,1,8,0:1:0:0:
127,186,410944,1,0,0:0:0:0:
127,186,411021,1,0,0:0:0:0:
127,186,411098,22,0,P|121:146|113:101,1,71.2500027179719,0|0,1:0|0:0,0:0:0:0:
236,67,411406,2,0,P|242:107|250:152,1,71.2500027179719,0|8,0:0|0:0,0:0:0:0:
98,114,411714,22,0,L|107:66,3,35.625001358986
266,144,412021,2,0,L|257:192,3,35.625001358986,8|0|0|0,0:0|0:0|0:0|0:0,0:0:0:0:
80,276,412329,22,0,L|29:270,1,35.625001358986
79,295,412483,2,0,L|26:303,1,35.625001358986
83,310,412637,1,4,0:2:0:0:
242,299,412791,1,2,0:2:0:0:
245,285,412868,1,2,0:2:0:0:
242,271,412944,1,8,0:0:0:0:
158,247,413098,2,0,L|166:359,1,106.875004076958,8|0,0:0|2:0,0:0:0:0:
330,279,413406,22,0,P|409:286|490:290,1,161.500003080368,4|0,1:1|0:0,0:0:0:0:
419,113,413868,2,0,P|417:159|413:211,1,80.750001540184,0|0,1:2|0:0,0:0:0:0:
245,316,414175,2,0,P|247:265|251:221,2,80.750001540184,2|0|0,0:0|3:0|0:0,0:0:0:0:
252,145,414637,22,0,B|192:163|192:163|171:193|171:193|103:213,1,161.500003080368,0|0,1:2|0:0,0:0:0:0:
368,71,415098,2,0,L|464:91,1,80.750001540184,0|0,1:2|0:0,0:0:0:0:
266,37,415406,1,2,0:0:0:0:
348,174,415560,2,0,L|371:269,1,80.750001540184,2|2,0:0|0:0,0:0:0:0:
260,359,415868,22,0,P|216:315|233:211,1,161.500003080368,0|0,1:2|0:0,0:0:0:0:
382,291,416329,2,0,P|338:283|297:279,1,80.750001540184,0|0,1:2|0:0,0:0:0:0:
186,131,416637,2,0,P|226:126|265:119,2,80.750001540184,2|0|0,0:0|3:0|0:0,0:0:0:0:
89,84,417098,22,0,L|103:184,1,80.750001540184,0|0,1:0|0:0,0:0:0:0:
228,280,417406,2,0,L|242:180,1,80.750001540184,0|0,1:0|0:0,0:0:0:0:
96,188,417714,2,0,L|5:201,1,80.750001540184,0|2,1:0|0:2,0:0:0:0:
248,168,418021,2,0,L|289:164,2,40.375000770092,2|0|2,1:2|0:0|0:2,0:0:0:0:
461,240,418329,21,0,1:0:0:0:
461,240,418406,1,0,1:0:0:0:
461,240,418483,1,4,1:2:0:0:
362,225,418637,1,0,1:0:0:0:
394,330,418791,2,0,L|386:375,2,40.375000770092,0|0|0,3:0|3:0|1:0,0:0:0:0:
329,117,419098,21,0,1:0:0:0:
461,97,419252,1,0,1:0:0:0:
316,99,419406,21,2,0:0:0:0:
469,73,419560,1,2,0:0:0:0:
361,19,419714,21,0,1:0:0:0:
357,191,419868,1,0,1:0:0:0:
357,191,419944,2,0,L|267:205,1,80.750001540184,0|0,1:0|1:0,0:0:0:0:
215,167,420175,1,0,1:0:0:0:
197,283,420329,2,0,B|212:320|212:320|207:363,1,80.750001540184,0|2,1:0|0:0,0:0:0:0:
144,214,420637,2,0,B|129:177|129:177|134:134,1,80.750001540184,2|0,0:0|1:0,0:0:0:0:
142,118,420868,1,0,1:0:0:0:
151,100,420944,21,0,1:0:0:0:
56,153,421098,1,0,1:0:0:0:
215,167,421252,2,0,L|260:171,2,40.375000770092,0|0|0,3:0|3:0|1:0,0:0:0:0:
335,103,421560,21,0,1:0:0:0:
357,238,421714,1,0,1:0:0:0:
347,90,421868,21,2,0:0:0:0:
375,243,422021,1,2,0:0:0:0:
484,199,422175,21,0,1:0:0:0:
321,177,422329,1,0,1:0:0:0:
321,177,422406,2,0,B|360:184|360:184|404:165,1,80.750001540184,0|0,1:0|1:0,0:0:0:0:
431,102,422637,1,0,1:0:0:0:
497,295,422791,22,0,L|333:277,1,161.500003080368,2|2,0:0|0:0,0:0:0:0:
336,277,423406,5,4,1:1:0:0:
233,360,423560,2,0,L|250:252,1,95,0|8,1:0|0:1,0:0:0:0:
382,151,423868,2,0,P|328:146|279:126,1,95,2|0,0:1|0:0,0:0:0:0:
136,187,424175,2,0,L|153:295,1,95,2|8,1:2|0:1,0:0:0:0:
226,189,424483,1,0,0:0:0:0:
42,183,424637,22,0,P|116:171|176:103,1,142.5,0|2,1:0|1:2,0:0:0:0:
164,126,424944,1,8,0:1:0:0:
155,249,425098,2,0,L|137:303,2,47.5,2|0|0,0:2|0:0|0:0,0:0:0:0:
248,65,425406,1,2,1:2:0:0:
366,192,425560,1,8,0:1:0:0:
331,210,425637,1,0,0:0:0:0:
293,207,425714,1,2,0:2:0:0:
260,188,425791,1,0,0:0:0:0:
241,155,425868,21,0,1:0:0:0:
326,123,426021,1,0,1:0:0:0:
263,291,426175,1,8,0:1:0:0:
406,259,426329,2,0,L|511:270,1,95,2|0,0:1|0:0,0:0:0:0:
334,361,426637,1,2,1:2:0:0:
293,207,426791,1,8,0:1:0:0:
208,309,426944,22,0,P|143:333|25:261,1,190,4|0,0:2|0:0,0:0:0:0:
72,158,427406,1,8,0:1:0:0:
208,309,427560,2,0,L|362:300,1,142.5,4|0,0:2|0:0,0:0:0:0:
373,308,427868,1,0,1:0:0:0:
493,153,428021,2,0,L|486:224,1,47.5,8|0,0:1|0:0,0:0:0:0:
373,308,428175,2,0,L|366:240,1,47.5
318,193,428329,21,4,1:0:0:0:
144,143,428483,2,0,P|201:137|244:126,1,95,0|8,1:0|0:1,0:0:0:0:
325,88,428791,1,2,0:1:0:0:
220,232,428944,1,0,0:0:0:0:
238,34,429098,1,2,1:2:0:0:
455,177,429252,2,0,P|393:170|306:200,1,142.5,8|0,0:1|0:0,0:0:0:0:
304,222,429560,21,0,1:0:0:0:
325,88,429714,2,0,L|333:28,2,47.5,2|0|8,1:2|0:0|0:1,0:0:0:0:
222,264,430021,2,0,P|217:213|211:164,1,95,2|0,0:2|0:0,0:0:0:0:
439,275,430329,1,2,1:2:0:0:
345,175,430483,1,8,0:1:0:0:
322,205,430560,1,0,0:0:0:0:
314,242,430637,1,2,0:2:0:0:
325,278,430714,1,0,0:0:0:0:
348,307,430791,22,0,B|281:296|281:296|233:320|233:320|162:309,1,190,12|0,0:0|0:1,0:0:0:0:
27,236,431252,2,0,B|94:247|94:247|142:223|142:223|213:234,1,190,12|0,0:0|0:0,0:0:0:0:
52,340,431714,1,12,0:0:0:0:
80,156,431868,22,0,P|72:107|61:59,1,95
27,236,432175,1,12,0:0:0:0:
197,179,432329,2,0,P|158:210|122:243,1,95
164,64,432637,2,0,P|210:81|257:96,1,95,12|0,0:0|0:0,0:0:0:0:
360,62,432944,1,2,0:0:0:0:
267,208,433098,1,2,0:0:0:0:
500,141,433252,22,0,L|345:162,1,142.5,4|0,1:0|0:0,0:0:0:0:
337,150,433560,2,0,B|356:197|356:197|347:242,1,95,8|2,0:1|0:1,0:1:0:0:
262,339,433868,1,0,0:0:0:0:
449,352,434021,2,0,B|430:305|430:305|439:260,1,95,2|8,1:2|0:1,0:0:0:0:
222,214,434329,1,0,0:0:0:0:
358,160,434483,22,0,L|332:300,1,142.5,0|2,1:0|0:2,0:0:0:0:
332,299,434791,1,8,0:1:0:0:
276,141,434944,2,0,L|267:83,2,47.5,2|0|0,0:2|0:0|0:0,0:0:0:0:
422,261,435252,1,2,1:2:0:0:
258,228,435406,1,8,0:1:0:0:
222,214,435483,1,0,0:0:0:0:
184,215,435560,1,2,0:2:0:0:
155,240,435637,1,0,0:0:0:0:
140,275,435714,21,0,1:0:0:0:
181,126,435868,1,0,1:0:0:0:
224,305,436021,1,8,0:1:0:0:
93,158,436175,1,2,0:1:0:0:
93,158,436252,1,0,0:0:0:0:
93,158,436329,2,0,P|92:111|113:55,1,95,0|2,0:0|1:2,0:0:0:0:
356,219,436637,2,0,P|357:266|336:322,1,95,8|0,0:1|0:0,0:0:0:0:
323,110,436944,21,4,1:2:0:0:
274,245,437098,1,0,1:0:0:0:
201,101,437252,1,8,0:1:0:0:
401,145,437406,2,0,L|246:159,1,142.5,4|0,0:2|0:0,0:0:0:0:
244,170,437714,1,0,1:0:0:0:
356,303,437868,2,0,L|363:249,1,47.5,8|0,0:1|0:0,0:0:0:0:
414,158,438021,2,0,L|352:164,1,47.5
244,170,438175,21,4,1:0:0:0:
80,73,438329,2,0,P|85:121|88:170,1,95,0|8,1:0|0:1,0:0:0:0:
28,308,438637,1,2,0:1:0:0:
194,261,438791,1,0,0:0:0:0:
87,167,438944,1,2,1:2:0:0:
156,347,439098,2,0,P|160:296|171:188,1,142.5,8|0,0:1|0:0,0:0:0:0:
187,178,439406,21,0,1:0:0:0:
335,262,439560,2,0,L|390:270,2,47.5,2|0|8,1:2|0:0|0:1,0:0:0:0:
278,342,439868,1,2,0:2:0:0:
440,202,440021,1,0,0:0:0:0:
401,343,440175,1,2,1:2:0:0:
272,201,440329,2,0,B|260:154|260:154|275:106,1,95,8|2,0:1|0:2,0:0:0:0:
291,92,440560,1,0,0:0:0:0:
312,82,440637,21,0,1:0:0:0:
216,48,440791,1,0,1:0:0:0:
348,162,440944,1,8,0:1:0:0:
197,233,441098,2,0,L|100:249,1,95,2|0,0:1|0:0,0:0:0:0:
256,148,441406,1,2,1:2:0:0:
181,357,441560,1,8,0:1:0:0:
291,288,441714,22,0,B|389:276|361:349|480:331,1,190,4|0,1:2|1:0,0:0:0:0:
446,151,442175,2,0,P|448:203|427:260,1,95,8|4,0:1|0:2,0:0:0:0:
274,210,442483,1,0,0:0:0:0:
361,181,442637,1,0,1:0:0:0:
291,116,442791,1,8,0:1:0:0:
291,116,442944,1,0,0:0:0:0:
204,155,443098,6,0,P|161:149|123:136,1,71.2500027179719,4|0,1:0|0:0,0:0:0:0:
74,274,443406,2,0,P|35:287|4:304,2,71.2500027179719,0|0|0,0:0|0:0|1:0,0:0:0:0:
160,368,443868,2,0,B|139:280|175:313|148:221,1,142.500005435944,0|0,3:0|0:0,0:0:0:0:
149,227,444329,22,0,L|238:237,1,71.2500027179719,0|0,3:0|0:0,0:0:0:0:
332,306,444637,1,4,0:0:0:0:
416,199,444791,1,2,0:0:0:0:
416,199,444868,1,2,0:0:0:0:
416,199,444944,1,0,1:0:0:0:
332,306,445098,2,0,P|278:310|174:322,1,142.500005435944,0|0,3:0|0:0,0:0:0:0:
414,341,445560,22,0,B|430:258|398:288|417:197,1,142.500005435944,0|0,3:0|0:0,0:0:0:0:
316,95,446021,1,0,0:0:0:0:
316,95,446098,1,0,0:0:0:0:
316,95,446175,2,0,P|316:142|320:170,1,71.2500027179719,0|0,1:0|3:0,0:0:0:0:
501,144,446483,2,0,P|501:97|497:69,1,71.2500027179719
402,58,446791,22,0,L|417:210,1,142.500005435944,0|4,3:0|0:0,0:0:0:0:
328,230,447252,1,2,0:0:0:0:
328,230,447329,1,2,0:0:0:0:
328,230,447406,1,0,1:0:0:0:
244,182,447560,1,0,3:0:0:0:
267,92,447714,2,0,L|270:37,2,47.5000018119813
224,185,448021,22,0,L|69:208,1,142.500005435944,0|0,3:0|0:0,0:0:0:0:
36,139,448483,2,0,L|26:89,2,35.625001358986,0|0|0,0:0|0:0|1:0,0:0:0:0:
141,275,448791,1,0,3:0:0:0:
48,282,448944,2,0,L|36:359,1,71.2500027179719
83,205,449252,21,0,3:0:0:0:
83,205,449406,2,0,L|224:185,1,142.500005435944,0|2,0:0|0:0,0:0:0:0:
224,185,449791,1,2,0:0:0:0:
224,185,449868,1,0,1:0:0:0:
304,257,450021,1,0,3:0:0:0:
278,109,450175,2,0,L|290:32,1,71.2500027179719
384,28,450483,22,0,L|363:169,1,142.500005435944,0|0,3:0|0:0,0:0:0:0:
407,241,450944,2,0,L|500:236,2,71.2500027179719,0|0|0,0:0|1:0|3:0,0:0:0:0:
392,326,451406,2,0,L|466:356,1,71.2500027179719
458,352,451637,1,0,0:0:0:0:
458,352,451714,1,0,3:0:0:0:
314,267,451868,22,0,P|268:269|181:315,1,142.500005435944,0|2,0:0|0:0,0:0:0:0:
183,312,452252,1,2,0:0:0:0:
183,312,452329,1,0,1:0:0:0:
105,363,452483,2,0,P|98:322|97:281,2,71.2500027179719,0|0|0,3:0|0:0|0:0,0:0:0:0:
108,180,452944,22,0,P|72:186|38:185,1,71.2500027179719,0|0,3:0|0:0,0:0:0:0:
182,127,453252,2,0,L|199:80,2,35.625001358986
194,223,453560,1,0,1:0:0:0:
268,162,453714,2,0,P|311:158|408:188,1,142.500005435944,0|0,3:0|0:0,0:0:0:0:
386,331,454175,22,0,P|343:335|246:305,1,142.500005435944,0|4,3:0|0:0,0:0:0:0:
194,223,454637,1,2,0:0:0:0:
194,223,454714,1,2,0:0:0:0:
194,223,454791,1,0,1:0:0:0:
125,292,454944,2,0,P|120:333|116:363,2,71.2500027179719,0|0|0,3:0|0:0|0:0,0:0:0:0:
37,253,455406,22,0,P|30:201|12:104,1,142.500005435944,0|0,3:0|0:0,0:0:0:0:
180,126,455868,1,0,0:0:0:0:
180,126,455944,1,0,0:0:0:0:
180,126,456021,2,0,P|139:126|103:118,1,71.2500027179719,0|0,1:0|3:0,0:0:0:0:
37,253,456329,2,0,P|78:253|114:261,1,71.2500027179719
195,310,456637,21,0,3:0:0:0:
272,210,456791,1,0,0:0:0:0:
180,126,456944,1,4,0:0:0:0:
292,207,457098,2,0,P|348:198|442:193,2,142.500005435944,2|2|2,0:0|3:2|0:2,0:0:0:0:
432,43,457868,22,0,P|436:87|441:129,1,71.2500027179719,0|0,3:0|0:0,0:0:0:0:
477,194,458175,1,0,0:0:0:0:
315,162,458329,2,0,L|271:154,2,35.625001358986,0|0|0,0:0|0:0|1:0,0:0:0:0:
363,250,458637,2,0,P|361:202|352:85,1,142.500005435944,0|0,3:0|0:0,0:0:0:0:
80,43,459098,22,0,P|76:87|71:129,1,71.2500027179719,0|0,3:0|0:0,0:0:0:0:
35,194,459406,1,4,0:0:0:0:
197,162,459560,1,2,0:0:0:0:
197,162,459637,1,2,0:0:0:0:
197,162,459714,1,0,1:0:0:0:
149,250,459868,2,0,P|151:202|160:85,1,142.500005435944,0|0,3:0|0:0,0:0:0:0:
157,107,460329,102,2,B|113:133|103:43|180:64|196:146|279:78,1,170.999994781494,4|0,1:1|0:1,0:1:0:0:
317,73,460637,22,0,L|245:98,1,71.2500027179719,0|0,3:0|3:0,0:0:0:0:
242,183,460944,22,2,B|336:150|336:150|382:172,1,142.5,2|0,0:1|0:1,0:1:0:0:
424,224,461252,21,2,0:0:0:0:
381,244,461329,1,2,0:0:0:0:
334,233,461406,1,2,0:0:0:0:
305,195,461483,1,2,0:0:0:0:
298,147,461560,2,2,L|306:105,6,35.625001358986
163,137,461868,21,8,0:0:0:0:
163,137,461944,1,0,0:0:0:0:
163,137,462021,2,0,B|158:172|158:172|176:213,1,71.2500027179719,8|0,0:0|0:0,0:0:0:0:
264,288,462175,22,0,L|275:322,1,35.625001358986,0|0,1:0|1:0,1:0:0:0:
250,294,462252,22,0,L|254:329,1,35.625001358986
234,295,462329,70,0,L|233:333,1,35.625001358986
220,290,462406,86,0,L|211:326,1,35.625001358986
208,282,462483,101,4,0:0:0:0:
28,175,462789,5,0,0:0:0:0:
183,135,462943,1,0,0:0:0:0:
115,200,463097,1,0,0:0:0:0:
151,45,463251,1,0,0:0:0:0:
294,100,463405,1,2,0:0:0:0:
493,284,463713,22,0,P|412:280|336:284,1,142.500005435944
298,353,464174,1,0,0:0:0:0:
213,240,464328,1,0,0:0:0:0:
214,327,464482,1,0,0:0:0:0:
294,210,464636,1,2,0:0:0:0:
3,201,464943,22,0,L|75:208,2,71.2500027179719
119,325,465405,1,0,0:0:0:0:
147,165,465559,1,0,0:0:0:0:
224,279,465713,1,0,0:0:0:0:
224,279,465867,2,0,L|79:298,2,142.500005435944
365,307,466636,21,0,0:0:0:0:
311,221,466790,1,0,0:0:0:0:
283,362,466943,1,0,0:0:0:0:
442,253,467097,1,2,0:0:0:0:
155,91,467405,22,0,B|210:99|210:99|233:122|233:122|297:133,1,142.500005435944
286,131,467867,1,0,0:0:0:0:
277,46,468020,1,0,0:0:0:0:
391,158,468174,1,0,0:0:0:0:
412,24,468328,1,2,0:0:0:0:
325,274,468636,22,0,B|240:253|240:253|178:276,1,142.500005435944
27,239,469097,1,0,0:0:0:0:
109,308,469251,1,0,0:0:0:0:
119,212,469405,1,0,0:0:0:0:
23,342,469559,1,2,0:0:0:0:
392,172,469867,22,0,L|401:260,2,71.2500027179719
274,347,470328,1,0,0:0:0:0:
476,194,470482,1,0,0:0:0:0:
408,353,470636,1,0,0:0:0:0:
324,268,470790,2,0,P|371:262|469:293,1,142.500005435944,0|8,0:0|0:0,0:0:0:0:
247,220,471251,21,0,0:0:0:0:
195,299,471405,2,0,L|153:311,2,35.625001358986,0|0|8,0:0|0:0|0:0,0:0:0:0:
254,117,471713,1,0,0:0:0:0:
254,117,471790,1,0,0:0:0:0:
254,117,471867,2,0,L|264:180,1,47.5,2|0,0:2|0:0,0:0:0:0:
120,282,472020,2,0,L|110:219,1,47.5,2|0,0:2|0:0,0:0:0:0:
97,137,472174,1,8,0:2:0:0:
192,198,472328,6,0,B|251:202|251:202|279:222|279:222|339:227,1,142.5,4|0,1:0|0:0,0:0:0:0:
351,211,472636,1,0,1:0:0:0:
217,285,472790,1,8,0:1:0:0:
310,127,472943,1,2,0:0:0:0:
310,127,473020,1,2,0:0:0:0:
310,127,473097,2,0,L|301:69,1,47.5,0|0,1:0|1:0,0:0:0:0:
410,45,473251,2,0,L|395:157,1,95,8|2,0:1|0:2,0:0:0:0:
209,72,473559,6,0,P|258:81|313:80,1,95,0|0,1:0|0:0,0:0:0:0:
294,330,473867,1,0,1:0:0:0:
470,191,474020,2,0,P|420:179|332:220,1,142.5,8|2,0:1|0:0,0:0:0:0:
319,243,474328,1,0,1:0:0:0:
245,152,474482,2,0,L|189:138,2,47.5,8|0|2,0:1|0:0|0:2,0:0:0:0:
196,369,474790,6,0,P|188:316|180:265,1,95,0|0,1:0|0:0,0:0:0:0:
245,152,475097,1,0,1:0:0:0:
12,221,475251,2,0,L|127:231,1,95,8|2,0:1|0:0,0:0:0:0:
157,157,475482,1,2,0:0:0:0:
157,157,475559,2,0,L|167:100,2,47.5,0|0|8,1:0|1:0|0:1,0:0:0:0:
97,45,475867,1,2,0:2:0:0:
263,107,476020,6,0,L|245:230,1,95,0|0,1:0|0:0,0:0:0:0:
319,263,476328,1,0,1:0:0:0:
492,164,476482,2,0,P|432:179|360:134,1,142.5,8|2,0:1|0:0,0:0:0:0:
356,113,476790,1,0,1:0:0:0:
416,300,476943,2,0,L|398:177,1,95,8|2,0:1|0:2,0:0:0:0:
105,167,477251,6,0,B|176:139|176:139|215:195|171:268,1,190,0|0,1:0|1:0,0:0:0:0:
51,358,477713,1,8,0:1:0:0:
207,340,477867,1,2,0:0:0:0:
207,340,477943,1,2,0:0:0:0:
207,340,478020,2,0,L|140:328,1,47.5,0|0,1:0|1:0,0:0:0:0:
12,265,478174,2,0,L|115:251,1,95,8|2,0:1|0:2,0:0:0:0:
347,193,478482,6,0,P|281:198|212:141,1,142.5,0|0,1:0|0:0,0:0:0:0:
220,155,478790,2,0,P|215:203|211:255,1,95,0|8,1:0|0:1,0:0:0:0:
290,86,479097,1,2,0:0:0:0:
126,195,479251,2,0,P|130:146|134:94,1,95,0|8,1:0|0:1,0:0:0:0:
42,134,479559,1,2,0:2:0:0:
211,249,479712,6,0,L|318:233,1,95,0|0,1:0|0:0,0:0:0:0:
290,86,480020,1,0,1:0:0:0:
497,131,480174,2,0,L|372:146,1,95,8|2,0:1|0:0,0:0:0:0:
378,139,480405,1,2,0:0:0:0:
354,134,480482,2,0,L|369:189,1,47.5,0|0,1:0|1:0,0:0:0:0:
396,351,480636,2,0,B|413:307|413:307|398:261,1,95,8|2,0:1|0:2,0:0:0:0:
69,135,480943,5,0,1:0:0:0:
69,135,481020,1,0,0:0:0:0:
68,135,481097,2,0,P|115:128|160:112,1,95,0|0,0:0|1:0,0:0:0:0:
190,87,481328,1,0,0:0:0:0:
224,70,481405,1,8,0:1:0:0:
260,79,481482,1,0,0:0:0:0:
281,110,481559,1,0,0:0:0:0:
284,147,481636,1,0,0:0:0:0:
260,176,481713,1,2,0:0:0:0:
222,184,481790,1,0,0:0:0:0:
199,214,481867,1,2,0:0:0:0:
200,252,481943,1,0,0:0:0:0:
223,282,482020,6,0,L|218:351,1,47.5,0|0,3:0|3:0,0:0:0:0:
302,242,482174,2,0,L|307:311,1,47.5,0|0,3:0|3:0,0:0:0:0:
382,342,482328,5,4,1:0:0:0:
124,280,490790,5,0,0:0:0:0:
124,280,490867,1,0,0:0:0:0:
124,280,490943,2,0,L|115:231,1,35.625001358986,2|0,0:0|0:0,0:0:0:0:
155,117,491097,1,2,0:0:0:0:
155,117,491174,1,0,0:0:0:0:
155,117,491251,2,0,L|150:173,1,35.625001358986
244,206,491405,1,2,0:0:0:0:
264,207,491482,1,0,0:0:0:0:
282,209,491559,6,0,L|335:213,1,35.625001358986,2|0,0:0|0:0,0:0:0:0:
459,185,491713,2,0,L|406:181,1,35.625001358986,2|0,0:0|0:0,0:0:0:0:
358,114,491867,2,0,L|354:167,1,35.625001358986
382,286,492020,2,0,L|386:233,1,35.625001358986,2|0,0:0|0:0,0:0:0:0:
437,87,492174,5,4,1:0:0:0:
282,209,492328,2,0,L|273:147,1,47.5,0|0,1:0|0:0,0:0:0:0:
131,81,492482,2,0,B|148:128|148:128|131:179,1,95,8|2,0:1|0:0,0:0:0:0:
125,193,492713,1,2,0:0:0:0:
117,215,492790,2,0,L|14:196,1,95,2|0,0:0|1:0,0:0:0:0:
151,319,493097,1,8,0:1:0:0:
53,370,493251,1,0,0:0:0:0:
117,215,493405,6,0,P|189:191|258:224,1,142.5,0|0,1:0|1:0,0:0:0:0:
328,181,493713,2,0,P|323:234|323:283,1,95,8|2,0:1|0:0,0:0:0:0:
323,299,493943,1,2,0:0:0:0:
326,322,494020,1,2,0:0:0:0:
258,122,494174,2,0,L|265:68,2,47.5,0|0|8,1:2|1:0|0:1,0:0:0:0:
233,309,494482,1,0,0:0:0:0:
498,223,494636,6,0,L|400:237,1,95,0|0,1:0|1:0,0:0:0:0:
245,234,494943,1,8,0:1:0:0:
290,128,495097,1,2,0:0:0:0:
315,115,495174,1,2,0:0:0:0:
343,116,495251,1,2,0:0:0:0:
316,293,495405,2,0,B|335:252|335:252|324:199,1,95,0|8,1:0|0:1,0:0:0:0:
198,310,495713,1,0,0:0:0:0:
74,133,495867,6,0,L|228:107,1,142.5,0|0,1:0|1:0,0:0:0:0:
244,102,496174,2,0,B|225:143|225:143|236:196,1,95,8|2,0:1|0:0,0:0:0:0:
247,211,496405,1,2,0:0:0:0:
261,230,496482,1,2,0:0:0:0:
144,257,496636,2,0,L|151:192,1,47.5,0|0,1:2|1:0,0:0:0:0:
158,46,496789,1,8,0:1:0:0:
310,157,496943,1,0,0:0:0:0:
304,54,497097,5,0,1:0:0:0:
261,230,497251,1,0,1:0:0:0:
462,189,497405,1,8,0:1:0:0:
438,173,497482,1,0,0:0:0:0:
410,166,497559,1,2,0:0:0:0:
381,166,497636,1,2,0:0:0:0:
353,173,497712,2,0,P|348:232|342:283,1,95,2|0,0:0|1:0,0:0:0:0:
268,353,498020,1,8,0:1:0:0:
224,142,498174,1,0,0:0:0:0:
98,266,498328,6,0,P|140:242|241:253,1,142.5,0|0,1:0|1:0,0:0:0:0:
254,264,498636,1,8,0:1:0:0:
365,206,498790,1,2,0:0:0:0:
362,234,498867,1,2,0:0:0:0:
359,262,498943,1,2,0:0:0:0:
288,152,499097,2,0,L|276:83,2,47.5,0|0|8,1:2|1:0|0:1,0:0:0:0:
431,305,499405,1,0,0:0:0:0:
502,125,499559,6,0,L|404:138,1,95,0|0,1:0|1:0,0:0:0:0:
116,262,499866,2,0,L|214:249,1,95,8|2,0:1|0:0,0:0:0:0:
232,257,500097,1,2,0:0:0:0:
254,264,500174,2,0,P|244:210|249:163,1,95,2|0,0:0|1:0,0:0:0:0:
184,350,500482,1,8,0:1:0:0:
151,171,500636,1,0,0:0:0:0:
346,196,500789,6,0,L|334:352,1,142.5,0|8,0:0|0:0,0:0:0:0:
335,338,501097,1,0,0:0:0:0:
275,149,501251,2,0,L|431:137,1,142.5,0|8,0:0|0:0,0:0:0:0:
417,139,501559,1,0,0:0:0:0:
259,238,501713,1,2,0:0:0:0:
221,229,501790,1,0,0:0:0:0:
183,220,501867,1,2,0:0:0:0:
147,232,501943,1,0,0:0:0:0:
111,244,502020,86,0,L|28:244,2,71.2500027179719,0|0|0,1:0|1:0|0:0,0:0:0:0:
136,336,502482,2,0,B|194:336|194:336|221:328|221:328|280:328,1,142.500005435944,8|0,1:1|0:0,0:0:0:0:
290,334,502867,1,0,0:0:0:0:
301,342,502943,2,0,L|313:253,1,71.2500027179719,0|0,3:0|3:0,0:0:0:0:
318,10,503251,21,0,1:0:0:0:
349,146,503405,1,8,0:0:0:0:
283,88,503559,1,2,0:0:0:0:
422,113,503713,1,2,0:0:0:0:
428,111,503790,1,0,0:0:0:0:
434,109,503866,22,0,P|442:136|448:165,1,35.625001358986
430,228,504020,2,0,P|426:256|422:287,1,35.625001358986,8|0,0:0|0:0,0:0:0:0:
465,333,504174,2,0,L|472:368,2,35.625001358986,0|8|0,0:0|0:0|0:0,0:0:0:0:
443,143,504482,22,0,L|443:67,2,71.2500027179719,0|0|0,1:0|1:0|0:0,0:0:0:0:
343,195,504943,2,0,B|343:143|343:143|355:115|355:115|355:55,1,142.500005435944,8|0,0:1|0:0,0:0:0:0:
347,42,505328,1,0,0:0:0:0:
339,29,505405,2,0,L|419:16,1,71.2500027179719,0|0,3:0|3:0,0:0:0:0:
215,207,505713,22,0,L|159:199,1,35.625001358986,0|0,1:0|0:0,0:0:0:0:
76,159,505867,1,10,0:0:0:0:
76,159,505943,1,0,0:0:0:0:
76,159,506020,2,0,L|121:166,1,35.625001358986,2|8,0:2|0:0,0:0:0:0:
266,152,506174,22,0,L|223:160,1,35.625001358986,0|0,1:0|0:0,0:0:0:0:
30,216,506328,1,10,0:0:0:0:
30,216,506405,1,0,0:0:0:0:
30,216,506482,2,0,L|73:208,1,35.625001358986,2|0,0:0|0:0,0:0:0:0:
156,123,506636,21,2,1:2:0:0:
165,157,506713,1,0,0:0:0:0:
162,192,506790,1,2,0:0:0:0:
159,227,506867,1,0,0:0:0:0:
176,260,506943,22,0,L|176:332,2,71.2500027179719,0|0|0,1:0|1:0|0:0,0:0:0:0:
444,281,507405,2,0,B|354:259|354:259|301:281,1,142.500005435944,8|0,0:1|0:0,0:0:0:0:
299,289,507790,1,0,0:0:0:0:
290,300,507867,1,0,3:0:0:0:
254,217,508020,1,0,3:0:0:0:
328,166,508174,21,0,1:0:0:0:
173,264,508328,1,8,0:0:0:0:
248,133,508482,1,2,0:0:0:0:
290,300,508636,1,2,0:0:0:0:
91,154,508789,22,0,P|85:131|76:112,1,35.625001358986,2|0,0:0|0:0,0:0:0:0:
156,106,508943,2,0,P|155:86|154:58,1,35.625001358986,10|0,0:0|0:0,0:0:0:0:
238,56,509097,1,2,0:0:0:0:
264,79,509174,1,8,0:0:0:0:
297,90,509251,1,2,0:0:0:0:
332,90,509328,1,0,0:0:0:0:
365,78,509405,21,0,1:0:0:0:
457,107,509559,2,0,L|450:186,1,71.2500027179719,0|0,1:0|0:0,0:0:0:0:
395,309,509866,2,0,B|387:250|387:250|370:223|370:223|363:164,1,142.500005435944,8|0,0:1|0:0,0:0:0:0:
363,172,510251,1,0,0:0:0:0:
363,172,510328,1,0,3:0:0:0:
475,255,510482,1,0,3:0:0:0:
312,300,510636,22,0,L|232:314,1,71.2500027179719,0|0,1:0|0:0,0:0:0:0:
152,329,510943,1,0,0:0:0:0:
178,170,511097,2,0,L|165:263,1,71.2500027179719,0|0,1:0|0:0,0:0:0:0:
168,240,511712,22,0,P|128:235|69:232,1,80.750001540184,0|0,1:0|0:0,0:0:0:0:
253,64,512020,2,0,P|294:69|352:72,1,80.750001540184,8|2,0:2|0:0,0:0:0:0:
411,119,512328,1,2,0:0:0:0:
270,236,512482,1,8,0:0:0:0:
220,151,512636,2,0,B|124:121|162:166|59:136,1,161.500003080368,2|2,0:0|0:0,0:0:0:0:
61,137,513097,21,0,3:0:0:0:
163,269,513251,2,0,L|169:215,2,40.375000770092,0|0|8,0:0|0:0|0:1,0:0:0:0:
210,71,513559,2,0,L|222:159,1,80.750001540184,0|0,3:0|0:0,0:0:0:0:
284,215,513867,1,8,0:1:0:0:
451,110,514020,1,2,3:2:0:0:
420,100,514097,1,0,3:0:0:0:
387,99,514174,1,2,3:2:0:0:
356,109,514251,1,0,3:0:0:0:
333,132,514328,22,0,L|325:38,1,80.750001540184,0|8,1:0|0:0,0:0:0:0:
436,265,514636,1,2,0:0:0:0:
284,215,514790,1,2,0:0:0:0:
406,184,514943,1,8,0:0:0:0:
406,184,515097,2,0,L|390:359,1,161.500003080368,2|2,0:0|0:0,0:0:0:0:
307,285,515559,21,0,3:0:0:0:
391,344,515713,2,0,L|474:332,1,80.750001540184,0|8,0:0|0:1,0:0:0:0:
228,231,516020,2,0,L|169:240,2,40.375000770092,0|0|0,3:0|0:0|0:0,0:0:0:0:
324,184,516328,1,8,0:1:0:0:
221,322,516482,21,2,3:2:0:0:
162,152,516636,2,0,P|121:148|82:141,1,80.750001540184,2|0,3:2|1:0,0:0:0:0:
307,285,516943,2,0,P|347:288|386:295,1,80.750001540184,8|2,0:0|0:0,0:0:0:0:
324,184,517251,1,2,0:0:0:0:
144,248,517405,1,8,0:0:0:0:
221,322,517559,2,0,L|249:146,1,161.500003080368,2|2,0:0|0:0,0:0:0:0:
246,162,518020,21,0,3:0:0:0:
409,122,518174,2,0,L|369:114,2,40.375000770092,0|0|8,0:0|0:0|0:1,0:0:0:0:
296,76,518482,1,0,3:0:0:0:
379,203,518636,1,0,0:0:0:0:
408,38,518790,1,8,0:1:0:0:
205,97,518943,1,2,3:2:0:0:
176,112,519020,1,0,3:0:0:0:
143,115,519097,1,2,3:2:0:0:
111,110,519174,1,0,3:0:0:0:
82,94,519251,22,0,P|92:167|94:187,1,80.750001540184,0|8,1:0|0:0,0:0:0:0:
164,289,519559,2,0,P|168:248|174:208,1,80.750001540184,2|2,0:0|0:0,0:0:0:0:
16,220,519867,1,8,0:0:0:0:
93,341,520020,2,0,P|149:332|268:316,1,161.500003080368,2|2,0:0|0:0,0:0:0:0:
336,272,520482,21,0,3:0:0:0:
252,317,520636,2,0,B|239:278|239:278|252:231,1,80.750001540184,0|8,0:0|0:1,0:0:0:0:
190,93,520943,1,0,3:0:0:0:
190,93,521020,1,0,0:0:0:0:
190,93,521097,2,0,B|203:132|203:132|190:179,1,80.750001540184,0|8,0:0|0:1,0:0:0:0:
319,276,521405,1,2,3:2:0:0:
350,268,521482,1,0,3:0:0:0:
381,261,521559,1,2,3:2:0:0:
411,272,521636,1,0,3:0:0:0:
445,285,521712,22,0,L|480:192,1,95,0|2,1:0|0:0,0:0:0:0:
288,298,522020,2,0,L|296:344,2,47.5,0|0|2,1:0|0:0|0:0,0:0:0:0:
377,190,522328,2,0,L|391:92,1,95,0|2,1:0|3:2,0:0:0:0:
325,56,522559,1,0,0:0:0:0:
325,56,522636,2,0,P|276:68|223:62,1,95,0|2,1:0|3:2,0:0:0:0:
182,219,522943,21,0,1:0:0:0:
30,167,523097,2,0,L|93:152,1,47.5,2|0,0:0|0:0,0:0:0:0:
105,126,523251,1,0,1:0:0:0:
106,326,523405,1,2,0:0:0:0:
106,326,523482,1,0,0:0:0:0:
106,326,523559,2,0,P|102:277|94:220,1,95,0|2,1:0|3:2,0:0:0:0:
237,144,523867,1,2,1:2:0:0:
268,165,523943,1,0,0:0:0:0:
304,175,524020,1,2,3:2:0:0:
341,170,524097,1,0,0:0:0:0:
377,153,524174,22,0,B|393:109|393:109|376:47,1,95,0|2,1:0|0:0,0:0:0:0:
253,244,524482,2,0,L|205:238,2,47.5,0|0|2,1:0|0:0|0:0,0:0:0:0:
417,232,524789,2,0,L|511:215,1,95,0|2,1:0|3:2,0:0:0:0:
384,319,525020,1,0,0:0:0:0:
384,319,525097,2,0,L|478:336,1,95,0|2,1:0|3:2,0:0:0:0:
315,236,525405,21,0,1:0:0:0:
231,273,525559,2,0,L|227:222,1,47.5,2|0,3:2|0:0,0:0:0:0:
209,197,525713,1,0,1:0:0:0:
296,340,525867,1,2,3:2:0:0:
149,261,526020,2,0,L|3:280,1,142.5,0|0,1:0|0:0,0:0:0:0:
7,279,526328,1,0,1:0:0:0:
138,153,526482,1,2,3:2:0:0:
27,185,526636,22,0,L|128:173,1,95,0|2,1:0|3:2,0:0:0:0:
250,277,526943,2,0,L|241:343,2,47.5,0|0|2,1:0|0:0|3:2,0:0:0:0:
249,77,527251,2,0,L|236:178,1,95,0|2,1:0|3:2,0:0:0:0:
224,186,527482,1,0,0:0:0:0:
210,199,527559,21,0,1:0:0:0:
159,105,527713,1,2,3:2:0:0:
379,205,527867,21,0,1:0:0:0:
437,46,528020,2,0,L|449:107,1,47.5,2|0,3:2|0:0,0:0:0:0:
474,121,528174,1,0,1:0:0:0:
313,259,528328,1,2,3:2:0:0:
313,259,528405,1,0,0:0:0:0:
313,259,528482,2,0,B|289:225|289:225|303:159,1,95,0|2,1:0|3:2,0:0:0:0:
401,293,528790,1,2,1:2:0:0:
367,275,528867,1,0,0:0:0:0:
328,274,528943,1,2,3:2:0:0:
297,296,529020,1,0,0:0:0:0:
279,329,529097,22,0,P|229:339|182:348,1,95,0|2,1:0|0:0,0:0:0:0:
378,197,529405,2,0,P|428:187|475:178,1,95,0|2,1:0|0:0,0:0:0:0:
360,362,529713,1,0,1:0:0:0:
223,227,529867,1,2,3:2:0:0:
204,193,529943,1,0,0:0:0:0:
204,154,530020,1,0,1:0:0:0:
219,119,530097,1,0,0:0:0:0:
251,99,530174,1,2,3:2:0:0:
308,264,530328,21,0,1:0:0:0:
145,250,530482,1,2,0:0:0:0:
287,174,530636,1,0,1:0:0:0:
265,343,530790,1,2,3:2:0:0:
454,185,530943,2,0,P|397:195|353:206,1,95,0|2,1:0|0:0,0:0:0:0:
75,78,531251,2,0,P|132:88|176:99,1,95,0|2,1:0|0:0,0:0:0:0:
287,174,531559,21,0,1:0:0:0:
279,256,531866,2,0,L|269:358,1,95
269,350,532328,1,0,0:0:0:0:
279,256,532482,22,0,B|199:241|229:294|126:280,1,142.5
116,264,532789,69,4,1:0:0:0:
357,301,532943,2,0,B|372:257|372:257|360:207,1,95,0|8,0:0|0:1,0:0:0:0:
117,141,533251,2,0,B|169:146|169:146|199:166|199:166|260:172,1,142.5,2|0,0:0|0:0,0:0:0:0:
275,153,533559,1,0,1:0:0:0:
483,134,533712,2,0,P|411:140|351:212,1,142.5,8|0,0:1|0:0,0:0:0:0:
361,185,534020,22,0,B|371:138|371:138|351:89,1,95,0|0,1:0|0:0,0:0:0:0:
197,115,534328,2,0,B|186:161|186:161|206:210,1,95,8|2,0:1|1:2,0:0:0:0:
221,214,534559,1,2,0:2:0:0:
237,223,534636,1,0,0:0:0:0:
277,95,534789,1,2,1:2:0:0:
164,288,534943,2,0,P|115:301|18:272,1,142.5,8|0,0:1|0:0,0:0:0:0:
27,278,535251,22,0,P|39:338|44:374,1,95,0|2,1:0|0:2,0:0:0:0:
103,193,535559,1,8,0:1:0:0:
201,209,535712,2,0,L|208:150,2,47.5,2|0|0,0:2|0:0|0:0,0:0:0:0:
273,345,536020,1,2,1:2:0:0:
467,271,536174,2,0,L|322:261,1,142.5,8|0,0:1|0:0,0:0:0:0:
308,263,536482,22,0,P|315:213|306:162,1,95,0|0,1:0|0:0,0:0:0:0:
333,46,536789,1,8,0:1:0:0:
396,147,536943,1,2,1:2:0:0:
510,113,537097,1,2,0:2:0:0:
225,227,537251,1,2,1:2:0:0:
190,211,537328,1,0,0:0:0:0:
153,220,537405,1,8,0:1:0:0:
133,252,537482,1,0,0:0:0:0:
111,283,537559,1,2,0:2:0:0:
74,292,537636,1,0,0:0:0:0:
39,275,537712,21,0,1:0:0:0:
187,353,537866,2,0,L|196:295,2,47.5,0|0|8,0:0|0:0|0:1,0:0:0:0:
291,186,538174,2,0,P|229:190|151:128,1,142.5,2|0,0:2|0:0,0:0:0:0:
157,119,538482,1,2,1:2:0:0:
262,15,538636,2,0,B|244:59|244:59|250:112,1,95,8|0,0:1|0:0,0:0:0:0:
396,177,538943,21,0,1:0:0:0:
342,261,539097,1,0,0:0:0:0:
361,95,539251,1,8,0:1:0:0:
490,164,539405,2,0,L|376:179,1,95,2|2,1:2|0:2,0:0:0:0:
339,350,539712,1,2,1:2:0:0:
200,280,539866,2,0,L|347:260,1,142.5,8|0,0:1|0:0,0:0:0:0:
369,268,540174,21,0,1:0:0:0:
301,91,540328,1,2,0:2:0:0:
285,125,540405,1,2,0:2:0:0:
295,161,540482,1,8,0:1:0:0:
419,139,540636,2,0,L|357:134,2,47.5,2|0|0,0:2|0:0|0:0,0:0:0:0:
231,43,540943,1,2,1:2:0:0:
313,191,541097,1,8,0:1:0:0:
353,19,541251,1,2,0:2:0:0:
212,135,541405,22,0,P|166:130|116:111,1,95,0|0,1:0|0:0,0:0:0:0:
216,313,541712,1,8,0:1:0:0:
34,258,541866,1,2,1:2:0:0:
57,228,541943,1,0,0:0:0:0:
91,212,542020,1,2,0:2:0:0:
129,212,542097,1,0,0:0:0:0:
165,223,542174,1,2,1:2:0:0:
216,313,542328,2,0,P|271:304|318:304,1,95,8|0,0:1|0:0,0:0:0:0:
416,142,542636,21,0,1:0:0:0:
325,175,542789,1,2,0:2:0:0:
325,175,542866,1,2,0:2:0:0:
325,175,542943,1,8,0:1:0:0:
349,69,543097,1,2,0:2:0:0:
487,242,543251,21,2,0:0:0:0:
397,227,543405,1,0,1:2:0:0:
178,110,543559,21,8,0:1:0:0:
268,95,543712,1,2,0:2:0:0:
255,336,543866,22,0,P|269:283|249:194,1,142.5,0|2,1:0|0:3,0:0:0:0:
251,198,544174,1,8,0:1:0:0:
347,311,544328,2,0,L|380:360,2,47.5,2|2|2,1:3|0:3|0:3,0:0:0:0:
245,175,544636,1,2,1:3:0:0:
79,263,544789,2,0,P|127:249|175:238,1,95,8|2,0:1|0:3,0:0:0:0:
333,207,545097,21,0,1:0:0:0:
284,76,545251,1,2,0:2:0:0:
284,76,545328,1,2,0:2:0:0:
284,76,545405,1,8,0:1:0:0:
162,166,545559,1,2,0:2:0:0:
115,89,545712,21,2,0:2:0:0:
249,155,545866,1,0,1:2:0:0:
143,249,546020,21,8,0:1:0:0:
196,89,546174,1,2,0:2:0:0:
331,170,546328,22,0,L|439:179,1,95,0|2,1:0|0:3,0:0:0:0:
487,107,546636,1,8,0:1:0:0:
440,274,546789,1,2,1:3:0:0:
331,170,546943,2,0,L|223:161,1,95,2|2,0:3|1:2,0:0:0:0:
208,188,547174,1,0,0:0:0:0:
199,151,547251,1,8,0:1:0:0:
167,129,547328,1,0,0:0:0:0:
129,120,547405,1,2,0:2:0:0:
93,133,547482,1,0,0:0:0:0:
70,163,547559,22,0,P|63:212|53:269,1,95,0|2,1:2|0:2,0:2:0:0:
55,256,547789,1,2,0:2:0:0:
55,256,547866,1,8,0:1:0:0:
158,276,548020,1,2,0:2:0:0:
242,143,548174,21,2,0:2:0:0:
70,163,548328,1,0,1:0:0:0:
128,363,548482,21,8,0:1:0:0:
164,190,548636,1,2,0:2:0:0:
378,227,548789,22,0,L|231:242,1,142.5,0|2,1:0|0:3,0:0:0:0:
236,241,549097,1,8,0:1:0:0:
489,248,549251,1,2,1:3:0:0:
512,139,549405,1,2,0:3:0:0:
398,113,549559,1,2,1:3:0:0:
378,227,549712,2,0,P|384:278|390:338,1,95,8|2,0:1|0:3,0:0:0:0:
445,181,550020,21,0,1:0:0:0:
319,96,550174,1,2,0:2:0:0:
316,114,550251,1,2,0:2:0:0:
321,132,550328,1,8,0:1:0:0:
446,47,550482,1,2,0:2:0:0:
241,49,550636,21,2,0:2:0:0:
398,113,550789,1,0,1:0:0:0:
184,112,550943,21,8,0:1:0:0:
446,47,551097,1,2,0:2:0:0:
315,33,551251,6,0,L|325:137,1,95,0|0,1:0|2:0,1:0:0:0:
248,210,551712,2,0,L|333:149,1,95,0|0,2:0|2:0,1:0:0:0:
431,181,552174,2,0,L|335:137,1,95,0|0,2:0|2:0,1:0:0:0:
246,140,552636,5,0,3:0:0:0:
222,142,552712,1,0,3:0:0:0:
198,139,552789,1,0,3:0:0:0:
177,127,552866,1,0,3:0:0:0:
158,111,552943,1,0,3:0:0:0:
98,289,553097,2,0,L|110:176,1,106.875004076958,2|0,0:0|0:0,0:0:0:0:
95,156,553405,1,0,1:0:0:0:
114,312,553559,1,0,1:0:0:0:
3,219,553712,6,0,B|84:206|59:253|162:236,1,142.5,0|0,1:0|0:0,0:0:0:0:
222,196,554020,2,0,B|233:245|233:245|213:306,1,95,8|0,1:1|0:0,0:0:0:0:
211,310,554251,1,0,0:0:0:0:
199,330,554328,5,0,3:0:0:0:
338,265,554482,1,0,3:0:0:0:
199,172,554636,1,0,3:0:0:0:
333,317,554789,1,0,3:0:0:0:
343,220,554943,6,0,L|351:134,2,71.2500027179719
435,226,555405,1,0,0:0:0:0:
316,126,555559,6,0,P|370:131|460:81,1,142.5,2|2,0:0|0:0,0:0:0:0:
130,88,556174,5,0,1:0:0:0:
224,48,556328,1,0,0:0:0:0:
224,48,556405,1,0,0:0:0:0:
224,48,556482,2,0,B|235:94|235:94|215:147,1,95,8|0,1:2|0:0,0:0:0:0:
134,273,556789,5,2,0:0:0:0:
10,270,556943,2,0,L|112:259,1,95,2|2,0:0|0:0,0:0:0:0:
240,229,557405,6,0,B|158:218|187:271|82:257,1,142.5,0|0,1:0|0:0,0:0:0:0:
86,237,557712,1,2,0:1:0:0:
223,312,557866,1,0,0:0:0:0:
285,160,558020,5,0,3:0:0:0:
308,157,558097,1,0,3:0:0:0:
331,160,558174,1,0,3:0:0:0:
353,167,558251,1,0,3:0:0:0:
372,180,558328,1,0,3:0:0:0:
228,227,558482,1,0,1:0:0:0:
446,220,558636,6,0,P|448:168|431:113,1,95,0|0,1:0|0:0,0:0:0:0:
437,126,558866,1,0,1:0:0:0:
437,126,558943,1,2,1:2:0:0:
273,352,559251,6,0,B|249:299|249:299|275:214,1,142.5,0|0,1:0|0:0,0:0:0:0:
297,213,559559,1,8,1:2:0:0:
128,156,559712,2,0,L|138:218,1,47.5
152,289,559866,5,0,1:0:0:0:
62,241,560020,2,0,L|226:250,1,142.5,0|0,1:0|0:0,0:0:0:0:
227,256,560328,1,0,1:0:0:0:
305,348,560482,6,2,P|314:297|325:240,1,95,8|2,0:2|3:1,0:1:0:0:
408,276,560789,1,2,3:2:0:0:
255,86,560943,2,0,P|263:132|272:179,1,95,0|0,1:0|0:0,0:0:0:0:
457,136,561251,5,0,1:0:0:0:
457,136,561328,1,0,1:0:0:0:
457,136,561405,2,0,L|333:136,1,95,0|2,1:0|0:0,0:0:0:0:
347,149,562020,6,2,L|234:149,1,106.875004076958,2|2,0:1|0:1,0:1:0:0:
216,160,562328,5,0,1:0:0:0:
362,136,562482,1,0,0:0:0:0:
275,18,562636,2,0,L|285:130,1,95,8|2,0:1|0:0,0:0:0:0:
325,310,562943,5,0,3:0:0:0:
338,279,563020,1,0,3:0:0:0:
335,245,563097,1,0,3:0:0:0:
321,214,563174,1,0,3:0:0:0:
293,195,563251,1,0,3:0:0:0:
179,353,563405,1,0,1:0:0:0:
103,228,563559,6,0,B|156:241|156:241|180:266|180:266|247:283,1,142.5,0|0,1:0|0:0,0:0:0:0:
258,270,563866,1,8,1:2:0:0:
187,117,564020,2,0,L|176:178,1,47.5
101,309,564174,5,0,3:0:0:0:
281,264,564328,1,0,3:0:0:0:
76,190,564482,1,0,3:0:0:0:
302,258,564636,1,0,3:0:0:0:
201,279,564789,6,0,L|191:193,2,71.2500027179719,0|0|8,0:0|0:0|0:1,0:0:0:0:
251,139,565251,1,0,0:0:0:0:
187,296,565405,5,0,0:0:0:0:
302,258,565559,2,0,L|413:272,1,95,2|2,0:0|0:0,0:0:0:0:
434,181,566020,5,0,1:0:0:0:
369,349,566174,1,0,0:0:0:0:
340,350,566251,1,0,0:0:0:0:
311,352,566328,1,8,1:2:0:0:
286,228,566482,1,0,0:0:0:0:
396,269,566636,6,0,L|302:258,1,95,2|0,0:0|0:0,0:0:0:0:
187,296,567097,1,2,0:0:0:0:
108,104,567251,6,0,B|199:78|199:78|247:101,1,142.5,0|0,1:0|0:0,0:0:0:0:
311,146,567559,2,0,B|320:97|320:97|303:37,1,95,2|0,0:1|0:1,0:0:0:0:
263,203,567866,5,0,3:0:0:0:
286,186,567943,1,0,3:0:0:0:
313,177,568020,1,0,3:0:0:0:
341,178,568097,1,0,3:0:0:0:
368,190,568174,1,0,3:0:0:0:
390,362,568328,1,0,1:0:0:0:
500,280,568482,6,0,P|452:285|391:263,1,95,0|0,1:0|0:0,0:0:0:0:
328,267,568712,1,0,0:0:0:0:
328,267,568789,2,0,L|343:378,1,95,2|2,0:0|0:0,0:0:0:0:
458,194,569097,5,0,1:0:0:0:
253,317,569251,2,0,L|221:314,4,23.75,0|0|0|0|8,0:0|0:0|0:0|0:0|1:2,0:0:0:0:
368,190,569559,1,0,0:0:0:0:
434,335,569712,5,0,1:0:0:0:
253,317,569866,2,0,L|360:328,1,95,0|8,1:0|0:1,0:0:0:0:
202,175,570328,5,8,0:2:0:0:
234,333,570482,1,2,3:1:0:0:
344,238,570636,1,2,3:2:0:0:
121,152,570789,1,0,1:0:0:0:
121,152,570866,1,0,1:0:0:0:
121,152,570943,2,0,L|283:130,1,142.5,0|0,1:0|1:0,0:0:0:0:
277,117,571251,6,0,L|144:135,1,106.875004076958,2|0,1:2|0:0,0:0:0:0:
172,132,571866,5,2,3:2:0:0:
324,32,572020,1,2,3:2:0:0:
83,43,572174,5,0,0:2:0:0:
85,232,572328,2,0,L|68:133,1,95,2|0,0:1|3:0,0:0:0:0:
46,118,572559,1,0,3:0:0:0:
46,118,572636,2,0,P|74:122|97:122,1,47.5,0|0,3:0|0:0,0:0:0:0:
243,62,572789,1,8,0:1:0:0:
241,90,572866,1,0,0:0:0:0:
239,118,572943,2,0,L|236:170,1,47.5
157,93,573097,1,2,0:1:0:0:
327,134,573251,1,0,1:0:0:0:
218,191,573405,5,4,0:2:0:0:
391,81,573559,1,2,0:1:0:0:
440,260,573712,2,0,L|455:167,1,95,2|0,0:1|0:0,0:0:0:0:
324,7,574020,2,2,B|303:47|303:47|312:96,1,95,8|2,0:1|0:1,0:1:0:0:
348,167,574251,1,0,0:0:0:0:
348,167,574328,6,0,L|471:167,1,106.875004076958
480,176,574636,5,0,0:0:0:0:
355,266,574789,1,0,1:0:0:0:
312,96,574943,1,2,1:1:0:0:
441,291,575097,1,0,0:0:0:0:
265,234,575251,2,0,P|333:223|410:207,1,142.5,8|0,0:1|0:0,0:0:0:0:
405,208,575559,1,0,1:0:0:0:
188,289,575712,6,0,P|179:331|177:344,2,47.5,2|0|0,0:1|0:0|0:0,0:0:0:0:
128,137,576020,1,2,0:1:0:0:
159,115,576097,1,0,0:0:0:0:
196,117,576174,1,2,0:1:0:0:
188,289,576328,1,0,0:0:0:0:
280,190,576482,2,0,L|171:203,1,95,10|0,0:1|0:0,0:0:0:0:
97,243,576789,1,0,0:0:0:0:
37,99,576943,1,0,0:0:0:0:
93,267,577097,5,4,1:2:0:0:
168,171,577251,2,0,B|214:176|214:176|249:203|249:203|316:211,1,142.5,2|0,0:1|0:0,0:0:0:0:
323,202,577559,1,0,1:0:0:0:
396,49,577712,1,8,0:1:0:0:
394,72,577789,1,0,0:0:0:0:
392,95,577866,2,0,L|387:181,1,47.5
372,280,578020,5,0,1:0:0:0:
287,115,578174,1,2,1:1:0:0:
387,165,578328,1,0,0:0:0:0:
221,191,578482,2,0,B|175:203|175:203|125:186,1,95,2|2,0:1|0:1,0:0:0:0:
98,180,578712,1,0,3:0:0:0:
98,180,578789,2,0,L|110:235,1,47.5,2|0,3:1|0:0,0:0:0:0:
204,356,578943,2,0,L|220:215,1,142.5,8|0,0:1|0:0,0:0:0:0:
221,191,579251,2,0,L|322:208,1,95
334,220,579482,1,0,0:0:0:0:
353,233,579559,5,0,0:1:0:0:
255,69,579712,2,0,L|261:116,2,47.5
359,121,580020,1,0,0:0:0:0:
261,257,580174,1,8,0:1:0:0:
231,272,580251,1,0,0:0:0:0:
197,272,580328,1,2,0:1:0:0:
168,255,580405,1,0,0:0:0:0:
152,226,580482,2,0,P|153:198|158:160,1,47.5,2|0,0:0|0:0,0:0:0:0:
81,146,580636,2,0,P|80:118|75:80,1,47.5,2|2,0:0|0:0,0:0:0:0:
32,222,580789,5,0,0:0:0:0:
170,91,580943,2,0,P|216:101|263:108,1,95,2|2,0:1|0:1,0:0:0:0:
363,212,581251,1,0,0:0:0:0:
363,212,581328,1,0,0:0:0:0:
363,212,581405,2,2,P|350:165|372:71,1,142.5,8|0,0:1|0:1,0:1:0:0:
370,75,581712,1,0,0:0:0:0:
270,188,581866,2,0,L|221:208,2,47.5,2|0|4,0:1|0:0|0:2,0:0:0:0:
384,65,582174,5,2,0:2:0:0:
437,137,582328,1,2,0:2:0:0:
296,92,582482,1,2,0:2:0:0:
381,247,582636,5,8,0:1:0:0:
403,240,582712,1,0,0:0:0:0:
426,234,582789,2,0,L|476:224,1,47.5,2|0,0:2|0:0,0:0:0:0:
438,331,582943,5,2,0:1:0:0:
353,159,583097,1,2,0:1:0:0:
286,239,583251,5,2,0:2:0:0:
188,220,583405,1,2,0:1:0:0:
20,322,583559,5,2,0:1:0:0:
118,303,583712,1,2,0:2:0:0:
45,184,583866,6,0,L|53:242,2,47.5,8|0|2,0:1|0:0|0:1,0:0:0:0:
199,359,584174,2,2,P|203:295|213:207,1,142.5,0|0,0:1|0:1,0:1:0:0:
211,217,584482,5,0,0:0:0:0:
200,94,584636,1,2,0:2:0:0:
326,80,584789,1,2,0:2:0:0:
337,203,584943,1,2,0:2:0:0:
173,91,585097,6,0,L|73:75,1,95,8|2,0:1|0:2,0:0:0:0:
270,148,585405,1,2,0:1:0:0:
329,306,585559,2,0,P|384:314|484:267,1,142.5,2|0,0:1|0:0,0:0:0:0:
239,307,585866,6,0,L|228:367,2,47.5,2|0|2,0:1|0:0|0:1,0:0:0:0:
271,128,586174,1,2,0:2:0:0:
427,232,586328,2,0,L|309:219,1,95,8|0,0:1|0:0,0:0:0:0:
161,252,586636,1,2,0:2:0:0:
310,221,586789,1,2,0:2:0:0:
134,333,586943,5,4,0:2:0:0:
222,194,587097,1,2,0:2:0:0:
75,240,587251,2,0,L|21:253,2,47.5,0|0|0,0:0|0:0|1:0,0:0:0:0:
239,193,587559,5,8,0:1:0:0:
207,281,587712,1,2,0:2:0:0:
158,136,587866,1,2,0:1:0:0:
349,219,588020,6,0,L|245:205,1,95,2|0,1:1|0:0,0:0:0:0:
142,126,588328,1,2,0:1:0:0:
185,310,588482,2,0,B|195:264|195:264|175:220,1,95,2|2,0:1|0:2,0:0:0:0:
15,283,588712,1,0,0:0:0:0:
15,283,588789,2,0,L|121:268,1,95,8|2,0:1|1:2,0:0:0:0:
320,360,589097,5,2,0:2:0:0:
347,182,589251,1,2,0:1:0:0:
257,177,589405,5,0,0:0:0:0:
419,235,589559,1,2,0:2:0:0:
262,201,589712,1,0,3:0:0:0:
397,110,589866,1,2,0:2:0:0:
266,223,590020,6,0,L|286:322,1,95,8|2,0:1|0:0,0:0:0:0:
284,316,590251,1,2,0:0:0:0:
284,316,590328,1,2,0:1:0:0:
176,218,590482,2,0,L|169:265,2,47.5
211,57,590789,5,2,0:1:0:0:
338,162,590943,1,2,0:1:0:0:
191,138,591097,1,2,0:0:0:0:
163,131,591174,1,0,0:0:0:0:
138,145,591251,1,8,0:1:0:0:
114,161,591328,1,0,0:0:0:0:
85,157,591405,2,2,P|80:111|73:62,1,95,2|2,0:2|0:1,0:1:0:0:
57,246,591712,5,0,1:0:0:0:
454,189,591866,1,4,1:0:0:0:
120,116,611559,6,0,B|136:164|136:164|222:194,1,142.500005435944,0|0,1:0|1:0,0:0:0:0:
341,145,612020,2,0,B|340:143|385:155,1,35.625001358986,0|0,1:0|1:0,0:0:0:0:
341,145,612174,2,0,B|290:134|290:134|222:194,1,142.500005435944,0|0,1:2|1:0,0:0:0:0:
206,322,612636,2,0,B|207:322|174:354,1,35.625001358986,0|0,1:0|1:0,0:0:0:0:
206,322,612789,2,0,B|240:283|240:283|222:194,1,142.500005435944,0|0,1:2|1:0,0:0:0:0:
11,270,613251,22,0,L|157:250,1,142.500005435944,0|0,3:2|1:0,3:0:0:0:
206,322,613712,2,0,L|301:332,1,71.2500027179719,0|0,3:2|1:0,0:0:0:0:
416,327,614020,22,0,B|362:320|362:320|325:333|325:333|268:328,1,142.500005435944,0|0,1:2|1:0,0:0:0:0:
163,246,614482,2,0,B|162:247|164:244|152:189,1,35.625001358986,0|0,1:0|1:0,0:0:0:0:
163,246,614636,2,0,B|217:253|217:253|254:240|254:240|311:245,1,142.500005435944,0|0,1:0|1:0,0:0:0:0:
428,195,615097,2,0,B|425:197|429:193|443:147,1,35.625001358986,0|0,1:0|1:0,0:0:0:0:
428,195,615251,2,0,B|371:190|371:190|342:168|342:168|285:163,1,142.500005435944,0|0,1:0|1:0,0:0:0:0:
301,379,615712,22,0,B|323:333|323:333|302:244,1,142.500005435944,0|0,3:0|1:0,0:0:0:0:
403,113,616174,2,0,L|414:24,1,71.2500027179719,0|0,3:0|1:0,0:0:0:0:
293,163,616482,22,0,P|232:163|152:98,1,142.500005435944,0|0,1:0|1:0,0:0:0:0:
70,232,616943,1,0,1:0:0:0:
70,232,617020,1,0,1:0:0:0:
70,232,617097,2,0,P|131:232|211:167,1,142.500005435944,0|0,1:0|1:0,0:0:0:0:
158,33,617559,1,0,1:0:0:0:
158,33,617636,1,0,1:0:0:0:
158,33,617712,2,0,L|170:115,2,71.2500027179719,0|0|0,1:0|1:0|1:0,0:0:0:0:
250,229,618174,22,0,L|272:73,1,142.500005435944,0|0,3:0|1:0,0:0:0:0:
25,171,618636,1,0,3:0:0:0:
25,171,618943,22,0,B|77:177|77:177|108:199|108:199|173:205,1,142.500005435944,0|0,1:0|1:0,0:0:0:0:
218,124,619405,1,0,1:0:0:0:
218,124,619482,1,0,1:0:0:0:
218,124,619559,2,0,B|270:118|270:118|301:96|301:96|366:90,1,142.500005435944,0|0,1:0|1:0,0:0:0:0:
344,245,620020,21,0,1:0:0:0:
344,245,620097,1,0,1:0:0:0:
344,245,620174,2,0,L|336:161,2,71.2500027179719,0|0|0,1:0|1:0|1:0,0:0:0:0:
241,276,620636,2,0,B|215:210|215:210|239:138,1,142.500005435944,0|0,3:0|1:0,0:0:0:0:
476,288,621097,1,0,3:0:0:0:
476,288,621405,22,0,B|403:267|403:267|322:301,1,142.500005435944,0|0,1:0|1:0,0:0:0:0:
256,317,621866,1,0,1:0:0:0:
258,331,621943,1,0,1:0:0:0:
261,345,622020,2,0,L|268:246,1,71.2500027179719,0|0,1:0|1:0,0:0:0:0:
110,145,622328,22,0,L|120:237,1,71.2500027179719,0|0,1:0|1:0,0:0:0:0:
151,202,622559,1,0,1:0:0:0:
184,190,622636,2,0,L|193:272,2,71.2500027179719,0|0|0,1:0|1:0|1:0,0:0:0:0:
32,319,623097,22,0,P|15:260|33:156,1,142.500005435944,0|0,3:0|1:0,0:0:0:0:
64,94,623559,2,0,L|133:78,1,71.2500027179719,0|0,3:0|1:0,0:0:0:0:
23,180,623866,22,0,L|178:207,1,142.500005435944,0|0,1:0|1:0,0:0:0:0:
262,215,624328,1,0,1:0:0:0:
273,224,624405,1,0,1:0:0:0:
284,233,624482,2,0,L|274:142,1,71.2500027179719,0|0,1:0|1:0,0:0:0:0:
458,76,624789,22,0,L|448:167,1,71.2500027179719,0|0,1:0|1:0,0:0:0:0:
418,131,625020,1,0,1:0:0:0:
386,115,625097,2,0,L|373:207,2,71.2500027179719,0|0|0,1:0|1:0|1:0,0:0:0:0:
481,268,625559,22,0,B|434:262|434:262|395:276|395:276|314:267,1,142.500005435944,0|0,3:0|1:0,0:0:0:0:
278,333,626020,2,0,L|190:350,1,71.2500027179719,0|0,3:0|1:0,0:0:0:0:
296,191,626328,22,0,B|206:168|206:168|157:193,1,142.500005435944,0|0,1:0|1:0,0:0:0:0:
88,300,626789,1,0,1:0:0:0:
88,300,626866,1,0,1:0:0:0:
88,300,626943,2,0,L|75:213,1,71.2500027179719,0|0,1:0|1:0,0:0:0:0:
105,36,627251,22,0,B|92:69|92:69|104:118,1,71.2500027179719,0|0,1:0|1:0,0:0:0:0:
220,117,627482,1,0,1:0:0:0:
220,117,627559,2,0,B|233:84|233:84|221:35,2,71.2500027179719,0|0|0,1:0|1:0|1:0,0:0:0:0:
160,293,628020,22,0,B|133:251|133:251|155:143,1,142.500005435944,0|0,3:0|1:0,0:0:0:0:
396,195,628482,1,0,3:0:0:0:
396,195,628789,22,0,L|236:213,1,142.500005435944,0|0,1:0|1:0,0:0:0:0:
161,126,629251,1,0,1:0:0:0:
161,126,629328,1,0,1:0:0:0:
161,126,629405,2,0,L|74:117,1,71.2500027179719,0|0,1:0|1:0,0:0:0:0:
261,311,629712,22,0,L|174:324,1,71.2500027179719,0|0,1:0|1:0,0:0:0:0:
122,359,629943,1,0,1:0:0:0:
122,359,630020,2,0,B|111:323|111:323|119:279,2,71.2500027179719,0|0|0,1:0|1:0|1:0,0:0:0:0:
312,212,630482,22,0,B|239:190|254:250|172:227,1,142.500005435944,0|0,3:0|1:0,0:0:0:0:
18,182,630943,1,0,3:0:0:0:
18,182,631251,22,0,L|122:163,1,95,4|0,1:0|0:0,0:0:0:0:
197,146,631712,1,0,0:0:0:0:
218,322,631866,2,0,B|227:277|227:277|212:230,1,95,8|0,0:1|0:0,0:0:0:0:
305,65,632328,2,0,L|294:167,1,95,0|0,3:0|0:0,0:0:0:0:
380,348,632789,2,0,L|369:299,1,47.5,0|0,3:0|0:0,0:0:0:0:
357,218,633097,1,8,0:1:0:0:
386,93,633405,2,0,L|377:151,1,47.5
357,218,633712,22,0,B|319:222|319:222|300:231|300:231|250:235,1,95,0|0,3:0|0:0,0:0:0:0:
189,198,634174,1,0,0:0:0:0:
127,366,634328,2,0,L|143:266,1,95,8|0,0:1|0:0,0:0:0:0:
176,94,634789,1,0,3:0:0:0:
56,132,634943,2,0,B|46:180|46:180|63:229,1,95,0|0,3:0|3:0,0:0:0:0:
61,223,635405,1,0,0:0:0:0:
134,175,635559,1,8,0:1:0:0:
245,348,635866,1,8,0:1:0:0:
380,205,636174,22,0,P|410:206|430:209,1,47.5,0|0,3:0|0:0,0:0:0:0:
448,41,636482,2,0,P|418:40|398:37,1,47.5
321,115,636789,2,0,L|427:123,1,95,8|0,0:1|0:0,0:0:0:0:
478,318,637251,2,0,L|372:310,1,95,0|0,3:0|0:0,0:0:0:0:
241,270,637712,1,0,3:0:0:0:
295,355,637866,1,0,0:0:0:0:
332,220,638020,1,8,0:1:0:0:
332,220,638328,2,0,L|343:157,1,47.5
154,193,638636,22,0,L|94:201,1,47.5,0|0,3:0|0:0,0:0:0:0:
21,214,638943,1,0,0:0:0:0:
53,133,639097,1,0,0:0:0:0:
136,283,639251,2,0,L|241:270,1,95,8|0,0:1|0:0,0:0:0:0:
297,157,639712,1,0,3:0:0:0:
339,323,639866,2,0,B|320:297|320:297|334:223,1,95,0|0,3:0|3:0,0:0:0:0:
331,235,640328,1,0,0:0:0:0:
413,282,640482,1,8,0:1:0:0:
417,90,640789,1,8,0:1:0:0:
339,323,641097,22,0,L|241:332,1,95,0|0,3:0|0:0,0:0:0:0:
406,230,641559,1,0,0:0:0:0:
272,222,641712,2,0,L|159:213,1,95,8|0,0:1|0:0,0:0:0:0:
490,278,642174,2,0,B|506:232|506:232|486:171,1,95,0|0,3:0|0:0,0:0:0:0:
272,222,642636,2,0,L|333:225,1,47.5,0|0,3:0|0:0,0:0:0:0:
406,230,642943,1,8,0:1:0:0:
335,85,643251,2,0,L|328:145,1,47.5
406,230,643559,22,0,P|412:182|421:117,1,95,0|0,3:0|0:0,0:0:0:0:
246,160,644020,1,0,0:0:0:0:
318,38,644174,2,0,P|324:85|330:132,1,95,8|0,0:1|0:0,0:0:0:0:
279,298,644636,1,0,3:0:0:0:
181,198,644789,2,0,L|74:191,1,95,0|0,3:0|3:0,0:0:0:0:
86,191,645251,1,0,0:0:0:0:
52,121,645405,1,8,0:1:0:0:
212,288,645712,1,8,0:1:0:0:
319,55,646020,22,0,P|339:91|338:162,1,95,0|0,3:0|0:0,0:0:0:0:
243,126,646482,1,0,0:0:0:0:
165,191,646636,2,0,P|145:155|146:84,1,95,8|0,0:1|0:0,0:0:0:0:
273,235,647097,2,0,L|296:334,1,95,0|0,3:0|0:0,0:0:0:0:
182,327,647559,2,0,L|197:270,1,47.5,0|0,3:0|0:0,0:0:0:0:
243,126,647866,1,8,0:1:0:0:
390,269,648174,2,0,L|347:231,1,47.5
407,73,648482,22,0,L|368:172,1,95,0|0,3:0|0:0,0:0:0:0:
284,187,648943,1,0,0:0:0:0:
219,24,649097,2,0,L|219:140,1,95,8|0,0:1|0:0,0:0:0:0:
284,187,649559,1,0,3:0:0:0:
209,248,649712,2,0,L|173:287,1,47.5,0|0,3:0|0:0,0:0:0:0:
299,285,650020,2,0,L|303:336,1,47.5,0|0,3:0|0:0,0:0:0:0:
410,266,650943,21,0,0:0:0:0:
410,266,651097,1,0,0:0:0:0:
410,266,651251,1,0,0:0:0:0:
410,266,651405,1,0,0:0:0:0:
410,266,651559,22,0,P|465:282|515:282,1,95
410,266,652020,2,0,P|362:268|317:283,1,95
298,363,652482,1,0,0:0:0:0:
232,238,652789,2,0,P|224:273|222:314,2,71.25
227,143,653405,21,0,0:0:0:0:
298,363,653635,1,0,0:0:0:0:
128,224,653866,1,0,0:0:0:0:
232,238,654020,22,0,L|334:253,1,95
128,224,654635,2,0,L|42:213,2,71.25
232,238,655251,1,0,0:0:0:0:
232,238,655405,1,0,0:0:0:0:
285,165,655559,2,0,L|276:109,2,47.5
372,177,656020,2,0,L|389:120,2,47.5
314,253,656482,22,0,B|387:254|359:297|454:300,2,142.5
132,304,657559,1,0,0:0:0:0:
217,344,657712,1,0,0:0:0:0:
132,304,657866,2,0,L|28:319,1,95
73,140,658328,2,0,L|177:125,1,95
246,169,658789,1,0,0:0:0:0:
246,169,658943,22,0,P|253:120|238:59,1,95
327,54,659405,2,0,P|386:73|470:49,1,142.5
107,196,660174,2,0,L|113:253,2,47.5
107,196,660635,1,0,0:0:0:0:
35,275,660789,2,0,L|20:128,1,142.5
21,134,661405,22,0,P|73:141|125:143,1,95,0|0,1:0|0:0,0:0:0:0:
299,128,661712,1,0,1:0:0:0:
261,124,661789,1,0,0:0:0:0:
224,136,661866,1,0,0:0:0:0:
200,165,661943,1,0,0:0:0:0:
192,202,662020,1,8,0:1:0:0:
171,74,662174,2,0,L|165:19,2,47.5,2|0|2,0:0|0:0|0:0,0:0:0:0:
287,211,662482,21,2,0:0:0:0:
287,211,662559,1,0,0:0:0:0:
287,211,662635,2,0,P|281:250|279:273,1,47.5,2|0,0:0|0:0,0:0:0:0:
271,353,662789,1,0,1:0:0:0:
448,320,662943,2,0,B|402:327|402:327|353:307,1,95,0|0,1:0|0:0,0:0:0:0:
359,27,663251,2,0,L|375:172,1,142.5,8|0,0:1|0:0,0:0:0:0:
375,169,663559,2,0,B|421:162|421:162|470:182,1,95,0|0,3:2|3:0,0:0:0:0:
304,228,663866,22,0,L|240:220,2,47.5,0|0|0,1:0|0:0|0:0,0:0:0:0:
65,335,664174,1,0,1:0:0:0:
101,345,664251,1,0,0:0:0:0:
137,336,664328,1,0,0:0:0:0:
169,316,664405,1,0,0:0:0:0:
183,280,664482,2,0,L|175:175,1,95,8|2,0:1|0:0,0:0:0:0:
191,150,664712,1,0,0:0:0:0:
225,133,664789,2,0,L|291:142,2,47.5,2|0|2,0:0|0:0|0:0,0:0:0:0:
124,83,665097,21,2,0:0:0:0:
93,253,665251,1,0,1:0:0:0:
256,222,665405,2,0,L|269:336,1,95,0|0,1:0|0:0,0:0:0:0:
267,317,665635,1,0,0:0:0:0:
267,317,665712,1,8,0:1:0:0:
432,189,665866,21,0,3:0:0:0:
343,166,666020,1,0,3:0:0:0:
409,97,666174,1,0,3:0:0:0:
223,70,666328,22,0,P|279:78|324:79,1,95,0|0,1:0|0:0,0:0:0:0:
214,244,666635,1,0,1:0:0:0:
181,262,666712,1,0,0:0:0:0:
143,265,666789,1,0,0:0:0:0:
106,252,666866,1,0,0:0:0:0:
78,226,666943,1,8,0:1:0:0:
147,93,667097,1,2,0:0:0:0:
147,93,667174,1,0,0:0:0:0:
147,93,667251,2,0,B|169:136|169:136|156:197,1,95,2|2,0:0|0:0,0:0:0:0:
70,145,667559,21,2,0:0:0:0:
239,36,667712,1,0,1:0:0:0:
267,229,667866,2,0,L|255:130,1,95,0|0,1:0|0:0,0:0:0:0:
501,160,668174,2,0,P|437:137|350:166,1,142.5,8|0,0:1|0:0,0:0:0:0:
366,154,668482,2,0,L|377:59,1,95,0|0,3:0|3:0,0:0:0:0:
173,245,668789,22,0,L|276:227,1,95,0|0,1:0|0:0,0:0:0:0:
436,319,669097,1,0,1:0:0:0:
410,290,669174,1,0,0:0:0:0:
374,275,669251,1,0,0:0:0:0:
336,281,669328,1,0,0:0:0:0:
307,305,669405,2,0,L|202:323,1,95,8|2,0:1|0:0,0:0:0:0:
176,312,669635,1,0,0:0:0:0:
147,337,669712,1,2,0:0:0:0:
110,347,669789,1,0,0:0:0:0:
72,340,669866,1,2,0:0:0:0:
192,225,670020,21,2,0:0:0:0:
49,127,670174,1,0,1:0:0:0:
102,259,670328,2,0,L|121:163,1,95,0|0,1:0|0:0,0:0:0:0:
182,89,670635,21,8,0:1:0:0:
346,143,670789,1,0,3:0:0:0:
259,31,670943,2,0,L|267:128,1,95,4|0,3:2|3:0,0:0:0:0:
256,192,671251,12,2,673866,0:1:0:0:
256,192,686943,12,2,691251,0:1:0:0:
311,329,696943,22,0,P|367:338|464:325,1,142.500005435944,2|0,0:0|0:0,0:0:0:0:
451,328,697405,1,2,0:0:0:0:
201,329,698174,22,0,P|145:338|48:325,1,142.500005435944,2|0,0:0|0:0,0:0:0:0:
60,328,698635,1,2,0:0:0:0:
66,244,698789,2,0,P|56:202|46:168,2,71.2500027179719
155,256,699251,1,0,0:0:0:0:
210,190,699405,22,0,P|257:178|352:225,1,142.500005435944,2|0,0:0|0:0,0:0:0:0:
364,297,699866,1,2,0:0:0:0:
364,297,700174,2,0,P|416:302|446:305,1,71.2500027179719
341,212,700482,1,0,0:0:0:0:
281,275,700635,22,0,B|197:261|227:299|136:286,1,142.500005435944,2|0,0:0|0:0,0:0:0:0:
141,286,701097,1,2,0:0:0:0:
333,65,701559,22,0,P|388:44|484:38,2,142.500005435944,0|2|0,0:0|0:0|0:0,0:0:0:0:
240,26,702328,1,2,0:0:0:0:
279,144,702482,2,0,P|300:172|325:197,1,71.2500027179719
195,102,702789,1,0,0:0:0:0:
195,102,703097,22,0,P|140:123|44:129,1,142.500005435944,2|0,0:0|0:0,0:0:0:0:
57,130,703559,1,2,0:0:0:0:
261,184,703866,1,0,0:0:0:0:
261,184,704020,2,0,L|267:254,1,71.2500027179719
366,345,704328,22,0,L|352:202,1,142.500005435944,2|0,0:0|0:0,0:0:0:0:
226,134,704789,2,0,L|240:277,1,142.500005435944,2|0,0:0|0:0,0:0:0:0:
181,337,705251,1,0,0:0:0:0:
138,261,705405,1,0,0:0:0:0:
58,291,705559,22,0,B|138:273|107:324|207:303,1,142.500005435944,2|0,0:0|0:0,0:0:0:0:
290,270,706020,1,2,0:0:0:0:
290,270,706328,2,0,P|286:225|277:194,1,71.2500027179719
222,138,706635,1,0,0:0:0:0:
222,138,706789,1,2,0:0:0:0:
305,107,706943,22,0,P|347:112|411:108,1,85.4999973907472,0|0,1:0|0:0,0:0:0:0:
506,206,707251,1,4,1:2:0:0:
481,189,707328,1,0,0:0:0:0:
451,182,707405,1,0,0:0:0:0:
421,185,707482,1,0,0:0:0:0:
394,199,707559,2,0,L|384:288,1,85.4999973907472,8|2,0:1|0:2,0:0:0:0:
383,305,707789,1,0,0:0:0:0:
381,326,707866,1,2,0:2:0:0:
309,232,708020,22,0,L|296:185,2,42.7499986953736,2|0|2,0:2|0:0|0:2,0:0:0:0:
464,270,708328,1,0,1:0:0:0:
287,329,708482,21,4,1:2:0:0:
215,262,708635,1,0,0:0:0:0:
321,218,708789,21,8,0:1:0:0:
287,348,708943,1,0,3:0:0:0:
128,267,709097,2,0,L|145:351,1,85.4999973907472,0|0,3:0|3:0,0:0:0:0:
232,169,709405,22,0,P|178:172|141:199,1,85.4999973907472,0|0,1:0|0:0,0:0:0:0:
46,66,709712,1,4,1:2:0:0:
71,81,709789,1,0,0:0:0:0:
100,88,709866,1,0,0:0:0:0:
129,87,709943,1,0,0:0:0:0:
155,73,710020,2,0,L|253:80,1,85.4999973907472,8|2,0:1|0:2,0:0:0:0:
269,87,710251,1,0,0:0:0:0:
297,79,710328,2,0,P|295:130|302:168,1,85.4999973907472,2|2,0:2|0:2,0:0:0:0:
387,202,710635,21,2,0:2:0:0:
319,363,710789,1,0,1:0:0:0:
462,282,710943,2,0,L|325:267,1,128.249996086121,4|0,1:2|0:0,0:0:0:0:
318,284,711251,2,0,B|328:241|328:241|313:189,1,85.4999973907472,8|0,0:1|3:0,0:0:0:0:
137,214,711559,2,0,B|127:257|127:257|142:309,1,85.4999973907472,0|0,3:0|3:0,0:0:0:0:
237,365,711866,22,0,L|228:252,1,85.4999973907472,0|0,1:0|0:0,0:0:0:0:
199,184,712174,1,4,1:2:0:0:
171,195,712251,1,0,0:0:0:0:
141,196,712328,1,0,0:0:0:0:
111,190,712405,1,0,0:0:0:0:
88,170,712482,1,8,0:1:0:0:
162,22,712635,2,0,L|151:125,1,85.4999973907472,2|2,0:2|0:2,0:0:0:0:
62,291,712943,2,0,L|47:239,2,42.7499986953736,2|0|2,0:2|0:0|0:2,0:0:0:0:
152,107,713251,21,0,1:0:0:0:
295,206,713405,2,0,L|209:199,1,85.4999973907472,4|0,1:2|0:0,0:0:0:0:
227,39,713712,2,0,L|312:45,1,85.4999973907472,8|0,0:1|3:0,0:0:0:0:
381,134,714020,1,0,3:0:0:0:
167,193,714174,1,0,3:0:0:0:
167,193,714251,1,0,3:0:0:0:
167,193,714328,22,0,P|170:235|188:274,1,85.4999973907472,0|0,1:0|0:0,0:0:0:0:
377,231,714635,1,4,1:2:0:0:
347,228,714712,1,0,0:0:0:0:
317,226,714789,1,0,0:0:0:0:
287,224,714866,1,0,0:0:0:0:
257,222,714943,1,8,0:1:0:0:
262,140,715097,1,2,0:2:0:0:
277,305,715251,1,2,0:2:0:0:
350,157,715405,2,0,P|346:114|328:75,1,85.4999973907472,2|2,0:2|0:2,0:0:0:0:
199,52,715712,21,0,1:0:0:0:
134,157,715866,1,4,1:2:0:0:
105,165,715943,1,0,0:0:0:0:
75,163,716020,1,0,0:0:0:0:
47,151,716097,1,0,0:0:0:0:
26,129,716174,1,8,0:1:0:0:
172,145,716328,2,0,P|164:195|157:246,1,85.4999973907472,0|0,3:0|3:0,0:0:0:0:
100,66,716635,21,0,1:0:0:0:
253,81,717097,1,0,1:0:0:0:
412,318,717866,21,0,1:0:0:0:
259,303,718328,1,0,1:0:0:0:
208,235,718482,2,0,P|204:186|196:151,1,71.2500027179719,2|2,0:0|0:0,0:0:0:0:
279,140,718789,2,0,P|285:98|293:62,1,71.2500027179719,2|2,0:0|0:0,0:0:0:0:
377,57,719097,21,0,1:0:0:0:
65,191,719559,1,0,1:0:0:0:
65,191,719866,21,2,0:0:0:0:
166,158,720020,1,2,0:0:0:0:
32,88,720174,1,2,0:0:0:0:
135,57,720328,21,0,1:0:0:0:
447,191,720789,1,0,1:0:0:0:
135,57,721251,21,2,0:0:0:0:
163,143,721405,1,0,3:0:0:0:
223,77,721559,22,0,B|282:84|282:84|305:105|305:105|368:114,1,142.500005435944,0|0,1:0|0:0,0:0:0:0:
421,48,722020,1,0,1:0:0:0:
420,164,722174,1,2,0:0:0:0:
423,181,722251,1,0,0:0:0:0:
426,198,722328,1,2,0:0:0:0:
429,215,722405,1,0,0:0:0:0:
431,232,722482,2,0,L|444:312,1,71.2500027179719,2|0,0:0|0:0,0:0:0:0:
484,160,722789,22,0,B|451:147|451:147|378:158|378:158|343:193,1,142.500005435944,0|0,1:0|0:0,0:0:0:0:
302,267,723251,1,0,1:0:0:0:
273,179,723405,1,2,0:0:0:0:
276,162,723482,1,0,0:0:0:0:
279,145,723559,1,2,0:0:0:0:
282,128,723635,1,0,0:0:0:0:
284,111,723712,2,0,L|296:29,1,71.2500027179719,2|0,0:0|0:0,0:0:0:0:
64,282,724020,22,0,B|138:292|138:292|213:248,1,142.500005435944,0|0,1:0|0:0,0:0:0:0:
214,170,724482,1,0,1:0:0:0:
382,234,724635,1,0,0:0:0:0:
357,231,724712,1,0,0:0:0:0:
332,228,724789,1,0,0:0:0:0:
307,225,724866,1,0,0:0:0:0:
282,221,724943,5,2,0:0:0:0:
403,237,725097,1,2,0:0:0:0:
455,106,725251,6,0,B|381:116|381:116|306:72,1,142.500005435944,0|0,1:0|0:0,0:0:0:0:
251,27,725712,1,0,1:0:0:0:
136,118,725866,1,0,0:0:0:0:
161,115,725943,1,0,0:0:0:0:
186,112,726020,1,0,0:0:0:0:
211,109,726097,1,0,0:0:0:0:
236,105,726174,5,2,0:0:0:0:
112,121,726328,2,2,L|26:132,1,71.2500027179719,2|0,0:2|0:1,0:1:0:0:
212,187,726635,21,4,1:0:0:0:
121,281,726789,1,0,1:0:0:0:
230,325,726943,2,0,L|335:332,1,95,8|2,0:1|0:2,0:0:0:0:
360,317,727174,1,0,0:0:0:0:
390,339,727251,1,2,0:2:0:0:
426,348,727328,1,0,0:0:0:0:
463,340,727405,1,2,1:2:0:0:
410,169,727559,2,0,P|417:231|424:278,1,95,8|0,3:1|3:0,0:0:0:0:
307,102,727866,21,0,1:0:0:0:
208,269,728020,1,0,1:0:0:0:
152,93,728174,1,8,0:1:0:0:
300,233,728328,1,2,1:1:0:0:
300,233,728405,1,0,0:0:0:0:
300,233,728482,2,0,L|306:174,2,47.5,2|0|2,0:2|0:0|1:2,0:0:0:0:
122,184,728789,2,0,P|178:182|230:160,1,95,2|8,3:1|3:1,0:0:0:0:
335,35,729097,22,0,L|347:151,1,95,0|0,1:0|1:0,0:0:0:0:
309,327,729405,2,0,L|297:211,1,95,8|2,0:1|0:2,0:0:0:0:
286,196,729635,1,0,0:0:0:0:
320,211,729712,1,2,0:2:0:0:
357,213,729789,1,0,0:0:0:0:
393,200,729866,1,2,1:2:0:0:
309,327,730020,1,8,3:1:0:0:
259,171,730174,1,2,3:2:0:0:
209,260,730328,21,0,1:0:0:0:
334,122,730482,1,0,1:0:0:0:
192,99,730635,2,0,P|144:97|88:81,1,95,8|2,0:1|0:1,0:0:0:0:
57,152,730866,1,0,0:0:0:0:
57,152,730943,2,0,L|66:206,2,47.5,0|0|2,0:0|0:0|1:1,0:0:0:0:
244,187,731251,1,2,3:1:0:0:
71,239,731405,1,8,3:1:0:0:
163,343,731559,22,0,L|175:237,1,95,0|0,1:0|1:0,0:0:0:0:
52,318,731866,1,8,0:1:0:0:
128,178,732020,1,2,0:2:0:0:
163,163,732097,1,0,0:0:0:0:
200,167,732174,1,2,0:2:0:0:
230,190,732251,1,0,0:0:0:0:
247,224,732328,2,0,L|347:235,1,95,2|8,1:2|3:1,0:0:0:0:
258,104,732635,22,0,L|248:47,2,47.5,0|0|0,3:0|0:0|1:0,0:0:0:0:
171,249,732943,1,2,1:1:0:0:
328,152,733097,2,0,L|177:139,1,142.5,8|0,0:1|0:0,0:0:0:0:
186,139,733405,1,2,1:1:0:0:
342,66,733559,1,0,1:0:0:0:
270,237,733712,1,8,3:1:0:0:
435,198,733866,22,0,P|431:146|427:88,1,95,8|0,3:1|1:0,0:0:0:0:
482,318,734174,1,0,1:0:0:0:
270,237,734328,2,0,P|274:289|278:347,1,95,8|2,0:1|0:2,0:0:0:0:
331,121,734635,2,0,P|283:124|236:127,1,95,2|2,0:2|1:2,0:0:0:0:
368,306,734943,2,0,P|416:302|463:299,1,95,8|0,3:1|3:0,0:0:0:0:
351,214,735251,21,0,1:0:0:0:
205,283,735405,1,0,1:0:0:0:
177,116,735559,1,8,0:1:0:0:
212,102,735635,1,0,0:0:0:0:
249,109,735712,1,2,0:1:0:0:
274,137,735789,1,0,0:0:0:0:
277,174,735866,22,0,P|272:197|268:220,1,47.5
296,362,736020,2,0,P|291:340|287:315,1,47.5,2|0,1:1|0:0,0:0:0:0:
159,292,736174,2,0,P|182:287|205:283,1,47.5,2|0,0:1|0:0,0:0:0:0:
397,222,736328,2,0,P|373:217|350:213,1,47.5,8|0,0:1|0:0,0:0:0:0:
277,174,736482,22,0,B|269:122|269:122|290:77,1,95,0|0,1:0|1:0,0:0:0:0:
190,10,736789,2,0,B|198:62|198:62|177:107,1,95,8|2,0:1|0:2,0:0:0:0:
162,134,737020,1,0,0:0:0:0:
129,113,737097,1,2,0:2:0:0:
91,104,737174,1,0,0:0:0:0:
54,114,737251,1,2,1:2:0:0:
106,282,737405,1,8,3:1:0:0:
181,179,737559,1,2,3:2:0:0:
6,216,737712,22,0,P|67:211|107:191,1,95,0|0,1:0|1:0,0:0:0:0:
211,91,738020,2,0,P|184:146|182:190,1,95,8|2,0:1|1:0,0:0:0:0:
189,202,738251,1,0,0:0:0:0:
201,222,738328,1,0,0:0:0:0:
51,306,738482,1,0,1:0:0:0:
195,340,738635,2,0,P|160:289|122:265,1,95,2|8,3:1|3:1,0:0:0:0:
349,126,738943,21,0,1:0:0:0:
361,269,739097,2,0,L|351:386,1,95,0|8,1:0|0:1,0:0:0:0:
258,203,739405,2,0,L|202:212,2,47.5,2|0|2,0:2|0:0|0:2,0:0:0:0:
440,84,739712,1,2,1:2:0:0:
361,269,739866,2,0,L|349:118,1,142.5,8|0,3:1|0:0,0:0:0:0:
349,126,740174,21,0,1:0:0:0:
465,193,740328,1,0,1:0:0:0:
342,106,740482,2,0,P|289:111|246:110,1,95,8|2,0:1|0:1,0:0:0:0:
224,103,740712,1,0,0:0:0:0:
203,91,740789,1,0,0:0:0:0:
159,222,740943,1,2,1:1:0:0:
59,153,741097,1,2,3:1:0:0:
253,198,741251,22,0,P|257:248|263:300,1,95,8|0,3:1|1:0,0:0:0:0:
169,322,741559,1,0,1:0:0:0:
142,119,741712,2,0,P|192:115|244:109,1,95,8|2,0:1|0:2,0:0:0:0:
68,247,742020,2,0,P|64:197|58:145,1,95,2|2,0:2|1:2,0:0:0:0:
169,322,742328,2,0,P|119:326|67:332,1,95,8|0,3:1|3:0,0:0:0:0:
270,326,742635,21,0,1:0:0:0:
298,111,742789,1,2,1:0:0:0:
298,111,742866,1,0,0:0:0:0:
298,111,742943,2,0,L|314:218,1,95,8|0,0:1|0:0,0:0:0:0:
297,240,743174,1,0,0:0:0:0:
334,235,743251,1,2,1:0:0:0:
369,249,743328,1,0,0:0:0:0:
396,274,743405,2,0,L|509:263,1,95,0|8,1:0|3:1,0:0:0:0:
222,178,743712,2,0,L|171:172,2,47.5,8|0|0,3:1|0:0|1:0,0:0:0:0:
323,317,744020,21,0,1:0:0:0:
374,73,744174,2,0,L|361:219,1,142.5,8|0,0:1|0:0,0:0:0:0:
361,214,744482,2,0,B|408:203|408:203|459:221,1,95,2|2,0:2|1:2,0:0:0:0:
273,139,744789,2,0,L|258:45,1,95,8|0,3:1|3:0,0:0:0:0:
366,124,745097,21,0,1:0:0:0:
210,203,745251,1,0,1:0:0:0:
299,333,745405,21,8,0:1:0:0:
336,337,745482,1,0,0:0:0:0:
371,326,745559,1,2,0:0:0:0:
391,292,745635,1,0,0:0:0:0:
388,253,745712,1,2,0:0:0:0:
366,221,745789,1,0,0:0:0:0:
329,212,745866,1,2,1:1:0:0:
292,225,745943,1,0,0:0:0:0:
268,254,746020,21,10,0:1:0:0:
242,282,746097,1,0,0:0:0:0:
205,292,746174,1,10,0:1:0:0:
170,275,746251,1,0,0:0:0:0:
139,244,746328,38,0,P|82:239|40:234,2,71.2500027179719,4|0|0,1:0|0:0|3:0,0:0:0:0:
177,319,746789,2,0,P|173:271|195:173,1,142.500005435944,2|0,0:0|3:0,0:0:0:0:
93,88,747251,2,0,P|106:138|109:169,1,71.2500027179719,2|0,0:0|3:0,0:0:0:0:
192,179,747559,22,0,B|285:166|246:197|340:177,1,142.500005435944,2|0,0:0|3:0,0:0:0:0:
333,178,748020,1,2,0:0:0:0:
415,134,748174,2,0,P|422:183|426:212,1,71.2500027179719,0|0,0:0|3:0,0:0:0:0:
252,231,748482,2,0,P|245:182|241:153,2,71.2500027179719,2|0|2,0:0|3:0|0:0,0:0:0:0:
252,231,749097,22,0,L|173:221,1,71.2500027179719,0|2,3:0|0:0,0:0:0:0:
130,52,749405,2,0,L|209:62,1,71.2500027179719,0|0,0:0|3:0,0:0:0:0:
252,231,749712,1,2,0:0:0:0:
191,141,749866,22,0,L|33:167,1,142.500005435944,2|0,3:2|0:0,0:0:0:0:
50,164,750328,2,0,L|36:247,2,71.2500027179719,0|2|0,3:0|0:0|0:0,0:0:0:0:
130,228,750789,2,0,L|143:311,2,71.2500027179719,2|0|2,3:2|0:0|3:2,0:0:0:0:
191,141,751251,22,0,B|248:147|248:147|274:166|274:166|333:172,1,142.500005435944,2|0,3:2|3:0,0:0:0:0:
395,105,751712,1,2,0:2:0:0:
326,171,751866,1,0,0:0:0:0:
395,105,752020,2,0,L|411:27,1,71.2500027179719,0|2,3:0|0:2,0:0:0:0:
411,195,752328,22,0,P|409:258|388:348,1,142.500005435944,0|2,3:0|0:2,0:0:0:0:
265,167,752789,1,0,3:0:0:0:
265,167,753097,2,0,P|254:132|250:97,1,71.2500027179719,2|0,0:2|3:0,0:0:0:0:
237,253,753405,2,0,P|212:281|182:304,1,71.2500027179719,2|0,0:2|3:0,0:0:0:0:
322,233,753712,22,0,P|373:243|458:287,2,142.500005435944,2|0|0,0:2|3:0|0:0,0:0:0:0:
324,79,754482,2,0,L|335:158,1,71.2500027179719,0|2,3:0|0:2,0:0:0:0:
243,266,754789,22,0,B|228:180|259:219|240:111,1,142.500005435944,2|0,3:2|0:0,0:0:0:0:
132,59,755251,2,0,L|185:70,3,35.625001358986,2|0|0|0,3:2|0:0|0:0|0:0,0:0:0:0:
64,117,755559,22,0,L|22:128,1,35.625001358986,2|0,0:2|0:0,0:0:0:0:
144,151,755712,2,0,L|184:159,1,35.625001358986,2|0,3:2|0:0,0:0:0:0:
88,213,755866,21,2,0:2:0:0:
100,238,755943,1,2,0:2:0:0:
95,266,756020,1,2,3:2:0:0:
105,292,756097,1,2,0:2:0:0:
96,319,756174,22,0,P|153:311|179:309,1,71.2500027179719,2|0,0:2|0:0,0:0:0:0:
316,230,756482,1,0,3:0:0:0:
316,230,756635,2,0,P|268:237|160:217,1,142.500005435944,2|0,0:2|3:0,0:0:0:0:
175,223,757097,2,0,L|162:143,1,71.2500027179719,2|0,0:2|3:0,0:0:0:0:
188,52,757405,22,0,P|240:40|316:89,1,142.500005435944,2|0,0:2|3:0,0:0:0:0:
312,83,757866,1,2,0:2:0:0:
240,135,758020,2,0,L|152:149,1,71.2500027179719,0|0,0:0|3:0,0:0:0:0:
392,129,758328,2,0,L|475:113,2,71.2500027179719,2|0|2,0:2|3:0|0:2,0:0:0:0:
392,129,758943,22,0,L|425:203,1,71.2500027179719,0|2,3:0|0:2,0:0:0:0:
315,205,759251,2,0,L|322:281,1,71.2500027179719,0|0,0:0|3:0,0:0:0:0:
222,148,759559,2,0,L|208:233,1,71.2500027179719,2|0,0:2|3:0,0:0:0:0:
315,205,759866,22,0,B|288:115|328:152|304:51,1,142.500005435944,2|0,0:2|3:0,0:0:0:0:
225,102,760328,2,0,P|191:112|156:113,2,71.2500027179719,2|0|0,0:2|0:0|3:0,0:0:0:0:
386,160,760789,2,0,P|427:167|467:181,1,71.2500027179719,2|0,0:2|3:0,0:0:0:0:
224,198,761097,22,0,L|73:212,1,142.500005435944,2|0,3:2|3:0,0:0:0:0:
82,211,761559,2,0,L|62:127,2,71.2500027179719,2|0|0,0:2|0:0|3:0,0:0:0:0:
112,345,762020,1,2,0:2:0:0:
35,309,762174,22,0,L|186:295,1,142.500005435944,0|2,3:0|0:2,0:0:0:0:
176,295,762635,2,0,L|192:364,2,71.2500027179719,0|0|2,3:0|0:0|0:2,0:0:0:0:
217,163,763097,2,0,B|231:219|231:219|253:242|253:242|267:302,1,142.500005435944,0|0,3:0|3:0,0:0:0:0:
265,293,763559,1,4,1:2:0:0:
265,293,764789,22,0,L|348:283,1,81.4285714285714,0|0,3:3|0:0,0:0:0:0:
428,272,765866,21,8,0:3:0:0:
432,289,766174,1,4,0:3:0:0:
437,308,766482,22,0,L|447:213,1,95,0|0,1:0|0:0,0:0:0:0:
446,213,766943,1,2,0:0:0:0:
268,166,767097,69,4,1:0:0:0:
268,48,767251,2,0,P|275:102|284:162,1,95,0|0,0:0|1:0,0:0:0:0:
180,109,767559,1,8,0:1:0:0:
349,179,767712,2,2,L|204:193,1,142.5,0|0,0:1|0:1,0:1:0:0:
172,192,768020,1,0,1:1:0:0:
221,364,768174,2,0,P|228:310|237:250,1,95,8|0,3:1|3:0,0:0:0:0:
93,141,768482,21,0,1:0:0:0:
36,275,768635,2,0,L|145:261,1,95,0|8,1:1|0:1,0:0:0:0:
153,268,768866,1,0,0:0:0:0:
174,278,768943,2,0,L|166:220,1,47.5,0|0,0:1|0:0,0:0:0:0:
242,98,769097,2,0,L|234:156,2,47.5,0|0|0,0:0|0:0|1:0,0:0:0:0:
282,265,769405,1,8,3:1:0:0:
420,194,769559,1,8,3:1:0:0:
420,194,769635,1,0,3:0:0:0:
420,194,769712,22,0,B|371:205|371:205|328:187,1,95,0|2,1:0|1:2,0:0:0:0:
499,134,770020,1,8,0:1:0:0:
391,44,770174,2,0,L|381:105,1,47.5,2|0,0:2|0:0,0:0:0:0:
302,178,770328,2,0,L|297:116,1,47.5,2|0,0:2|0:0,0:0:0:0:
237,62,770482,1,2,1:2:0:0:
393,117,770635,1,8,3:1:0:0:
204,152,770789,22,0,L|214:257,1,95,2|0,3:2|1:0,0:0:0:0:
114,121,771097,1,4,1:2:0:0:
297,224,771251,2,0,L|354:232,2,47.5,8|0|0,0:1|0:1|0:1,0:1:0:0:
134,201,771559,1,4,0:2:0:0:
191,332,771712,1,2,1:2:0:0:
204,152,771866,1,8,3:1:0:0:
62,250,772020,1,8,3:1:0:0:
267,243,772174,22,0,L|279:354,1,95,2|0,1:0|1:0,0:0:0:0:
239,143,772482,1,8,0:1:0:0:
441,204,772635,2,0,L|453:93,1,95,2|0,0:1|0:0,0:0:0:0:
460,92,772866,1,0,0:0:0:0:
469,75,772943,1,0,1:0:0:0:
338,141,773097,2,0,B|287:136|287:136|244:149|244:149|195:145,1,142.5,10|0,3:1|0:0,0:0:0:0:
179,142,773405,22,0,L|188:195,1,47.5,2|0,1:2|0:0,0:0:0:0:
212,329,773559,1,0,1:0:0:0:
105,213,773712,1,8,0:1:0:0:
292,238,773866,2,0,L|188:226,1,95,4|0,0:2|0:0,0:0:0:0:
360,139,774174,1,2,1:2:0:0:
203,60,774328,2,0,L|307:48,1,95,8|8,3:1|3:1,0:0:0:0:
128,148,774635,21,0,1:0:0:0:
36,197,774789,1,0,1:0:0:0:
40,90,774943,1,10,0:1:0:0:
118,242,775097,2,0,P|111:295|99:350,1,95
36,197,775405,1,2,1:1:0:0:
202,158,775559,2,0,P|218:213|228:258,1,95,8|0,3:1|3:0,0:0:0:0:
277,90,775866,21,4,1:2:0:0:
116,171,776020,2,0,P|72:167|17:137,1,95,2|8,1:2|0:1,0:0:0:0:
239,280,776328,1,2,0:2:0:0:
202,158,776482,2,0,L|209:212,1,47.5,2|0,0:0|0:0,0:0:0:0:
141,300,776635,2,0,L|134:246,1,47.5,2|0,1:2|0:0,0:0:0:0:
212,138,776789,1,8,3:1:0:0:
239,280,776943,6,0,P|307:302|383:272,1,142.500005435944,4|0,1:0|0:0,0:0:0:0:
433,226,777405,2,0,P|450:264|451:299,1,71.2500027179719,0|2,0:0|0:0,0:0:0:0:
456,148,777712,2,0,P|493:173|511:202,2,71.2500027179719,0|2|0,0:0|0:0|0:0,0:0:0:0:
196,184,778174,22,0,B|159:118|159:118|194:33,1,142.500005435944,4|0,1:0|3:0,0:0:0:0:
184,56,778635,1,0,3:0:0:0:
316,184,778789,2,0,B|353:118|353:118|318:33,1,142.500005435944,4|0,1:0|3:0,0:0:0:0:
327,56,779251,1,0,3:0:0:0:
246,261,779405,101,0,1:0:0:0:
246,261,779482,1,0,1:0:0:0:
246,261,779559,2,0,L|232:366,1,95,4|2,1:0|1:2,0:0:0:0:
160,139,779866,1,8,0:1:0:0:
115,303,780020,2,0,P|151:296|173:294,1,47.5,2|0,0:2|0:0,0:0:0:0:
292,172,780174,2,0,P|256:179|234:181,1,47.5,2|0,0:2|0:0,0:0:0:0:
138,126,780328,1,2,1:2:0:0:
189,301,780482,1,8,3:1:0:0:
252,99,780635,22,0,L|241:46,2,47.5,2|0|0,3:2|0:0|1:0,0:0:0:0:
365,263,780943,2,0,P|317:258|270:253,1,95,4|8,1:2|0:1,0:0:0:0:
170,124,781251,2,2,P|242:132|329:139,1,142.5,0|2,0:1|0:1,0:1:0:0:
336,122,781559,1,0,1:2:0:0:
252,270,781712,1,8,3:1:0:0:
252,97,781866,1,10,3:1:0:0:
415,91,782020,22,0,P|420:149|396:199,1,95,2|0,1:1|1:0,0:0:0:0:
274,189,782328,1,8,0:1:0:0:
358,347,782482,2,0,L|345:243,1,95,2|0,0:1|0:1,0:1:0:0:
447,282,782789,1,0,1:0:0:0:
269,343,782943,2,0,P|207:357|132:306,1,142.5,10|0,3:1|0:0,0:0:0:0:
110,316,783251,22,0,L|119:252,1,47.5,2|0,1:2|0:0,0:0:0:0:
139,135,783405,1,2,1:1:0:0:
187,204,783559,21,8,0:1:0:0:
153,222,783635,1,0,0:0:0:0:
115,217,783712,1,4,0:2:0:0:
91,73,783866,1,2,0:2:0:0:
125,55,783943,1,0,0:0:0:0:
163,60,784020,1,2,1:2:0:0:
30,155,784174,21,8,3:1:0:0:
242,117,784328,1,4,1:0:0:0:
256,192,784482,12,2,786943,0:0:0:0:
