osu file format v14

[General]
AudioFilename: waow.mp3
AudioLeadIn: 1500
PreviewTime: 21386
Countdown: 0
SampleSet: Soft
StackLeniency: 0.5
Mode: 0
LetterboxInBreaks: 1
WidescreenStoryboard: 1

[Editor]
Bookmarks: 11737,76602,86980,106440,107737,118115,129791,140818
DistanceSpacing: 1.1
BeatDivisor: 4
GridSize: 4
TimelineZoom: 2.22

[Metadata]
Title:Necro Fantasia -An remix-
TitleUnicode:Necro Fantasia -An remix-
Artist:An
ArtistUnicode:An
Creator:captin1
Version:Collab Hard
Source:東方妖々夢 ~ Perfect Cherry Blossom.
Tags:東方Project 八雲 紫 Yukari Yakumo necrofantasia acuticnotes an-fillnote dubstep dnb amamiya yuko skystar apaffy kisata handsome hehe touhou project th7 youyoumu pcb instrumental electronic
BeatmapID:743120
BeatmapSetID:179691

[Difficulty]
HPDrainRate:5
CircleSize:4
OverallDifficulty:6
ApproachRate:7
SliderMultiplier:1.4
SliderTickRate:1

[Events]
//Background and Video events
0,0,"26062963.jpg",0,0
//Break Periods
2,66224,75305
2,107936,117215
//Storyboard Layer 0 (Background)
//Storyboard Layer 1 (Fail)
//Storyboard Layer 2 (Pass)
//Storyboard Layer 3 (Foreground)
//Storyboard Layer 4 (Overlay)
//Storyboard Sound Samples

[TimingPoints]
1359,324.324324324324,4,2,1,60,1,0
22115,-100,4,1,1,60,0,0
44980,-100,4,1,1,60,0,0
45467,-100,4,1,1,85,0,1
55845,-100,4,1,1,85,0,0
56170,-100,4,1,1,85,0,1
65413,-100,4,2,1,35,0,0
65899,-100,4,2,1,35,0,0
75305,-100,4,1,1,60,0,0
86980,-100,4,1,1,75,0,0
118115,-100,4,2,1,75,0,0
129791,-100,4,1,1,60,0,0
150548,-100,4,1,1,85,0,1
160926,-100,4,1,1,85,0,0
161251,-100,4,1,1,85,0,1
170980,-100,4,1,1,85,0,1
171305,-100,4,2,1,75,0,0
172440,-100,4,2,1,65,0,0
181688,325.55615843733,4,2,1,60,1,0
181688,-100,4,2,1,60,0,0
182990,331.491712707182,4,2,1,60,1,0
182990,-100,4,2,1,60,0,0
184315,338.028169014084,4,2,1,60,1,0
184315,-100,4,2,1,60,0,0
184991,-100,4,2,1,55,0,0
185667,344.827586206897,4,2,1,55,1,0
185668,-100,4,2,1,55,0,0
186356,346.820809248555,4,2,1,50,1,8
186356,-100,4,2,1,50,0,0
187049,355.029585798817,4,2,1,45,1,0
187049,-100,4,2,1,45,0,0
188469,371.517027863777,4,2,1,45,1,0
188469,-100,4,2,1,45,0,0
189212,-100,4,2,1,40,0,0
189955,397.350993377483,4,2,1,40,1,0
189955,-100,4,2,1,40,0,0
190352,-100,4,2,1,35,0,0
190749,392.156862745098,4,2,1,35,1,8
191533,422.535211267606,4,2,1,35,1,0
191533,-100,4,2,1,35,0,0
192800,437.956204379562,4,2,1,35,1,8
192800,-100,4,2,1,35,0,0
193237,437.956204379562,4,2,1,30,1,0
193346,-100,4,2,1,30,0,0

[Colours]
Combo1 : 192,192,192
Combo2 : 255,0,255
Combo3 : 128,128,255
Combo4 : 255,128,128
Combo5 : 252,206,24
Combo6 : 0,128,255

[HitObjects]
132,36,22115,38,0,L|139:106,1,70
175,174,22440,2,0,P|113:154|27:153,1,140,8|0,0:0|0:0,0:0:0:0:
39,228,22926,1,0,0:0:0:0:
103,269,23088,2,0,L|96:338,1,70,8|0,0:0|0:0,0:0:0:0:
173,340,23413,6,0,L|179:270,1,70
211,201,23738,2,0,P|149:221|63:222,1,140,8|0,0:0|0:0,0:0:0:0:
75,147,24224,1,0,0:0:0:0:
139,106,24386,2,0,L|132:36,1,70,8|0,0:0|0:0,0:0:0:0:
207,20,24710,6,0,L|213:89,1,70
273,138,25034,2,0,P|307:143|355:132,1,70,8|0,0:0|0:0,0:0:0:0:
469,86,25359,2,0,P|435:81|401:87,1,70
340,220,25683,1,8,0:0:0:0:
340,220,25845,6,0,L|347:309,2,70
212,168,26332,2,0,P|246:163|294:174,1,70,8|0,0:0|0:0,0:0:0:0:
408,220,26657,2,0,P|373:224|339:219,1,70
279,86,26981,1,8,0:0:0:0:
279,86,27143,38,0,L|286:-3,2,70
151,138,27629,2,0,B|185:143|185:143|233:132,1,70,8|0,0:0|0:0,0:0:0:0:
347,83,27953,2,0,B|313:78|313:78|265:89,1,70
218,220,28278,1,8,0:0:0:0:
218,220,28440,6,0,L|225:309,2,70
90,167,28926,2,0,B|124:162|124:162|172:173,1,70,8|0,0:0|0:0,0:0:0:0:
286,222,29250,2,0,B|252:227|252:227|204:216,1,70
157,86,29575,1,8,0:0:0:0:
157,86,29737,6,0,L|164:-3,2,70
73,148,30224,2,0,P|81:207|78:295,1,140,8|0,0:0|0:0,0:0:0:0:
68,363,30710,1,0,0:0:0:0:
68,363,30872,2,0,L|144:355,1,70,8|0,0:0|0:0,0:0:0:0:
284,340,31197,6,0,L|353:347,2,70,0|0|8,0:0|0:0|0:0,0:0:0:0:
209,327,31683,2,0,P|213:261|209:179,1,140
186,113,32170,2,0,L|193:43,1,70,8|0,0:0|0:0,0:0:0:0:
380,36,32494,38,0,L|373:106,1,70
337,174,32819,2,0,P|399:154|485:153,1,140,8|0,0:0|0:0,0:0:0:0:
473,228,33305,1,0,0:0:0:0:
409,269,33467,2,0,L|416:338,1,70,8|0,0:0|0:0,0:0:0:0:
339,340,33792,6,0,L|333:270,1,70
301,201,34115,2,0,P|363:221|449:222,1,140,8|0,0:0|0:0,0:0:0:0:
437,147,34603,1,0,0:0:0:0:
373,106,34765,2,0,L|380:36,1,70,8|0,0:0|0:0,0:0:0:0:
305,20,35089,6,0,L|299:89,1,70
170,137,35413,2,0,P|204:142|239:138,1,70,8|0,0:0|0:0,0:0:0:0:
111,87,35738,2,0,P|77:81|43:86,1,70
172,220,36062,1,8,0:0:0:0:
172,220,36224,6,0,L|165:309,2,70
231,168,36711,2,0,P|265:163|300:168,1,70,8|0,0:0|0:0,0:0:0:0:
172,220,37034,2,0,P|137:225|102:221,1,70
233,86,37358,1,8,0:0:0:0:
233,86,37522,38,0,L|226:-3,2,70
292,135,38008,2,0,B|327:143|327:143|361:138,1,70,8|0,0:0|0:0,0:0:0:0:
233,86,38332,2,0,B|198:78|198:78|164:83,1,70
294,220,38657,1,8,0:0:0:0:
294,220,38819,6,0,L|287:309,2,70
353,169,39305,2,0,B|388:162|388:162|422:167,1,70,8|0,0:0|0:0,0:0:0:0:
294,220,39629,2,0,B|259:227|259:227|225:222,1,70
355,86,39954,1,8,0:0:0:0:
355,86,40115,6,0,L|348:-3,2,70
439,148,40603,2,0,P|431:207|434:295,1,140,8|0,0:0|0:0,0:0:0:0:
444,363,41089,1,0,0:0:0:0:
444,363,41251,2,0,L|368:355,1,70,8|0,0:0|0:0,0:0:0:0:
228,340,41576,6,0,L|158:347,2,70
303,327,42061,1,0,0:0:0:0:
155,152,42386,1,0,0:0:0:0:
155,152,42548,2,0,L|158:241,1,70
101,274,42872,37,0,0:0:0:0:
123,177,45467,54,0,B|121:111|121:111|144:38,2,140,0|8|0,0:0|0:0|2:0,0:0:0:0:
191,213,46278,2,0,B|193:279|193:279|170:352,2,140,0|8|0,0:0|0:0|0:0,0:0:0:0:
123,177,47088,2,0,L|31:172,1,70,8|0,0:0|2:0,0:0:0:0:
225,120,47413,1,0,0:0:0:0:
225,120,47575,1,0,0:0:0:0:
225,120,47737,2,0,L|294:123,1,70,8|0,0:0|2:0,0:0:0:0:
389,177,48061,6,0,B|391:111|391:111|368:38,2,140,0|8|0,0:0|0:0|2:0,0:0:0:0:
321,213,48872,2,0,B|319:279|319:279|342:352,2,140,0|8|0,0:0|0:0|0:0,0:0:0:0:
389,177,49683,2,0,L|481:172,1,70,8|0,0:0|2:0,0:0:0:0:
335,311,50007,2,0,L|246:299,1,70
188,293,50332,1,8,0:0:0:0:
179,82,50656,70,0,P|244:68|341:74,2,140,0|8|0,0:0|0:0|2:0,0:0:0:0:
139,148,51467,2,0,P|74:162|-23:156,2,140,0|8|0,0:0|0:0|0:0,0:0:0:0:
195,201,52278,2,0,L|189:285,1,70,8|0,0:0|2:0,0:0:0:0:
322,270,52602,1,0,0:0:0:0:
322,270,52764,1,0,0:0:0:0:
321,270,52926,2,0,L|317:201,1,70,8|0,0:0|2:0,0:0:0:0:
333,82,53251,6,0,P|268:68|171:74,2,140,0|8|0,0:0|0:0|2:0,0:0:0:0:
373,148,54061,2,0,P|438:162|535:156,1,140,0|8,0:0|0:0,0:0:0:0:
511,160,54548,1,0,0:0:0:0:
56,296,55845,70,0,L|150:285,1,70,0|0,0:0|2:0,0:0:0:0:
202,289,56170,2,0,P|209:217|195:131,1,140,8|0,0:0|2:0,0:0:0:0:
162,83,56656,2,0,L|68:94,1,70,0|0,0:0|2:0,0:0:0:0:
16,90,56981,2,0,P|9:162|23:248,1,140,8|0,0:0|2:0,0:0:0:0:
56,296,57467,2,0,P|92:280|112:257,1,70,8|0,0:0|2:0,0:0:0:0:
137,183,57791,1,0,0:0:0:0:
169,252,57953,1,0,0:0:0:0:
240,280,58115,2,0,L|309:288,1,70,8|0,0:0|2:0,0:0:0:0:
456,296,58440,6,0,L|362:285,1,70,0|0,0:0|2:0,0:0:0:0:
310,289,58765,2,0,P|303:217|317:131,1,140,8|0,0:0|2:0,0:0:0:0:
350,83,59251,2,0,L|444:94,1,70,0|0,0:0|2:0,0:0:0:0:
496,90,59576,2,0,P|503:162|489:248,1,140,8|0,0:0|2:0,0:0:0:0:
456,296,60061,2,0,L|392:268,1,70,8|0,0:0|2:0,0:0:0:0:
313,273,60386,1,0,0:0:0:0:
260,329,60548,1,0,0:0:0:0:
186,350,60710,2,0,L|116:358,1,70,8|0,0:0|2:0,0:0:0:0:
85,287,61034,70,0,L|154:278,1,70,0|0,0:0|2:0,0:0:0:0:
202,218,61359,2,0,P|162:184|72:174,1,140,8|0,0:0|2:0,0:0:0:0:
83,35,61845,6,0,L|153:27,1,70,0|0,0:0|2:0,0:0:0:0:
160,141,62170,2,0,P|91:136|36:96,1,140,8|0,0:0|2:0,0:0:0:0:
55,170,62656,2,0,P|61:206|56:263,1,70,8|0,0:0|2:0,0:0:0:0:
217,310,62980,1,0,0:0:0:0:
217,310,63143,1,0,0:0:0:0:
217,310,63305,2,0,P|217:275|223:241,1,70,8|0,0:0|2:0,0:0:0:0:
427,287,63629,70,0,L|357:278,1,70,0|0,0:0|2:0,0:0:0:0:
310,218,63954,2,0,P|350:184|440:174,1,140,8|0,0:0|2:0,0:0:0:0:
428,35,64440,6,0,L|359:27,1,70,0|0,0:0|2:0,0:0:0:0:
256,44,64764,1,8,0:0:0:0:
256,44,64926,69,0,0:0:0:0:
86,281,76602,22,0,L|81:192,1,70
78,134,76926,1,8,0:0:0:0:
74,57,77088,2,0,B|143:68|143:68|243:54,1,140
303,98,77575,1,8,0:0:0:0:
307,175,77737,2,0,B|238:164|238:164|138:178,1,140
78,134,78224,6,0,L|70:222,1,70,8|0,0:0|0:0,0:0:0:0:
168,204,78548,2,0,L|160:292,1,70
258,274,78872,2,0,L|250:362,1,70,8|0,0:0|0:0,0:0:0:0:
426,281,79197,6,0,L|431:192,1,70
434,134,79521,1,8,0:0:0:0:
438,57,79683,2,0,B|369:68|369:68|269:54,1,140
209,98,80170,1,8,0:0:0:0:
205,175,80332,2,0,B|274:164|274:164|374:178,1,140
440,203,80819,6,0,L|434:134,1,70,8|0,0:0|0:0,0:0:0:0:
350,273,81143,2,0,L|344:204,1,70
260,343,81467,2,0,L|254:274,1,70,8|0,0:0|0:0,0:0:0:0:
133,229,81791,38,0,L|48:223,1,70
44,105,82115,1,8,0:0:0:0:
44,105,82278,2,0,P|111:95|193:111,1,140
270,230,82764,1,8,0:0:0:0:
270,230,82927,2,0,P|203:240|121:224,1,140
44,105,83413,5,8,0:0:0:0:
119,117,83575,1,0,0:0:0:0:
190,87,83737,2,0,P|192:52|185:5,1,70
299,78,84061,2,0,P|297:113|304:160,1,70,8|0,0:0|0:0,0:0:0:0:
379,229,84386,6,0,L|464:223,1,70
468,105,84710,1,8,0:0:0:0:
468,105,84873,2,0,P|401:95|319:111,1,140
242,230,85359,1,8,0:0:0:0:
242,230,85521,1,0,0:0:0:0:
242,230,85683,6,0,P|309:240|391:224,1,140,0|0,0:0|2:0,0:0:0:0:
449,193,86170,2,0,P|459:266|452:354,1,140,0|0,2:0|2:0,0:0:0:0:
383,359,86656,1,0,2:0:0:0:
166,173,86980,6,0,P|167:118|161:67,2,105,0|0|0,2:0|2:0|2:0,2:0:0:0:
101,257,87629,2,0,P|111:210|154:287,1,210,8|0,2:1|2:0,2:0:0:0:
160,290,88197,1,0,0:0:0:0:
152,297,88278,6,0,L|20:310,2,105,2|0|0,1:2|0:0|0:0,2:0:0:0:
240,352,88926,2,0,L|244:270,1,70,8|0,0:0|0:0,0:0:0:0:
330,318,89251,2,0,L|326:236,1,70
393,201,89575,70,0,L|389:151,3,35
427,226,89899,2,0,L|423:176,3,35
411,257,90224,2,0,P|401:210|358:287,1,210,8|0,2:1|2:0,2:0:0:0:
352,290,90792,1,0,0:0:0:0:
360,297,90872,6,0,L|492:310,2,105,2|0|0,1:2|2:0|2:0,2:0:0:0:
272,352,91521,2,0,L|268:270,1,70
182,318,91846,2,0,L|186:236,2,46.6666666666667
107,287,92170,70,0,L|-8:297,2,105,0|0|0,2:0|2:0|2:0,2:0:0:0:
225,145,92818,2,0,B|157:153|157:153|105:125|105:125|19:135,1,210,8|0,2:1|2:0,2:0:0:0:
20,124,93386,1,0,0:0:0:0:
15,114,93467,6,0,P|4:54|23:4,2,105,2|2|2,1:2|2:0|2:0,2:0:0:0:
91,65,94115,2,0,L|192:55,1,70,8|0,0:0|0:0,0:0:0:0:
157,160,94440,2,0,L|255:138,1,70,0|0,0:3|0:3,0:3:0:0:
294,94,94764,70,0,L|290:51,3,35
321,121,95088,2,0,L|325:78,3,35
286,145,95413,2,0,B|354:153|354:153|406:125|406:125|492:135,1,210,8|0,2:1|2:0,2:0:0:0:
492,124,95981,1,0,0:0:0:0:
497,114,96061,6,0,P|508:54|489:4,2,105,2|0|0,1:2|2:0|2:0,2:0:0:0:
411,141,96710,2,0,L|414:236,1,70,8|0,0:0|0:0,0:0:0:0:
328,204,97034,2,0,L|317:141,2,46.6666666666667
370,274,97359,70,0,P|419:258|471:265,2,105,0|0|0,2:0|2:0|2:0,2:0:0:0:
331,356,98007,2,0,B|284:336|229:349|229:349|158:332|163:268,1,210,8|0,2:1|2:0,2:0:0:0:
152,277,98575,1,0,0:0:0:0:
142,274,98656,6,0,P|92:258|40:265,2,105,2|0|0,1:2|2:0|2:0,2:0:0:0:
234,265,99305,2,0,L|232:185,1,70,8|0,0:0|0:0,0:0:0:0:
151,196,99629,2,0,L|153:116,1,70
159,50,99953,70,0,L|182:11,3,35
126,73,100278,2,0,L|149:34,3,35
107,109,100602,2,0,B|120:82|116:39|81:16|81:16|39:32|23:69|32:104,1,210,8|0,2:1|2:0,2:0:0:0:
31,108,101170,1,0,0:0:0:0:
32,118,101251,6,0,B|76:146|76:146|115:192,2,105,2|0|0,1:2|2:0|2:0,2:0:0:0:
104,70,101899,2,0,L|181:75,1,70,8|0,0:0|0:0,0:0:0:0:
260,74,102224,2,0,L|247:24,2,46.6666666666667
330,135,102548,38,0,P|342:72|339:16,2,105,0|0|0,2:0|2:0|2:0,2:0:0:0:
289,220,103197,2,0,B|322:244|378:226|400:192|400:192|414:217|405:253|385:270,1,210,8|0,2:1|2:0,2:0:0:0:
377,273,103764,1,0,0:0:0:0:
367,277,103845,6,0,P|367:329|378:380,2,105,2|0|0,1:2|2:0|2:0,2:0:0:0:
278,265,104494,2,0,L|280:185,1,70,8|0,0:0|0:0,0:0:0:0:
361,196,104818,2,0,L|359:116,1,70
359,51,105143,6,0,L|336:12,3,35
402,68,105468,2,0,L|379:29,3,35
405,109,105792,2,0,B|392:82|396:39|431:16|431:16|473:32|489:69|480:104,1,210,8|0,2:1|2:0,2:0:0:0:
481,108,106358,1,0,0:0:0:0:
480,118,106440,6,0,B|437:128|437:128|402:242|402:242|471:226,1,210,0|2,1:0|2:0,2:0:0:0:
405,162,107088,2,0,P|267:159|301:254,1,280,0|0,2:0|2:0,2:0:0:0:
43,304,118115,6,0,L|126:298,1,70,4|0,0:0|0:0,0:0:0:0:
177,341,118440,2,0,P|154:283|185:201,1,140
399,298,119088,2,0,L|469:304,1,70
486,379,119413,6,0,L|416:373,1,70,2|0,0:3|0:0,0:0:0:0:
399,298,119737,1,0,0:0:0:0:
335,341,119899,2,0,P|358:283|327:201,1,140
176,194,120548,1,0,0:0:0:0:
176,194,120710,6,0,L|164:273,1,70,2|0,0:3|0:0,0:0:0:0:
132,332,121034,2,0,L|122:168,1,140
209,97,121683,1,0,0:0:0:0:
209,97,121845,6,0,L|197:176,1,70,0|2,0:0|0:3,0:0:0:0:
240,26,122332,2,0,L|250:190,1,140
346,263,122980,1,0,0:0:0:0:
346,263,123143,38,0,L|336:194,1,70,0|2,0:0|0:3,0:0:0:0:
380,332,123629,2,0,L|390:168,1,140
478,122,124278,1,0,0:0:0:0:
477,122,124440,6,0,L|487:52,1,70,0|2,0:0|0:3,0:0:0:0:
443,191,124927,2,0,L|433:27,1,140
264,229,125575,5,0,0:0:0:0:
264,228,125737,2,0,L|275:159,1,70,0|2,0:0|0:3,0:0:0:0:
52,238,126224,1,0,0:0:0:0:
153,127,126548,1,0,0:0:0:0:
162,338,126872,5,0,0:0:0:0:
162,339,127034,2,0,L|172:269,1,70,0|2,0:0|0:3,0:0:0:0:
210,181,127359,2,0,P|156:175|114:186,2,70
397,172,128007,1,0,0:0:0:0:
397,172,128170,38,0,P|422:217|397:312,1,140
339,310,129791,6,0,L|345:227,1,70,4|0,0:0|0:0,0:0:0:0:
402,190,130115,2,0,P|327:206|259:157,1,140,8|0,0:0|0:0,0:0:0:0:
245,105,130602,1,0,0:0:0:0:
201,41,130764,2,0,L|113:37,1,70,8|0,0:0|0:0,0:0:0:0:
43,73,131088,6,0,B|39:109|39:109|54:168,1,70
88,207,131413,1,8,0:0:0:0:
88,207,131575,2,0,L|246:194,1,140
303,181,132061,2,0,B|307:145|307:145|292:86,1,70,8|0,0:0|0:0,0:0:0:0:
214,67,132386,6,0,L|129:68,1,70
27,93,132710,2,0,P|17:49|30:0,1,70,8|0,0:0|0:0,0:0:0:0:
95,144,133035,2,0,P|105:188|92:237,1,70
157,293,133359,1,8,0:0:0:0:
157,293,133521,38,0,L|72:294,2,70
249,260,134008,2,0,B|239:293|239:293|242:328,1,70,8|0,0:0|0:0,0:0:0:0:
330,221,134331,2,0,B|339:187|339:187|336:152,1,70
367,67,134657,1,8,0:0:0:0:
367,67,134819,6,0,L|298:67,2,70
485,93,135305,2,0,P|495:49|482:0,1,70,8|0,0:0|0:0,0:0:0:0:
417,144,135630,2,0,P|407:188|420:237,1,70
355,293,135954,1,8,0:0:0:0:
355,293,136116,6,0,L|440:294,2,70
263,260,136603,2,0,B|272:293|272:293|269:328,1,70,8|0,0:0|0:0,0:0:0:0:
182,221,136926,2,0,B|172:187|172:187|175:152,1,70
145,67,137250,1,8,0:0:0:0:
145,67,137413,6,0,B|54:63,2,70
219,48,137899,2,0,P|185:89|176:184,1,140,8|0,0:0|0:0,0:0:0:0:
235,219,138386,1,0,0:0:0:0:
235,219,138548,2,0,L|229:305,1,70,8|0,0:0|0:0,0:0:0:0:
61,290,138872,38,0,L|56:220,2,70,0|0|8,0:0|0:0|0:0,0:0:0:0:
145,318,139359,2,0,L|145:157,1,140
112,108,139845,2,0,P|66:111|31:108,1,70,8|0,0:0|0:0,0:0:0:0:
209,49,140170,6,0,P|255:46|290:49,1,70
352,27,140494,2,0,P|321:67|355:145,1,140,8|0,0:0|0:0,0:0:0:0:
425,164,140980,1,0,0:0:0:0:
425,164,141143,2,0,L|437:84,1,70,8|0,0:0|0:0,0:0:0:0:
351,143,141467,6,0,L|340:212,1,70
292,272,141791,2,0,P|346:266|435:313,1,140,8|0,0:0|0:0,0:0:0:0:
402,374,142278,1,0,0:0:0:0:
402,374,142440,2,0,L|305:382,1,70,8|0,0:0|0:0,0:0:0:0:
179,379,142764,6,0,L|110:374,1,70
43,335,143088,2,0,P|47:284|42:249,1,70,8|0,0:0|0:0,0:0:0:0:
38,188,143413,2,0,P|34:137|39:102,1,70
131,109,143737,1,8,0:0:0:0:
131,109,143899,38,0,L|118:30,2,70
105,181,144386,2,0,P|139:186|172:175,1,70,8|0,0:0|0:0,0:0:0:0:
276,102,144710,2,0,P|241:96|208:107,1,70
198,246,145034,1,8,0:0:0:0:
198,246,145196,6,0,L|185:325,2,70
172,174,145683,2,0,P|206:168|239:179,1,70,8|0,0:0|0:0,0:0:0:0:
343,253,146007,2,0,P|308:258|275:247,1,70
265,107,146332,1,8,0:0:0:0:
265,107,146494,6,0,L|252:28,2,70
239,179,146981,2,0,P|273:184|306:173,1,70,8|0,0:0|0:0,0:0:0:0:
410,100,147305,2,0,P|375:94|342:105,1,70
332,244,147629,1,8,0:0:0:0:
332,244,147791,6,0,L|319:323,2,70
306,172,148278,2,0,P|340:166|373:177,1,70,8|0,0:0|0:0,0:0:0:0:
477,251,148602,2,0,P|442:256|409:245,1,70
263,109,148926,1,8,0:0:0:0:
263,109,149088,38,0,L|250:30,1,70
344,14,149413,2,0,P|381:6|441:16,2,70
196,144,150061,1,0,0:0:0:0:
196,144,150224,2,0,L|206:226,1,70
173,315,150548,54,0,B|117:315|117:315|35:335,2,140,0|8|0,0:0|0:0|0:0,0:0:0:0:
242,280,151359,2,0,B|298:280|298:280|380:260,2,140,0|8|0,0:0|0:0|0:0,0:0:0:0:
173,315,152170,2,0,L|175:396,1,70,8|0,0:0|0:0,0:0:0:0:
79,254,152494,1,0,0:0:0:0:
79,254,152656,1,0,0:0:0:0:
79,254,152818,2,0,L|77:184,1,70,8|0,0:0|0:0,0:0:0:0:
128,125,153143,6,0,B|76:84|76:84|3:91,2,140,0|8|0,0:0|0:0|0:0,0:0:0:0:
204,133,153953,2,0,B|256:174|256:174|329:167,2,140,0|8|0,0:0|0:0|0:0,0:0:0:0:
128,125,154764,2,0,L|134:34,1,70,8|0,0:0|0:0,0:0:0:0:
259,199,155088,2,0,L|254:268,1,70
247,359,155413,1,8,0:0:0:0:
376,227,155737,70,0,P|395:292|397:375,2,140,0|8|0,0:0|0:0|0:0,0:0:0:0:
314,180,156548,2,0,P|294:114|293:32,2,140,0|8|0,0:0|0:0|0:0,0:0:0:0:
260,235,157359,2,0,L|207:173,1,70,8|0,0:0|0:0,0:0:0:0:
102,107,157683,1,0,0:0:0:0:
102,107,157845,1,0,0:0:0:0:
102,107,158007,2,0,P|35:131|24:149,1,70,8|0,0:0|0:0,0:0:0:0:
15,201,158332,6,0,L|-4:37,2,140,0|8|0,0:0|0:0|0:0,0:0:0:0:
66,258,159143,2,0,P|113:244|214:269,1,140,0|8,0:0|0:0,0:0:0:0:
200,260,159629,1,0,0:0:0:0:
345,232,160926,70,0,L|333:323,1,70
420,363,161251,2,0,P|459:314|460:228,1,140,8|0,0:0|0:0,0:0:0:0:
410,182,161737,6,0,L|400:112,1,70
347,56,162062,2,0,P|278:58|222:99,1,140,8|0,0:0|0:0,0:0:0:0:
182,165,162548,2,0,L|95:158,1,70,8|0,0:0|0:0,0:0:0:0:
0,39,162872,1,0,0:0:0:0:
0,39,163034,1,0,0:0:0:0:
0,39,163197,2,0,L|69:44,1,70,8|0,0:0|0:0,0:0:0:0:
111,112,163521,70,0,L|102:182,1,70
48,238,163845,2,0,P|50:307|92:363,1,140,8|0,0:0|0:0,0:0:0:0:
167,345,164332,2,0,L|251:333,1,70
313,330,164656,2,0,P|336:265|318:198,1,140,8|0,0:0|0:0,0:0:0:0:
272,136,165143,2,0,L|186:161,1,70,8|0,0:0|0:0,0:0:0:0:
302,47,165467,1,0,0:0:0:0:
302,47,165629,1,0,0:0:0:0:
302,47,165791,2,0,L|369:27,1,70,8|0,0:0|0:0,0:0:0:0:
471,79,166115,6,0,P|493:131|489:169,1,70
459,254,166440,2,0,B|421:218|421:218|310:205,1,140,8|0,0:0|0:0,0:0:0:0:
225,188,166926,70,0,P|203:240|207:278,1,70
237,363,167251,2,0,B|275:327|275:327|386:314,1,140,8|0,0:0|0:0,0:0:0:0:
431,281,167737,2,0,P|394:247|374:216,1,70,8|0,0:0|2:0,0:0:0:0:
377,153,168061,1,0,0:0:0:0:
425,92,168224,1,0,0:0:0:0:
329,69,168386,2,0,P|291:71|250:85,1,70,8|0,0:0|0:0,0:0:0:0:
158,59,168710,6,0,P|160:97|174:138,1,70
241,199,169034,2,0,P|187:171|102:198,1,140,8|0,0:0|0:0,0:0:0:0:
184,328,169521,70,0,P|182:290|168:249,1,70
241,199,169845,1,8,0:0:0:0:
241,199,170007,5,0,0:0:0:0:
256,192,170170,12,0,171305,0:0:0:0:
