osu file format v14

[General]
AudioFilename: audio.mp3
AudioLeadIn: 0
PreviewTime: 149999
Countdown: 0
SampleSet: Soft
StackLeniency: 0.7
Mode: 3
LetterboxInBreaks: 0
SpecialStyle: 0
WidescreenStoryboard: 0

[Editor]
DistanceSpacing: 0.9
BeatDivisor: 8
GridSize: 8
TimelineZoom: 2.699999

[Metadata]
Title:ExaVid
TitleUnicode:ExaVid
Artist:An
ArtistUnicode:An
Creator:Soul Evans
Version:Celestial Tranquility
Source:
Tags:191 acuticnotes an-fillnote sukima studio Hydria
BeatmapID:1303694
BeatmapSetID:618463

[Difficulty]
HPDrainRate:9
CircleSize:4
OverallDifficulty:8.5
ApproachRate:5
SliderMultiplier:1.4
SliderTickRate:1

[Events]
//Background and Video events
0,0,"ExaVid_BG.jpg",0,0
//Break Periods
2,60514,109375
2,125854,159637
2,161037,189794
2,191194,219794
2,221194,260161
2,261561,300056
2,301456,320475
2,321875,340580
2,341980,360684
//Storyboard Layer 0 (Background)
//Storyboard Layer 1 (Fail)
//Storyboard Layer 2 (Pass)
//Storyboard Layer 3 (Foreground)
//Storyboard Sound Samples

[TimingPoints]
0,314.13612565445,4,2,1,40,1,0

[HitObjects]
64,192,0,128,0,78:0:0:0:0:
320,192,157,128,0,235:0:0:0:0:
192,192,471,1,0,0:0:0:0:
64,192,628,1,0,0:0:0:0:
448,192,785,1,0,0:0:0:0:
192,192,942,1,0,0:0:0:0:
320,192,1099,1,0,0:0:0:0:
448,192,1256,128,0,1335:0:0:0:0:
64,192,1413,128,0,1492:0:0:0:0:
320,192,1570,1,0,0:0:0:0:
192,192,1727,1,0,0:0:0:0:
64,192,1884,1,0,0:0:0:0:
320,192,2041,1,0,0:0:0:0:
448,192,2198,1,0,0:0:0:0:
192,192,2356,1,0,0:0:0:0:
64,192,2513,1,0,0:0:0:0:
320,192,2670,1,0,0:0:0:0:
448,192,2827,128,0,2905:0:0:0:0:
192,192,2984,128,0,3062:0:0:0:0:
448,192,3298,128,0,3376:0:0:0:0:
320,192,3455,1,0,0:0:0:0:
192,192,3612,128,0,3691:0:0:0:0:
64,192,3769,1,0,0:0:0:0:
320,192,3926,1,0,0:0:0:0:
448,192,4083,128,0,4162:0:0:0:0:
192,192,4083,1,0,0:0:0:0:
320,192,4240,128,0,4319:0:0:0:0:
64,192,4240,1,0,0:0:0:0:
192,192,4397,128,0,4476:0:0:0:0:
448,192,4397,1,0,0:0:0:0:
320,192,4554,128,0,4633:0:0:0:0:
64,192,4554,1,0,0:0:0:0:
448,192,4712,128,0,4790:0:0:0:0:
192,192,4712,1,0,0:0:0:0:
320,192,4869,128,0,4947:0:0:0:0:
64,192,4869,1,0,0:0:0:0:
192,192,5026,128,0,5104:0:0:0:0:
448,192,5183,128,0,5261:0:0:0:0:
192,192,5497,1,0,0:0:0:0:
64,192,5654,1,0,0:0:0:0:
320,192,5811,1,0,0:0:0:0:
192,192,5968,1,0,0:0:0:0:
320,192,6125,1,0,0:0:0:0:
448,192,6282,128,0,6361:0:0:0:0:
64,192,6439,128,0,6518:0:0:0:0:
320,192,6596,1,0,0:0:0:0:
448,192,6753,1,0,0:0:0:0:
64,192,6910,1,0,0:0:0:0:
320,192,7068,1,0,0:0:0:0:
448,192,7225,1,0,0:0:0:0:
192,192,7382,1,0,0:0:0:0:
64,192,7539,1,0,0:0:0:0:
448,192,7696,1,0,0:0:0:0:
192,192,7853,128,0,7931:0:0:0:0:
448,192,8010,128,0,8089:0:0:0:0:
320,192,8324,128,0,8403:0:0:0:0:
64,192,8481,1,0,0:0:0:0:
192,192,8638,128,0,8717:0:0:0:0:
320,192,8795,1,0,0:0:0:0:
448,192,8795,128,0,10052:0:0:0:0:
64,192,8952,1,0,0:0:0:0:
320,192,9109,1,0,0:0:0:0:
64,192,9109,128,0,9188:0:0:0:0:
192,192,9267,1,0,0:0:0:0:
320,192,9267,128,0,9345:0:0:0:0:
64,192,9424,1,0,0:0:0:0:
192,192,9424,128,0,9502:0:0:0:0:
320,192,9581,1,0,0:0:0:0:
64,192,9581,128,0,9659:0:0:0:0:
192,192,9738,1,0,0:0:0:0:
320,192,9738,128,0,9816:0:0:0:0:
64,192,9895,1,0,0:0:0:0:
192,192,9895,128,0,9973:0:0:0:0:
64,192,10052,128,0,10130:0:0:0:0:
320,192,10052,1,0,0:0:0:0:
192,192,10209,128,0,10287:0:0:0:0:
448,192,10209,1,0,0:0:0:0:
320,192,10445,1,0,0:0:0:0:
448,192,10445,1,0,0:0:0:0:
192,192,10523,1,0,0:0:0:0:
64,192,10523,1,0,0:0:0:0:
320,192,10602,1,0,0:0:0:0:
192,192,10680,1,0,0:0:0:0:
448,192,10680,1,0,0:0:0:0:
64,192,10759,1,0,0:0:0:0:
320,192,10837,1,0,0:0:0:0:
192,192,10837,1,0,0:0:0:0:
64,192,10916,1,0,0:0:0:0:
192,192,10994,128,0,11073:0:0:0:0:
448,192,10994,1,0,0:0:0:0:
64,192,11151,128,0,11230:0:0:0:0:
320,192,11230,1,0,0:0:0:0:
448,192,11308,128,0,11387:0:0:0:0:
192,192,11308,1,0,0:0:0:0:
320,192,11465,128,0,11544:0:0:0:0:
64,192,11465,1,0,0:0:0:0:
192,192,11623,1,0,0:0:0:0:
448,192,11623,1,0,0:0:0:0:
64,192,11701,1,0,0:0:0:0:
192,192,11780,1,0,0:0:0:0:
320,192,11780,1,0,0:0:0:0:
448,192,11858,1,0,0:0:0:0:
192,192,11937,1,0,0:0:0:0:
64,192,11937,1,0,0:0:0:0:
320,192,12015,1,0,0:0:0:0:
448,192,12094,1,0,0:0:0:0:
64,192,12094,128,0,12172:0:0:0:0:
448,192,12251,128,0,12329:0:0:0:0:
192,192,12251,1,0,0:0:0:0:
320,192,12408,128,0,12486:0:0:0:0:
64,192,12408,1,0,0:0:0:0:
192,192,12565,1,0,0:0:0:0:
448,192,12565,1,0,0:0:0:0:
64,192,12722,1,0,0:0:0:0:
320,192,12722,1,0,0:0:0:0:
64,192,12879,128,0,12958:0:0:0:0:
320,192,12958,1,0,0:0:0:0:
192,192,13036,128,0,13115:0:0:0:0:
448,192,13036,1,0,0:0:0:0:
64,192,13115,1,0,0:0:0:0:
320,192,13193,1,0,0:0:0:0:
192,192,13272,1,0,0:0:0:0:
448,192,13350,128,0,13429:0:0:0:0:
320,192,13350,1,0,0:0:0:0:
192,192,13429,1,0,0:0:0:0:
64,192,13507,1,0,0:0:0:0:
192,192,13664,128,0,13743:0:0:0:0:
448,192,13743,1,0,0:0:0:0:
64,192,13821,1,0,0:0:0:0:
320,192,13821,1,0,0:0:0:0:
192,192,13979,1,0,0:0:0:0:
448,192,13979,1,0,0:0:0:0:
64,192,14136,128,0,14214:0:0:0:0:
320,192,14136,1,0,0:0:0:0:
192,192,14214,1,0,0:0:0:0:
448,192,14293,128,0,14371:0:0:0:0:
320,192,14293,1,0,0:0:0:0:
64,192,14371,1,0,0:0:0:0:
320,192,14450,128,0,14528:0:0:0:0:
192,192,14450,1,0,0:0:0:0:
64,192,14528,1,0,0:0:0:0:
192,192,14607,128,0,14685:0:0:0:0:
448,192,14607,1,0,0:0:0:0:
320,192,14685,1,0,0:0:0:0:
64,192,14764,128,0,14842:0:0:0:0:
448,192,14764,1,0,0:0:0:0:
192,192,14921,128,0,14999:0:0:0:0:
320,192,14921,1,0,0:0:0:0:
320,192,15078,128,0,15157:0:0:0:0:
64,192,15078,1,0,0:0:0:0:
448,192,15235,128,0,15314:0:0:0:0:
192,192,15235,1,0,0:0:0:0:
320,192,15471,1,0,0:0:0:0:
448,192,15471,1,0,0:0:0:0:
192,192,15549,1,0,0:0:0:0:
64,192,15549,1,0,0:0:0:0:
320,192,15628,1,0,0:0:0:0:
448,192,15706,1,0,0:0:0:0:
192,192,15706,1,0,0:0:0:0:
64,192,15785,1,0,0:0:0:0:
320,192,15863,1,0,0:0:0:0:
448,192,15863,1,0,0:0:0:0:
192,192,15942,1,0,0:0:0:0:
320,192,16020,1,0,0:0:0:0:
64,192,16020,128,0,16099:0:0:0:0:
192,192,16178,128,0,16256:0:0:0:0:
448,192,16256,1,0,0:0:0:0:
320,192,16335,1,0,0:0:0:0:
64,192,16335,128,0,16413:0:0:0:0:
448,192,16492,128,0,16570:0:0:0:0:
192,192,16492,1,0,0:0:0:0:
64,192,16649,1,0,0:0:0:0:
320,192,16649,1,0,0:0:0:0:
448,192,16727,1,0,0:0:0:0:
192,192,16806,1,0,0:0:0:0:
320,192,16806,1,0,0:0:0:0:
64,192,16884,1,0,0:0:0:0:
448,192,16963,1,0,0:0:0:0:
320,192,16963,1,0,0:0:0:0:
192,192,17041,1,0,0:0:0:0:
320,192,17120,1,0,0:0:0:0:
64,192,17120,128,0,17198:0:0:0:0:
192,192,17277,1,0,0:0:0:0:
448,192,17277,128,0,17356:0:0:0:0:
320,192,17434,128,0,17513:0:0:0:0:
64,192,17434,1,0,0:0:0:0:
192,192,17591,1,0,0:0:0:0:
448,192,17591,1,0,0:0:0:0:
64,192,17748,1,0,0:0:0:0:
320,192,17748,1,0,0:0:0:0:
448,192,17905,128,0,17984:0:0:0:0:
192,192,17984,1,0,0:0:0:0:
64,192,18062,128,0,18141:0:0:0:0:
320,192,18062,1,0,0:0:0:0:
320,192,18219,1,0,0:0:0:0:
448,192,18298,1,0,0:0:0:0:
320,192,18376,128,0,18455:0:0:0:0:
192,192,18376,1,0,0:0:0:0:
64,192,18455,1,0,0:0:0:0:
448,192,18534,1,0,0:0:0:0:
192,192,18534,1,0,0:0:0:0:
192,192,18691,128,0,18769:0:0:0:0:
448,192,18769,1,0,0:0:0:0:
320,192,18848,1,0,0:0:0:0:
64,192,18848,1,0,0:0:0:0:
192,192,19005,1,0,0:0:0:0:
448,192,19005,1,0,0:0:0:0:
64,192,19162,128,0,19240:0:0:0:0:
320,192,19162,1,0,0:0:0:0:
448,192,19240,1,0,0:0:0:0:
320,192,19319,128,0,19397:0:0:0:0:
192,192,19319,1,0,0:0:0:0:
64,192,19397,1,0,0:0:0:0:
192,192,19476,128,0,19554:0:0:0:0:
448,192,19476,1,0,0:0:0:0:
64,192,19554,1,0,0:0:0:0:
448,192,19633,128,0,19712:0:0:0:0:
320,192,19633,1,0,0:0:0:0:
192,192,19712,1,0,0:0:0:0:
64,192,19790,128,0,19869:0:0:0:0:
320,192,19790,1,0,0:0:0:0:
448,192,19947,128,0,20026:0:0:0:0:
192,192,19947,1,0,0:0:0:0:
64,192,20104,128,0,20183:0:0:0:0:
320,192,20104,128,0,20183:0:0:0:0:
192,192,20261,128,0,20340:0:0:0:0:
448,192,20261,128,0,20418:0:0:0:0:
320,192,20497,1,0,0:0:0:0:
64,192,20575,1,0,0:0:0:0:
192,192,20575,1,0,0:0:0:0:
448,192,20575,128,0,20654:0:0:0:0:
320,192,20732,1,0,0:0:0:0:
64,192,20732,1,0,0:0:0:0:
448,192,20811,1,0,0:0:0:0:
320,192,20890,1,0,0:0:0:0:
192,192,20890,1,0,0:0:0:0:
64,192,20968,1,0,0:0:0:0:
192,192,21047,128,0,21125:0:0:0:0:
448,192,21047,1,0,0:0:0:0:
64,192,21204,128,0,21282:0:0:0:0:
448,192,21204,128,0,21282:0:0:0:0:
64,192,21361,128,0,21518:0:0:0:0:
320,192,21361,1,0,0:0:0:0:
192,192,21518,1,0,0:0:0:0:
320,192,21518,1,0,0:0:0:0:
448,192,21596,1,0,0:0:0:0:
64,192,21675,128,0,21989:0:0:0:0:
192,192,21675,1,0,0:0:0:0:
320,192,21753,1,0,0:0:0:0:
192,192,21832,1,0,0:0:0:0:
320,192,21910,1,0,0:0:0:0:
448,192,21989,1,0,0:0:0:0:
192,192,22068,1,0,0:0:0:0:
64,192,22146,1,0,0:0:0:0:
320,192,22146,1,0,0:0:0:0:
448,192,22225,1,0,0:0:0:0:
192,192,22303,1,0,0:0:0:0:
64,192,22303,1,0,0:0:0:0:
448,192,22460,1,0,0:0:0:0:
320,192,22460,1,0,0:0:0:0:
192,192,22617,1,0,0:0:0:0:
64,192,22617,128,0,22931:0:0:0:0:
448,192,22696,1,0,0:0:0:0:
320,192,22774,1,0,0:0:0:0:
448,192,22931,128,0,23010:0:0:0:0:
192,192,23010,1,0,0:0:0:0:
64,192,23089,128,0,23167:0:0:0:0:
320,192,23089,1,0,0:0:0:0:
320,192,23246,128,0,23324:0:0:0:0:
448,192,23403,128,0,23481:0:0:0:0:
64,192,23403,1,0,0:0:0:0:
192,192,23481,1,0,0:0:0:0:
64,192,23560,128,0,23638:0:0:0:0:
320,192,23560,1,0,0:0:0:0:
448,192,23717,128,0,23795:0:0:0:0:
192,192,23795,1,0,0:0:0:0:
320,192,23874,1,0,0:0:0:0:
64,192,23874,1,0,0:0:0:0:
192,192,24031,1,0,0:0:0:0:
448,192,24031,1,0,0:0:0:0:
64,192,24188,128,0,24267:0:0:0:0:
320,192,24188,1,0,0:0:0:0:
448,192,24267,1,0,0:0:0:0:
192,192,24345,128,0,24424:0:0:0:0:
320,192,24345,1,0,0:0:0:0:
448,192,24424,1,0,0:0:0:0:
320,192,24502,128,0,24581:0:0:0:0:
64,192,24502,1,0,0:0:0:0:
192,192,24581,1,0,0:0:0:0:
448,192,24659,128,0,24738:0:0:0:0:
64,192,24659,1,0,0:0:0:0:
320,192,24738,1,0,0:0:0:0:
64,192,24816,128,0,24895:0:0:0:0:
192,192,24816,1,0,0:0:0:0:
320,192,24973,128,0,25052:0:0:0:0:
448,192,24973,1,0,0:0:0:0:
64,192,25130,128,0,25209:0:0:0:0:
448,192,25130,128,0,25209:0:0:0:0:
192,192,25287,128,0,25366:0:0:0:0:
448,192,25287,128,0,25445:0:0:0:0:
192,192,25523,1,0,0:0:0:0:
320,192,25602,1,0,0:0:0:0:
64,192,25602,1,0,0:0:0:0:
448,192,25602,128,0,25680:0:0:0:0:
192,192,25759,1,0,0:0:0:0:
64,192,25759,1,0,0:0:0:0:
320,192,25837,1,0,0:0:0:0:
64,192,25916,1,0,0:0:0:0:
448,192,25916,1,0,0:0:0:0:
320,192,25994,1,0,0:0:0:0:
192,192,26073,128,0,26151:0:0:0:0:
448,192,26073,1,0,0:0:0:0:
64,192,26230,128,0,26308:0:0:0:0:
448,192,26230,128,0,26308:0:0:0:0:
64,192,26387,128,0,26544:0:0:0:0:
192,192,26387,1,0,0:0:0:0:
320,192,26544,1,0,0:0:0:0:
448,192,26544,1,0,0:0:0:0:
192,192,26623,1,0,0:0:0:0:
64,192,26701,128,0,27015:0:0:0:0:
320,192,26701,1,0,0:0:0:0:
192,192,26780,1,0,0:0:0:0:
448,192,26858,1,0,0:0:0:0:
320,192,26937,1,0,0:0:0:0:
448,192,27015,1,0,0:0:0:0:
192,192,27094,1,0,0:0:0:0:
320,192,27172,1,0,0:0:0:0:
64,192,27172,1,0,0:0:0:0:
192,192,27251,1,0,0:0:0:0:
448,192,27329,1,0,0:0:0:0:
320,192,27329,1,0,0:0:0:0:
192,192,27486,1,0,0:0:0:0:
64,192,27486,1,0,0:0:0:0:
448,192,27643,128,0,27801:0:0:0:0:
320,192,27643,1,0,0:0:0:0:
64,192,27801,128,0,27879:0:0:0:0:
320,192,27958,128,0,28036:0:0:0:0:
192,192,28036,1,0,0:0:0:0:
64,192,28115,128,0,28193:0:0:0:0:
448,192,28115,1,0,0:0:0:0:
192,192,28272,128,0,28350:0:0:0:0:
448,192,28429,128,0,28507:0:0:0:0:
64,192,28429,1,0,0:0:0:0:
192,192,28507,1,0,0:0:0:0:
320,192,28586,128,0,28664:0:0:0:0:
64,192,28586,1,0,0:0:0:0:
192,192,28743,128,0,28821:0:0:0:0:
448,192,28743,1,0,0:0:0:0:
64,192,28900,1,0,0:0:0:0:
320,192,28900,128,0,28979:0:0:0:0:
448,192,29057,128,0,29214:0:0:0:0:
192,192,29057,1,0,0:0:0:0:
192,192,29214,128,0,29371:0:0:0:0:
64,192,29214,1,0,0:0:0:0:
320,192,29371,128,0,29450:0:0:0:0:
64,192,29371,128,0,29528:0:0:0:0:
448,192,29528,128,0,29607:0:0:0:0:
192,192,29528,1,0,0:0:0:0:
64,192,29685,128,0,29764:0:0:0:0:
192,192,29685,128,0,29842:0:0:0:0:
448,192,29842,128,0,29921:0:0:0:0:
320,192,29842,1,0,0:0:0:0:
64,192,29999,128,0,30078:0:0:0:0:
320,192,29999,128,0,30157:0:0:0:0:
192,192,30157,1,0,0:0:0:0:
448,192,30157,1,0,0:0:0:0:
64,192,30314,128,0,30392:0:0:0:0:
448,192,30314,1,0,0:0:0:0:
320,192,30392,128,0,30471:0:0:0:0:
192,192,30549,1,0,0:0:0:0:
448,192,30549,1,0,0:0:0:0:
320,192,30628,1,0,0:0:0:0:
64,192,30628,128,0,30706:0:0:0:0:
192,192,30785,1,0,0:0:0:0:
320,192,30863,1,0,0:0:0:0:
192,192,30942,1,0,0:0:0:0:
448,192,30942,1,0,0:0:0:0:
320,192,31020,1,0,0:0:0:0:
64,192,31020,1,0,0:0:0:0:
192,192,31099,1,0,0:0:0:0:
448,192,31099,1,0,0:0:0:0:
64,192,31256,128,0,31335:0:0:0:0:
320,192,31256,1,0,0:0:0:0:
64,192,31413,128,0,31570:0:0:0:0:
448,192,31413,1,0,0:0:0:0:
192,192,31570,1,0,0:0:0:0:
320,192,31570,1,0,0:0:0:0:
448,192,31649,1,0,0:0:0:0:
64,192,31727,128,0,32041:0:0:0:0:
192,192,31727,1,0,0:0:0:0:
320,192,31806,1,0,0:0:0:0:
192,192,31884,1,0,0:0:0:0:
448,192,31963,1,0,0:0:0:0:
320,192,32041,1,0,0:0:0:0:
448,192,32120,1,0,0:0:0:0:
192,192,32198,1,0,0:0:0:0:
64,192,32198,1,0,0:0:0:0:
320,192,32277,1,0,0:0:0:0:
192,192,32356,1,0,0:0:0:0:
448,192,32356,1,0,0:0:0:0:
64,192,32513,1,0,0:0:0:0:
320,192,32513,1,0,0:0:0:0:
448,192,32670,1,0,0:0:0:0:
192,192,32670,128,0,32748:0:0:0:0:
448,192,32827,128,0,32905:0:0:0:0:
64,192,32827,1,0,0:0:0:0:
320,192,32984,128,0,33062:0:0:0:0:
192,192,32984,1,0,0:0:0:0:
64,192,33062,1,0,0:0:0:0:
192,192,33141,128,0,33219:0:0:0:0:
448,192,33141,1,0,0:0:0:0:
64,192,33298,1,0,0:0:0:0:
320,192,33376,1,0,0:0:0:0:
64,192,33455,1,0,0:0:0:0:
192,192,33455,1,0,0:0:0:0:
320,192,33534,1,0,0:0:0:0:
448,192,33534,128,0,33612:0:0:0:0:
192,192,33612,1,0,0:0:0:0:
64,192,33612,1,0,0:0:0:0:
320,192,33769,128,0,33848:0:0:0:0:
192,192,33926,1,0,0:0:0:0:
448,192,33926,1,0,0:0:0:0:
448,192,34083,128,0,34240:0:0:0:0:
64,192,34083,1,0,0:0:0:0:
320,192,34162,1,0,0:0:0:0:
192,192,34240,1,0,0:0:0:0:
64,192,34240,128,0,34319:0:0:0:0:
320,192,34319,1,0,0:0:0:0:
192,192,34397,1,0,0:0:0:0:
448,192,34397,128,0,34476:0:0:0:0:
64,192,34476,1,0,0:0:0:0:
320,192,34554,1,0,0:0:0:0:
192,192,34554,128,0,34633:0:0:0:0:
448,192,34633,1,0,0:0:0:0:
64,192,34712,1,0,0:0:0:0:
320,192,34712,128,0,34790:0:0:0:0:
192,192,34790,1,0,0:0:0:0:
448,192,34869,1,0,0:0:0:0:
64,192,34869,128,0,34947:0:0:0:0:
320,192,35026,1,0,0:0:0:0:
192,192,35026,128,0,35104:0:0:0:0:
64,192,35183,128,0,35261:0:0:0:0:
448,192,35183,1,0,0:0:0:0:
320,192,35261,128,0,35340:0:0:0:0:
192,192,35340,1,0,0:0:0:0:
448,192,35418,1,0,0:0:0:0:
320,192,35575,1,0,0:0:0:0:
64,192,35575,1,0,0:0:0:0:
192,192,35654,1,0,0:0:0:0:
448,192,35654,128,0,35732:0:0:0:0:
64,192,35811,1,0,0:0:0:0:
320,192,35890,1,0,0:0:0:0:
192,192,35968,1,0,0:0:0:0:
448,192,35968,1,0,0:0:0:0:
320,192,36047,1,0,0:0:0:0:
64,192,36047,1,0,0:0:0:0:
448,192,36125,1,0,0:0:0:0:
192,192,36125,1,0,0:0:0:0:
64,192,36282,128,0,36361:0:0:0:0:
320,192,36282,1,0,0:0:0:0:
64,192,36439,128,0,36596:0:0:0:0:
448,192,36439,1,0,0:0:0:0:
320,192,36596,1,0,0:0:0:0:
192,192,36596,1,0,0:0:0:0:
448,192,36675,1,0,0:0:0:0:
64,192,36753,128,0,37068:0:0:0:0:
320,192,36753,1,0,0:0:0:0:
448,192,36832,1,0,0:0:0:0:
192,192,36910,1,0,0:0:0:0:
320,192,36989,1,0,0:0:0:0:
448,192,37068,1,0,0:0:0:0:
192,192,37146,1,0,0:0:0:0:
320,192,37225,1,0,0:0:0:0:
64,192,37225,1,0,0:0:0:0:
192,192,37303,1,0,0:0:0:0:
320,192,37382,1,0,0:0:0:0:
448,192,37382,1,0,0:0:0:0:
64,192,37539,1,0,0:0:0:0:
192,192,37539,1,0,0:0:0:0:
64,192,37696,128,0,37774:0:0:0:0:
320,192,37696,1,0,0:0:0:0:
448,192,37774,128,0,37853:0:0:0:0:
192,192,37853,1,0,0:0:0:0:
320,192,37931,1,0,0:0:0:0:
64,192,38010,128,0,38089:0:0:0:0:
448,192,38089,1,0,0:0:0:0:
192,192,38089,1,0,0:0:0:0:
64,192,38167,1,0,0:0:0:0:
320,192,38167,128,0,38246:0:0:0:0:
192,192,38324,1,0,0:0:0:0:
320,192,38403,1,0,0:0:0:0:
448,192,38481,128,0,38560:0:0:0:0:
192,192,38481,1,0,0:0:0:0:
64,192,38560,1,0,0:0:0:0:
320,192,38560,1,0,0:0:0:0:
448,192,38638,1,0,0:0:0:0:
192,192,38638,1,0,0:0:0:0:
192,192,38795,128,0,38874:0:0:0:0:
320,192,38952,1,0,0:0:0:0:
448,192,38952,1,0,0:0:0:0:
64,192,38952,128,0,39031:0:0:0:0:
192,192,39109,1,0,0:0:0:0:
448,192,39109,1,0,0:0:0:0:
64,192,39188,1,0,0:0:0:0:
320,192,39267,1,0,0:0:0:0:
192,192,39267,128,0,39345:0:0:0:0:
64,192,39345,1,0,0:0:0:0:
448,192,39424,1,0,0:0:0:0:
320,192,39424,128,0,39502:0:0:0:0:
192,192,39502,1,0,0:0:0:0:
64,192,39581,1,0,0:0:0:0:
320,192,39659,1,0,0:0:0:0:
448,192,39738,128,0,40130:0:0:0:0:
64,192,39738,128,0,39816:0:0:0:0:
192,192,39816,1,0,0:0:0:0:
320,192,39895,128,0,39973:0:0:0:0:
64,192,39973,1,0,0:0:0:0:
192,192,40052,128,0,40130:0:0:0:0:
320,192,40130,1,0,0:0:0:0:
448,192,40209,1,0,0:0:0:0:
64,192,40209,128,0,40248:0:0:0:0:
192,192,40366,1,0,0:0:0:0:
448,192,40523,1,0,0:0:0:0:
320,192,40680,1,0,0:0:0:0:
64,192,40876,128,0,40955:0:0:0:0:
320,192,41073,1,0,0:0:0:0:
448,192,41151,1,0,0:0:0:0:
192,192,41308,1,0,0:0:0:0:
320,192,41387,1,0,0:0:0:0:
448,192,41465,128,0,41623:0:0:0:0:
192,192,41465,1,0,0:0:0:0:
64,192,41623,1,0,0:0:0:0:
448,192,41780,128,0,42094:0:0:0:0:
192,192,41780,1,0,0:0:0:0:
320,192,41937,1,0,0:0:0:0:
64,192,42094,1,0,0:0:0:0:
320,192,42251,1,0,0:0:0:0:
192,192,42408,1,0,0:0:0:0:
448,192,42565,1,0,0:0:0:0:
64,192,42565,1,0,0:0:0:0:
320,192,43193,1,0,0:0:0:0:
64,192,43193,1,0,0:0:0:0:
192,192,43664,1,0,0:0:0:0:
448,192,43664,128,0,43743:0:0:0:0:
320,192,43821,128,0,43900:0:0:0:0:
64,192,43821,1,0,0:0:0:0:
192,192,43979,1,0,0:0:0:0:
448,192,44293,1,0,0:0:0:0:
192,192,44450,1,0,0:0:0:0:
64,192,44450,128,0,44528:0:0:0:0:
448,192,44607,1,0,0:0:0:0:
192,192,44764,1,0,0:0:0:0:
320,192,44764,128,0,44842:0:0:0:0:
64,192,44921,1,0,0:0:0:0:
320,192,45078,1,0,0:0:0:0:
448,192,45078,128,0,45157:0:0:0:0:
64,192,45235,1,0,0:0:0:0:
192,192,45392,1,0,0:0:0:0:
448,192,45549,1,0,0:0:0:0:
64,192,45706,128,0,45785:0:0:0:0:
320,192,45706,1,0,0:0:0:0:
64,192,45942,128,0,46020:0:0:0:0:
320,192,46099,1,0,0:0:0:0:
448,192,46178,1,0,0:0:0:0:
192,192,46335,1,0,0:0:0:0:
320,192,46413,1,0,0:0:0:0:
64,192,46492,1,0,0:0:0:0:
448,192,46492,128,0,46649:0:0:0:0:
192,192,46649,1,0,0:0:0:0:
448,192,46806,128,0,47120:0:0:0:0:
64,192,46806,1,0,0:0:0:0:
320,192,46963,1,0,0:0:0:0:
192,192,47120,1,0,0:0:0:0:
320,192,47277,1,0,0:0:0:0:
192,192,47434,1,0,0:0:0:0:
448,192,47591,1,0,0:0:0:0:
64,192,47591,1,0,0:0:0:0:
64,192,48219,1,0,0:0:0:0:
320,192,48219,1,0,0:0:0:0:
448,192,48691,1,0,0:0:0:0:
192,192,48691,128,0,48769:0:0:0:0:
64,192,48848,128,0,48926:0:0:0:0:
320,192,48848,1,0,0:0:0:0:
448,192,49319,1,0,0:0:0:0:
192,192,49476,1,0,0:0:0:0:
64,192,49476,128,0,49554:0:0:0:0:
320,192,49633,1,0,0:0:0:0:
448,192,49790,1,0,0:0:0:0:
192,192,49790,128,0,49869:0:0:0:0:
64,192,49947,1,0,0:0:0:0:
320,192,50104,1,0,0:0:0:0:
448,192,50104,128,0,50183:0:0:0:0:
192,192,50261,1,0,0:0:0:0:
448,192,50418,1,0,0:0:0:0:
320,192,50497,1,0,0:0:0:0:
64,192,50575,1,0,0:0:0:0:
192,192,50732,1,0,0:0:0:0:
64,192,50811,1,0,0:0:0:0:
320,192,50890,1,0,0:0:0:0:
448,192,50890,1,0,0:0:0:0:
64,192,50968,1,0,0:0:0:0:
192,192,50968,1,0,0:0:0:0:
320,192,51047,1,0,0:0:0:0:
448,192,51047,1,0,0:0:0:0:
192,192,51125,1,0,0:0:0:0:
448,192,51204,1,0,0:0:0:0:
192,192,51361,1,0,0:0:0:0:
64,192,51361,1,0,0:0:0:0:
320,192,51439,1,0,0:0:0:0:
64,192,51518,1,0,0:0:0:0:
448,192,51518,128,0,51675:0:0:0:0:
192,192,51675,1,0,0:0:0:0:
448,192,51832,128,0,52146:0:0:0:0:
64,192,51832,1,0,0:0:0:0:
320,192,51989,1,0,0:0:0:0:
192,192,52146,1,0,0:0:0:0:
320,192,52303,1,0,0:0:0:0:
192,192,52460,1,0,0:0:0:0:
64,192,52617,1,0,0:0:0:0:
448,192,52617,1,0,0:0:0:0:
320,192,52774,1,0,0:0:0:0:
448,192,52931,1,0,0:0:0:0:
192,192,53010,1,0,0:0:0:0:
64,192,53089,1,0,0:0:0:0:
448,192,53246,1,0,0:0:0:0:
192,192,53246,1,0,0:0:0:0:
64,192,53324,1,0,0:0:0:0:
320,192,53403,1,0,0:0:0:0:
448,192,53403,1,0,0:0:0:0:
192,192,53481,1,0,0:0:0:0:
64,192,53481,1,0,0:0:0:0:
448,192,53560,1,0,0:0:0:0:
320,192,53560,1,0,0:0:0:0:
192,192,53638,1,0,0:0:0:0:
64,192,53717,1,0,0:0:0:0:
320,192,53717,128,0,53795:0:0:0:0:
192,192,53874,128,0,53952:0:0:0:0:
448,192,53874,1,0,0:0:0:0:
64,192,54031,1,0,0:0:0:0:
320,192,54188,1,0,0:0:0:0:
192,192,54345,1,0,0:0:0:0:
448,192,54502,1,0,0:0:0:0:
64,192,54502,128,0,54581:0:0:0:0:
320,192,54659,1,0,0:0:0:0:
448,192,54816,1,0,0:0:0:0:
192,192,54816,128,0,54895:0:0:0:0:
64,192,54973,1,0,0:0:0:0:
320,192,55130,1,0,0:0:0:0:
448,192,55130,128,0,55209:0:0:0:0:
192,192,55287,1,0,0:0:0:0:
448,192,55445,1,0,0:0:0:0:
320,192,55523,1,0,0:0:0:0:
64,192,55602,1,0,0:0:0:0:
192,192,55759,1,0,0:0:0:0:
64,192,55837,1,0,0:0:0:0:
320,192,55916,1,0,0:0:0:0:
448,192,55916,1,0,0:0:0:0:
64,192,55994,1,0,0:0:0:0:
192,192,55994,1,0,0:0:0:0:
320,192,56073,1,0,0:0:0:0:
448,192,56073,1,0,0:0:0:0:
192,192,56151,1,0,0:0:0:0:
448,192,56230,1,0,0:0:0:0:
192,192,56387,1,0,0:0:0:0:
64,192,56387,1,0,0:0:0:0:
320,192,56465,1,0,0:0:0:0:
64,192,56544,1,0,0:0:0:0:
448,192,56544,128,0,56701:0:0:0:0:
192,192,56701,1,0,0:0:0:0:
448,192,56858,128,0,57172:0:0:0:0:
64,192,56858,1,0,0:0:0:0:
320,192,57015,1,0,0:0:0:0:
192,192,57172,1,0,0:0:0:0:
320,192,57329,1,0,0:0:0:0:
192,192,57486,1,0,0:0:0:0:
64,192,57643,1,0,0:0:0:0:
448,192,57643,1,0,0:0:0:0:
320,192,57801,1,0,0:0:0:0:
448,192,57958,1,0,0:0:0:0:
192,192,58036,1,0,0:0:0:0:
64,192,58115,1,0,0:0:0:0:
192,192,58272,1,0,0:0:0:0:
448,192,58272,1,0,0:0:0:0:
64,192,58350,1,0,0:0:0:0:
448,192,58429,1,0,0:0:0:0:
320,192,58429,1,0,0:0:0:0:
64,192,58507,1,0,0:0:0:0:
192,192,58507,1,0,0:0:0:0:
320,192,58586,1,0,0:0:0:0:
448,192,58586,1,0,0:0:0:0:
192,192,58664,1,0,0:0:0:0:
320,192,58743,128,0,58821:0:0:0:0:
64,192,58743,1,0,0:0:0:0:
192,192,58900,128,0,58979:0:0:0:0:
448,192,58900,1,0,0:0:0:0:
64,192,59057,1,0,0:0:0:0:
448,192,59214,128,0,59293:0:0:0:0:
192,192,59214,1,0,0:0:0:0:
320,192,59371,1,0,0:0:0:0:
64,192,59371,128,0,59450:0:0:0:0:
192,192,59528,1,0,0:0:0:0:
448,192,59528,128,0,59607:0:0:0:0:
64,192,59685,1,0,0:0:0:0:
320,192,59685,128,0,59764:0:0:0:0:
448,192,59842,1,0,0:0:0:0:
192,192,59842,128,0,59921:0:0:0:0:
64,192,59999,1,0,0:0:0:0:
320,192,59999,128,0,60078:0:0:0:0:
448,192,59999,128,0,60314:0:0:0:0:
64,192,60157,128,0,60235:0:0:0:0:
192,192,60157,1,0,0:0:0:0:
320,192,60314,5,0,0:0:0:0:
320,192,110575,132,0,111047:0:0:0:0:
192,192,110575,128,0,110654:0:0:0:0:
448,192,110575,1,0,0:0:0:0:
64,192,110732,1,0,0:0:0:0:
448,192,111047,128,0,111518:0:0:0:0:
192,192,111047,128,0,111125:0:0:0:0:
320,192,111204,1,0,0:0:0:0:
64,192,111518,128,0,111989:0:0:0:0:
320,192,111518,128,0,111596:0:0:0:0:
192,192,111675,1,0,0:0:0:0:
448,192,111989,128,0,112460:0:0:0:0:
320,192,111989,128,0,112068:0:0:0:0:
192,192,112460,128,0,113089:0:0:0:0:
320,192,112460,128,0,112539:0:0:0:0:
448,192,112774,128,0,113089:0:0:0:0:
64,192,112774,128,0,112853:0:0:0:0:
64,192,113089,128,0,114345:0:0:0:0:
320,192,113089,128,0,113246:0:0:0:0:
448,192,113246,128,0,113403:0:0:0:0:
192,192,113560,128,0,113717:0:0:0:0:
448,192,113717,128,0,113874:0:0:0:0:
192,192,114031,128,0,114188:0:0:0:0:
320,192,114188,128,0,114345:0:0:0:0:
448,192,114345,128,0,114973:0:0:0:0:
192,192,114345,128,0,114424:0:0:0:0:
192,192,114659,128,0,114973:0:0:0:0:
320,192,114659,128,0,114738:0:0:0:0:
320,192,114973,128,0,115602:0:0:0:0:
64,192,114973,128,0,115052:0:0:0:0:
64,192,115287,128,0,115602:0:0:0:0:
448,192,115287,128,0,115366:0:0:0:0:
448,192,115602,128,0,115680:0:0:0:0:
192,192,115602,128,0,116073:0:0:0:0:
320,192,115759,1,0,0:0:0:0:
448,192,116073,128,0,116544:0:0:0:0:
320,192,116073,128,0,116151:0:0:0:0:
192,192,116230,1,0,0:0:0:0:
320,192,116544,128,0,117015:0:0:0:0:
192,192,116544,128,0,116623:0:0:0:0:
64,192,116701,1,0,0:0:0:0:
448,192,117015,128,0,117486:0:0:0:0:
64,192,117015,128,0,117094:0:0:0:0:
320,192,117486,128,0,118115:0:0:0:0:
64,192,117486,128,0,117565:0:0:0:0:
64,192,117801,128,0,118115:0:0:0:0:
448,192,117801,128,0,117879:0:0:0:0:
192,192,118115,128,0,120628:0:0:0:0:
448,192,118115,128,0,118272:0:0:0:0:
64,192,118272,128,0,118429:0:0:0:0:
320,192,118586,128,0,118743:0:0:0:0:
448,192,118743,128,0,118900:0:0:0:0:
64,192,119057,128,0,119214:0:0:0:0:
448,192,119057,128,0,120628:0:0:0:0:
320,192,119214,128,0,119371:0:0:0:0:
64,192,120314,128,0,120628:0:0:0:0:
320,192,120628,128,0,120706:0:0:0:0:
192,192,120785,1,0,0:0:0:0:
448,192,120785,128,0,120863:0:0:0:0:
64,192,121099,1,0,0:0:0:0:
448,192,121099,128,0,121178:0:0:0:0:
320,192,121256,1,0,0:0:0:0:
192,192,121413,1,0,0:0:0:0:
448,192,121570,1,0,0:0:0:0:
64,192,121570,128,0,121649:0:0:0:0:
192,192,121727,1,0,0:0:0:0:
320,192,121884,1,0,0:0:0:0:
448,192,122041,1,0,0:0:0:0:
192,192,122041,128,0,122120:0:0:0:0:
320,192,122120,1,0,0:0:0:0:
64,192,122198,1,0,0:0:0:0:
192,192,122277,1,0,0:0:0:0:
448,192,122356,1,0,0:0:0:0:
192,192,122513,1,0,0:0:0:0:
320,192,122513,128,0,122591:0:0:0:0:
64,192,122591,1,0,0:0:0:0:
320,192,122670,1,0,0:0:0:0:
192,192,122827,1,0,0:0:0:0:
448,192,122827,128,0,122905:0:0:0:0:
64,192,122984,1,0,0:0:0:0:
320,192,123141,1,0,0:0:0:0:
64,192,123141,128,0,123219:0:0:0:0:
448,192,123141,128,0,124397:0:0:0:0:
192,192,123298,1,0,0:0:0:0:
64,192,123560,1,0,0:0:0:0:
320,192,123612,1,0,0:0:0:0:
192,192,123664,1,0,0:0:0:0:
320,192,123769,1,0,0:0:0:0:
64,192,123926,1,0,0:0:0:0:
320,192,124083,1,0,0:0:0:0:
192,192,124240,1,0,0:0:0:0:
320,192,124397,1,0,0:0:0:0:
64,192,124397,128,0,124712:0:0:0:0:
192,192,124554,1,0,0:0:0:0:
448,192,124633,1,0,0:0:0:0:
192,192,124712,1,0,0:0:0:0:
320,192,124712,128,0,125026:0:0:0:0:
448,192,124790,1,0,0:0:0:0:
64,192,124869,1,0,0:0:0:0:
192,192,125026,1,0,0:0:0:0:
448,192,125026,128,0,125340:0:0:0:0:
320,192,125183,1,0,0:0:0:0:
192,192,125340,1,0,0:0:0:0:
64,192,125340,128,0,125654:0:0:0:0:
448,192,125418,1,0,0:0:0:0:
320,192,125497,1,0,0:0:0:0:
320,192,160837,5,0,0:0:0:0:
320,192,190994,5,0,0:0:0:0:
320,192,220994,5,0,0:0:0:0:
320,192,261361,5,0,0:0:0:0:
320,192,301256,5,0,0:0:0:0:
320,192,321675,5,0,0:0:0:0:
320,192,341780,5,0,0:0:0:0:
320,192,361884,5,0,0:0:0:0:
