osu file format v14

[General]
AudioFilename: audio.mp3
AudioLeadIn: 0
PreviewTime: 150173
Countdown: 0
SampleSet: Soft
StackLeniency: 0.7
Mode: 3
LetterboxInBreaks: 0
SpecialStyle: 0
WidescreenStoryboard: 0

[Editor]
Bookmarks: 10052,30157,40209,60314,80418,90471,109319,110575,130680,149528,150785,160837,170890,189738,190994,201047,206073,219895,220994,231047,239842,241256,260732,271413,278952,280209,291361,301256,311623,321675,331727,341780,351832,361884
DistanceSpacing: 0.9
BeatDivisor: 6
GridSize: 8
TimelineZoom: 2.5

[Metadata]
Title:ExaVid
TitleUnicode:ExaVid
Artist:An
ArtistUnicode:An
Creator:Abraxos
Version:at_the_threshold
Source:
Tags:191 acuticnotes an-fillnote sukima studio
BeatmapID:1589629
BeatmapSetID:649306

[Difficulty]
HPDrainRate:9.6
CircleSize:4
OverallDifficulty:8.8
ApproachRate:5
SliderMultiplier:1.4
SliderTickRate:1

[Events]
//Background and Video events
0,0,"1492838957833.jpg",0,0
//Break Periods
//Storyboard Layer 0 (Background)
//Storyboard Layer 1 (Fail)
//Storyboard Layer 2 (Pass)
//Storyboard Layer 3 (Foreground)
//Storyboard Sound Samples

[TimingPoints]
16,314.13612565445,4,2,1,20,1,0
10068,-100,4,2,1,30,0,0
30173,-100,4,2,1,50,0,0
150722,-100,4,2,1,70,0,0
150879,-100,4,2,1,50,0,0
321691,-100,4,2,1,40,0,0
341796,-100,4,2,1,30,0,0
361822,-100,4,2,1,70,0,0
361979,-100,4,2,1,50,0,0

[HitObjects]
64,192,16,128,0,94:0:0:0:0:
448,192,173,1,0,0:0:0:0:
320,192,487,1,0,0:0:0:0:
64,192,644,1,0,0:0:0:0:
320,192,801,1,0,0:0:0:0:
192,192,958,128,0,1036:0:0:0:0:
448,192,1115,1,0,0:0:0:0:
320,192,1272,128,0,1351:0:0:0:0:
192,192,1429,1,0,0:0:0:0:
64,192,1586,1,0,0:0:0:0:
320,192,1743,128,0,1822:0:0:0:0:
64,192,1900,1,0,0:0:0:0:
192,192,2057,1,0,0:0:0:0:
320,192,2214,128,0,2293:0:0:0:0:
64,192,2372,1,0,0:0:0:0:
448,192,2529,128,0,2607:0:0:0:0:
192,192,2686,1,0,0:0:0:0:
320,192,2843,128,0,2895:0:0:0:0:
64,192,3000,128,0,3157:0:0:0:0:
192,192,3314,1,0,0:0:0:0:
320,192,3471,128,0,3550:0:0:0:0:
64,192,3628,1,0,0:0:0:0:
192,192,3785,128,0,3864:0:0:0:0:
320,192,3942,1,0,0:0:0:0:
192,192,4099,128,0,4152:0:0:0:0:
320,192,4256,128,0,4309:0:0:0:0:
64,192,4413,1,0,0:0:0:0:
448,192,4570,1,0,0:0:0:0:
192,192,4728,128,0,4806:0:0:0:0:
320,192,4885,1,0,0:0:0:0:
64,192,5042,128,0,5120:0:0:0:0:
448,192,5199,1,0,0:0:0:0:
320,192,5513,1,0,0:0:0:0:
64,192,5670,1,0,0:0:0:0:
320,192,5827,1,0,0:0:0:0:
192,192,5984,128,0,6063:0:0:0:0:
448,192,6141,1,0,0:0:0:0:
320,192,6298,128,0,6377:0:0:0:0:
192,192,6455,1,0,0:0:0:0:
64,192,6612,1,0,0:0:0:0:
320,192,6769,128,0,6848:0:0:0:0:
64,192,6926,1,0,0:0:0:0:
192,192,7084,1,0,0:0:0:0:
320,192,7241,128,0,7319:0:0:0:0:
64,192,7398,1,0,0:0:0:0:
448,192,7555,128,0,7633:0:0:0:0:
192,192,7712,1,0,0:0:0:0:
320,192,7869,128,0,7921:0:0:0:0:
64,192,8026,128,0,8183:0:0:0:0:
192,192,8340,1,0,0:0:0:0:
320,192,8497,128,0,8576:0:0:0:0:
64,192,8654,1,0,0:0:0:0:
192,192,8811,128,0,8890:0:0:0:0:
320,192,8968,1,0,0:0:0:0:
192,192,9125,128,0,9178:0:0:0:0:
448,192,9283,128,0,9335:0:0:0:0:
64,192,9440,1,0,0:0:0:0:
448,192,9597,1,0,0:0:0:0:
192,192,9754,128,0,9832:0:0:0:0:
448,192,9911,1,0,0:0:0:0:
64,192,10068,5,2,0:0:0:0:
192,192,10068,1,0,0:0:0:0:
448,192,10225,1,0,0:0:0:0:
320,192,10225,1,8,0:0:0:0:
192,192,10461,1,0,0:0:0:0:
64,192,10461,1,2,0:0:0:0:
192,192,10539,1,12,0:0:0:0:
320,192,10618,1,4,0:0:0:0:
448,192,10696,1,0,0:0:0:0:
64,192,10775,1,0,0:0:0:0:
448,192,10853,1,0,0:0:0:0:
192,192,10853,1,2,0:0:0:0:
448,192,10932,1,2,0:0:0:0:
320,192,11010,1,0,0:0:0:0:
320,192,11246,1,0,0:0:0:0:
448,192,11324,1,0,0:0:0:0:
192,192,11324,1,2,0:0:0:0:
320,192,11481,1,0,0:0:0:0:
64,192,11481,1,8,0:0:0:0:
192,192,11639,1,4,0:0:0:0:
64,192,11717,1,4,0:0:0:0:
320,192,11796,1,4,0:0:0:0:
448,192,11874,1,4,0:0:0:0:
64,192,11953,1,4,0:0:0:0:
192,192,12031,1,4,0:0:0:0:
448,192,12110,1,0,0:0:0:0:
320,192,12110,1,0,0:0:0:0:
192,192,12267,1,0,0:0:0:0:
64,192,12267,1,8,0:0:0:0:
192,192,12424,1,0,0:0:0:0:
448,192,12581,1,0,0:0:0:0:
320,192,12581,1,2,0:0:0:0:
192,192,12738,1,0,0:0:0:0:
64,192,12738,1,8,0:0:0:0:
448,192,12974,1,0,0:0:0:0:
320,192,12974,1,2,0:0:0:0:
320,192,13052,1,12,0:0:0:0:
192,192,13131,1,4,0:0:0:0:
64,192,13209,1,0,0:0:0:0:
448,192,13288,1,0,0:0:0:0:
320,192,13366,1,0,0:0:0:0:
64,192,13366,1,2,0:0:0:0:
64,192,13445,1,2,0:0:0:0:
192,192,13523,1,0,0:0:0:0:
192,192,13759,1,0,0:0:0:0:
320,192,13837,1,0,0:0:0:0:
64,192,13837,1,2,0:0:0:0:
448,192,13995,1,0,0:0:0:0:
192,192,13995,1,8,0:0:0:0:
320,192,14152,1,4,0:0:0:0:
448,192,14230,1,4,0:0:0:0:
192,192,14309,1,4,0:0:0:0:
64,192,14387,1,4,0:0:0:0:
448,192,14466,1,4,0:0:0:0:
320,192,14544,1,4,0:0:0:0:
192,192,14623,1,0,0:0:0:0:
64,192,14623,1,0,0:0:0:0:
448,192,14780,1,0,0:0:0:0:
320,192,14780,1,8,0:0:0:0:
320,192,14937,1,0,0:0:0:0:
448,192,15094,1,0,0:0:0:0:
192,192,15094,1,2,0:0:0:0:
320,192,15251,1,0,0:0:0:0:
64,192,15251,1,8,0:0:0:0:
448,192,15487,1,0,0:0:0:0:
192,192,15487,1,2,0:0:0:0:
192,192,15565,1,12,0:0:0:0:
320,192,15644,1,4,0:0:0:0:
448,192,15722,1,0,0:0:0:0:
64,192,15801,1,0,0:0:0:0:
448,192,15879,1,0,0:0:0:0:
320,192,15879,1,2,0:0:0:0:
448,192,15958,1,2,0:0:0:0:
320,192,16036,1,0,0:0:0:0:
320,192,16272,1,0,0:0:0:0:
192,192,16351,1,0,0:0:0:0:
64,192,16351,1,2,0:0:0:0:
448,192,16508,1,0,0:0:0:0:
320,192,16508,1,8,0:0:0:0:
192,192,16665,1,4,0:0:0:0:
320,192,16743,1,4,0:0:0:0:
64,192,16822,1,4,0:0:0:0:
448,192,16900,1,4,0:0:0:0:
192,192,16979,1,4,0:0:0:0:
320,192,17057,1,4,0:0:0:0:
448,192,17136,1,0,0:0:0:0:
64,192,17136,1,0,0:0:0:0:
320,192,17293,1,0,0:0:0:0:
192,192,17293,1,8,0:0:0:0:
192,192,17450,1,0,0:0:0:0:
320,192,17607,1,0,0:0:0:0:
64,192,17607,1,2,0:0:0:0:
448,192,17764,1,0,0:0:0:0:
192,192,17764,1,8,0:0:0:0:
320,192,18000,1,0,0:0:0:0:
64,192,18000,1,2,0:0:0:0:
320,192,18078,1,12,0:0:0:0:
192,192,18157,1,4,0:0:0:0:
64,192,18235,1,0,0:0:0:0:
448,192,18314,1,0,0:0:0:0:
192,192,18392,1,0,0:0:0:0:
64,192,18392,1,2,0:0:0:0:
64,192,18471,1,2,0:0:0:0:
192,192,18550,1,0,0:0:0:0:
192,192,18785,1,0,0:0:0:0:
448,192,18864,1,0,0:0:0:0:
320,192,18864,1,2,0:0:0:0:
192,192,19021,1,0,0:0:0:0:
64,192,19021,1,8,0:0:0:0:
320,192,19178,1,4,0:0:0:0:
192,192,19256,1,4,0:0:0:0:
448,192,19335,1,4,0:0:0:0:
64,192,19413,1,4,0:0:0:0:
320,192,19492,1,4,0:0:0:0:
192,192,19570,1,4,0:0:0:0:
448,192,19649,1,0,0:0:0:0:
64,192,19649,1,0,0:0:0:0:
320,192,19806,1,0,0:0:0:0:
192,192,19806,1,8,0:0:0:0:
320,192,19963,1,0,0:0:0:0:
192,192,20120,128,0,20225:0:0:0:0:
64,192,20120,1,2,0:0:0:0:
448,192,20277,1,0,0:0:0:0:
320,192,20277,1,8,0:0:0:0:
192,192,20356,128,0,20408:0:0:0:0:
192,192,20513,1,0,0:0:0:0:
64,192,20513,1,2,0:0:0:0:
192,192,20591,1,12,0:0:0:0:
448,192,20670,1,4,0:0:0:0:
192,192,20748,1,0,0:0:0:0:
192,192,20853,1,0,0:0:0:0:
448,192,20906,1,0,0:0:0:0:
320,192,20906,1,2,0:0:0:0:
448,192,20984,1,2,0:0:0:0:
320,192,21063,1,0,0:0:0:0:
320,192,21239,128,0,21318:0:0:0:0:
448,192,21377,1,0,0:0:0:0:
192,192,21377,1,2,0:0:0:0:
320,192,21534,1,0,0:0:0:0:
64,192,21534,1,8,0:0:0:0:
320,192,21691,1,4,0:0:0:0:
64,192,21769,1,4,0:0:0:0:
448,192,21848,1,4,0:0:0:0:
320,192,21926,1,4,0:0:0:0:
64,192,22005,1,4,0:0:0:0:
192,192,22084,1,4,0:0:0:0:
448,192,22162,1,0,0:0:0:0:
320,192,22162,1,0,0:0:0:0:
192,192,22319,1,0,0:0:0:0:
64,192,22319,1,8,0:0:0:0:
192,192,22476,1,0,0:0:0:0:
448,192,22633,1,0,0:0:0:0:
320,192,22633,1,2,0:0:0:0:
192,192,22790,1,0,0:0:0:0:
64,192,22790,1,8,0:0:0:0:
448,192,23026,1,0,0:0:0:0:
320,192,23026,1,2,0:0:0:0:
320,192,23105,1,12,0:0:0:0:
192,192,23183,1,4,0:0:0:0:
64,192,23262,1,0,0:0:0:0:
448,192,23340,1,0,0:0:0:0:
320,192,23419,1,0,0:0:0:0:
64,192,23419,1,2,0:0:0:0:
64,192,23497,1,2,0:0:0:0:
192,192,23576,1,0,0:0:0:0:
192,192,23733,1,0,0:0:0:0:
320,192,23890,1,0,0:0:0:0:
64,192,23890,1,2,0:0:0:0:
448,192,24047,1,0,0:0:0:0:
192,192,24047,1,8,0:0:0:0:
320,192,24204,1,4,0:0:0:0:
448,192,24283,1,4,0:0:0:0:
320,192,24361,1,4,0:0:0:0:
64,192,24440,1,4,0:0:0:0:
448,192,24518,1,4,0:0:0:0:
320,192,24597,1,4,0:0:0:0:
192,192,24675,1,0,0:0:0:0:
64,192,24675,1,0,0:0:0:0:
448,192,24832,1,0,0:0:0:0:
320,192,24832,1,8,0:0:0:0:
320,192,24989,1,0,0:0:0:0:
448,192,25146,1,0,0:0:0:0:
192,192,25146,128,2,25251:0:0:0:0:
320,192,25303,1,0,0:0:0:0:
64,192,25303,1,8,0:0:0:0:
192,192,25382,1,0,0:0:0:0:
448,192,25539,1,0,0:0:0:0:
192,192,25539,1,2,0:0:0:0:
192,192,25618,1,12,0:0:0:0:
320,192,25696,1,4,0:0:0:0:
192,192,25775,1,0,0:0:0:0:
192,192,25879,1,0,0:0:0:0:
448,192,25932,1,0,0:0:0:0:
320,192,25932,1,2,0:0:0:0:
448,192,26010,1,2,0:0:0:0:
320,192,26089,1,0,0:0:0:0:
320,192,26265,128,0,26344:0:0:0:0:
192,192,26403,1,0,0:0:0:0:
64,192,26403,1,2,0:0:0:0:
448,192,26560,1,0,0:0:0:0:
320,192,26560,1,8,0:0:0:0:
320,192,26717,1,4,0:0:0:0:
64,192,26796,1,4,0:0:0:0:
192,192,26874,1,4,0:0:0:0:
320,192,26953,1,4,0:0:0:0:
448,192,27031,1,4,0:0:0:0:
192,192,27110,1,4,0:0:0:0:
448,192,27188,1,0,0:0:0:0:
64,192,27188,1,0,0:0:0:0:
320,192,27345,1,0,0:0:0:0:
192,192,27345,1,8,0:0:0:0:
192,192,27502,1,0,0:0:0:0:
320,192,27659,1,0,0:0:0:0:
64,192,27659,1,2,0:0:0:0:
448,192,27817,1,0,0:0:0:0:
192,192,27817,1,8,0:0:0:0:
320,192,28052,1,0,0:0:0:0:
64,192,28052,1,2,0:0:0:0:
320,192,28131,1,12,0:0:0:0:
192,192,28209,1,4,0:0:0:0:
64,192,28288,1,0,0:0:0:0:
448,192,28366,1,0,0:0:0:0:
192,192,28445,1,0,0:0:0:0:
64,192,28445,1,2,0:0:0:0:
64,192,28523,1,2,0:0:0:0:
192,192,28602,1,0,0:0:0:0:
192,192,28759,1,0,0:0:0:0:
448,192,28916,1,0,0:0:0:0:
320,192,28916,1,2,0:0:0:0:
320,192,29073,1,0,0:0:0:0:
448,192,29152,1,0,0:0:0:0:
448,192,29309,1,0,0:0:0:0:
320,192,29387,1,0,0:0:0:0:
192,192,29544,128,0,29701:0:0:0:0:
448,192,29701,1,0,0:0:0:0:
64,192,29858,128,0,30015:0:0:0:0:
320,192,30015,1,0,0:0:0:0:
448,192,30173,1,0,0:0:0:0:
320,192,30173,128,2,30277:0:0:0:0:
192,192,30330,1,0,0:0:0:0:
64,192,30330,1,8,0:0:0:0:
320,192,30408,128,0,30461:0:0:0:0:
448,192,30565,1,0,0:0:0:0:
192,192,30565,1,2,0:0:0:0:
448,192,30644,1,12,0:0:0:0:
320,192,30801,1,0,0:0:0:0:
320,192,30906,1,0,0:0:0:0:
192,192,30958,1,0,0:0:0:0:
64,192,30958,1,2,0:0:0:0:
64,192,31036,1,2,0:0:0:0:
192,192,31115,1,0,0:0:0:0:
192,192,31292,128,0,31370:0:0:0:0:
320,192,31429,1,0,0:0:0:0:
64,192,31429,1,2,0:0:0:0:
448,192,31586,1,0,0:0:0:0:
192,192,31586,1,8,0:0:0:0:
192,192,31743,1,4,0:0:0:0:
448,192,31822,1,4,0:0:0:0:
64,192,31900,1,4,0:0:0:0:
192,192,31979,1,4,0:0:0:0:
448,192,32057,1,4,0:0:0:0:
320,192,32136,1,4,0:0:0:0:
192,192,32214,1,0,0:0:0:0:
64,192,32214,1,0,0:0:0:0:
448,192,32372,1,0,0:0:0:0:
320,192,32372,1,8,0:0:0:0:
320,192,32529,1,0,0:0:0:0:
320,192,32686,1,0,0:0:0:0:
64,192,32686,1,2,0:0:0:0:
448,192,32843,1,0,0:0:0:0:
192,192,32843,1,8,0:0:0:0:
320,192,33000,1,0,0:0:0:0:
192,192,33078,1,0,0:0:0:0:
64,192,33078,1,2,0:0:0:0:
192,192,33157,1,12,0:0:0:0:
448,192,33314,1,0,0:0:0:0:
64,192,33392,1,0,0:0:0:0:
448,192,33471,1,0,0:0:0:0:
192,192,33471,1,2,0:0:0:0:
448,192,33550,1,2,0:0:0:0:
320,192,33628,1,0,0:0:0:0:
320,192,33785,1,0,0:0:0:0:
448,192,33942,1,0,0:0:0:0:
192,192,33942,1,2,0:0:0:0:
192,192,34099,1,0,0:0:0:0:
64,192,34099,1,8,0:0:0:0:
320,192,34256,1,4,0:0:0:0:
64,192,34335,1,4,0:0:0:0:
320,192,34413,1,4,0:0:0:0:
448,192,34492,1,4,0:0:0:0:
64,192,34570,1,4,0:0:0:0:
192,192,34649,1,4,0:0:0:0:
448,192,34728,1,0,0:0:0:0:
320,192,34728,1,0,0:0:0:0:
192,192,34885,1,0,0:0:0:0:
64,192,34885,1,8,0:0:0:0:
192,192,35042,1,0,0:0:0:0:
320,192,35199,128,0,35303:0:0:0:0:
64,192,35199,1,2,0:0:0:0:
448,192,35356,1,0,0:0:0:0:
192,192,35356,1,8,0:0:0:0:
320,192,35434,128,0,35487:0:0:0:0:
448,192,35591,1,0,0:0:0:0:
64,192,35591,1,2,0:0:0:0:
448,192,35670,1,12,0:0:0:0:
320,192,35827,1,0,0:0:0:0:
320,192,35932,1,0,0:0:0:0:
192,192,35984,1,0,0:0:0:0:
64,192,35984,1,2,0:0:0:0:
64,192,36063,1,2,0:0:0:0:
192,192,36141,1,0,0:0:0:0:
192,192,36318,128,0,36396:0:0:0:0:
448,192,36455,1,0,0:0:0:0:
320,192,36455,1,2,0:0:0:0:
192,192,36612,1,0,0:0:0:0:
64,192,36612,1,8,0:0:0:0:
192,192,36769,1,4,0:0:0:0:
448,192,36848,1,4,0:0:0:0:
320,192,36926,1,4,0:0:0:0:
192,192,37005,1,4,0:0:0:0:
64,192,37084,1,4,0:0:0:0:
320,192,37162,1,4,0:0:0:0:
448,192,37241,1,0,0:0:0:0:
64,192,37241,1,0,0:0:0:0:
320,192,37398,1,0,0:0:0:0:
192,192,37398,1,8,0:0:0:0:
320,192,37555,1,0,0:0:0:0:
448,192,37712,1,0,0:0:0:0:
192,192,37712,1,2,0:0:0:0:
448,192,37869,1,0,0:0:0:0:
64,192,37869,1,8,0:0:0:0:
448,192,38105,1,0,0:0:0:0:
192,192,38105,1,2,0:0:0:0:
192,192,38183,1,12,0:0:0:0:
448,192,38340,1,0,0:0:0:0:
64,192,38419,1,0,0:0:0:0:
448,192,38497,1,0,0:0:0:0:
320,192,38497,1,2,0:0:0:0:
448,192,38576,1,2,0:0:0:0:
320,192,38654,1,0,0:0:0:0:
320,192,38811,1,0,0:0:0:0:
192,192,38968,1,0,0:0:0:0:
64,192,38968,1,2,0:0:0:0:
448,192,39125,1,0,0:0:0:0:
320,192,39125,1,8,0:0:0:0:
448,192,39283,1,4,0:0:0:0:
64,192,39361,1,4,0:0:0:0:
448,192,39440,1,4,0:0:0:0:
192,192,39518,1,4,0:0:0:0:
448,192,39597,1,0,0:0:0:0:
64,192,39597,1,4,0:0:0:0:
320,192,39675,1,4,0:0:0:0:
448,192,39754,1,0,0:0:0:0:
192,192,39754,1,0,0:0:0:0:
448,192,39911,1,0,0:0:0:0:
64,192,39911,1,8,0:0:0:0:
448,192,40068,128,0,40225:0:0:0:0:
320,192,40068,1,0,0:0:0:0:
192,192,40225,128,2,40303:1:0:0:0:
64,192,40225,128,2,40303:0:0:0:0:
448,192,40382,1,0,0:0:0:0:
64,192,40382,1,8,0:0:0:0:
448,192,40539,1,0,0:0:0:0:
64,192,40696,128,0,40775:0:0:0:0:
320,192,41167,128,0,41285:0:0:0:0:
64,192,41324,1,0,0:0:0:0:
192,192,41403,1,0,0:0:0:0:
64,192,41481,1,0,0:0:0:0:
64,192,41639,1,0,0:0:0:0:
320,192,41796,1,0,0:0:0:0:
320,192,41953,1,0,0:0:0:0:
448,192,42057,1,0,0:0:0:0:
448,192,42267,1,0,0:0:0:0:
320,192,42424,1,0,0:0:0:0:
192,192,42581,1,0,0:0:0:0:
64,192,43209,1,0,0:0:0:0:
448,192,43680,128,0,43759:0:0:0:0:
320,192,43837,1,0,0:0:0:0:
192,192,44466,1,0,0:0:0:0:
64,192,44623,128,0,44858:0:0:0:0:
320,192,44780,128,0,44937:0:0:0:0:
64,192,44937,128,0,45173:0:0:0:0:
320,192,45094,128,0,45251:0:0:0:0:
64,192,45251,128,0,45408:0:0:0:0:
448,192,45408,1,0,0:0:0:0:
320,192,45565,1,0,0:0:0:0:
64,192,45722,128,0,45801:0:0:0:0:
320,192,46194,128,0,46311:0:0:0:0:
64,192,46351,1,0,0:0:0:0:
192,192,46429,1,0,0:0:0:0:
64,192,46508,1,0,0:0:0:0:
64,192,46665,1,0,0:0:0:0:
320,192,46822,1,0,0:0:0:0:
320,192,46979,1,0,0:0:0:0:
448,192,47084,1,0,0:0:0:0:
448,192,47293,1,0,0:0:0:0:
320,192,47450,1,0,0:0:0:0:
192,192,47607,1,0,0:0:0:0:
64,192,48235,1,0,0:0:0:0:
448,192,48707,128,0,48785:0:0:0:0:
320,192,48864,1,0,0:0:0:0:
192,192,49492,1,0,0:0:0:0:
64,192,49649,128,0,49885:0:0:0:0:
320,192,49806,128,0,49963:0:0:0:0:
64,192,49963,128,0,50199:0:0:0:0:
320,192,50120,128,0,50277:0:0:0:0:
64,192,50277,128,0,50434:0:0:0:0:
448,192,50434,1,0,0:0:0:0:
320,192,50591,1,0,0:0:0:0:
64,192,50748,128,0,50827:0:0:0:0:
192,192,50906,1,0,0:0:0:0:
448,192,50984,1,0,0:0:0:0:
192,192,51063,1,0,0:0:0:0:
64,192,51141,1,0,0:0:0:0:
320,192,51220,128,0,51337:0:0:0:0:
64,192,51377,1,0,0:0:0:0:
192,192,51455,1,0,0:0:0:0:
64,192,51534,1,0,0:0:0:0:
64,192,51691,1,0,0:0:0:0:
320,192,51848,1,0,0:0:0:0:
320,192,52005,1,0,0:0:0:0:
448,192,52110,1,0,0:0:0:0:
192,192,52162,1,0,0:0:0:0:
448,192,52319,1,0,0:0:0:0:
320,192,52476,1,0,0:0:0:0:
192,192,52633,1,0,0:0:0:0:
320,192,52790,1,0,0:0:0:0:
448,192,52947,1,0,0:0:0:0:
320,192,53105,128,0,53209:0:0:0:0:
64,192,53262,1,0,0:0:0:0:
192,192,53419,1,0,0:0:0:0:
448,192,53497,1,0,0:0:0:0:
320,192,53576,1,0,0:0:0:0:
64,192,53654,1,0,0:0:0:0:
448,192,53733,128,0,53851:0:0:0:0:
320,192,53890,1,0,0:0:0:0:
64,192,54047,1,0,0:0:0:0:
64,192,54204,1,0,0:0:0:0:
192,192,54283,1,0,0:0:0:0:
192,192,54440,1,0,0:0:0:0:
64,192,54518,1,0,0:0:0:0:
64,192,54675,128,0,54911:0:0:0:0:
320,192,54832,128,0,54989:0:0:0:0:
64,192,54989,128,0,55225:0:0:0:0:
320,192,55146,128,0,55303:0:0:0:0:
64,192,55303,128,0,55461:0:0:0:0:
448,192,55461,1,0,0:0:0:0:
320,192,55618,1,0,0:0:0:0:
64,192,55775,128,0,55853:0:0:0:0:
192,192,55932,1,0,0:0:0:0:
448,192,56010,1,0,0:0:0:0:
192,192,56089,1,0,0:0:0:0:
64,192,56167,1,0,0:0:0:0:
320,192,56246,128,0,56364:0:0:0:0:
64,192,56403,1,0,0:0:0:0:
192,192,56481,1,0,0:0:0:0:
64,192,56560,1,0,0:0:0:0:
64,192,56717,1,0,0:0:0:0:
320,192,56874,1,0,0:0:0:0:
320,192,57031,1,0,0:0:0:0:
448,192,57136,1,0,0:0:0:0:
192,192,57188,1,0,0:0:0:0:
448,192,57345,1,0,0:0:0:0:
320,192,57502,1,0,0:0:0:0:
192,192,57659,1,0,0:0:0:0:
320,192,57817,1,0,0:0:0:0:
448,192,57974,1,0,0:0:0:0:
320,192,58131,128,0,58235:0:0:0:0:
64,192,58288,1,0,0:0:0:0:
192,192,58445,1,0,0:0:0:0:
448,192,58523,1,0,0:0:0:0:
320,192,58602,1,0,0:0:0:0:
64,192,58680,1,0,0:0:0:0:
448,192,58759,128,0,58877:0:0:0:0:
320,192,58916,1,0,0:0:0:0:
64,192,59073,1,0,0:0:0:0:
320,192,59230,1,0,0:0:0:0:
448,192,59309,1,0,0:0:0:0:
448,192,59466,1,0,0:0:0:0:
320,192,59544,128,0,59937:0:0:0:0:
64,192,59701,128,0,60094:0:0:0:0:
448,192,59858,128,0,60173:0:0:0:0:
320,192,60015,128,0,60173:0:0:0:0:
64,192,60173,128,0,60330:0:0:0:0:
320,192,60330,1,2,0:0:0:0:
448,192,60369,1,0,0:0:0:0:
64,192,60487,1,4,0:0:0:0:
320,192,60644,1,0,0:0:0:0:
192,192,60722,1,4,0:0:0:0:
448,192,60801,1,4,0:0:0:0:
320,192,60801,1,2,0:0:0:0:
64,192,60879,1,4,0:0:0:0:
448,192,60958,1,0,0:0:0:0:
192,192,60958,1,8,0:0:0:0:
448,192,61063,1,0,0:0:0:0:
64,192,61115,1,4,0:0:0:0:
192,192,61194,1,0,0:0:0:0:
320,192,61272,128,0,61429:0:0:0:0:
448,192,61351,128,0,61429:0:0:0:0:
192,192,61429,128,0,61534:0:0:0:0:
64,192,61429,128,0,61481:0:0:0:0:
448,192,61586,1,2,0:0:0:0:
320,192,61625,1,0,0:0:0:0:
64,192,61743,1,0,0:0:0:0:
448,192,61822,1,0,0:0:0:0:
320,192,61822,1,2,0:0:0:0:
192,192,61900,1,4,0:0:0:0:
64,192,61979,1,4,0:0:0:0:
448,192,62057,1,2,0:0:0:0:
320,192,62057,1,4,0:0:0:0:
192,192,62136,1,4,0:0:0:0:
320,192,62214,1,8,0:0:0:0:
64,192,62214,1,4,0:0:0:0:
192,192,62372,1,0,0:0:0:0:
448,192,62529,1,4,0:0:0:0:
448,192,62686,1,0,0:0:0:0:
320,192,62686,1,0,0:0:0:0:
192,192,62843,1,0,0:0:0:0:
64,192,62843,1,2,0:0:0:0:
192,192,63000,1,4,0:0:0:0:
320,192,63157,1,0,0:0:0:0:
448,192,63235,1,4,0:0:0:0:
192,192,63314,1,4,0:0:0:0:
64,192,63314,1,2,0:0:0:0:
320,192,63392,1,4,0:0:0:0:
448,192,63471,1,0,0:0:0:0:
192,192,63471,1,8,0:0:0:0:
192,192,63628,1,4,0:0:0:0:
320,192,63707,1,0,0:0:0:0:
64,192,63707,1,0,0:0:0:0:
448,192,63785,1,0,0:0:0:0:
448,192,63942,1,4,0:0:0:0:
320,192,64021,1,0,0:0:0:0:
192,192,64099,1,0,0:0:0:0:
64,192,64099,1,2,0:0:0:0:
448,192,64256,1,0,0:0:0:0:
192,192,64335,1,0,0:0:0:0:
64,192,64335,1,2,0:0:0:0:
320,192,64413,1,4,0:0:0:0:
448,192,64492,1,4,0:0:0:0:
192,192,64570,1,2,0:0:0:0:
64,192,64570,1,4,0:0:0:0:
448,192,64649,1,4,0:0:0:0:
320,192,64728,1,8,0:0:0:0:
64,192,64728,1,4,0:0:0:0:
192,192,64885,1,0,0:0:0:0:
448,192,65042,1,4,0:0:0:0:
448,192,65199,1,0,0:0:0:0:
64,192,65199,1,0,0:0:0:0:
448,192,65356,1,0,0:0:0:0:
320,192,65356,1,2,0:0:0:0:
320,192,65513,1,4,0:0:0:0:
448,192,65591,1,0,0:0:0:0:
192,192,65670,1,0,0:0:0:0:
320,192,65748,1,4,0:0:0:0:
192,192,65827,1,2,0:0:0:0:
64,192,65827,1,4,0:0:0:0:
448,192,65906,1,4,0:0:0:0:
320,192,65984,1,0,0:0:0:0:
64,192,65984,1,8,0:0:0:0:
64,192,66089,1,0,0:0:0:0:
448,192,66141,1,4,0:0:0:0:
320,192,66220,1,0,0:0:0:0:
64,192,66298,128,0,66455:0:0:0:0:
192,192,66377,128,0,66455:0:0:0:0:
320,192,66455,128,0,66508:0:0:0:0:
448,192,66455,128,0,66560:0:0:0:0:
64,192,66612,1,2,0:0:0:0:
192,192,66652,1,0,0:0:0:0:
448,192,66769,1,0,0:0:0:0:
192,192,66848,1,0,0:0:0:0:
64,192,66848,1,2,0:0:0:0:
320,192,66926,1,4,0:0:0:0:
448,192,67005,1,4,0:0:0:0:
192,192,67084,1,4,0:0:0:0:
64,192,67084,1,2,0:0:0:0:
320,192,67162,1,4,0:0:0:0:
448,192,67241,1,4,0:0:0:0:
192,192,67241,1,8,0:0:0:0:
320,192,67398,1,0,0:0:0:0:
64,192,67555,1,4,0:0:0:0:
192,192,67712,1,0,0:0:0:0:
64,192,67712,1,0,0:0:0:0:
448,192,67869,1,0,0:0:0:0:
320,192,67869,1,2,0:0:0:0:
320,192,68026,1,4,0:0:0:0:
192,192,68183,1,0,0:0:0:0:
64,192,68262,1,4,0:0:0:0:
448,192,68340,1,4,0:0:0:0:
320,192,68340,1,2,0:0:0:0:
192,192,68419,1,4,0:0:0:0:
320,192,68497,1,0,0:0:0:0:
64,192,68497,1,8,0:0:0:0:
320,192,68654,1,4,0:0:0:0:
448,192,68733,1,0,0:0:0:0:
64,192,68733,1,0,0:0:0:0:
192,192,68811,1,0,0:0:0:0:
64,192,68968,1,4,0:0:0:0:
192,192,69047,1,0,0:0:0:0:
448,192,69125,1,0,0:0:0:0:
320,192,69125,1,2,0:0:0:0:
64,192,69283,1,0,0:0:0:0:
448,192,69361,1,0,0:0:0:0:
320,192,69361,1,2,0:0:0:0:
192,192,69440,1,4,0:0:0:0:
64,192,69518,1,4,0:0:0:0:
448,192,69597,1,2,0:0:0:0:
320,192,69597,1,4,0:0:0:0:
64,192,69675,1,4,0:0:0:0:
448,192,69754,1,8,0:0:0:0:
192,192,69754,1,4,0:0:0:0:
320,192,69911,1,0,0:0:0:0:
64,192,70068,1,4,0:0:0:0:
448,192,70225,1,0,0:0:0:0:
64,192,70225,1,0,0:0:0:0:
448,192,70382,128,0,70461:0:0:0:0:
320,192,70382,128,2,70461:0:0:0:0:
192,192,70618,1,0,0:0:0:0:
448,192,70853,128,0,70932:0:0:0:0:
192,192,70853,128,0,70906:0:0:0:0:
192,192,71010,1,0,0:0:0:0:
192,192,71115,1,0,0:0:0:0:
64,192,71324,128,0,71481:0:0:0:0:
192,192,71403,128,0,71481:0:0:0:0:
448,192,71481,128,0,71586:0:0:0:0:
320,192,71481,128,0,71534:0:0:0:0:
64,192,71639,1,2,0:0:0:0:
192,192,71678,1,0,0:0:0:0:
320,192,71796,1,4,0:0:0:0:
64,192,72031,1,4,0:0:0:0:
448,192,72110,1,4,0:0:0:0:
320,192,72110,1,2,0:0:0:0:
192,192,72188,1,4,0:0:0:0:
320,192,72267,1,0,0:0:0:0:
64,192,72267,1,8,0:0:0:0:
320,192,72424,1,4,0:0:0:0:
448,192,72502,1,0,0:0:0:0:
64,192,72502,1,0,0:0:0:0:
192,192,72581,1,0,0:0:0:0:
320,192,72738,1,4,0:0:0:0:
448,192,72817,1,0,0:0:0:0:
192,192,72895,1,0,0:0:0:0:
64,192,72895,1,2,0:0:0:0:
192,192,73052,1,4,0:0:0:0:
64,192,73209,1,0,0:0:0:0:
192,192,73288,1,4,0:0:0:0:
448,192,73366,1,4,0:0:0:0:
320,192,73366,1,2,0:0:0:0:
192,192,73445,1,4,0:0:0:0:
320,192,73523,1,0,0:0:0:0:
64,192,73523,1,8,0:0:0:0:
448,192,73602,1,0,0:0:0:0:
64,192,73680,1,4,0:0:0:0:
320,192,73759,1,0,0:0:0:0:
192,192,73759,1,0,0:0:0:0:
448,192,73837,1,0,0:0:0:0:
64,192,73995,1,4,0:0:0:0:
192,192,74073,1,0,0:0:0:0:
448,192,74152,1,0,0:0:0:0:
320,192,74152,1,2,0:0:0:0:
192,192,74309,1,0,0:0:0:0:
448,192,74387,1,0,0:0:0:0:
320,192,74387,1,2,0:0:0:0:
192,192,74466,1,4,0:0:0:0:
64,192,74544,1,4,0:0:0:0:
448,192,74623,1,4,0:0:0:0:
320,192,74623,1,2,0:0:0:0:
192,192,74701,1,4,0:0:0:0:
320,192,74780,1,4,0:0:0:0:
64,192,74780,1,8,0:0:0:0:
448,192,74858,1,4,0:0:0:0:
64,192,74937,1,0,0:0:0:0:
320,192,74989,1,0,0:0:0:0:
192,192,75042,1,0,0:0:0:0:
64,192,75094,128,4,75251:0:0:0:0:
448,192,75251,128,0,75330:0:0:0:0:
192,192,75408,1,0,0:0:0:0:
64,192,75408,1,2,0:0:0:0:
448,192,75565,1,4,0:0:0:0:
320,192,75644,1,0,0:0:0:0:
64,192,75801,1,4,0:0:0:0:
448,192,75879,1,4,0:0:0:0:
320,192,75879,1,2,0:0:0:0:
192,192,75958,1,4,0:0:0:0:
320,192,76036,1,0,0:0:0:0:
64,192,76036,1,8,0:0:0:0:
320,192,76141,1,0,0:0:0:0:
64,192,76194,1,4,0:0:0:0:
192,192,76272,1,0,0:0:0:0:
320,192,76351,128,0,76508:0:0:0:0:
448,192,76429,128,0,76508:0:0:0:0:
64,192,76508,128,0,76560:0:0:0:0:
192,192,76508,128,0,76612:0:0:0:0:
64,192,76665,1,2,0:0:0:0:
192,192,76704,1,0,0:0:0:0:
320,192,76822,1,4,0:0:0:0:
192,192,76900,1,0,0:0:0:0:
64,192,76900,1,2,0:0:0:0:
320,192,76979,1,4,0:0:0:0:
448,192,77057,1,4,0:0:0:0:
192,192,77136,1,4,0:0:0:0:
64,192,77136,1,2,0:0:0:0:
320,192,77214,1,4,0:0:0:0:
448,192,77293,1,8,0:0:0:0:
192,192,77293,1,4,0:0:0:0:
320,192,77450,1,0,0:0:0:0:
448,192,77607,1,4,0:0:0:0:
448,192,77764,1,0,0:0:0:0:
192,192,77921,1,0,0:0:0:0:
64,192,77921,1,2,0:0:0:0:
192,192,78078,1,4,0:0:0:0:
320,192,78235,1,0,0:0:0:0:
192,192,78314,1,4,0:0:0:0:
448,192,78392,1,4,0:0:0:0:
320,192,78392,1,2,0:0:0:0:
64,192,78471,1,4,0:0:0:0:
448,192,78550,1,0,0:0:0:0:
192,192,78550,1,8,0:0:0:0:
320,192,78707,1,4,0:0:0:0:
448,192,78785,1,0,0:0:0:0:
64,192,78785,1,0,0:0:0:0:
192,192,78864,1,0,0:0:0:0:
320,192,79021,1,4,0:0:0:0:
448,192,79099,1,0,0:0:0:0:
192,192,79178,1,0,0:0:0:0:
64,192,79178,1,2,0:0:0:0:
320,192,79335,1,0,0:0:0:0:
192,192,79413,1,0,0:0:0:0:
64,192,79413,1,2,0:0:0:0:
448,192,79492,1,4,0:0:0:0:
320,192,79570,1,4,0:0:0:0:
192,192,79649,1,4,0:0:0:0:
64,192,79649,1,2,0:0:0:0:
320,192,79728,1,4,0:0:0:0:
448,192,79806,1,4,0:0:0:0:
64,192,79806,1,8,0:0:0:0:
320,192,79885,1,4,0:0:0:0:
448,192,79963,1,0,0:0:0:0:
192,192,80015,1,0,0:0:0:0:
448,192,80068,1,0,0:0:0:0:
64,192,80120,128,4,80277:0:0:0:0:
448,192,80277,128,0,80356:0:0:0:0:
320,192,80434,128,2,80487:0:0:0:0:
192,192,80434,128,2,80487:1:0:0:0:
448,192,80591,1,0,0:0:0:0:
320,192,80906,128,0,81063:0:0:0:0:
192,192,81063,1,0,0:0:0:0:
448,192,81141,1,0,0:0:0:0:
192,192,81220,1,0,0:0:0:0:
320,192,81298,1,0,0:0:0:0:
64,192,81377,1,0,0:0:0:0:
192,192,81534,1,0,0:0:0:0:
448,192,81691,1,0,0:0:0:0:
320,192,81848,1,0,0:0:0:0:
192,192,82162,1,0,0:0:0:0:
448,192,82201,128,0,82300:0:0:0:0:
64,192,82319,1,0,0:0:0:0:
320,192,82358,128,0,82457:0:0:0:0:
192,192,82476,1,0,0:0:0:0:
448,192,82555,1,0,0:0:0:0:
320,192,82633,1,0,0:0:0:0:
448,192,82712,1,0,0:0:0:0:
192,192,82790,1,0,0:0:0:0:
64,192,82947,1,0,0:0:0:0:
320,192,82987,128,0,83065:0:0:0:0:
192,192,83105,1,0,0:0:0:0:
448,192,83262,1,0,0:0:0:0:
320,192,83419,1,0,0:0:0:0:
192,192,83471,128,0,83550:0:0:0:0:
320,192,83615,128,0,83811:0:0:0:0:
64,192,83772,128,0,83968:0:0:0:0:
448,192,83929,128,0,84165:0:0:0:0:
320,192,84086,128,0,84165:0:0:0:0:
64,192,84204,1,0,0:0:0:0:
320,192,84361,1,0,0:0:0:0:
192,192,84400,128,0,84479:0:0:0:0:
448,192,84518,1,0,0:0:0:0:
448,192,84675,1,0,0:0:0:0:
320,192,84728,128,0,84806:0:0:0:0:
192,192,84832,128,0,84989:0:0:0:0:
448,192,84989,1,0,0:0:0:0:
320,192,85042,1,0,0:0:0:0:
448,192,85107,128,0,85186:0:0:0:0:
64,192,85146,1,0,0:0:0:0:
320,192,85186,128,0,85264:0:0:0:0:
192,192,85264,128,0,85303:0:0:0:0:
64,192,85343,1,0,0:0:0:0:
448,192,85421,1,0,0:0:0:0:
192,192,85461,128,0,85513:0:0:0:0:
448,192,85618,1,0,0:0:0:0:
320,192,85932,128,0,86089:0:0:0:0:
192,192,86089,1,0,0:0:0:0:
448,192,86167,1,0,0:0:0:0:
192,192,86246,1,0,0:0:0:0:
320,192,86324,1,0,0:0:0:0:
64,192,86403,1,0,0:0:0:0:
192,192,86560,1,0,0:0:0:0:
448,192,86717,1,0,0:0:0:0:
320,192,86874,1,0,0:0:0:0:
64,192,87057,128,0,87110:0:0:0:0:
192,192,87188,1,0,0:0:0:0:
448,192,87228,128,0,87326:0:0:0:0:
64,192,87345,128,0,87398:0:0:0:0:
320,192,87385,128,0,87483:0:0:0:0:
192,192,87502,1,0,0:0:0:0:
448,192,87581,1,0,0:0:0:0:
320,192,87659,1,0,0:0:0:0:
448,192,87738,1,0,0:0:0:0:
192,192,87817,1,0,0:0:0:0:
64,192,87974,1,0,0:0:0:0:
320,192,88026,128,0,88105:0:0:0:0:
192,192,88131,1,0,0:0:0:0:
448,192,88288,1,0,0:0:0:0:
320,192,88445,1,0,0:0:0:0:
192,192,88497,128,0,88576:0:0:0:0:
320,192,88641,128,0,88837:0:0:0:0:
64,192,88798,128,0,88995:0:0:0:0:
448,192,88955,128,0,89191:0:0:0:0:
320,192,89112,128,0,89191:0:0:0:0:
64,192,89230,1,0,0:0:0:0:
320,192,89387,1,0,0:0:0:0:
192,192,89426,128,0,89485:0:0:0:0:
448,192,89544,1,0,0:0:0:0:
64,192,89701,1,0,0:0:0:0:
320,192,89858,1,0,0:0:0:0:
448,192,90015,1,0,0:0:0:0:
320,192,90068,1,0,0:0:0:0:
448,192,90133,128,0,90212:0:0:0:0:
64,192,90173,1,0,0:0:0:0:
320,192,90212,128,0,90290:0:0:0:0:
192,192,90290,128,0,90330:0:0:0:0:
64,192,90369,1,0,0:0:0:0:
448,192,90447,1,0,0:0:0:0:
192,192,90487,1,0,0:0:0:0:
64,192,90487,1,2,0:0:0:0:
192,192,90644,1,6,0:0:0:0:
448,192,90801,1,0,0:0:0:0:
64,192,90801,1,8,0:0:0:0:
320,192,90879,1,4,0:0:0:0:
64,192,90958,1,4,0:0:0:0:
192,192,91036,1,4,0:0:0:0:
448,192,91115,1,4,0:0:0:0:
64,192,91194,1,4,0:0:0:0:
448,192,91272,1,4,0:0:0:0:
320,192,91272,1,2,0:0:0:0:
64,192,91351,1,4,0:0:0:0:
192,192,91429,1,0,0:0:0:0:
448,192,91586,1,0,0:0:0:0:
64,192,91586,1,8,0:0:0:0:
448,192,91743,1,0,0:0:0:0:
320,192,91743,1,2,0:0:0:0:
320,192,91900,1,2,0:0:0:0:
448,192,92057,1,0,0:0:0:0:
64,192,92057,1,8,0:0:0:0:
192,192,92136,1,4,0:0:0:0:
320,192,92214,1,6,0:0:0:0:
64,192,92293,1,4,0:0:0:0:
192,192,92372,1,4,0:0:0:0:
448,192,92450,1,4,0:0:0:0:
320,192,92529,1,2,0:0:0:0:
448,192,92607,1,0,0:0:0:0:
192,192,92686,1,4,0:0:0:0:
448,192,92843,1,0,0:0:0:0:
64,192,92843,1,8,0:0:0:0:
192,192,93000,1,0,0:0:0:0:
64,192,93000,1,2,0:0:0:0:
448,192,93157,1,6,0:0:0:0:
448,192,93314,1,0,0:0:0:0:
64,192,93314,1,8,0:0:0:0:
320,192,93392,1,4,0:0:0:0:
64,192,93471,1,4,0:0:0:0:
192,192,93550,1,4,0:0:0:0:
448,192,93628,1,4,0:0:0:0:
320,192,93707,1,4,0:0:0:0:
192,192,93785,1,4,0:0:0:0:
64,192,93785,1,2,0:0:0:0:
320,192,93864,1,4,0:0:0:0:
192,192,93942,1,0,0:0:0:0:
448,192,94099,1,0,0:0:0:0:
64,192,94099,1,8,0:0:0:0:
448,192,94256,1,0,0:0:0:0:
320,192,94256,1,2,0:0:0:0:
320,192,94413,1,2,0:0:0:0:
448,192,94570,1,0,0:0:0:0:
64,192,94570,1,8,0:0:0:0:
192,192,94649,1,4,0:0:0:0:
320,192,94728,1,6,0:0:0:0:
64,192,94806,1,4,0:0:0:0:
192,192,94885,1,4,0:0:0:0:
64,192,94963,1,4,0:0:0:0:
448,192,95042,1,2,0:0:0:0:
320,192,95094,1,0,0:0:0:0:
448,192,95159,128,0,95238:0:0:0:0:
64,192,95199,1,0,0:0:0:0:
320,192,95238,128,0,95317:0:0:0:0:
192,192,95317,128,0,95356:0:0:0:0:
64,192,95395,1,0,0:0:0:0:
448,192,95474,1,0,0:0:0:0:
192,192,95513,1,0,0:0:0:0:
64,192,95513,1,2,0:0:0:0:
64,192,95670,1,6,0:0:0:0:
320,192,95827,1,0,0:0:0:0:
192,192,95827,1,8,0:0:0:0:
448,192,95906,1,4,0:0:0:0:
64,192,95984,1,4,0:0:0:0:
320,192,96063,1,4,0:0:0:0:
192,192,96141,1,4,0:0:0:0:
448,192,96220,1,4,0:0:0:0:
192,192,96298,1,4,0:0:0:0:
64,192,96298,1,2,0:0:0:0:
320,192,96377,1,4,0:0:0:0:
64,192,96455,1,0,0:0:0:0:
320,192,96612,1,0,0:0:0:0:
192,192,96612,1,8,0:0:0:0:
448,192,96769,1,0,0:0:0:0:
320,192,96769,1,2,0:0:0:0:
448,192,96926,1,2,0:0:0:0:
320,192,97084,1,0,0:0:0:0:
192,192,97084,1,8,0:0:0:0:
64,192,97162,1,4,0:0:0:0:
448,192,97241,1,6,0:0:0:0:
64,192,97319,1,4,0:0:0:0:
320,192,97398,1,4,0:0:0:0:
192,192,97476,1,4,0:0:0:0:
448,192,97555,1,2,0:0:0:0:
192,192,97633,1,0,0:0:0:0:
320,192,97712,1,4,0:0:0:0:
320,192,97869,1,0,0:0:0:0:
192,192,97869,1,8,0:0:0:0:
192,192,98026,1,0,0:0:0:0:
64,192,98026,1,2,0:0:0:0:
320,192,98183,1,6,0:0:0:0:
320,192,98340,1,0,0:0:0:0:
192,192,98340,1,8,0:0:0:0:
64,192,98419,1,4,0:0:0:0:
448,192,98497,1,4,0:0:0:0:
192,192,98576,1,4,0:0:0:0:
320,192,98654,1,4,0:0:0:0:
64,192,98733,1,4,0:0:0:0:
448,192,98811,1,4,0:0:0:0:
320,192,98811,1,2,0:0:0:0:
192,192,98890,1,4,0:0:0:0:
448,192,98968,1,0,0:0:0:0:
320,192,99125,1,0,0:0:0:0:
192,192,99125,1,8,0:0:0:0:
448,192,99283,1,0,0:0:0:0:
320,192,99283,1,2,0:0:0:0:
448,192,99440,1,2,0:0:0:0:
320,192,99597,1,0,0:0:0:0:
192,192,99597,1,8,0:0:0:0:
64,192,99675,1,4,0:0:0:0:
448,192,99754,1,6,0:0:0:0:
192,192,99832,1,4,0:0:0:0:
64,192,99911,1,4,0:0:0:0:
192,192,99989,1,4,0:0:0:0:
448,192,100068,1,2,0:0:0:0:
320,192,100120,1,0,0:0:0:0:
448,192,100186,128,0,100264:0:0:0:0:
64,192,100225,1,0,0:0:0:0:
320,192,100264,128,0,100343:0:0:0:0:
192,192,100343,128,0,100382:0:0:0:0:
64,192,100421,1,0,0:0:0:0:
448,192,100500,1,0,0:0:0:0:
192,192,100539,1,0,0:0:0:0:
64,192,100539,1,2,0:0:0:0:
64,192,100696,1,6,0:0:0:0:
448,192,100853,1,0,0:0:0:0:
192,192,100853,1,8,0:0:0:0:
320,192,100932,1,4,0:0:0:0:
64,192,101010,1,4,0:0:0:0:
448,192,101089,1,4,0:0:0:0:
320,192,101167,1,4,0:0:0:0:
192,192,101246,1,4,0:0:0:0:
448,192,101324,1,2,0:0:0:0:
320,192,101324,1,4,0:0:0:0:
192,192,101403,1,4,0:0:0:0:
64,192,101481,1,0,0:0:0:0:
448,192,101639,1,0,0:0:0:0:
192,192,101639,1,8,0:0:0:0:
448,192,101796,1,0,0:0:0:0:
320,192,101796,1,2,0:0:0:0:
320,192,101953,1,2,0:0:0:0:
448,192,102110,1,0,0:0:0:0:
192,192,102110,1,8,0:0:0:0:
64,192,102188,1,4,0:0:0:0:
320,192,102267,1,6,0:0:0:0:
448,192,102345,1,4,0:0:0:0:
64,192,102424,1,4,0:0:0:0:
192,192,102502,1,4,0:0:0:0:
320,192,102581,1,2,0:0:0:0:
192,192,102659,1,0,0:0:0:0:
64,192,102738,1,4,0:0:0:0:
448,192,102895,1,0,0:0:0:0:
192,192,102895,1,8,0:0:0:0:
192,192,103052,1,0,0:0:0:0:
64,192,103052,1,2,0:0:0:0:
448,192,103209,1,6,0:0:0:0:
448,192,103366,1,0,0:0:0:0:
192,192,103366,1,8,0:0:0:0:
320,192,103445,1,4,0:0:0:0:
64,192,103523,1,4,0:0:0:0:
448,192,103602,1,4,0:0:0:0:
192,192,103680,1,4,0:0:0:0:
320,192,103759,1,4,0:0:0:0:
192,192,103837,1,2,0:0:0:0:
64,192,103837,1,4,0:0:0:0:
448,192,103916,1,4,0:0:0:0:
320,192,103995,1,0,0:0:0:0:
448,192,104152,1,0,0:0:0:0:
192,192,104152,1,8,0:0:0:0:
448,192,104309,1,0,0:0:0:0:
320,192,104309,1,2,0:0:0:0:
320,192,104466,1,2,0:0:0:0:
448,192,104623,1,0,0:0:0:0:
192,192,104623,1,8,0:0:0:0:
64,192,104701,1,4,0:0:0:0:
320,192,104780,1,6,0:0:0:0:
192,192,104858,1,4,0:0:0:0:
64,192,104937,1,4,0:0:0:0:
192,192,105015,1,4,0:0:0:0:
448,192,105094,1,2,0:0:0:0:
320,192,105146,1,0,0:0:0:0:
448,192,105212,128,0,105290:0:0:0:0:
64,192,105251,1,0,0:0:0:0:
320,192,105290,128,0,105369:0:0:0:0:
192,192,105369,128,0,105408:0:0:0:0:
64,192,105447,1,0,0:0:0:0:
448,192,105526,1,0,0:0:0:0:
192,192,105565,1,0,0:0:0:0:
64,192,105565,1,2,0:0:0:0:
192,192,105722,1,6,0:0:0:0:
448,192,105879,1,0,0:0:0:0:
320,192,105879,1,8,0:0:0:0:
192,192,105958,1,4,0:0:0:0:
448,192,106036,1,4,0:0:0:0:
64,192,106115,1,4,0:0:0:0:
320,192,106194,1,4,0:0:0:0:
448,192,106272,1,4,0:0:0:0:
192,192,106351,1,4,0:0:0:0:
64,192,106351,1,2,0:0:0:0:
320,192,106429,1,4,0:0:0:0:
192,192,106508,1,0,0:0:0:0:
448,192,106665,1,0,0:0:0:0:
320,192,106665,1,8,0:0:0:0:
192,192,106822,1,0,0:0:0:0:
64,192,106822,1,2,0:0:0:0:
192,192,106979,1,2,0:0:0:0:
448,192,107136,1,0,0:0:0:0:
320,192,107136,1,8,0:0:0:0:
64,192,107214,1,4,0:0:0:0:
192,192,107293,1,6,0:0:0:0:
64,192,107372,1,4,0:0:0:0:
320,192,107450,1,4,0:0:0:0:
448,192,107529,1,4,0:0:0:0:
192,192,107607,1,2,0:0:0:0:
448,192,107686,1,0,0:0:0:0:
320,192,107764,1,4,0:0:0:0:
448,192,107921,1,0,0:0:0:0:
320,192,107921,1,8,0:0:0:0:
192,192,108078,1,0,0:0:0:0:
64,192,108078,1,2,0:0:0:0:
320,192,108235,1,6,0:0:0:0:
448,192,108392,1,0,0:0:0:0:
320,192,108392,1,8,0:0:0:0:
192,192,108471,1,4,0:0:0:0:
64,192,108550,1,4,0:0:0:0:
320,192,108628,1,4,0:0:0:0:
448,192,108707,1,4,0:0:0:0:
320,192,108785,1,4,0:0:0:0:
192,192,108864,1,4,0:0:0:0:
64,192,108864,1,2,0:0:0:0:
448,192,108942,1,4,0:0:0:0:
320,192,109021,1,0,0:0:0:0:
448,192,109178,1,0,0:0:0:0:
320,192,109178,1,8,0:0:0:0:
192,192,109335,1,0,0:0:0:0:
64,192,109335,1,2,0:0:0:0:
192,192,110591,128,2,110644:0:0:0:0:
64,192,110591,1,2,1:0:0:0:
64,192,110748,1,0,0:0:0:0:
448,192,111063,128,0,111141:0:0:0:0:
64,192,111220,1,0,0:0:0:0:
192,192,111534,128,0,111586:0:0:0:0:
64,192,111691,1,0,0:0:0:0:
320,192,112005,128,0,112084:0:0:0:0:
64,192,112476,128,0,112529:0:0:0:0:
192,192,112790,128,0,112869:0:0:0:0:
64,192,113105,128,0,113209:0:0:0:0:
64,192,113262,128,0,113497:0:0:0:0:
64,192,113576,128,0,113654:0:0:0:0:
64,192,113733,128,0,113942:0:0:0:0:
64,192,114047,128,0,114099:0:0:0:0:
64,192,114204,128,0,114387:0:0:0:0:
192,192,115618,128,0,115670:0:0:0:0:
64,192,115775,1,0,0:0:0:0:
448,192,116089,128,0,116167:0:0:0:0:
64,192,116246,1,0,0:0:0:0:
192,192,116560,128,0,116612:0:0:0:0:
64,192,116717,1,0,0:0:0:0:
320,192,117031,128,0,117110:0:0:0:0:
448,192,117502,128,0,117607:0:0:0:0:
192,192,117817,128,0,117895:0:0:0:0:
64,192,118131,128,0,118209:0:0:0:0:
64,192,118288,128,0,118497:0:0:0:0:
64,192,118602,128,0,118654:0:0:0:0:
64,192,118759,128,0,118942:0:0:0:0:
64,192,119073,1,0,0:0:0:0:
64,192,119230,128,0,119387:0:0:0:0:
192,192,120644,128,0,120696:0:0:0:0:
64,192,120801,1,0,0:0:0:0:
448,192,121115,128,0,121194:0:0:0:0:
64,192,121272,1,0,0:0:0:0:
64,192,121429,1,0,0:0:0:0:
192,192,121586,128,0,121639:0:0:0:0:
64,192,121743,1,0,0:0:0:0:
64,192,121900,1,0,0:0:0:0:
320,192,122057,128,0,122136:0:0:0:0:
64,192,122136,1,0,0:0:0:0:
192,192,122293,1,0,0:0:0:0:
320,192,122372,1,0,0:0:0:0:
64,192,122529,128,0,122581:0:0:0:0:
448,192,122686,1,0,0:0:0:0:
192,192,122843,128,0,122921:0:0:0:0:
320,192,123000,1,0,0:0:0:0:
64,192,123157,128,0,123262:0:0:0:0:
64,192,123314,128,0,123550:0:0:0:0:
448,192,123550,1,0,0:0:0:0:
320,192,123628,1,0,0:0:0:0:
64,192,123628,128,0,123707:0:0:0:0:
192,192,123785,1,0,0:0:0:0:
64,192,123785,128,0,123995:0:0:0:0:
448,192,123942,1,0,0:0:0:0:
192,192,124099,1,0,0:0:0:0:
64,192,124099,128,0,124152:0:0:0:0:
320,192,124256,1,0,0:0:0:0:
64,192,124256,128,0,124440:0:0:0:0:
448,192,124413,1,0,0:0:0:0:
448,192,124570,1,0,0:0:0:0:
320,192,124649,1,0,0:0:0:0:
448,192,124806,1,0,0:0:0:0:
320,192,124885,128,0,125015:0:0:0:0:
192,192,125042,1,0,0:0:0:0:
448,192,125199,1,0,0:0:0:0:
320,192,125356,1,0,0:0:0:0:
448,192,125513,1,0,0:0:0:0:
192,192,125670,128,0,125722:0:0:0:0:
64,192,125827,1,0,0:0:0:0:
448,192,126141,128,0,126220:0:0:0:0:
64,192,126298,1,0,0:0:0:0:
192,192,126455,1,0,0:0:0:0:
192,192,126612,128,0,126665:0:0:0:0:
64,192,126769,1,0,0:0:0:0:
192,192,126926,1,0,0:0:0:0:
320,192,127084,128,0,127162:0:0:0:0:
64,192,127162,1,0,0:0:0:0:
192,192,127319,1,0,0:0:0:0:
448,192,127555,128,0,127659:0:0:0:0:
320,192,127712,1,0,0:0:0:0:
192,192,127869,128,0,127947:0:0:0:0:
192,192,128026,1,0,0:0:0:0:
64,192,128183,128,0,128262:0:0:0:0:
320,192,128340,1,0,0:0:0:0:
64,192,128340,128,0,128550:0:0:0:0:
448,192,128576,1,0,0:0:0:0:
64,192,128654,128,0,128707:0:0:0:0:
192,192,128811,1,0,0:0:0:0:
64,192,128811,128,0,128995:0:0:0:0:
448,192,128968,1,0,0:0:0:0:
64,192,129125,1,0,0:0:0:0:
64,192,129283,128,0,129440:0:0:0:0:
320,192,129283,1,0,0:0:0:0:
448,192,129440,1,0,0:0:0:0:
448,192,129597,1,0,0:0:0:0:
320,192,129675,1,0,0:0:0:0:
192,192,129832,128,0,129989:0:0:0:0:
192,192,130068,1,0,0:0:0:0:
448,192,130225,1,0,0:0:0:0:
320,192,130382,1,0,0:0:0:0:
448,192,130539,1,0,0:0:0:0:
192,192,130696,128,0,130748:0:0:0:0:
64,192,130696,1,2,0:0:0:0:
320,192,130853,1,4,0:0:0:0:
320,192,131010,1,4,0:0:0:0:
448,192,131167,128,0,131246:0:0:0:0:
192,192,131167,1,2,0:0:0:0:
192,192,131324,1,8,0:0:0:0:
64,192,131324,1,4,0:0:0:0:
64,192,131481,1,4,0:0:0:0:
448,192,131560,1,4,0:0:0:0:
192,192,131639,128,4,131691:0:0:0:0:
320,192,131717,1,4,0:0:0:0:
64,192,131796,1,4,0:0:0:0:
448,192,131953,1,0,0:0:0:0:
64,192,131953,1,2,0:0:0:0:
320,192,132110,128,4,132188:0:0:0:0:
64,192,132188,1,4,0:0:0:0:
448,192,132267,1,0,0:0:0:0:
320,192,132267,1,2,0:0:0:0:
192,192,132345,1,0,0:0:0:0:
320,192,132424,1,6,0:0:0:0:
448,192,132502,1,2,0:0:0:0:
192,192,132581,1,8,0:0:0:0:
64,192,132581,128,4,132633:0:0:0:0:
448,192,132738,1,4,0:0:0:0:
192,192,132895,128,0,132974:0:0:0:0:
320,192,133052,1,4,0:0:0:0:
192,192,133209,1,0,0:0:0:0:
64,192,133209,128,2,133262:0:0:0:0:
320,192,133366,1,4,0:0:0:0:
320,192,133523,1,4,0:0:0:0:
448,192,133602,1,0,0:0:0:0:
320,192,133680,1,2,0:0:0:0:
64,192,133680,1,4,0:0:0:0:
192,192,133837,1,4,0:0:0:0:
64,192,133837,1,8,0:0:0:0:
448,192,133995,1,4,0:0:0:0:
64,192,134073,1,4,0:0:0:0:
192,192,134152,1,4,0:0:0:0:
448,192,134230,1,4,0:0:0:0:
320,192,134309,1,4,0:0:0:0:
448,192,134466,1,0,0:0:0:0:
192,192,134466,1,2,0:0:0:0:
448,192,134623,1,4,0:0:0:0:
320,192,134701,1,4,0:0:0:0:
192,192,134780,1,0,0:0:0:0:
64,192,134780,1,2,0:0:0:0:
448,192,134858,1,0,0:0:0:0:
320,192,134937,128,0,135068:0:0:0:0:
64,192,135015,1,2,0:0:0:0:
448,192,135094,1,8,0:0:0:0:
192,192,135094,1,4,0:0:0:0:
448,192,135251,1,4,0:0:0:0:
320,192,135408,1,0,0:0:0:0:
448,192,135565,1,4,0:0:0:0:
192,192,135722,128,0,135775:0:0:0:0:
64,192,135722,1,2,0:0:0:0:
320,192,135879,1,4,0:0:0:0:
320,192,136036,1,4,0:0:0:0:
448,192,136194,128,0,136272:0:0:0:0:
192,192,136194,1,2,0:0:0:0:
320,192,136351,1,8,0:0:0:0:
64,192,136351,1,4,0:0:0:0:
192,192,136508,1,4,0:0:0:0:
448,192,136586,1,4,0:0:0:0:
192,192,136665,128,4,136717:0:0:0:0:
320,192,136743,1,4,0:0:0:0:
64,192,136822,1,4,0:0:0:0:
448,192,136979,1,0,0:0:0:0:
192,192,136979,1,2,0:0:0:0:
320,192,137136,128,4,137214:0:0:0:0:
64,192,137214,1,4,0:0:0:0:
448,192,137293,1,0,0:0:0:0:
320,192,137293,1,2,0:0:0:0:
192,192,137372,1,0,0:0:0:0:
64,192,137450,1,6,0:0:0:0:
320,192,137529,1,2,0:0:0:0:
64,192,137607,1,4,0:0:0:0:
448,192,137607,128,8,137712:0:0:0:0:
320,192,137764,1,4,0:0:0:0:
192,192,137921,128,0,138000:0:0:0:0:
192,192,138078,1,4,0:0:0:0:
448,192,138235,128,0,138288:0:0:0:0:
64,192,138235,1,2,0:0:0:0:
320,192,138392,1,4,0:0:0:0:
320,192,138550,1,4,0:0:0:0:
448,192,138628,1,0,0:0:0:0:
320,192,138707,1,2,0:0:0:0:
64,192,138707,1,4,0:0:0:0:
192,192,138864,1,4,0:0:0:0:
64,192,138864,1,8,0:0:0:0:
448,192,139021,1,4,0:0:0:0:
64,192,139099,1,4,0:0:0:0:
192,192,139178,1,4,0:0:0:0:
448,192,139256,1,4,0:0:0:0:
320,192,139335,1,4,0:0:0:0:
448,192,139492,1,0,0:0:0:0:
320,192,139492,1,2,0:0:0:0:
64,192,139570,1,4,0:0:0:0:
448,192,139649,1,4,0:0:0:0:
320,192,139728,1,4,0:0:0:0:
448,192,139806,1,0,0:0:0:0:
64,192,139806,1,2,0:0:0:0:
192,192,139885,128,0,140042:0:0:0:0:
64,192,139963,1,6,0:0:0:0:
448,192,140042,1,2,0:0:0:0:
320,192,140120,1,8,0:0:0:0:
192,192,140120,1,4,0:0:0:0:
448,192,140277,1,4,0:0:0:0:
320,192,140434,1,0,0:0:0:0:
448,192,140591,1,4,0:0:0:0:
192,192,140748,128,0,140801:0:0:0:0:
64,192,140748,1,2,0:0:0:0:
320,192,140906,1,4,0:0:0:0:
320,192,141063,1,4,0:0:0:0:
448,192,141220,128,0,141298:0:0:0:0:
192,192,141220,1,2,0:0:0:0:
192,192,141377,1,4,0:0:0:0:
64,192,141377,1,8,0:0:0:0:
64,192,141534,1,4,0:0:0:0:
448,192,141612,1,4,0:0:0:0:
192,192,141691,128,4,141743:0:0:0:0:
320,192,141769,1,4,0:0:0:0:
64,192,141848,1,4,0:0:0:0:
448,192,142005,1,0,0:0:0:0:
64,192,142005,1,2,0:0:0:0:
320,192,142162,128,4,142241:0:0:0:0:
64,192,142241,1,4,0:0:0:0:
448,192,142319,1,0,0:0:0:0:
320,192,142319,1,2,0:0:0:0:
192,192,142398,1,0,0:0:0:0:
320,192,142476,1,6,0:0:0:0:
448,192,142555,1,2,0:0:0:0:
192,192,142633,1,4,0:0:0:0:
64,192,142633,128,8,142686:0:0:0:0:
448,192,142790,1,4,0:0:0:0:
192,192,142947,128,0,143026:0:0:0:0:
320,192,143105,1,4,0:0:0:0:
192,192,143262,1,0,0:0:0:0:
64,192,143262,128,2,143314:0:0:0:0:
320,192,143419,1,4,0:0:0:0:
320,192,143576,1,4,0:0:0:0:
448,192,143654,1,0,0:0:0:0:
320,192,143733,1,4,0:0:0:0:
64,192,143733,1,2,0:0:0:0:
192,192,143890,1,8,0:0:0:0:
64,192,143890,1,4,0:0:0:0:
448,192,144047,1,4,0:0:0:0:
64,192,144125,1,4,0:0:0:0:
192,192,144204,1,4,0:0:0:0:
448,192,144283,1,4,0:0:0:0:
320,192,144361,1,4,0:0:0:0:
448,192,144518,1,0,0:0:0:0:
192,192,144518,1,2,0:0:0:0:
448,192,144675,1,4,0:0:0:0:
320,192,144754,1,4,0:0:0:0:
192,192,144832,1,0,0:0:0:0:
64,192,144832,1,2,0:0:0:0:
448,192,144911,1,0,0:0:0:0:
320,192,144989,128,0,145120:0:0:0:0:
64,192,145068,1,2,0:0:0:0:
448,192,145146,1,4,0:0:0:0:
192,192,145146,1,8,0:0:0:0:
448,192,145303,1,4,0:0:0:0:
320,192,145461,1,0,0:0:0:0:
448,192,145618,1,4,0:0:0:0:
192,192,145775,128,0,145827:0:0:0:0:
64,192,145775,1,2,0:0:0:0:
320,192,145932,1,4,0:0:0:0:
320,192,146089,1,4,0:0:0:0:
448,192,146246,128,0,146324:0:0:0:0:
192,192,146246,1,2,0:0:0:0:
448,192,146403,1,8,0:0:0:0:
64,192,146403,1,4,0:0:0:0:
192,192,146560,1,4,0:0:0:0:
448,192,146639,1,4,0:0:0:0:
192,192,146717,128,4,146769:0:0:0:0:
320,192,146796,1,4,0:0:0:0:
64,192,146874,1,4,0:0:0:0:
448,192,147031,1,0,0:0:0:0:
192,192,147031,1,2,0:0:0:0:
320,192,147188,128,4,147267:0:0:0:0:
64,192,147267,1,4,0:0:0:0:
448,192,147345,1,0,0:0:0:0:
320,192,147345,1,2,0:0:0:0:
192,192,147424,1,0,0:0:0:0:
64,192,147502,1,6,0:0:0:0:
320,192,147581,1,2,0:0:0:0:
64,192,147659,1,4,0:0:0:0:
448,192,147659,128,8,147764:0:0:0:0:
320,192,147817,1,4,0:0:0:0:
192,192,147974,128,0,148052:0:0:0:0:
192,192,148131,1,4,0:0:0:0:
448,192,148288,128,0,148340:0:0:0:0:
64,192,148288,1,2,0:0:0:0:
320,192,148445,1,4,0:0:0:0:
320,192,148602,1,4,0:0:0:0:
448,192,148680,1,0,0:0:0:0:
320,192,148759,1,2,0:0:0:0:
64,192,148759,1,4,0:0:0:0:
192,192,148916,1,4,0:0:0:0:
64,192,148916,1,8,0:0:0:0:
448,192,149073,1,4,0:0:0:0:
64,192,149152,1,4,0:0:0:0:
192,192,149230,1,4,0:0:0:0:
448,192,149309,1,4,0:0:0:0:
320,192,149387,1,4,0:0:0:0:
448,192,149544,1,0,0:0:0:0:
320,192,149544,1,2,0:0:0:0:
64,192,150173,1,0,0:0:0:0:
192,192,150192,128,0,150663:0:0:0:0:
448,192,150277,128,0,150487:0:0:0:0:
320,192,150526,1,0,0:0:0:0:
64,192,150748,1,0,0:0:0:0:
192,192,150801,128,6,150958:1:0:0:0:
320,192,150958,128,0,151115:0:0:0:0:
320,192,151272,128,0,151403:0:0:0:0:
192,192,151429,128,0,151560:0:0:0:0:
192,192,151743,128,0,151848:0:0:0:0:
320,192,151900,128,0,152005:0:0:0:0:
192,192,153314,128,0,153419:0:0:0:0:
320,192,153471,128,0,153576:0:0:0:0:
192,192,153550,1,0,0:0:0:0:
320,192,153785,128,0,153864:0:0:0:0:
192,192,153942,128,0,154021:0:0:0:0:
320,192,154021,1,0,0:0:0:0:
192,192,154256,128,0,154309:0:0:0:0:
320,192,154413,128,0,154466:0:0:0:0:
192,192,154492,1,0,0:0:0:0:
320,192,155827,128,0,155932:0:0:0:0:
192,192,155984,128,0,156089:0:0:0:0:
192,192,156298,128,0,156377:0:0:0:0:
320,192,156455,128,0,156534:0:0:0:0:
320,192,156769,128,0,156822:0:0:0:0:
192,192,156926,128,0,156979:0:0:0:0:
320,192,158340,128,0,158392:0:0:0:0:
192,192,158497,128,0,158550:0:0:0:0:
320,192,158576,1,0,0:0:0:0:
192,192,158811,128,0,158851:0:0:0:0:
320,192,158968,128,0,159008:0:0:0:0:
192,192,159047,1,0,0:0:0:0:
320,192,159283,1,0,0:0:0:0:
192,192,159440,1,0,0:0:0:0:
320,192,159518,1,0,0:0:0:0:
448,192,160853,1,0,0:0:0:0:
320,192,160853,1,2,0:0:0:0:
192,192,161010,1,4,0:0:0:0:
192,192,161167,1,4,0:0:0:0:
448,192,161324,1,0,0:0:0:0:
320,192,161324,1,2,0:0:0:0:
192,192,161481,1,8,0:0:0:0:
64,192,161481,1,4,0:0:0:0:
64,192,161639,1,4,0:0:0:0:
448,192,161717,1,4,0:0:0:0:
192,192,161796,1,4,0:0:0:0:
320,192,161874,1,4,0:0:0:0:
64,192,161953,1,4,0:0:0:0:
448,192,162110,1,0,0:0:0:0:
320,192,162110,1,2,0:0:0:0:
64,192,162267,1,4,0:0:0:0:
448,192,162424,1,0,0:0:0:0:
320,192,162424,1,2,0:0:0:0:
320,192,162581,1,6,0:0:0:0:
64,192,162659,1,2,0:0:0:0:
448,192,162738,1,8,0:0:0:0:
192,192,162738,1,4,0:0:0:0:
320,192,162895,1,4,0:0:0:0:
64,192,163052,1,0,0:0:0:0:
320,192,163209,1,4,0:0:0:0:
192,192,163366,1,0,0:0:0:0:
64,192,163366,1,2,0:0:0:0:
320,192,163523,1,4,0:0:0:0:
320,192,163680,1,4,0:0:0:0:
192,192,163837,1,2,0:0:0:0:
64,192,163837,1,4,0:0:0:0:
448,192,163995,1,4,0:0:0:0:
320,192,163995,1,8,0:0:0:0:
448,192,164152,1,4,0:0:0:0:
192,192,164230,1,4,0:0:0:0:
320,192,164309,1,4,0:0:0:0:
64,192,164387,1,4,0:0:0:0:
448,192,164466,1,4,0:0:0:0:
192,192,164623,1,0,0:0:0:0:
64,192,164623,1,2,0:0:0:0:
448,192,164780,1,4,0:0:0:0:
192,192,164937,1,0,0:0:0:0:
64,192,164937,1,2,0:0:0:0:
192,192,165094,1,6,0:0:0:0:
448,192,165173,1,2,0:0:0:0:
320,192,165251,1,8,0:0:0:0:
64,192,165251,1,4,0:0:0:0:
192,192,165408,1,4,0:0:0:0:
448,192,165565,1,0,0:0:0:0:
192,192,165722,1,4,0:0:0:0:
448,192,165879,1,0,0:0:0:0:
64,192,165879,1,2,0:0:0:0:
192,192,166036,1,4,0:0:0:0:
192,192,166194,1,4,0:0:0:0:
448,192,166351,1,0,0:0:0:0:
64,192,166351,1,2,0:0:0:0:
320,192,166508,1,8,0:0:0:0:
192,192,166508,1,4,0:0:0:0:
64,192,166665,1,4,0:0:0:0:
320,192,166743,1,4,0:0:0:0:
64,192,166822,1,4,0:0:0:0:
448,192,166900,1,4,0:0:0:0:
192,192,166979,1,4,0:0:0:0:
448,192,167136,1,0,0:0:0:0:
64,192,167136,1,2,0:0:0:0:
320,192,167293,1,4,0:0:0:0:
448,192,167450,1,0,0:0:0:0:
64,192,167450,1,2,0:0:0:0:
64,192,167607,1,6,0:0:0:0:
320,192,167686,1,2,0:0:0:0:
448,192,167764,1,8,0:0:0:0:
192,192,167764,1,4,0:0:0:0:
64,192,167921,1,4,0:0:0:0:
448,192,168078,1,0,0:0:0:0:
64,192,168235,1,4,0:0:0:0:
320,192,168392,1,0,0:0:0:0:
192,192,168392,1,2,0:0:0:0:
448,192,168550,1,4,0:0:0:0:
448,192,168707,1,4,0:0:0:0:
320,192,168864,1,2,0:0:0:0:
192,192,168864,1,4,0:0:0:0:
448,192,169021,1,4,0:0:0:0:
64,192,169021,1,8,0:0:0:0:
320,192,169178,1,4,0:0:0:0:
64,192,169256,1,4,0:0:0:0:
320,192,169335,1,4,0:0:0:0:
192,192,169413,1,4,0:0:0:0:
448,192,169492,1,4,0:0:0:0:
320,192,169649,1,0,0:0:0:0:
192,192,169649,1,2,0:0:0:0:
64,192,169806,1,4,0:0:0:0:
320,192,169963,1,0,0:0:0:0:
192,192,169963,1,2,0:0:0:0:
192,192,170120,1,6,0:0:0:0:
448,192,170199,1,2,0:0:0:0:
320,192,170277,1,8,0:0:0:0:
64,192,170277,1,4,0:0:0:0:
448,192,170434,1,4,0:0:0:0:
64,192,170591,1,0,0:0:0:0:
448,192,170748,1,4,0:0:0:0:
192,192,170906,1,0,0:0:0:0:
64,192,170906,1,2,0:0:0:0:
320,192,171063,1,6,0:0:0:0:
320,192,171220,1,0,0:0:0:0:
192,192,171220,1,8,0:0:0:0:
448,192,171298,1,4,0:0:0:0:
64,192,171377,1,4,0:0:0:0:
192,192,171455,1,4,0:0:0:0:
320,192,171534,1,4,0:0:0:0:
64,192,171612,1,4,0:0:0:0:
448,192,171691,1,4,0:0:0:0:
320,192,171691,1,2,0:0:0:0:
192,192,171769,1,4,0:0:0:0:
320,192,172005,1,0,0:0:0:0:
192,192,172005,1,8,0:0:0:0:
448,192,172162,1,0,0:0:0:0:
320,192,172162,1,2,0:0:0:0:
192,192,172319,1,2,0:0:0:0:
320,192,172476,1,0,0:0:0:0:
192,192,172476,1,8,0:0:0:0:
64,192,172555,1,4,0:0:0:0:
448,192,172633,1,4,0:0:0:0:
320,192,172633,1,2,0:0:0:0:
192,192,172712,1,4,0:0:0:0:
64,192,172790,1,4,0:0:0:0:
192,192,172869,1,4,0:0:0:0:
448,192,172947,1,0,0:0:0:0:
320,192,172947,1,2,0:0:0:0:
64,192,173105,1,4,0:0:0:0:
320,192,173262,1,0,0:0:0:0:
192,192,173262,1,8,0:0:0:0:
448,192,173419,1,0,0:0:0:0:
320,192,173419,1,2,0:0:0:0:
64,192,173576,1,6,0:0:0:0:
320,192,173733,1,0,0:0:0:0:
64,192,173733,1,8,0:0:0:0:
192,192,173811,1,4,0:0:0:0:
448,192,173890,1,4,0:0:0:0:
64,192,173968,1,4,0:0:0:0:
320,192,174047,1,4,0:0:0:0:
448,192,174125,1,4,0:0:0:0:
192,192,174204,1,4,0:0:0:0:
64,192,174204,1,2,0:0:0:0:
320,192,174283,1,4,0:0:0:0:
320,192,174518,1,0,0:0:0:0:
64,192,174518,1,8,0:0:0:0:
192,192,174675,1,0,0:0:0:0:
64,192,174675,1,2,0:0:0:0:
320,192,174832,1,2,0:0:0:0:
320,192,174989,1,0,0:0:0:0:
64,192,174989,1,8,0:0:0:0:
448,192,175068,1,4,0:0:0:0:
192,192,175146,1,4,0:0:0:0:
64,192,175146,1,2,0:0:0:0:
448,192,175225,1,4,0:0:0:0:
320,192,175303,1,4,0:0:0:0:
448,192,175382,1,4,0:0:0:0:
192,192,175461,1,0,0:0:0:0:
64,192,175461,1,2,0:0:0:0:
448,192,175618,1,4,0:0:0:0:
320,192,175775,1,0,0:0:0:0:
64,192,175775,1,8,0:0:0:0:
192,192,175932,1,0,0:0:0:0:
64,192,175932,1,2,0:0:0:0:
320,192,176089,1,6,0:0:0:0:
320,192,176246,1,0,0:0:0:0:
192,192,176246,1,8,0:0:0:0:
448,192,176324,1,4,0:0:0:0:
64,192,176403,1,4,0:0:0:0:
192,192,176481,1,4,0:0:0:0:
448,192,176560,1,4,0:0:0:0:
64,192,176639,1,4,0:0:0:0:
448,192,176717,1,4,0:0:0:0:
320,192,176717,1,2,0:0:0:0:
192,192,176796,1,4,0:0:0:0:
320,192,177031,1,0,0:0:0:0:
192,192,177031,1,8,0:0:0:0:
448,192,177188,1,0,0:0:0:0:
320,192,177188,1,2,0:0:0:0:
192,192,177345,1,2,0:0:0:0:
320,192,177502,1,0,0:0:0:0:
192,192,177502,1,8,0:0:0:0:
64,192,177581,1,4,0:0:0:0:
448,192,177659,1,4,0:0:0:0:
320,192,177659,1,2,0:0:0:0:
192,192,177738,1,4,0:0:0:0:
64,192,177817,1,4,0:0:0:0:
192,192,177895,1,4,0:0:0:0:
448,192,177974,1,0,0:0:0:0:
320,192,177974,1,2,0:0:0:0:
64,192,178131,1,4,0:0:0:0:
320,192,178288,1,0,0:0:0:0:
192,192,178288,1,8,0:0:0:0:
448,192,178445,1,0,0:0:0:0:
320,192,178445,1,2,0:0:0:0:
192,192,178602,1,6,0:0:0:0:
448,192,178759,1,0,0:0:0:0:
192,192,178759,1,8,0:0:0:0:
320,192,178837,1,4,0:0:0:0:
64,192,178916,1,4,0:0:0:0:
448,192,178995,1,4,0:0:0:0:
192,192,179073,1,4,0:0:0:0:
64,192,179152,1,4,0:0:0:0:
448,192,179230,1,4,0:0:0:0:
320,192,179230,1,2,0:0:0:0:
192,192,179309,1,4,0:0:0:0:
448,192,179544,1,0,0:0:0:0:
192,192,179544,1,8,0:0:0:0:
448,192,179701,1,0,0:0:0:0:
320,192,179701,1,2,0:0:0:0:
192,192,179858,1,2,0:0:0:0:
448,192,180015,1,0,0:0:0:0:
192,192,180015,1,8,0:0:0:0:
64,192,180094,1,4,0:0:0:0:
448,192,180173,1,4,0:0:0:0:
320,192,180173,1,2,0:0:0:0:
64,192,180251,1,4,0:0:0:0:
192,192,180330,1,4,0:0:0:0:
64,192,180408,1,4,0:0:0:0:
448,192,180487,1,0,0:0:0:0:
320,192,180487,1,2,0:0:0:0:
320,192,180644,1,4,0:0:0:0:
448,192,180801,1,0,0:0:0:0:
192,192,180801,1,8,0:0:0:0:
192,192,180958,1,0,0:0:0:0:
64,192,180958,1,2,0:0:0:0:
320,192,181115,1,6,0:0:0:0:
320,192,181272,1,0,0:0:0:0:
192,192,181272,1,8,0:0:0:0:
448,192,181351,1,4,0:0:0:0:
64,192,181429,1,4,0:0:0:0:
192,192,181508,1,4,0:0:0:0:
320,192,181586,1,4,0:0:0:0:
64,192,181665,1,4,0:0:0:0:
448,192,181743,1,2,0:0:0:0:
320,192,181743,1,4,0:0:0:0:
192,192,181822,1,4,0:0:0:0:
320,192,182057,1,0,0:0:0:0:
192,192,182057,1,8,0:0:0:0:
448,192,182214,1,0,0:0:0:0:
320,192,182214,1,2,0:0:0:0:
192,192,182372,1,2,0:0:0:0:
320,192,182529,1,0,0:0:0:0:
192,192,182529,1,8,0:0:0:0:
64,192,182607,1,4,0:0:0:0:
448,192,182686,1,2,0:0:0:0:
320,192,182686,1,4,0:0:0:0:
192,192,182764,1,4,0:0:0:0:
64,192,182843,1,4,0:0:0:0:
192,192,182921,1,4,0:0:0:0:
448,192,183000,1,0,0:0:0:0:
320,192,183000,1,2,0:0:0:0:
64,192,183157,1,4,0:0:0:0:
320,192,183314,1,0,0:0:0:0:
192,192,183314,1,8,0:0:0:0:
448,192,183471,1,0,0:0:0:0:
320,192,183471,1,2,0:0:0:0:
64,192,183628,1,6,0:0:0:0:
320,192,183785,1,0,0:0:0:0:
64,192,183785,1,8,0:0:0:0:
192,192,183864,1,4,0:0:0:0:
448,192,183942,1,4,0:0:0:0:
64,192,184021,1,4,0:0:0:0:
320,192,184099,1,4,0:0:0:0:
448,192,184178,1,4,0:0:0:0:
192,192,184256,1,2,0:0:0:0:
64,192,184256,1,4,0:0:0:0:
320,192,184335,1,4,0:0:0:0:
320,192,184570,1,0,0:0:0:0:
64,192,184570,1,8,0:0:0:0:
192,192,184728,1,0,0:0:0:0:
64,192,184728,1,2,0:0:0:0:
320,192,184885,1,2,0:0:0:0:
320,192,185042,1,0,0:0:0:0:
64,192,185042,1,8,0:0:0:0:
448,192,185120,1,4,0:0:0:0:
192,192,185199,1,2,0:0:0:0:
64,192,185199,1,4,0:0:0:0:
448,192,185277,1,4,0:0:0:0:
320,192,185356,1,4,0:0:0:0:
448,192,185434,1,4,0:0:0:0:
192,192,185513,1,0,0:0:0:0:
64,192,185513,1,2,0:0:0:0:
448,192,185670,1,4,0:0:0:0:
320,192,185827,1,0,0:0:0:0:
64,192,185827,1,8,0:0:0:0:
192,192,185984,1,0,0:0:0:0:
64,192,185984,1,2,0:0:0:0:
448,192,186141,1,6,0:0:0:0:
448,192,186298,1,0,0:0:0:0:
192,192,186298,1,8,0:0:0:0:
320,192,186377,1,4,0:0:0:0:
192,192,186455,1,4,0:0:0:0:
320,192,186534,1,4,0:0:0:0:
64,192,186612,1,4,0:0:0:0:
448,192,186691,1,4,0:0:0:0:
192,192,186769,1,4,0:0:0:0:
64,192,186769,1,2,0:0:0:0:
448,192,186848,1,4,0:0:0:0:
448,192,187084,1,0,0:0:0:0:
192,192,187084,1,8,0:0:0:0:
448,192,187241,1,0,0:0:0:0:
320,192,187241,1,2,0:0:0:0:
64,192,187398,1,2,0:0:0:0:
448,192,187555,1,0,0:0:0:0:
64,192,187555,1,8,0:0:0:0:
192,192,187633,1,4,0:0:0:0:
448,192,187712,1,4,0:0:0:0:
320,192,187712,1,2,0:0:0:0:
64,192,187790,1,4,0:0:0:0:
320,192,187869,1,4,0:0:0:0:
192,192,187947,1,4,0:0:0:0:
448,192,188026,1,0,0:0:0:0:
320,192,188026,1,2,0:0:0:0:
192,192,188183,1,4,0:0:0:0:
448,192,188340,1,0,0:0:0:0:
64,192,188340,1,8,0:0:0:0:
448,192,188497,1,0,0:0:0:0:
320,192,188497,1,2,0:0:0:0:
192,192,188654,1,6,0:0:0:0:
320,192,188811,1,0,0:0:0:0:
192,192,188811,1,8,0:0:0:0:
448,192,188890,1,4,0:0:0:0:
64,192,188968,1,4,0:0:0:0:
320,192,189047,1,4,0:0:0:0:
64,192,189125,1,4,0:0:0:0:
448,192,189204,1,4,0:0:0:0:
320,192,189283,128,4,189518:0:0:0:0:
64,192,189283,1,2,0:0:0:0:
448,192,189361,128,4,189518:0:0:0:0:
320,192,189597,1,0,0:0:0:0:
192,192,189597,1,8,0:0:0:0:
192,192,189754,1,0,0:0:0:0:
64,192,189754,1,2,0:0:0:0:
64,192,190958,1,0,0:0:0:0:
320,192,191010,128,2,191063:1:0:0:0:
320,192,191324,1,0,0:0:0:0:
320,192,191481,1,0,0:0:0:0:
64,192,191639,1,0,0:0:0:0:
192,192,191796,1,0,0:0:0:0:
448,192,191953,1,0,0:0:0:0:
320,192,192031,1,0,0:0:0:0:
192,192,192110,128,0,192188:0:0:0:0:
64,192,192110,128,0,192162:0:0:0:0:
64,192,192267,1,0,0:0:0:0:
192,192,192306,1,0,0:0:0:0:
320,192,192424,1,0,0:0:0:0:
64,192,192581,128,0,192659:0:0:0:0:
320,192,192686,1,0,0:0:0:0:
448,192,192738,1,0,0:0:0:0:
64,192,192895,128,0,192974:0:0:0:0:
192,192,193000,1,0,0:0:0:0:
64,192,193052,1,0,0:0:0:0:
320,192,193209,1,0,0:0:0:0:
320,192,193366,1,0,0:0:0:0:
320,192,193680,1,0,0:0:0:0:
320,192,193995,1,0,0:0:0:0:
192,192,194309,1,0,0:0:0:0:
64,192,194426,1,0,0:0:0:0:
320,192,194780,1,0,0:0:0:0:
192,192,195094,1,0,0:0:0:0:
64,192,195408,1,0,0:0:0:0:
320,192,195565,1,0,0:0:0:0:
320,192,195879,1,0,0:0:0:0:
320,192,196036,1,0,0:0:0:0:
192,192,196665,128,0,196783:0:0:0:0:
64,192,196926,128,0,196979:0:0:0:0:
448,192,197136,1,0,0:0:0:0:
64,192,197450,1,0,0:0:0:0:
192,192,197764,1,0,0:0:0:0:
320,192,197921,1,0,0:0:0:0:
320,192,198078,1,0,0:0:0:0:
320,192,198235,1,0,0:0:0:0:
320,192,198392,1,0,0:0:0:0:
192,192,199178,1,0,0:0:0:0:
448,192,199335,1,0,0:0:0:0:
64,192,199570,128,0,199623:0:0:0:0:
448,192,199806,1,0,0:0:0:0:
192,192,199924,1,0,0:0:0:0:
192,192,200434,1,0,0:0:0:0:
320,192,200591,1,0,0:0:0:0:
320,192,200906,1,0,0:0:0:0:
448,192,201063,1,0,0:0:0:0:
64,192,201063,1,2,0:0:0:0:
320,192,201220,1,4,0:0:0:0:
64,192,201455,1,4,0:0:0:0:
448,192,201534,1,4,0:0:0:0:
320,192,201534,1,2,0:0:0:0:
320,192,201691,1,0,0:0:0:0:
64,192,201691,1,8,0:0:0:0:
320,192,201796,1,0,0:0:0:0:
64,192,201848,1,4,0:0:0:0:
448,192,201926,1,0,0:0:0:0:
192,192,202005,128,0,202162:0:0:0:0:
64,192,202084,128,0,202162:0:0:0:0:
320,192,202162,128,0,202267:0:0:0:0:
448,192,202162,128,0,202214:0:0:0:0:
448,192,202319,1,2,0:0:0:0:
320,192,202358,1,0,0:0:0:0:
192,192,202476,1,0,0:0:0:0:
448,192,202555,1,0,0:0:0:0:
320,192,202555,1,2,0:0:0:0:
64,192,202633,128,4,202712:0:0:0:0:
192,192,202712,1,4,0:0:0:0:
448,192,202790,1,2,0:0:0:0:
320,192,202790,1,4,0:0:0:0:
192,192,202869,1,4,0:0:0:0:
448,192,202947,1,8,0:0:0:0:
64,192,202947,128,4,203026:0:0:0:0:
320,192,203105,1,0,0:0:0:0:
192,192,203183,1,0,0:0:0:0:
320,192,203419,1,0,0:0:0:0:
320,192,203576,1,0,0:0:0:0:
64,192,203576,1,2,0:0:0:0:
320,192,203890,1,0,0:0:0:0:
448,192,203968,1,4,0:0:0:0:
192,192,204047,1,4,0:0:0:0:
64,192,204047,1,2,0:0:0:0:
320,192,204125,1,4,0:0:0:0:
448,192,204204,1,0,0:0:0:0:
64,192,204204,1,8,0:0:0:0:
320,192,204361,1,4,0:0:0:0:
448,192,204466,128,0,204518:0:0:0:0:
320,192,204518,1,0,0:0:0:0:
192,192,204675,1,4,0:0:0:0:
192,192,204832,1,0,0:0:0:0:
64,192,204832,1,2,0:0:0:0:
448,192,204989,1,0,0:0:0:0:
64,192,205068,1,2,0:0:0:0:
192,192,205094,1,0,0:0:0:0:
448,192,205146,1,4,0:0:0:0:
320,192,205225,1,4,0:0:0:0:
192,192,205303,128,2,205382:0:0:0:0:
64,192,205303,1,4,0:0:0:0:
320,192,205382,1,4,0:0:0:0:
448,192,205421,128,0,205578:0:0:0:0:
64,192,205461,1,12,0:0:0:0:
320,192,205578,128,0,205657:0:0:0:0:
192,192,205657,128,0,205696:0:0:0:0:
64,192,205735,1,0,0:0:0:0:
320,192,205775,1,4,0:0:0:0:
320,192,205932,1,0,0:0:0:0:
64,192,205984,1,0,0:0:0:0:
192,192,206050,1,0,0:0:0:0:
448,192,206089,128,0,206167:0:0:0:0:
320,192,206089,1,2,0:0:0:0:
192,192,206246,1,4,0:0:0:0:
320,192,206324,1,0,0:0:0:0:
192,192,206481,1,4,0:0:0:0:
448,192,206560,1,4,0:0:0:0:
320,192,206560,1,2,0:0:0:0:
320,192,206717,1,0,0:0:0:0:
64,192,206717,1,8,0:0:0:0:
192,192,206874,1,4,0:0:0:0:
64,192,206953,1,0,0:0:0:0:
448,192,207031,1,0,0:0:0:0:
64,192,207110,128,0,207162:0:0:0:0:
192,192,207188,1,4,0:0:0:0:
64,192,207267,1,0,0:0:0:0:
448,192,207345,1,0,0:0:0:0:
320,192,207345,1,2,0:0:0:0:
192,192,207463,1,0,0:0:0:0:
448,192,207581,1,0,0:0:0:0:
320,192,207581,1,2,0:0:0:0:
64,192,207659,1,4,0:0:0:0:
192,192,207738,1,4,0:0:0:0:
448,192,207817,1,2,0:0:0:0:
320,192,207817,1,4,0:0:0:0:
192,192,207895,1,4,0:0:0:0:
448,192,207974,1,8,0:0:0:0:
64,192,207974,1,4,0:0:0:0:
320,192,208131,1,0,0:0:0:0:
320,192,208445,1,0,0:0:0:0:
320,192,208602,1,0,0:0:0:0:
192,192,208602,1,2,0:0:0:0:
64,192,208759,1,4,0:0:0:0:
320,192,208995,128,4,209047:0:0:0:0:
192,192,209073,1,4,0:0:0:0:
64,192,209073,1,2,0:0:0:0:
320,192,209152,1,4,0:0:0:0:
448,192,209230,1,0,0:0:0:0:
64,192,209230,1,8,0:0:0:0:
192,192,209387,1,4,0:0:0:0:
448,192,209466,1,0,0:0:0:0:
64,192,209544,1,0,0:0:0:0:
192,192,209701,1,4,0:0:0:0:
448,192,209780,1,0,0:0:0:0:
192,192,209858,1,0,0:0:0:0:
64,192,209858,1,2,0:0:0:0:
320,192,210015,128,0,210068:0:0:0:0:
192,192,210094,1,0,0:0:0:0:
64,192,210094,1,2,0:0:0:0:
448,192,210173,1,4,0:0:0:0:
320,192,210251,1,4,0:0:0:0:
64,192,210330,1,4,0:0:0:0:
192,192,210330,128,2,210408:0:0:0:0:
320,192,210408,1,4,0:0:0:0:
448,192,210447,128,0,210605:0:0:0:0:
64,192,210487,1,12,0:0:0:0:
320,192,210605,128,0,210683:0:0:0:0:
192,192,210683,128,0,210722:0:0:0:0:
64,192,210762,1,0,0:0:0:0:
320,192,210801,1,4,0:0:0:0:
320,192,210958,1,0,0:0:0:0:
64,192,211010,1,0,0:0:0:0:
192,192,211076,1,0,0:0:0:0:
448,192,211115,128,0,211194:0:0:0:0:
320,192,211115,1,2,0:0:0:0:
192,192,211272,1,4,0:0:0:0:
320,192,211351,1,0,0:0:0:0:
192,192,211508,1,4,0:0:0:0:
448,192,211586,1,4,0:0:0:0:
320,192,211586,1,2,0:0:0:0:
320,192,211743,1,0,0:0:0:0:
64,192,211743,1,8,0:0:0:0:
320,192,211848,1,0,0:0:0:0:
192,192,211900,1,4,0:0:0:0:
64,192,211979,1,0,0:0:0:0:
320,192,212057,128,0,212214:0:0:0:0:
448,192,212136,128,0,212214:0:0:0:0:
64,192,212214,128,0,212267:0:0:0:0:
192,192,212214,128,0,212319:0:0:0:0:
64,192,212372,1,2,0:0:0:0:
192,192,212411,1,0,0:0:0:0:
448,192,212529,1,0,0:0:0:0:
192,192,212607,1,0,0:0:0:0:
64,192,212607,1,2,0:0:0:0:
320,192,212686,1,4,0:0:0:0:
448,192,212764,1,4,0:0:0:0:
192,192,212843,1,2,0:0:0:0:
64,192,212843,1,4,0:0:0:0:
320,192,212921,1,4,0:0:0:0:
448,192,213000,1,8,0:0:0:0:
192,192,213000,128,4,213052:0:0:0:0:
320,192,213157,1,0,0:0:0:0:
192,192,213314,128,4,213366:0:0:0:0:
448,192,213471,1,0,0:0:0:0:
192,192,213628,1,0,0:0:0:0:
64,192,213628,1,2,0:0:0:0:
320,192,213785,1,4,0:0:0:0:
64,192,214021,1,4,0:0:0:0:
448,192,214099,1,4,0:0:0:0:
320,192,214099,1,2,0:0:0:0:
192,192,214178,1,4,0:0:0:0:
320,192,214256,1,0,0:0:0:0:
64,192,214256,1,8,0:0:0:0:
192,192,214413,1,4,0:0:0:0:
448,192,214492,1,0,0:0:0:0:
320,192,214570,1,0,0:0:0:0:
64,192,214675,128,0,214728:0:0:0:0:
192,192,214728,1,4,0:0:0:0:
448,192,214806,1,0,0:0:0:0:
192,192,214885,1,0,0:0:0:0:
64,192,214885,1,2,0:0:0:0:
320,192,215042,1,0,0:0:0:0:
192,192,215120,1,0,0:0:0:0:
64,192,215120,1,2,0:0:0:0:
320,192,215199,1,4,0:0:0:0:
448,192,215277,1,4,0:0:0:0:
192,192,215356,128,2,215434:0:0:0:0:
64,192,215356,1,4,0:0:0:0:
320,192,215434,1,4,0:0:0:0:
448,192,215474,128,0,215631:0:0:0:0:
64,192,215513,1,12,0:0:0:0:
320,192,215631,128,0,215709:0:0:0:0:
192,192,215709,128,0,215748:0:0:0:0:
64,192,215788,1,0,0:0:0:0:
320,192,215827,1,4,0:0:0:0:
320,192,215984,1,0,0:0:0:0:
64,192,216036,1,0,0:0:0:0:
192,192,216102,1,0,0:0:0:0:
448,192,216141,128,0,216220:0:0:0:0:
320,192,216141,1,2,0:0:0:0:
448,192,216298,1,4,0:0:0:0:
192,192,216455,1,0,0:0:0:0:
64,192,216534,1,4,0:0:0:0:
448,192,216612,1,2,0:0:0:0:
320,192,216612,1,4,0:0:0:0:
192,192,216691,1,4,0:0:0:0:
320,192,216769,128,0,216822:0:0:0:0:
64,192,216769,1,8,0:0:0:0:
320,192,216926,1,4,0:0:0:0:
192,192,217005,1,0,0:0:0:0:
448,192,217084,1,0,0:0:0:0:
320,192,217241,1,4,0:0:0:0:
192,192,217319,1,0,0:0:0:0:
448,192,217398,1,0,0:0:0:0:
320,192,217398,1,2,0:0:0:0:
192,192,217555,1,0,0:0:0:0:
448,192,217633,1,0,0:0:0:0:
320,192,217633,1,2,0:0:0:0:
64,192,217712,1,4,0:0:0:0:
192,192,217790,1,4,0:0:0:0:
448,192,217869,1,4,0:0:0:0:
320,192,217869,1,2,0:0:0:0:
192,192,217947,1,4,0:0:0:0:
448,192,218026,1,4,0:0:0:0:
64,192,218026,1,8,0:0:0:0:
192,192,218183,1,0,0:0:0:0:
448,192,218340,1,4,0:0:0:0:
320,192,218497,128,0,218654:0:0:0:0:
192,192,218654,1,0,0:0:0:0:
64,192,218654,1,2,0:0:0:0:
320,192,218811,1,4,0:0:0:0:
320,192,219047,1,4,0:0:0:0:
192,192,219125,1,2,0:0:0:0:
64,192,219125,1,4,0:0:0:0:
320,192,219204,1,4,0:0:0:0:
448,192,219283,1,8,0:0:0:0:
64,192,219283,1,4,0:0:0:0:
320,192,219440,1,4,0:0:0:0:
192,192,219518,1,0,0:0:0:0:
448,192,219597,1,0,0:0:0:0:
320,192,219754,1,4,0:0:0:0:
192,192,219832,1,0,0:0:0:0:
448,192,219911,1,0,0:0:0:0:
320,192,219911,128,2,219963:0:0:0:0:
448,192,220225,128,0,220277:0:0:0:0:
448,192,220696,128,0,220748:0:0:0:0:
448,192,220853,1,0,0:0:0:0:
192,192,220853,1,8,0:0:0:0:
192,192,221010,128,2,221063:0:0:0:0:
64,192,221010,1,2,1:0:0:0:
448,192,221324,1,4,0:0:0:0:
320,192,221481,128,0,221534:0:0:0:0:
64,192,221481,1,8,0:0:0:0:
64,192,221796,1,4,0:0:0:0:
448,192,221953,128,0,222005:0:0:0:0:
320,192,221953,1,2,0:0:0:0:
320,192,222110,1,0,0:0:0:0:
64,192,222110,1,8,0:0:0:0:
192,192,222267,128,0,222319:0:0:0:0:
448,192,222581,1,0,0:0:0:0:
320,192,222581,1,2,0:0:0:0:
320,192,222738,1,0,0:0:0:0:
64,192,222738,128,8,222790:0:0:0:0:
192,192,222895,128,4,222947:0:0:0:0:
448,192,223052,128,0,223105:0:0:0:0:
320,192,223052,1,2,0:0:0:0:
320,192,223209,128,6,223262:0:0:0:0:
448,192,223366,1,0,0:0:0:0:
192,192,223366,1,8,0:0:0:0:
64,192,223523,128,0,223576:0:0:0:0:
448,192,223680,1,0,0:0:0:0:
320,192,223680,1,2,0:0:0:0:
320,192,223837,1,2,0:0:0:0:
448,192,223995,128,0,224047:0:0:0:0:
192,192,223995,1,8,0:0:0:0:
448,192,224309,1,0,0:0:0:0:
320,192,224309,1,2,0:0:0:0:
320,192,224466,128,2,224518:0:0:0:0:
448,192,224623,1,0,0:0:0:0:
64,192,224623,1,8,0:0:0:0:
192,192,224780,128,0,224832:0:0:0:0:
64,192,224780,1,2,0:0:0:0:
448,192,225094,1,2,0:0:0:0:
320,192,225094,1,4,0:0:0:0:
448,192,225251,1,0,0:0:0:0:
192,192,225251,128,8,225303:0:0:0:0:
64,192,225408,1,4,0:0:0:0:
192,192,225722,128,4,225775:0:0:0:0:
64,192,225722,1,2,0:0:0:0:
320,192,225879,1,0,0:0:0:0:
64,192,225879,1,8,0:0:0:0:
64,192,226036,1,0,0:0:0:0:
320,192,226036,128,8,226089:0:0:0:0:
448,192,226194,1,0,0:0:0:0:
320,192,226194,1,2,0:0:0:0:
320,192,226508,1,0,0:0:0:0:
64,192,226508,128,8,226560:0:0:0:0:
448,192,226979,128,0,227031:0:0:0:0:
320,192,226979,1,2,0:0:0:0:
320,192,227136,1,0,0:0:0:0:
64,192,227136,1,8,0:0:0:0:
192,192,227293,128,0,227345:0:0:0:0:
448,192,227607,1,0,0:0:0:0:
320,192,227607,128,2,227659:0:0:0:0:
448,192,227764,128,0,227817:0:0:0:0:
192,192,227764,1,8,0:0:0:0:
64,192,227921,1,4,0:0:0:0:
448,192,228078,1,0,0:0:0:0:
320,192,228078,1,2,0:0:0:0:
320,192,228209,128,0,228262:0:0:0:0:
64,192,228235,1,6,0:0:0:0:
448,192,228392,1,0,0:0:0:0:
192,192,228392,1,8,0:0:0:0:
192,192,228550,128,4,228602:0:0:0:0:
448,192,228707,1,0,0:0:0:0:
320,192,228707,1,2,0:0:0:0:
320,192,228864,1,6,0:0:0:0:
448,192,229021,1,0,0:0:0:0:
192,192,229021,128,8,229073:0:0:0:0:
192,192,229335,1,0,0:0:0:0:
64,192,229335,1,2,0:0:0:0:
192,192,229492,128,2,229544:0:0:0:0:
320,192,229649,1,0,0:0:0:0:
64,192,229649,1,8,0:0:0:0:
448,192,229806,1,0,0:0:0:0:
320,192,229806,128,2,229858:0:0:0:0:
192,192,230120,1,2,0:0:0:0:
64,192,230120,1,4,0:0:0:0:
320,192,230277,1,0,0:0:0:0:
64,192,230277,128,8,230330:0:0:0:0:
448,192,230434,1,4,0:0:0:0:
448,192,230748,128,4,230801:0:0:0:0:
320,192,230748,1,2,0:0:0:0:
320,192,230906,1,0,0:0:0:0:
64,192,230906,1,8,0:0:0:0:
192,192,231063,128,2,231115:0:0:0:0:
64,192,231063,1,0,0:0:0:0:
320,192,231220,1,0,0:0:0:0:
448,192,231377,1,4,0:0:0:0:
320,192,231534,128,0,231586:0:0:0:0:
64,192,231534,1,8,0:0:0:0:
192,192,231691,1,0,0:0:0:0:
64,192,231848,1,4,0:0:0:0:
448,192,232005,128,0,232057:0:0:0:0:
320,192,232005,1,2,0:0:0:0:
320,192,232162,1,0,0:0:0:0:
64,192,232162,1,8,0:0:0:0:
192,192,232319,128,0,232372:0:0:0:0:
448,192,232633,1,0,0:0:0:0:
320,192,232633,1,2,0:0:0:0:
320,192,232790,1,0,0:0:0:0:
64,192,232790,128,8,232843:0:0:0:0:
192,192,232947,128,4,233000:0:0:0:0:
448,192,233105,128,0,233157:0:0:0:0:
320,192,233105,1,2,0:0:0:0:
320,192,233262,128,6,233314:0:0:0:0:
448,192,233419,1,0,0:0:0:0:
192,192,233419,1,8,0:0:0:0:
64,192,233576,128,0,233628:0:0:0:0:
448,192,233733,1,0,0:0:0:0:
320,192,233733,1,2,0:0:0:0:
320,192,233890,1,2,0:0:0:0:
448,192,234047,128,0,234099:0:0:0:0:
192,192,234047,1,8,0:0:0:0:
64,192,234204,1,0,0:0:0:0:
448,192,234361,1,0,0:0:0:0:
320,192,234361,1,2,0:0:0:0:
320,192,234518,128,2,234570:0:0:0:0:
448,192,234675,1,0,0:0:0:0:
64,192,234675,1,8,0:0:0:0:
192,192,234832,128,0,234885:0:0:0:0:
64,192,234832,1,2,0:0:0:0:
448,192,235146,1,2,0:0:0:0:
320,192,235146,1,4,0:0:0:0:
448,192,235303,1,0,0:0:0:0:
192,192,235303,128,8,235356:0:0:0:0:
64,192,235461,1,4,0:0:0:0:
192,192,235775,128,4,235827:0:0:0:0:
64,192,235775,1,2,0:0:0:0:
320,192,235932,1,0,0:0:0:0:
64,192,235932,1,8,0:0:0:0:
320,192,236089,1,0,0:0:0:0:
64,192,236089,128,8,236141:0:0:0:0:
448,192,236246,1,0,0:0:0:0:
320,192,236246,1,2,0:0:0:0:
64,192,236403,1,4,0:0:0:0:
448,192,236560,1,0,0:0:0:0:
192,192,236560,128,8,236612:0:0:0:0:
192,192,236874,1,4,0:0:0:0:
448,192,237031,128,0,237084:0:0:0:0:
320,192,237031,1,2,0:0:0:0:
320,192,237188,1,0,0:0:0:0:
64,192,237188,1,8,0:0:0:0:
192,192,237345,128,0,237398:0:0:0:0:
448,192,237659,1,0,0:0:0:0:
320,192,237659,128,2,237712:0:0:0:0:
448,192,237817,128,0,237869:0:0:0:0:
192,192,237817,1,8,0:0:0:0:
64,192,237974,1,4,0:0:0:0:
448,192,238131,1,0,0:0:0:0:
320,192,238131,1,2,0:0:0:0:
320,192,238262,128,0,238314:0:0:0:0:
64,192,238288,1,6,0:0:0:0:
448,192,238445,1,0,0:0:0:0:
192,192,238445,1,8,0:0:0:0:
192,192,238602,128,0,238654:0:0:0:0:
64,192,238759,1,2,0:0:0:0:
192,192,238759,1,0,0:0:0:0:
192,192,238916,1,6,0:0:0:0:
320,192,239073,128,0,239125:0:0:0:0:
64,192,239073,1,8,0:0:0:0:
192,192,239230,1,0,0:0:0:0:
448,192,239387,1,0,0:0:0:0:
320,192,239387,1,2,0:0:0:0:
448,192,239544,128,2,239597:0:0:0:0:
320,192,239701,1,0,0:0:0:0:
64,192,239701,1,8,0:0:0:0:
192,192,239858,128,0,239911:0:0:0:0:
64,192,239858,1,2,0:0:0:0:
320,192,240330,128,0,240382:0:0:0:0:
448,192,240801,128,0,240853:0:0:0:0:
192,192,241115,128,0,241167:0:0:0:0:
192,192,241272,1,0,0:0:0:0:
64,192,241272,1,2,0:0:0:0:
448,192,241429,1,4,0:0:0:0:
320,192,241586,1,0,0:0:0:0:
192,192,241586,1,2,0:0:0:0:
64,192,241665,1,4,0:0:0:0:
320,192,241743,1,4,0:0:0:0:
192,192,241822,1,4,0:0:0:0:
448,192,241900,1,8,0:0:0:0:
64,192,241900,1,4,0:0:0:0:
64,192,242057,1,4,0:0:0:0:
448,192,242136,1,4,0:0:0:0:
320,192,242214,1,4,0:0:0:0:
320,192,242372,1,0,0:0:0:0:
192,192,242372,1,2,0:0:0:0:
192,192,242686,1,4,0:0:0:0:
448,192,242843,1,0,0:0:0:0:
320,192,242843,1,2,0:0:0:0:
192,192,242921,1,4,0:0:0:0:
64,192,243000,1,4,0:0:0:0:
320,192,243078,1,4,0:0:0:0:
448,192,243157,1,4,0:0:0:0:
64,192,243157,1,8,0:0:0:0:
448,192,243314,1,2,0:0:0:0:
320,192,243471,1,4,0:0:0:0:
192,192,243628,1,0,0:0:0:0:
448,192,243785,1,0,0:0:0:0:
320,192,243785,1,2,0:0:0:0:
64,192,243942,1,4,0:0:0:0:
320,192,244099,1,0,0:0:0:0:
192,192,244099,1,2,0:0:0:0:
448,192,244178,1,4,0:0:0:0:
192,192,244256,1,4,0:0:0:0:
320,192,244335,1,4,0:0:0:0:
448,192,244413,1,8,0:0:0:0:
64,192,244413,1,4,0:0:0:0:
64,192,244570,1,4,0:0:0:0:
448,192,244649,1,4,0:0:0:0:
320,192,244728,1,4,0:0:0:0:
320,192,244885,1,0,0:0:0:0:
192,192,244885,1,2,0:0:0:0:
320,192,245199,1,4,0:0:0:0:
192,192,245356,1,0,0:0:0:0:
64,192,245356,1,2,0:0:0:0:
320,192,245434,1,4,0:0:0:0:
192,192,245513,1,4,0:0:0:0:
320,192,245591,1,4,0:0:0:0:
448,192,245670,1,4,0:0:0:0:
64,192,245670,1,8,0:0:0:0:
192,192,245748,1,4,0:0:0:0:
448,192,245827,1,2,0:0:0:0:
64,192,245984,1,4,0:0:0:0:
320,192,246141,1,0,0:0:0:0:
192,192,246298,1,0,0:0:0:0:
64,192,246298,1,2,0:0:0:0:
448,192,246455,1,4,0:0:0:0:
320,192,246612,1,0,0:0:0:0:
64,192,246612,1,2,0:0:0:0:
448,192,246691,1,4,0:0:0:0:
320,192,246769,1,4,0:0:0:0:
192,192,246848,1,4,0:0:0:0:
448,192,246926,1,4,0:0:0:0:
64,192,246926,1,8,0:0:0:0:
64,192,247084,1,4,0:0:0:0:
448,192,247162,1,4,0:0:0:0:
320,192,247241,1,4,0:0:0:0:
320,192,247398,1,0,0:0:0:0:
192,192,247398,1,2,0:0:0:0:
320,192,247712,1,4,0:0:0:0:
448,192,247869,1,0,0:0:0:0:
192,192,247869,1,2,0:0:0:0:
64,192,247947,1,4,0:0:0:0:
320,192,248026,1,4,0:0:0:0:
192,192,248105,1,4,0:0:0:0:
448,192,248183,1,8,0:0:0:0:
64,192,248183,1,4,0:0:0:0:
192,192,248262,1,4,0:0:0:0:
320,192,248314,1,0,0:0:0:0:
448,192,248340,1,0,0:0:0:0:
320,192,248654,1,0,0:0:0:0:
448,192,248733,1,0,0:0:0:0:
192,192,248811,1,0,0:0:0:0:
64,192,248811,1,2,0:0:0:0:
448,192,248968,1,4,0:0:0:0:
320,192,249125,1,0,0:0:0:0:
192,192,249125,1,2,0:0:0:0:
320,192,249283,1,4,0:0:0:0:
320,192,249387,1,0,0:0:0:0:
64,192,249440,1,8,0:0:0:0:
448,192,249440,128,4,249597:0:0:0:0:
320,192,249518,128,0,249597:0:0:0:0:
64,192,249597,128,0,249701:0:0:0:0:
192,192,249597,128,4,249649:0:0:0:0:
64,192,249754,1,0,0:0:0:0:
192,192,249793,1,0,0:0:0:0:
320,192,249911,1,0,0:0:0:0:
192,192,249911,1,2,0:0:0:0:
64,192,250068,128,0,250146:0:0:0:0:
64,192,250225,1,4,0:0:0:0:
192,192,250303,1,0,0:0:0:0:
448,192,250382,1,0,0:0:0:0:
320,192,250382,1,2,0:0:0:0:
192,192,250461,1,4,0:0:0:0:
64,192,250539,1,4,0:0:0:0:
320,192,250618,1,4,0:0:0:0:
448,192,250696,1,4,0:0:0:0:
64,192,250696,1,8,0:0:0:0:
448,192,250853,1,0,0:0:0:0:
192,192,251010,1,4,0:0:0:0:
320,192,251167,1,0,0:0:0:0:
192,192,251324,1,0,0:0:0:0:
64,192,251324,1,2,0:0:0:0:
448,192,251481,1,4,0:0:0:0:
320,192,251639,1,0,0:0:0:0:
192,192,251639,1,2,0:0:0:0:
448,192,251717,1,4,0:0:0:0:
192,192,251796,1,4,0:0:0:0:
320,192,251874,1,4,0:0:0:0:
448,192,251953,1,4,0:0:0:0:
64,192,251953,1,8,0:0:0:0:
64,192,252110,1,4,0:0:0:0:
448,192,252188,1,4,0:0:0:0:
320,192,252267,1,4,0:0:0:0:
320,192,252424,1,0,0:0:0:0:
192,192,252424,1,2,0:0:0:0:
192,192,252738,1,4,0:0:0:0:
448,192,252895,1,0,0:0:0:0:
320,192,252895,1,2,0:0:0:0:
192,192,252974,1,4,0:0:0:0:
64,192,253052,1,4,0:0:0:0:
320,192,253131,1,4,0:0:0:0:
448,192,253209,1,8,0:0:0:0:
64,192,253209,1,4,0:0:0:0:
448,192,253366,1,2,0:0:0:0:
320,192,253523,1,4,0:0:0:0:
192,192,253680,1,0,0:0:0:0:
448,192,253837,1,0,0:0:0:0:
320,192,253837,1,2,0:0:0:0:
64,192,253995,1,4,0:0:0:0:
320,192,254152,1,0,0:0:0:0:
192,192,254152,1,2,0:0:0:0:
448,192,254230,1,4,0:0:0:0:
192,192,254309,1,4,0:0:0:0:
320,192,254387,1,4,0:0:0:0:
448,192,254466,1,4,0:0:0:0:
64,192,254466,1,8,0:0:0:0:
64,192,254623,1,4,0:0:0:0:
448,192,254701,1,4,0:0:0:0:
320,192,254780,1,4,0:0:0:0:
320,192,254937,1,0,0:0:0:0:
192,192,254937,1,2,0:0:0:0:
320,192,255251,1,4,0:0:0:0:
192,192,255408,1,0,0:0:0:0:
64,192,255408,1,2,0:0:0:0:
320,192,255487,1,4,0:0:0:0:
192,192,255565,1,4,0:0:0:0:
320,192,255644,1,4,0:0:0:0:
448,192,255722,1,8,0:0:0:0:
64,192,255722,1,4,0:0:0:0:
192,192,255801,1,4,0:0:0:0:
448,192,255879,1,2,0:0:0:0:
64,192,256036,1,4,0:0:0:0:
320,192,256194,1,0,0:0:0:0:
192,192,256351,1,0,0:0:0:0:
64,192,256351,1,2,0:0:0:0:
448,192,256508,1,4,0:0:0:0:
320,192,256665,1,0,0:0:0:0:
64,192,256665,1,2,0:0:0:0:
448,192,256743,1,4,0:0:0:0:
320,192,256822,1,4,0:0:0:0:
192,192,256900,1,4,0:0:0:0:
448,192,256979,1,8,0:0:0:0:
64,192,256979,1,4,0:0:0:0:
64,192,257136,1,4,0:0:0:0:
448,192,257214,1,4,0:0:0:0:
320,192,257293,1,4,0:0:0:0:
320,192,257450,1,0,0:0:0:0:
192,192,257450,1,2,0:0:0:0:
320,192,257764,1,4,0:0:0:0:
448,192,257921,1,0,0:0:0:0:
192,192,257921,1,2,0:0:0:0:
64,192,258000,1,4,0:0:0:0:
320,192,258078,1,4,0:0:0:0:
192,192,258157,1,4,0:0:0:0:
448,192,258235,1,4,0:0:0:0:
64,192,258235,1,8,0:0:0:0:
192,192,258314,1,4,0:0:0:0:
320,192,258366,1,0,0:0:0:0:
448,192,258392,1,2,0:0:0:0:
320,192,258707,1,0,0:0:0:0:
192,192,258864,1,0,0:0:0:0:
64,192,258864,1,2,0:0:0:0:
448,192,259021,1,4,0:0:0:0:
320,192,259178,1,0,0:0:0:0:
192,192,259178,1,2,0:0:0:0:
64,192,259256,1,4,0:0:0:0:
192,192,259335,1,4,0:0:0:0:
320,192,259413,1,4,0:0:0:0:
448,192,259492,1,8,0:0:0:0:
64,192,259492,1,4,0:0:0:0:
64,192,259649,1,4,0:0:0:0:
448,192,259728,1,4,0:0:0:0:
320,192,259806,1,4,0:0:0:0:
192,192,259963,1,0,0:0:0:0:
64,192,259963,1,2,0:0:0:0:
448,192,260277,1,4,0:0:0:0:
320,192,260434,1,0,0:0:0:0:
192,192,260434,1,2,0:0:0:0:
64,192,260513,128,4,260748:0:0:0:0:
192,192,260591,128,4,260748:0:0:0:0:
320,192,260670,128,4,260748:0:0:0:0:
448,192,260748,1,4,1:0:0:0:
448,192,260827,1,4,1:0:0:0:
320,192,260906,1,4,1:0:0:0:
320,192,260984,1,4,1:0:0:0:
64,192,261063,1,4,1:0:0:0:
64,192,261141,1,4,1:0:0:0:
192,192,261220,1,4,1:0:0:0:
192,192,261298,1,4,1:0:0:0:
448,192,261377,1,2,0:0:0:0:
320,192,261377,1,2,1:0:0:0:
320,192,261534,1,4,0:0:0:0:
192,192,261691,1,0,0:0:0:0:
64,192,261691,1,2,0:0:0:0:
448,192,261769,1,4,0:0:0:0:
64,192,261848,1,4,0:0:0:0:
320,192,261926,1,4,0:0:0:0:
448,192,262005,1,4,0:0:0:0:
192,192,262005,1,8,0:0:0:0:
192,192,262162,1,4,0:0:0:0:
320,192,262241,1,0,0:0:0:0:
448,192,262319,1,0,0:0:0:0:
320,192,262319,1,2,0:0:0:0:
448,192,262476,1,4,0:0:0:0:
320,192,262555,1,0,0:0:0:0:
192,192,262633,1,0,0:0:0:0:
64,192,262633,1,2,0:0:0:0:
320,192,262790,1,0,0:0:0:0:
448,192,262947,1,0,0:0:0:0:
320,192,262947,1,2,0:0:0:0:
192,192,263026,1,4,0:0:0:0:
448,192,263105,1,4,0:0:0:0:
320,192,263183,1,4,0:0:0:0:
448,192,263262,1,4,0:0:0:0:
192,192,263262,1,8,0:0:0:0:
64,192,263340,1,4,0:0:0:0:
320,192,263419,1,0,0:0:0:0:
192,192,263576,1,0,0:0:0:0:
64,192,263576,1,2,0:0:0:0:
320,192,263733,1,0,0:0:0:0:
448,192,263890,1,0,0:0:0:0:
320,192,263890,1,2,0:0:0:0:
192,192,264047,1,4,0:0:0:0:
448,192,264204,1,0,0:0:0:0:
320,192,264204,1,2,0:0:0:0:
64,192,264283,1,4,0:0:0:0:
448,192,264361,1,4,0:0:0:0:
192,192,264440,1,4,0:0:0:0:
320,192,264518,1,4,0:0:0:0:
64,192,264518,1,8,0:0:0:0:
320,192,264675,1,4,0:0:0:0:
192,192,264754,1,0,0:0:0:0:
192,192,264832,1,0,0:0:0:0:
64,192,264832,1,2,0:0:0:0:
320,192,264989,1,4,0:0:0:0:
64,192,265068,1,0,0:0:0:0:
448,192,265146,1,0,0:0:0:0:
320,192,265146,1,2,0:0:0:0:
192,192,265303,1,0,0:0:0:0:
320,192,265408,1,0,0:0:0:0:
192,192,265461,1,0,0:0:0:0:
64,192,265461,1,2,0:0:0:0:
320,192,265539,1,4,0:0:0:0:
64,192,265618,1,4,0:0:0:0:
448,192,265696,1,4,0:0:0:0:
320,192,265775,1,4,0:0:0:0:
64,192,265775,1,8,0:0:0:0:
448,192,265853,1,4,0:0:0:0:
192,192,265932,1,0,0:0:0:0:
192,192,266089,1,0,0:0:0:0:
64,192,266089,1,2,0:0:0:0:
320,192,266246,1,0,0:0:0:0:
448,192,266403,1,0,0:0:0:0:
320,192,266403,1,2,0:0:0:0:
320,192,266560,1,4,0:0:0:0:
192,192,266717,1,0,0:0:0:0:
64,192,266717,1,2,0:0:0:0:
448,192,266796,1,4,0:0:0:0:
64,192,266874,1,4,0:0:0:0:
320,192,266953,1,4,0:0:0:0:
448,192,267031,1,4,0:0:0:0:
192,192,267031,1,8,0:0:0:0:
192,192,267188,1,4,0:0:0:0:
320,192,267267,1,0,0:0:0:0:
448,192,267345,1,0,0:0:0:0:
320,192,267345,1,2,0:0:0:0:
448,192,267502,1,4,0:0:0:0:
320,192,267581,1,0,0:0:0:0:
192,192,267659,1,0,0:0:0:0:
64,192,267659,1,2,0:0:0:0:
64,192,267764,1,0,0:0:0:0:
192,192,267817,1,0,0:0:0:0:
448,192,267974,1,0,0:0:0:0:
320,192,267974,1,2,0:0:0:0:
192,192,268052,1,4,0:0:0:0:
448,192,268131,1,4,0:0:0:0:
320,192,268209,1,4,0:0:0:0:
448,192,268288,1,4,0:0:0:0:
192,192,268288,1,8,0:0:0:0:
64,192,268366,1,4,0:0:0:0:
192,192,268445,1,0,0:0:0:0:
448,192,268602,1,0,0:0:0:0:
320,192,268602,1,2,0:0:0:0:
192,192,268759,1,0,0:0:0:0:
192,192,268916,1,0,0:0:0:0:
64,192,268916,1,2,0:0:0:0:
64,192,269073,1,4,0:0:0:0:
448,192,269230,1,0,0:0:0:0:
320,192,269230,1,2,0:0:0:0:
192,192,269309,1,4,0:0:0:0:
448,192,269387,1,4,0:0:0:0:
192,192,269466,1,4,0:0:0:0:
320,192,269544,1,4,0:0:0:0:
64,192,269544,1,8,0:0:0:0:
320,192,269701,1,4,0:0:0:0:
192,192,269780,1,0,0:0:0:0:
192,192,269858,1,0,0:0:0:0:
64,192,269858,1,2,0:0:0:0:
192,192,270015,1,4,0:0:0:0:
64,192,270094,1,0,0:0:0:0:
448,192,270173,1,0,0:0:0:0:
320,192,270173,1,2,0:0:0:0:
64,192,270330,1,0,0:0:0:0:
192,192,270487,1,0,0:0:0:0:
64,192,270487,1,2,0:0:0:0:
320,192,270565,1,4,0:0:0:0:
192,192,270644,1,4,0:0:0:0:
448,192,270722,1,4,0:0:0:0:
320,192,270801,1,4,0:0:0:0:
64,192,270801,1,8,0:0:0:0:
448,192,270879,1,4,0:0:0:0:
192,192,270958,1,0,0:0:0:0:
448,192,271115,1,0,0:0:0:0:
320,192,271115,1,2,0:0:0:0:
192,192,271272,1,0,0:0:0:0:
192,192,271429,1,0,0:0:0:0:
64,192,271429,1,2,0:0:0:0:
64,192,271586,1,4,0:0:0:0:
448,192,271743,1,0,0:0:0:0:
64,192,271743,1,2,0:0:0:0:
192,192,271822,1,4,0:0:0:0:
320,192,271900,1,4,0:0:0:0:
448,192,271979,1,4,0:0:0:0:
320,192,272057,1,8,0:0:0:0:
64,192,272057,1,4,0:0:0:0:
320,192,272214,1,4,0:0:0:0:
192,192,272293,1,0,0:0:0:0:
448,192,272372,1,0,0:0:0:0:
192,192,272372,1,2,0:0:0:0:
192,192,272529,1,4,0:0:0:0:
320,192,272686,1,0,0:0:0:0:
192,192,272686,1,2,0:0:0:0:
64,192,272843,1,0,0:0:0:0:
192,192,273000,1,0,0:0:0:0:
64,192,273000,1,2,0:0:0:0:
448,192,273078,1,4,0:0:0:0:
64,192,273157,1,4,0:0:0:0:
320,192,273235,1,4,0:0:0:0:
448,192,273314,1,8,0:0:0:0:
64,192,273314,128,4,273471:0:0:0:0:
192,192,273471,128,0,273550:0:0:0:0:
320,192,273628,1,0,0:0:0:0:
192,192,273628,128,2,273707:0:0:0:0:
64,192,273785,128,0,273864:0:0:0:0:
192,192,273942,1,0,0:0:0:0:
64,192,273942,1,2,0:0:0:0:
64,192,274099,1,4,0:0:0:0:
448,192,274256,1,0,0:0:0:0:
64,192,274256,1,2,0:0:0:0:
320,192,274335,1,4,0:0:0:0:
192,192,274413,1,4,0:0:0:0:
64,192,274492,1,4,0:0:0:0:
320,192,274570,1,8,0:0:0:0:
192,192,274570,1,4,0:0:0:0:
192,192,274728,1,4,0:0:0:0:
320,192,274806,1,0,0:0:0:0:
448,192,274885,1,0,0:0:0:0:
320,192,274885,1,2,0:0:0:0:
448,192,275042,1,4,0:0:0:0:
448,192,275199,1,0,0:0:0:0:
320,192,275199,1,2,0:0:0:0:
192,192,275356,1,0,0:0:0:0:
320,192,275513,1,0,0:0:0:0:
192,192,275513,1,2,0:0:0:0:
448,192,275591,1,4,0:0:0:0:
192,192,275670,1,4,0:0:0:0:
320,192,275748,1,4,0:0:0:0:
448,192,275827,1,8,0:0:0:0:
64,192,275827,128,4,275984:0:0:0:0:
192,192,275984,128,0,276089:0:0:0:0:
320,192,276141,1,0,0:0:0:0:
192,192,276141,128,2,276220:0:0:0:0:
64,192,276298,128,0,276377:0:0:0:0:
192,192,276455,1,0,0:0:0:0:
64,192,276455,1,2,0:0:0:0:
64,192,276612,1,4,0:0:0:0:
448,192,276769,1,0,0:0:0:0:
64,192,276769,1,2,0:0:0:0:
192,192,276848,1,4,0:0:0:0:
320,192,276926,1,4,0:0:0:0:
448,192,277005,1,4,0:0:0:0:
320,192,277084,1,4,0:0:0:0:
64,192,277084,1,8,0:0:0:0:
320,192,277241,1,4,0:0:0:0:
192,192,277319,1,0,0:0:0:0:
448,192,277398,1,0,0:0:0:0:
192,192,277398,1,2,0:0:0:0:
192,192,277555,1,4,0:0:0:0:
320,192,277712,1,0,0:0:0:0:
192,192,277712,1,2,0:0:0:0:
64,192,277869,1,0,0:0:0:0:
192,192,278026,1,0,0:0:0:0:
64,192,278026,1,2,0:0:0:0:
448,192,278105,1,4,0:0:0:0:
64,192,278183,1,4,0:0:0:0:
320,192,278262,1,4,0:0:0:0:
448,192,278340,1,4,0:0:0:0:
64,192,278340,128,8,278497:0:0:0:0:
192,192,278497,128,0,278576:0:0:0:0:
320,192,278654,1,0,0:0:0:0:
192,192,278654,128,2,278733:0:0:0:0:
64,192,278811,128,0,278890:0:0:0:0:
448,192,278968,1,0,0:0:0:0:
64,192,278968,1,2,0:0:0:0:
64,192,279125,1,0,0:0:0:0:
64,192,279283,1,0,0:0:0:0:
192,192,279440,1,0,0:0:0:0:
192,192,279597,1,0,0:0:0:0:
192,192,279754,1,0,0:0:0:0:
448,192,279911,1,0,0:0:0:0:
448,192,280068,128,0,280120:0:0:0:0:
448,192,280225,128,0,280303:0:0:0:0:
192,192,280225,128,2,280382:0:0:0:0:
64,192,280303,128,0,280382:0:0:0:0:
448,192,280382,1,0,0:0:0:0:
320,192,280382,128,0,280487:0:0:0:0:
192,192,280539,128,0,280827:0:0:0:0:
320,192,280853,1,0,0:0:0:0:
320,192,281010,1,0,0:0:0:0:
448,192,281089,1,0,0:0:0:0:
192,192,281167,1,0,0:0:0:0:
64,192,281167,1,8,0:0:0:0:
320,192,281324,128,0,281639:0:0:0:0:
64,192,281324,128,2,281377:0:0:0:0:
320,192,281796,128,0,281848:0:0:0:0:
64,192,281796,128,2,281953:0:0:0:0:
192,192,282267,128,0,282319:0:0:0:0:
448,192,282424,1,0,0:0:0:0:
320,192,282424,1,8,0:0:0:0:
448,192,282581,128,0,282633:0:0:0:0:
192,192,282581,128,2,282895:0:0:0:0:
448,192,283052,128,0,283209:0:0:0:0:
192,192,283052,128,2,283105:0:0:0:0:
64,192,283209,128,0,283262:0:0:0:0:
320,192,283366,128,0,283419:0:0:0:0:
192,192,283523,128,0,283576:0:0:0:0:
448,192,283680,1,0,0:0:0:0:
320,192,283680,128,8,283733:0:0:0:0:
448,192,283837,128,0,283890:0:0:0:0:
64,192,283837,128,2,284152:0:0:0:0:
448,192,284309,128,0,284466:0:0:0:0:
64,192,284309,128,2,284361:0:0:0:0:
448,192,284623,128,0,284675:0:0:0:0:
320,192,284780,128,0,284832:0:0:0:0:
192,192,284937,128,0,284989:0:0:0:0:
64,192,284937,1,8,0:0:0:0:
320,192,285094,128,0,285408:0:0:0:0:
64,192,285094,128,2,285146:0:0:0:0:
320,192,285565,128,0,285618:0:0:0:0:
64,192,285565,128,2,285722:0:0:0:0:
192,192,286036,128,0,286089:0:0:0:0:
448,192,286194,1,0,0:0:0:0:
320,192,286194,1,8,0:0:0:0:
448,192,286351,128,2,286665:0:0:0:0:
192,192,286351,128,2,286403:1:0:0:0:
320,192,286822,128,0,286979:0:0:0:0:
64,192,286822,128,2,286874:0:0:0:0:
448,192,286979,1,4,0:0:0:0:
64,192,287057,1,0,0:0:0:0:
192,192,287136,128,0,287188:0:0:0:0:
320,192,287214,1,4,0:0:0:0:
448,192,287293,128,4,287345:0:0:0:0:
320,192,287372,1,4,0:0:0:0:
192,192,287450,1,0,0:0:0:0:
64,192,287450,1,8,0:0:0:0:
320,192,287607,128,0,287659:0:0:0:0:
64,192,287607,128,2,287921:0:0:0:0:
448,192,288078,128,0,288235:0:0:0:0:
192,192,288078,128,2,288131:0:0:0:0:
320,192,288235,1,4,0:0:0:0:
64,192,288314,1,0,0:0:0:0:
192,192,288392,128,0,288445:0:0:0:0:
64,192,288471,1,4,0:0:0:0:
320,192,288550,128,4,288602:0:0:0:0:
192,192,288628,1,4,0:0:0:0:
448,192,288707,1,0,0:0:0:0:
320,192,288707,1,8,0:0:0:0:
448,192,288864,128,0,289178:0:0:0:0:
192,192,288864,128,2,288916:0:0:0:0:
448,192,289335,128,0,289387:0:0:0:0:
192,192,289335,128,2,289492:0:0:0:0:
320,192,289492,1,4,0:0:0:0:
192,192,289570,1,0,0:0:0:0:
192,192,289728,1,4,0:0:0:0:
64,192,289806,128,4,289858:0:0:0:0:
448,192,289885,1,4,0:0:0:0:
192,192,289963,128,0,290015:0:0:0:0:
64,192,289963,1,8,0:0:0:0:
320,192,290120,128,0,290434:0:0:0:0:
64,192,290120,128,2,290173:0:0:0:0:
320,192,290591,128,0,290748:0:0:0:0:
64,192,290591,128,2,290631:0:0:0:0:
192,192,290748,1,4,0:0:0:0:
64,192,290827,1,0,0:0:0:0:
320,192,290984,1,4,0:0:0:0:
64,192,291063,1,4,0:0:0:0:
320,192,291141,1,4,0:0:0:0:
448,192,291220,1,8,0:0:0:0:
64,192,291220,1,4,0:0:0:0:
192,192,291377,1,0,0:0:0:0:
64,192,291377,1,2,0:0:0:0:
320,192,291534,1,4,0:0:0:0:
320,192,291691,1,2,0:0:0:0:
448,192,291848,1,0,0:0:0:0:
64,192,291848,1,8,0:0:0:0:
320,192,291926,1,4,0:0:0:0:
64,192,292005,1,4,0:0:0:0:
448,192,292084,1,4,0:0:0:0:
192,192,292162,1,4,0:0:0:0:
448,192,292241,1,4,0:0:0:0:
192,192,292319,1,4,0:0:0:0:
64,192,292319,1,2,0:0:0:0:
320,192,292398,1,4,0:0:0:0:
448,192,292476,1,0,0:0:0:0:
64,192,292476,1,8,0:0:0:0:
448,192,292633,1,0,0:0:0:0:
320,192,292790,1,0,0:0:0:0:
192,192,292790,1,2,0:0:0:0:
192,192,292947,1,2,0:0:0:0:
448,192,293105,1,0,0:0:0:0:
64,192,293105,1,8,0:0:0:0:
192,192,293183,1,4,0:0:0:0:
448,192,293262,1,4,0:0:0:0:
64,192,293340,1,4,0:0:0:0:
320,192,293419,1,4,0:0:0:0:
64,192,293497,1,4,0:0:0:0:
448,192,293576,1,0,0:0:0:0:
320,192,293576,1,2,0:0:0:0:
448,192,293733,1,0,0:0:0:0:
64,192,293733,1,8,0:0:0:0:
192,192,293890,1,0,0:0:0:0:
64,192,293890,1,2,0:0:0:0:
320,192,294047,1,4,0:0:0:0:
320,192,294204,1,2,0:0:0:0:
448,192,294361,1,0,0:0:0:0:
64,192,294361,1,8,0:0:0:0:
192,192,294440,1,4,0:0:0:0:
320,192,294518,1,4,0:0:0:0:
448,192,294597,1,4,0:0:0:0:
320,192,294675,1,4,0:0:0:0:
192,192,294754,1,4,0:0:0:0:
448,192,294832,1,4,0:0:0:0:
320,192,294832,1,2,0:0:0:0:
192,192,294911,1,4,0:0:0:0:
448,192,294989,1,0,0:0:0:0:
64,192,294989,1,8,0:0:0:0:
448,192,295146,1,0,0:0:0:0:
320,192,295303,1,0,0:0:0:0:
192,192,295303,1,2,0:0:0:0:
192,192,295461,1,2,0:0:0:0:
448,192,295618,1,0,0:0:0:0:
64,192,295618,1,8,0:0:0:0:
192,192,295696,1,4,0:0:0:0:
448,192,295775,1,4,0:0:0:0:
192,192,295853,1,4,0:0:0:0:
64,192,295932,1,4,0:0:0:0:
192,192,296010,1,4,0:0:0:0:
448,192,296089,1,0,0:0:0:0:
320,192,296089,1,2,0:0:0:0:
448,192,296246,1,0,0:0:0:0:
64,192,296246,1,8,0:0:0:0:
192,192,296403,1,0,0:0:0:0:
64,192,296403,1,2,0:0:0:0:
320,192,296560,1,4,0:0:0:0:
320,192,296717,1,2,0:0:0:0:
448,192,296874,1,0,0:0:0:0:
64,192,296874,1,8,0:0:0:0:
320,192,296953,1,4,0:0:0:0:
192,192,297031,1,4,0:0:0:0:
320,192,297110,1,4,0:0:0:0:
64,192,297188,1,4,0:0:0:0:
320,192,297267,1,4,0:0:0:0:
192,192,297345,1,2,0:0:0:0:
64,192,297345,1,4,0:0:0:0:
320,192,297424,1,4,0:0:0:0:
448,192,297502,1,0,0:0:0:0:
64,192,297502,1,8,0:0:0:0:
448,192,297659,1,0,0:0:0:0:
320,192,297817,1,0,0:0:0:0:
192,192,297817,1,2,0:0:0:0:
192,192,297974,1,2,0:0:0:0:
448,192,298131,1,0,0:0:0:0:
64,192,298131,1,8,0:0:0:0:
192,192,298209,1,4,0:0:0:0:
320,192,298288,1,4,0:0:0:0:
192,192,298366,1,4,0:0:0:0:
320,192,298445,1,4,0:0:0:0:
192,192,298523,1,4,0:0:0:0:
448,192,298602,1,0,0:0:0:0:
320,192,298602,1,2,0:0:0:0:
448,192,298759,1,0,0:0:0:0:
64,192,298759,1,8,0:0:0:0:
192,192,298916,1,0,0:0:0:0:
64,192,298916,1,2,0:0:0:0:
320,192,299073,1,4,0:0:0:0:
320,192,299230,1,2,0:0:0:0:
448,192,299387,1,0,0:0:0:0:
64,192,299387,1,8,0:0:0:0:
320,192,299466,1,4,0:0:0:0:
192,192,299544,1,4,0:0:0:0:
320,192,299623,1,4,0:0:0:0:
192,192,299701,1,4,0:0:0:0:
320,192,299780,1,4,0:0:0:0:
192,192,299858,1,4,0:0:0:0:
64,192,299858,1,2,0:0:0:0:
320,192,299937,1,4,0:0:0:0:
448,192,300015,1,0,0:0:0:0:
64,192,300015,1,8,0:0:0:0:
448,192,300173,1,0,0:0:0:0:
448,192,300330,1,0,0:0:0:0:
64,192,300330,1,8,0:0:0:0:
192,192,300663,1,0,0:0:0:0:
320,192,301135,1,0,0:0:0:0:
448,192,301272,128,0,301351:0:0:0:0:
64,192,301272,1,8,0:0:0:0:
448,192,301429,1,2,0:0:0:0:
320,192,301429,1,2,1:0:0:0:
320,192,301586,128,4,301665:0:0:0:0:
192,192,301743,1,0,0:0:0:0:
64,192,301743,1,2,0:0:0:0:
448,192,301900,1,0,0:0:0:0:
64,192,301900,1,8,0:0:0:0:
320,192,301979,1,4,0:0:0:0:
192,192,302057,128,4,302136:0:0:0:0:
64,192,302136,1,4,0:0:0:0:
448,192,302214,1,4,0:0:0:0:
64,192,302293,1,4,0:0:0:0:
320,192,302372,1,4,0:0:0:0:
192,192,302372,1,2,0:0:0:0:
448,192,302450,1,4,0:0:0:0:
320,192,302529,1,0,0:0:0:0:
64,192,302529,128,8,302607:0:0:0:0:
192,192,302686,1,0,0:0:0:0:
448,192,302843,1,0,0:0:0:0:
64,192,302843,1,2,0:0:0:0:
64,192,303000,1,2,0:0:0:0:
448,192,303157,1,0,0:0:0:0:
320,192,303157,1,8,0:0:0:0:
64,192,303235,1,4,0:0:0:0:
320,192,303314,1,4,0:0:0:0:
448,192,303392,1,4,0:0:0:0:
64,192,303471,128,4,303550:0:0:0:0:
192,192,303550,1,4,0:0:0:0:
320,192,303628,1,0,0:0:0:0:
64,192,303628,1,2,0:0:0:0:
448,192,303785,1,0,0:0:0:0:
192,192,303785,128,8,303864:0:0:0:0:
192,192,303942,1,0,0:0:0:0:
64,192,303942,1,2,0:0:0:0:
320,192,304099,128,4,304178:0:0:0:0:
192,192,304256,1,0,0:0:0:0:
64,192,304256,1,2,0:0:0:0:
448,192,304413,1,0,0:0:0:0:
64,192,304413,1,8,0:0:0:0:
192,192,304492,1,4,0:0:0:0:
448,192,304570,128,4,304649:0:0:0:0:
320,192,304649,1,4,0:0:0:0:
448,192,304728,128,4,304780:0:0:0:0:
64,192,304806,1,4,0:0:0:0:
320,192,304885,128,2,304937:0:0:0:0:
192,192,304885,1,4,0:0:0:0:
64,192,304963,1,4,0:0:0:0:
448,192,305042,1,0,0:0:0:0:
192,192,305042,128,8,305094:0:0:0:0:
64,192,305199,128,0,305251:0:0:0:0:
448,192,305356,1,0,0:0:0:0:
320,192,305356,1,2,0:0:0:0:
320,192,305513,1,2,0:0:0:0:
192,192,305670,1,0,0:0:0:0:
64,192,305670,1,8,0:0:0:0:
320,192,305748,1,4,0:0:0:0:
448,192,305827,128,4,305906:0:0:0:0:
192,192,305906,1,4,0:0:0:0:
320,192,305984,1,4,0:0:0:0:
192,192,306063,1,4,0:0:0:0:
448,192,306141,128,0,306220:0:0:0:0:
64,192,306141,1,2,0:0:0:0:
320,192,306298,128,0,306377:0:0:0:0:
192,192,306298,1,8,0:0:0:0:
192,192,306455,128,0,306534:0:0:0:0:
64,192,306455,1,2,0:0:0:0:
64,192,306612,128,4,306691:0:0:0:0:
448,192,306769,1,0,0:0:0:0:
320,192,306769,1,2,0:0:0:0:
320,192,306926,1,0,0:0:0:0:
64,192,306926,1,8,0:0:0:0:
448,192,307005,1,4,0:0:0:0:
192,192,307084,128,4,307162:0:0:0:0:
64,192,307162,1,4,0:0:0:0:
448,192,307241,1,4,0:0:0:0:
192,192,307319,1,4,0:0:0:0:
320,192,307398,128,4,307476:0:0:0:0:
64,192,307398,1,2,0:0:0:0:
192,192,307476,1,4,0:0:0:0:
448,192,307555,1,0,0:0:0:0:
64,192,307555,128,8,307633:0:0:0:0:
192,192,307712,1,0,0:0:0:0:
320,192,307869,1,0,0:0:0:0:
64,192,307869,1,2,0:0:0:0:
64,192,308026,1,2,0:0:0:0:
448,192,308183,1,0,0:0:0:0:
192,192,308183,1,8,0:0:0:0:
64,192,308262,1,4,0:0:0:0:
448,192,308340,1,4,0:0:0:0:
192,192,308419,1,4,0:0:0:0:
320,192,308497,128,4,308576:0:0:0:0:
64,192,308576,1,4,0:0:0:0:
448,192,308654,128,0,308733:0:0:0:0:
192,192,308654,1,2,0:0:0:0:
320,192,308811,1,0,0:0:0:0:
64,192,308811,1,8,0:0:0:0:
320,192,308968,1,0,0:0:0:0:
192,192,308968,128,2,309047:0:0:0:0:
64,192,309125,1,4,0:0:0:0:
448,192,309283,1,0,0:0:0:0:
320,192,309283,128,2,309361:0:0:0:0:
448,192,309440,1,0,0:0:0:0:
192,192,309440,1,8,0:0:0:0:
320,192,309518,1,4,0:0:0:0:
64,192,309597,128,4,309675:0:0:0:0:
320,192,309675,1,4,0:0:0:0:
192,192,309754,128,4,309832:0:0:0:0:
64,192,309832,1,4,0:0:0:0:
448,192,309911,128,4,309989:0:0:0:0:
320,192,309911,1,2,0:0:0:0:
64,192,309989,1,4,0:0:0:0:
320,192,310068,128,0,310146:0:0:0:0:
192,192,310068,1,8,0:0:0:0:
192,192,310225,128,0,310303:0:0:0:0:
448,192,310382,1,0,0:0:0:0:
64,192,310382,1,2,0:0:0:0:
448,192,310539,1,2,0:0:0:0:
320,192,310696,1,0,0:0:0:0:
192,192,310696,1,8,0:0:0:0:
64,192,310775,1,4,0:0:0:0:
320,192,310853,128,4,310932:0:0:0:0:
64,192,310932,1,4,0:0:0:0:
448,192,311010,1,4,0:0:0:0:
320,192,311089,1,4,0:0:0:0:
192,192,311167,1,0,0:0:0:0:
64,192,311167,128,2,311246:0:0:0:0:
448,192,311324,128,0,311403:0:0:0:0:
192,192,311324,1,8,0:0:0:0:
448,192,311481,1,2,0:0:0:0:
64,192,311481,1,2,1:0:0:0:
320,192,311639,128,4,311717:0:0:0:0:
192,192,311796,1,0,0:0:0:0:
64,192,311796,1,2,0:0:0:0:
448,192,311953,1,0,0:0:0:0:
64,192,311953,1,8,0:0:0:0:
320,192,312031,1,4,0:0:0:0:
192,192,312110,128,4,312188:0:0:0:0:
64,192,312188,1,4,0:0:0:0:
448,192,312267,1,4,0:0:0:0:
64,192,312345,1,4,0:0:0:0:
320,192,312424,1,4,0:0:0:0:
192,192,312424,1,2,0:0:0:0:
448,192,312502,1,4,0:0:0:0:
320,192,312581,1,0,0:0:0:0:
64,192,312581,128,8,312659:0:0:0:0:
192,192,312738,1,0,0:0:0:0:
448,192,312895,1,0,0:0:0:0:
64,192,312895,1,2,0:0:0:0:
64,192,313052,1,2,0:0:0:0:
448,192,313209,1,0,0:0:0:0:
320,192,313209,1,8,0:0:0:0:
64,192,313288,1,4,0:0:0:0:
320,192,313366,1,4,0:0:0:0:
448,192,313445,1,4,0:0:0:0:
64,192,313523,128,4,313602:0:0:0:0:
192,192,313602,1,4,0:0:0:0:
320,192,313680,1,0,0:0:0:0:
64,192,313680,1,2,0:0:0:0:
448,192,313837,1,0,0:0:0:0:
192,192,313837,128,8,313916:0:0:0:0:
192,192,313995,1,0,0:0:0:0:
64,192,313995,1,2,0:0:0:0:
320,192,314152,128,4,314230:0:0:0:0:
192,192,314309,1,0,0:0:0:0:
64,192,314309,1,2,0:0:0:0:
448,192,314466,1,0,0:0:0:0:
64,192,314466,1,8,0:0:0:0:
192,192,314544,1,4,0:0:0:0:
448,192,314623,128,4,314701:0:0:0:0:
320,192,314701,1,4,0:0:0:0:
448,192,314780,128,4,314832:0:0:0:0:
64,192,314858,1,4,0:0:0:0:
320,192,314937,128,2,314989:0:0:0:0:
192,192,314937,1,4,0:0:0:0:
64,192,315015,1,4,0:0:0:0:
448,192,315094,1,0,0:0:0:0:
192,192,315094,128,8,315146:0:0:0:0:
64,192,315251,128,0,315303:0:0:0:0:
448,192,315408,1,0,0:0:0:0:
320,192,315408,1,2,0:0:0:0:
320,192,315565,1,2,0:0:0:0:
192,192,315722,1,0,0:0:0:0:
64,192,315722,1,8,0:0:0:0:
320,192,315801,1,4,0:0:0:0:
448,192,315879,128,4,315958:0:0:0:0:
192,192,315958,1,4,0:0:0:0:
320,192,316036,1,4,0:0:0:0:
192,192,316115,1,4,0:0:0:0:
448,192,316194,128,0,316272:0:0:0:0:
64,192,316194,1,2,0:0:0:0:
320,192,316351,128,0,316429:0:0:0:0:
192,192,316351,1,8,0:0:0:0:
192,192,316508,128,0,316586:0:0:0:0:
64,192,316508,1,2,0:0:0:0:
64,192,316665,128,4,316743:0:0:0:0:
448,192,316822,1,0,0:0:0:0:
320,192,316822,1,2,0:0:0:0:
320,192,316979,1,0,0:0:0:0:
64,192,316979,1,8,0:0:0:0:
448,192,317057,1,4,0:0:0:0:
192,192,317136,128,4,317214:0:0:0:0:
64,192,317214,1,4,0:0:0:0:
448,192,317293,1,4,0:0:0:0:
192,192,317372,1,4,0:0:0:0:
320,192,317450,128,4,317529:0:0:0:0:
64,192,317450,1,2,0:0:0:0:
192,192,317529,1,4,0:0:0:0:
448,192,317607,1,0,0:0:0:0:
64,192,317607,128,8,317686:0:0:0:0:
192,192,317764,1,0,0:0:0:0:
320,192,317921,1,0,0:0:0:0:
64,192,317921,1,2,0:0:0:0:
64,192,318078,1,2,0:0:0:0:
448,192,318235,1,0,0:0:0:0:
192,192,318235,1,8,0:0:0:0:
64,192,318314,1,4,0:0:0:0:
448,192,318392,1,4,0:0:0:0:
192,192,318471,1,4,0:0:0:0:
320,192,318550,128,4,318628:0:0:0:0:
64,192,318628,1,4,0:0:0:0:
448,192,318707,128,0,318785:0:0:0:0:
192,192,318707,1,2,0:0:0:0:
320,192,318864,1,0,0:0:0:0:
64,192,318864,1,8,0:0:0:0:
320,192,319021,1,0,0:0:0:0:
192,192,319021,128,2,319099:0:0:0:0:
64,192,319178,1,4,0:0:0:0:
448,192,319335,1,0,0:0:0:0:
320,192,319335,128,2,319413:0:0:0:0:
448,192,319492,1,0,0:0:0:0:
192,192,319492,1,8,0:0:0:0:
320,192,319570,1,4,0:0:0:0:
64,192,319649,128,4,319728:0:0:0:0:
320,192,319728,1,4,0:0:0:0:
192,192,319806,128,4,319885:0:0:0:0:
64,192,319885,1,4,0:0:0:0:
448,192,319963,128,4,320042:0:0:0:0:
320,192,319963,1,2,0:0:0:0:
64,192,320042,1,4,0:0:0:0:
320,192,320120,128,0,320199:0:0:0:0:
192,192,320120,1,8,0:0:0:0:
192,192,320277,128,0,320356:0:0:0:0:
448,192,320434,1,0,0:0:0:0:
64,192,320434,1,8,0:0:0:0:
192,192,320748,128,0,320801:0:0:0:0:
64,192,320906,128,0,320984:0:0:0:0:
320,192,321220,128,0,321272:0:0:0:0:
192,192,321220,128,0,321298:0:0:0:0:
448,192,321377,128,0,321639:0:0:0:0:
64,192,321534,128,0,321586:0:0:0:0:
192,192,321691,1,2,0:0:0:0:
64,192,321691,1,2,1:0:0:0:
64,192,321848,1,4,0:0:0:0:
320,192,322005,1,0,0:0:0:0:
64,192,322084,1,4,0:0:0:0:
320,192,322162,1,4,0:0:0:0:
192,192,322241,1,4,0:0:0:0:
448,192,322319,1,0,0:0:0:0:
64,192,322319,1,8,0:0:0:0:
192,192,322476,1,4,0:0:0:0:
320,192,322555,1,2,0:0:0:0:
192,192,322633,1,4,0:0:0:0:
64,192,322790,1,4,0:0:0:0:
192,192,322869,1,4,0:0:0:0:
448,192,323105,1,0,0:0:0:0:
320,192,323105,1,0,0:0:0:0:
64,192,323262,1,4,0:0:0:0:
320,192,323340,1,4,0:0:0:0:
192,192,323419,1,4,0:0:0:0:
448,192,323497,1,4,0:0:0:0:
320,192,323576,1,4,0:0:0:0:
64,192,323576,1,8,0:0:0:0:
192,192,323654,1,4,0:0:0:0:
448,192,323733,1,2,0:0:0:0:
64,192,323811,1,0,0:0:0:0:
320,192,323890,1,0,0:0:0:0:
192,192,324047,1,8,0:0:0:0:
192,192,324204,1,2,0:0:0:0:
448,192,324361,1,4,0:0:0:0:
320,192,324518,1,0,0:0:0:0:
448,192,324597,1,4,0:0:0:0:
320,192,324675,1,4,0:0:0:0:
192,192,324754,1,4,0:0:0:0:
448,192,324832,1,0,0:0:0:0:
64,192,324832,1,8,0:0:0:0:
320,192,324989,1,4,0:0:0:0:
192,192,325068,1,2,0:0:0:0:
320,192,325146,1,4,0:0:0:0:
64,192,325303,1,4,0:0:0:0:
192,192,325382,1,4,0:0:0:0:
448,192,325618,1,0,0:0:0:0:
320,192,325618,1,0,0:0:0:0:
64,192,325775,1,4,0:0:0:0:
320,192,325853,1,4,0:0:0:0:
64,192,325932,1,4,0:0:0:0:
192,192,326010,1,4,0:0:0:0:
448,192,326089,1,4,0:0:0:0:
320,192,326089,1,8,0:0:0:0:
64,192,326167,1,4,0:0:0:0:
192,192,326246,1,2,0:0:0:0:
448,192,326324,1,0,0:0:0:0:
192,192,326403,1,0,0:0:0:0:
192,192,326560,1,8,0:0:0:0:
192,192,326717,1,2,0:0:0:0:
448,192,326874,1,4,0:0:0:0:
320,192,327031,1,0,0:0:0:0:
64,192,327110,1,4,0:0:0:0:
320,192,327188,1,4,0:0:0:0:
448,192,327267,1,4,0:0:0:0:
192,192,327345,1,0,0:0:0:0:
64,192,327345,1,8,0:0:0:0:
448,192,327502,1,4,0:0:0:0:
192,192,327581,1,2,0:0:0:0:
64,192,327659,1,4,0:0:0:0:
64,192,327817,1,4,0:0:0:0:
192,192,327895,1,4,0:0:0:0:
448,192,328131,1,0,0:0:0:0:
192,192,328131,1,0,0:0:0:0:
320,192,328288,1,4,0:0:0:0:
448,192,328366,1,4,0:0:0:0:
320,192,328445,1,4,0:0:0:0:
192,192,328523,1,4,0:0:0:0:
448,192,328602,1,8,0:0:0:0:
64,192,328602,1,4,0:0:0:0:
320,192,328759,1,2,0:0:0:0:
192,192,328837,1,0,0:0:0:0:
320,192,328916,1,4,0:0:0:0:
192,192,329073,1,0,0:0:0:0:
64,192,329230,1,2,0:0:0:0:
320,192,329387,1,4,0:0:0:0:
192,192,329544,1,0,0:0:0:0:
448,192,329623,1,4,0:0:0:0:
64,192,329701,1,4,0:0:0:0:
320,192,329780,1,4,0:0:0:0:
448,192,329858,1,0,0:0:0:0:
192,192,329858,1,8,0:0:0:0:
64,192,330015,1,4,0:0:0:0:
320,192,330094,1,2,0:0:0:0:
192,192,330173,1,4,0:0:0:0:
320,192,330330,1,4,0:0:0:0:
64,192,330408,1,4,0:0:0:0:
448,192,330644,1,0,0:0:0:0:
192,192,330644,1,0,0:0:0:0:
320,192,330801,1,4,0:0:0:0:
64,192,330879,1,4,0:0:0:0:
448,192,330958,1,4,0:0:0:0:
320,192,331036,1,4,0:0:0:0:
192,192,331115,1,4,0:0:0:0:
64,192,331115,1,8,0:0:0:0:
448,192,331194,1,4,0:0:0:0:
320,192,331272,1,2,0:0:0:0:
64,192,331351,1,0,0:0:0:0:
448,192,331429,1,4,0:0:0:0:
64,192,331586,128,0,331639:0:0:0:0:
64,192,331743,128,2,331796:0:0:0:0:
320,192,331900,1,4,0:0:0:0:
448,192,332057,128,0,332110:0:0:0:0:
192,192,332136,1,4,0:0:0:0:
448,192,332214,128,4,332267:0:0:0:0:
320,192,332293,1,4,0:0:0:0:
192,192,332372,1,0,0:0:0:0:
64,192,332372,1,8,0:0:0:0:
320,192,332529,128,4,332581:0:0:0:0:
448,192,332607,1,2,0:0:0:0:
192,192,332686,128,4,332738:0:0:0:0:
64,192,332843,1,4,0:0:0:0:
192,192,332921,1,4,0:0:0:0:
320,192,333157,1,0,0:0:0:0:
64,192,333157,1,0,0:0:0:0:
64,192,333314,1,4,0:0:0:0:
320,192,333392,1,4,0:0:0:0:
192,192,333471,1,4,0:0:0:0:
448,192,333550,1,4,0:0:0:0:
320,192,333628,1,4,0:0:0:0:
192,192,333628,1,8,0:0:0:0:
64,192,333707,1,4,0:0:0:0:
320,192,333785,1,2,0:0:0:0:
192,192,333864,1,0,0:0:0:0:
448,192,333942,1,0,0:0:0:0:
192,192,334099,1,8,0:0:0:0:
192,192,334256,1,2,0:0:0:0:
320,192,334413,1,4,0:0:0:0:
64,192,334570,128,0,334623:0:0:0:0:
320,192,334649,1,4,0:0:0:0:
64,192,334728,128,4,334780:0:0:0:0:
192,192,334806,1,4,0:0:0:0:
448,192,334885,128,0,334937:0:0:0:0:
320,192,334885,1,8,0:0:0:0:
320,192,335042,128,4,335094:0:0:0:0:
64,192,335120,1,2,0:0:0:0:
192,192,335199,128,4,335251:0:0:0:0:
64,192,335356,128,4,335408:0:0:0:0:
192,192,335434,1,4,0:0:0:0:
320,192,335670,1,0,0:0:0:0:
64,192,335670,1,0,0:0:0:0:
64,192,335827,128,4,335879:0:0:0:0:
320,192,335906,1,4,0:0:0:0:
64,192,335984,128,4,336036:0:0:0:0:
448,192,336063,1,4,0:0:0:0:
320,192,336141,1,4,0:0:0:0:
192,192,336141,1,8,0:0:0:0:
64,192,336220,1,4,0:0:0:0:
448,192,336298,128,2,336351:0:0:0:0:
192,192,336377,1,0,0:0:0:0:
320,192,336455,128,0,336508:0:0:0:0:
192,192,336612,128,8,336665:0:0:0:0:
192,192,336769,128,2,336822:0:0:0:0:
320,192,336926,1,4,0:0:0:0:
64,192,337084,128,0,337136:0:0:0:0:
448,192,337162,1,4,0:0:0:0:
192,192,337241,128,4,337293:0:0:0:0:
64,192,337319,1,4,0:0:0:0:
448,192,337398,128,0,337450:0:0:0:0:
320,192,337398,1,8,0:0:0:0:
320,192,337555,128,4,337607:0:0:0:0:
64,192,337633,1,2,0:0:0:0:
192,192,337712,128,4,337764:0:0:0:0:
320,192,337869,128,4,337921:0:0:0:0:
192,192,337947,1,4,0:0:0:0:
192,192,338183,1,0,0:0:0:0:
64,192,338183,1,0,0:0:0:0:
320,192,338340,1,4,0:0:0:0:
64,192,338419,1,4,0:0:0:0:
448,192,338497,1,4,0:0:0:0:
192,192,338576,1,4,0:0:0:0:
448,192,338654,1,8,0:0:0:0:
64,192,338654,1,4,0:0:0:0:
192,192,338733,1,4,0:0:0:0:
320,192,338811,1,2,0:0:0:0:
64,192,338968,1,4,0:0:0:0:
192,192,339125,128,0,339178:0:0:0:0:
320,192,339440,1,4,0:0:0:0:
192,192,339597,1,0,0:0:0:0:
320,192,339675,1,4,0:0:0:0:
192,192,339754,1,4,0:0:0:0:
64,192,339832,1,4,0:0:0:0:
448,192,339911,1,0,0:0:0:0:
320,192,339911,1,8,0:0:0:0:
192,192,340068,1,4,0:0:0:0:
64,192,340146,128,2,340199:0:0:0:0:
448,192,340225,1,4,0:0:0:0:
320,192,340382,128,4,340421:0:0:0:0:
192,192,340461,128,4,340500:0:0:0:0:
192,192,340696,1,0,0:0:0:0:
64,192,340696,1,0,0:0:0:0:
320,192,340853,128,0,340932:0:0:0:0:
192,192,340853,1,4,0:0:0:0:
64,192,340932,1,4,0:0:0:0:
448,192,341010,1,4,0:0:0:0:
64,192,341089,1,4,0:0:0:0:
448,192,341167,1,4,0:0:0:0:
320,192,341167,1,8,0:0:0:0:
64,192,341246,1,4,0:0:0:0:
320,192,341324,128,0,341717:0:0:0:0:
192,192,341324,1,2,0:0:0:0:
64,192,341481,128,4,341743:0:0:0:0:
448,192,341639,128,0,341691:0:0:0:0:
64,192,341796,128,4,341874:1:0:0:0:
448,192,341953,128,4,342005:0:0:0:0:
64,192,342188,1,4,0:0:0:0:
320,192,342267,128,4,342319:0:0:0:0:
192,192,342345,1,4,0:0:0:0:
448,192,342424,1,0,0:0:0:0:
64,192,342424,128,8,342476:0:0:0:0:
320,192,342581,128,4,342633:0:0:0:0:
64,192,342659,1,2,0:0:0:0:
192,192,342738,128,4,342817:0:0:0:0:
448,192,342895,128,4,342947:0:0:0:0:
64,192,342974,1,4,0:0:0:0:
320,192,343052,128,0,343131:0:0:0:0:
192,192,343209,128,0,343262:0:0:0:0:
64,192,343366,128,4,343419:0:0:0:0:
448,192,343445,1,4,0:0:0:0:
320,192,343523,128,4,343602:0:0:0:0:
192,192,343602,1,4,0:0:0:0:
448,192,343680,1,8,0:0:0:0:
64,192,343680,128,4,343733:0:0:0:0:
192,192,343837,128,2,343890:0:0:0:0:
320,192,343995,128,4,344073:0:0:0:0:
192,192,344152,1,0,0:0:0:0:
64,192,344152,128,8,344204:0:0:0:0:
448,192,344309,128,2,344387:0:0:0:0:
192,192,344466,128,4,344518:0:0:0:0:
320,192,344623,128,0,344780:0:0:0:0:
448,192,344701,1,4,0:0:0:0:
64,192,344780,128,4,344832:0:0:0:0:
320,192,344858,1,4,0:0:0:0:
448,192,344937,1,0,0:0:0:0:
64,192,344937,1,8,0:0:0:0:
192,192,345094,128,4,345146:0:0:0:0:
448,192,345173,1,2,0:0:0:0:
320,192,345251,128,4,345330:0:0:0:0:
64,192,345408,128,4,345461:0:0:0:0:
448,192,345487,1,4,0:0:0:0:
192,192,345565,128,0,345644:0:0:0:0:
320,192,345722,128,0,345775:0:0:0:0:
448,192,345879,128,4,346036:0:0:0:0:
320,192,345958,1,4,0:0:0:0:
192,192,346036,128,4,346115:0:0:0:0:
320,192,346115,1,4,0:0:0:0:
448,192,346194,1,8,0:0:0:0:
64,192,346194,1,4,0:0:0:0:
320,192,346272,1,4,0:0:0:0:
192,192,346351,1,2,0:0:0:0:
64,192,346429,1,0,0:0:0:0:
192,192,346508,128,0,346586:0:0:0:0:
192,192,346665,1,0,0:0:0:0:
64,192,346665,128,8,346717:0:0:0:0:
64,192,346822,128,2,346900:0:0:0:0:
448,192,346979,128,4,347031:0:0:0:0:
64,192,347214,1,4,0:0:0:0:
320,192,347293,128,4,347345:0:0:0:0:
192,192,347372,1,4,0:0:0:0:
448,192,347450,1,0,0:0:0:0:
64,192,347450,128,8,347502:0:0:0:0:
320,192,347607,128,4,347659:0:0:0:0:
64,192,347686,1,2,0:0:0:0:
192,192,347764,128,4,347843:0:0:0:0:
448,192,347921,128,4,347974:0:0:0:0:
64,192,348000,1,4,0:0:0:0:
320,192,348078,128,0,348157:0:0:0:0:
192,192,348235,128,0,348288:0:0:0:0:
64,192,348392,128,4,348445:0:0:0:0:
448,192,348471,1,4,0:0:0:0:
320,192,348550,128,4,348628:0:0:0:0:
192,192,348628,1,4,0:0:0:0:
448,192,348707,1,8,0:0:0:0:
64,192,348707,128,4,348759:0:0:0:0:
192,192,348864,128,2,348916:0:0:0:0:
320,192,349021,128,4,349099:0:0:0:0:
192,192,349178,1,0,0:0:0:0:
64,192,349178,128,8,349230:0:0:0:0:
448,192,349335,128,2,349413:0:0:0:0:
192,192,349492,128,4,349544:0:0:0:0:
320,192,349649,128,0,349806:0:0:0:0:
448,192,349728,1,4,0:0:0:0:
64,192,349806,128,4,349858:0:0:0:0:
320,192,349885,1,4,0:0:0:0:
448,192,349963,1,0,0:0:0:0:
64,192,349963,1,8,0:0:0:0:
192,192,350120,128,4,350173:0:0:0:0:
448,192,350199,1,2,0:0:0:0:
320,192,350277,128,4,350356:0:0:0:0:
64,192,350434,128,4,350487:0:0:0:0:
448,192,350513,1,4,0:0:0:0:
192,192,350591,128,0,350670:0:0:0:0:
320,192,350748,128,0,350801:0:0:0:0:
448,192,350906,128,4,351063:0:0:0:0:
320,192,350984,1,4,0:0:0:0:
192,192,351063,128,4,351141:0:0:0:0:
320,192,351141,1,4,0:0:0:0:
448,192,351220,1,8,0:0:0:0:
64,192,351220,1,4,0:0:0:0:
320,192,351298,1,4,0:0:0:0:
192,192,351377,1,2,0:0:0:0:
64,192,351455,1,0,0:0:0:0:
192,192,351534,128,0,351612:0:0:0:0:
192,192,351691,1,0,0:0:0:0:
64,192,351691,128,8,351743:0:0:0:0:
64,192,351848,128,2,351926:0:0:0:0:
448,192,352005,128,4,352057:0:0:0:0:
64,192,352241,1,4,0:0:0:0:
320,192,352319,128,4,352372:0:0:0:0:
192,192,352398,1,4,0:0:0:0:
448,192,352476,1,0,0:0:0:0:
64,192,352476,128,8,352529:0:0:0:0:
320,192,352633,128,4,352686:0:0:0:0:
64,192,352712,1,2,0:0:0:0:
192,192,352790,128,4,352869:0:0:0:0:
448,192,352947,128,4,353000:0:0:0:0:
64,192,353026,1,4,0:0:0:0:
320,192,353105,128,0,353183:0:0:0:0:
192,192,353262,128,0,353314:0:0:0:0:
64,192,353419,128,4,353471:0:0:0:0:
448,192,353497,1,4,0:0:0:0:
320,192,353576,128,4,353654:0:0:0:0:
192,192,353654,1,4,0:0:0:0:
448,192,353733,1,8,0:0:0:0:
64,192,353733,128,4,353785:0:0:0:0:
192,192,353890,128,2,353942:0:0:0:0:
320,192,354047,128,4,354125:0:0:0:0:
192,192,354204,1,0,0:0:0:0:
64,192,354204,128,8,354256:0:0:0:0:
448,192,354361,128,2,354440:0:0:0:0:
192,192,354518,128,4,354570:0:0:0:0:
320,192,354675,128,0,354832:0:0:0:0:
448,192,354754,1,4,0:0:0:0:
64,192,354832,128,4,354885:0:0:0:0:
320,192,354911,1,4,0:0:0:0:
448,192,354989,1,0,0:0:0:0:
64,192,354989,1,8,0:0:0:0:
192,192,355146,128,4,355199:0:0:0:0:
448,192,355225,1,2,0:0:0:0:
320,192,355303,128,4,355382:0:0:0:0:
64,192,355461,128,4,355513:0:0:0:0:
448,192,355539,1,4,0:0:0:0:
192,192,355618,128,0,355696:0:0:0:0:
320,192,355775,128,0,355827:0:0:0:0:
448,192,355932,128,4,356089:0:0:0:0:
320,192,356010,1,4,0:0:0:0:
192,192,356089,128,4,356167:0:0:0:0:
320,192,356167,1,4,0:0:0:0:
448,192,356246,1,8,0:0:0:0:
64,192,356246,1,4,0:0:0:0:
320,192,356324,1,4,0:0:0:0:
192,192,356403,1,2,0:0:0:0:
64,192,356481,1,0,0:0:0:0:
192,192,356560,128,0,356639:0:0:0:0:
192,192,356717,1,0,0:0:0:0:
64,192,356717,128,8,356769:0:0:0:0:
64,192,356874,128,2,356953:0:0:0:0:
448,192,357031,128,4,357084:0:0:0:0:
64,192,357267,1,4,0:0:0:0:
320,192,357345,128,4,357398:0:0:0:0:
192,192,357424,1,4,0:0:0:0:
448,192,357502,1,0,0:0:0:0:
64,192,357502,128,8,357555:0:0:0:0:
320,192,357659,128,4,357712:0:0:0:0:
64,192,357738,1,2,0:0:0:0:
192,192,357817,128,4,357895:0:0:0:0:
448,192,357974,128,4,358026:0:0:0:0:
64,192,358052,1,4,0:0:0:0:
320,192,358131,128,0,358209:0:0:0:0:
192,192,358288,128,0,358340:0:0:0:0:
64,192,358445,128,4,358497:0:0:0:0:
448,192,358523,1,4,0:0:0:0:
320,192,358602,128,4,358680:0:0:0:0:
192,192,358680,1,4,0:0:0:0:
448,192,358759,1,4,0:0:0:0:
64,192,358759,128,8,358811:0:0:0:0:
192,192,358916,128,2,358968:0:0:0:0:
320,192,359073,128,4,359152:0:0:0:0:
192,192,359230,1,0,0:0:0:0:
64,192,359230,128,8,359283:0:0:0:0:
448,192,359387,128,2,359466:0:0:0:0:
192,192,359544,128,4,359597:0:0:0:0:
320,192,359701,128,0,359858:0:0:0:0:
448,192,359780,1,4,0:0:0:0:
64,192,359858,128,4,359911:0:0:0:0:
320,192,359937,1,4,0:0:0:0:
448,192,360015,1,0,0:0:0:0:
64,192,360015,1,8,0:0:0:0:
192,192,360173,128,4,360225:0:0:0:0:
448,192,360251,1,2,0:0:0:0:
320,192,360330,128,4,360408:0:0:0:0:
64,192,360487,128,4,360539:0:0:0:0:
448,192,360565,1,4,0:0:0:0:
192,192,360644,128,0,360722:0:0:0:0:
320,192,360801,128,0,360853:0:0:0:0:
448,192,360958,128,4,361115:0:0:0:0:
320,192,361036,1,4,0:0:0:0:
192,192,361115,128,4,361194:0:0:0:0:
320,192,361194,1,4,0:0:0:0:
448,192,361272,1,4,0:0:0:0:
64,192,361272,1,8,0:0:0:0:
320,192,361351,1,4,0:0:0:0:
192,192,361429,1,2,0:0:0:0:
64,192,361508,1,0,0:0:0:0:
192,192,361586,128,0,361665:0:0:0:0:
192,192,361743,1,0,0:0:0:0:
64,192,361743,128,8,361796:0:0:0:0:
320,192,361900,1,0,0:0:0:0:
192,192,361900,128,2,363209:1:0:0:0:
320,192,362057,1,0,0:0:0:0:
