osu file format v14

[General]
AudioFilename: audio.mp3
AudioLeadIn: 0
PreviewTime: 120388
Countdown: 0
SampleSet: Normal
StackLeniency: 0.3
Mode: 0
LetterboxInBreaks: 0
WidescreenStoryboard: 0

[Editor]
Bookmarks: 20335,39183,39969,40440,48293,60545,70597,79236,80649,90073,90702,100283,100754,120230,139707,140963,150388,151016,160440,161068,170492,171121,179916,181173,198765,200021,221225,238974,240230,247613,250597,271644
DistanceSpacing: 0.7
BeatDivisor: 4
GridSize: 8
TimelineZoom: 3

[Metadata]
Title:Dive Archive
TitleUnicode:Dive Archive
Artist:An
ArtistUnicode:An
Creator:Disorted
Version:Aquatic
Source:
Tags:acuticnotes acutic notes electronic artcore
BeatmapID:1761665
BeatmapSetID:841882

[Difficulty]
HPDrainRate:6.3
CircleSize:4.3
OverallDifficulty:8.2
ApproachRate:9.1
SliderMultiplier:1.8
SliderTickRate:1

[Events]
//Background and Video events
0,0,"Rin.(Shelter).full.2053729.jpg",0,0
//Break Periods
//Storyboard Layer 0 (Background)
//Storyboard Layer 1 (Fail)
//Storyboard Layer 2 (Pass)
//Storyboard Layer 3 (Foreground)
//Storyboard Sound Samples

[TimingPoints]
231,314.13612565445,4,1,1,100,1,0
231,-133.333333333333,4,2,0,40,0,0
7691,-133.333333333333,4,2,0,5,0,0
7770,-133.333333333333,4,2,0,40,0,0
9969,-200,4,2,0,40,0,0
10204,-200,4,2,0,5,0,0
10283,-133.333333333333,4,2,0,40,0,0
12717,-133.333333333333,4,2,0,5,0,0
12796,-133.333333333333,4,2,0,40,0,0
20021,-200,4,2,0,40,0,0
20257,-200,4,1,1,15,0,0
20335,-111.111111111111,4,3,1,60,0,0
20963,-111.111111111111,4,2,1,60,0,0
25361,-111.111111111111,4,3,1,60,0,0
25990,-111.111111111111,4,2,1,60,0,0
30388,-111.111111111111,4,3,1,60,0,0
31016,-111.111111111111,4,2,1,60,0,0
35414,-111.111111111111,4,3,1,60,0,0
36042,-111.111111111111,4,2,1,60,0,0
39183,-200,4,1,1,20,0,0
39969,-100,4,3,2,65,0,0
40440,-90.9090909090909,4,2,2,75,0,1
60545,-111.111111111111,4,3,1,50,0,0
61173,-111.111111111111,4,2,1,50,0,0
65571,-111.111111111111,4,3,1,50,0,0
66199,-111.111111111111,4,2,1,50,0,0
70597,-111.111111111111,4,3,1,50,0,0
71225,-111.111111111111,4,2,1,50,0,0
75623,-111.111111111111,4,3,1,50,0,0
76251,-111.111111111111,4,2,1,50,0,0
79236,-100,4,1,1,35,0,0
80649,-83.3333333333333,4,1,1,55,0,1
90073,-50,4,1,1,55,0,0
90230,-40,4,1,1,55,0,0
90388,-100,4,1,1,55,0,0
90702,-76.9230769230769,4,1,1,65,0,1
100283,-50,4,1,1,65,0,1
100440,-100,4,1,1,65,0,1
100754,-100,4,2,0,40,0,0
104524,-66.6666666666667,4,2,0,40,0,0
104681,-100,4,2,0,40,0,0
120388,-90.9090909090909,4,3,2,60,0,0
120859,-90.9090909090909,4,2,2,75,0,1
139707,-100,4,3,2,65,0,0
140963,-100,4,1,1,50,0,0
150388,-50,4,1,1,50,0,0
150545,-40,4,1,1,50,0,0
150702,-100,4,1,1,50,0,0
151016,-100,4,1,1,50,0,0
160440,-100,4,1,1,50,0,0
160597,-40,4,1,1,50,0,0
160754,-133.333333333333,4,1,1,50,0,0
161068,-100,4,1,1,55,0,0
170492,-100,4,1,1,55,0,0
170649,-40,4,1,1,55,0,0
170806,-100,4,1,1,55,0,0
171121,-100,4,1,1,55,0,0
174890,-80,4,1,1,55,0,0
175204,-100,4,1,1,55,0,0
181173,-117.647058823529,4,1,1,40,0,0
198765,-133.333333333333,4,1,1,30,0,0
200649,-100,4,1,1,80,0,0
201121,-111.111111111111,4,1,1,45,0,0
221225,-100,4,1,1,50,0,0
238974,-200,4,1,1,25,0,0
240230,-133.333333333333,4,1,1,40,0,0
247613,-117.647058823529,4,1,1,40,0,0
251068,-111.111111111111,4,1,1,60,0,0
251539,-80,4,1,1,75,0,1
271644,-111.111111111111,4,1,1,25,0,0
276670,-133.333333333333,4,1,1,25,0,0
280911,315.789473684211,4,1,1,25,1,0
281700,331.491712707182,4,1,1,25,1,0
281700,-142.857142857143,4,1,1,25,0,0
282528,352.941176470588,4,1,1,25,1,0
283057,375,4,1,1,25,1,0
283619,384.615384615385,4,1,1,25,1,0
284197,394.736842105263,4,1,1,25,1,0
284591,-153.846153846154,4,1,1,25,0,0
284592,425.531914893617,4,1,1,25,1,0
285444,454.545454545455,4,1,1,25,1,0
286126,483.870967741935,4,1,1,25,1,0
287093,526.315789473684,4,1,1,25,1,0
287882,545.454545454546,4,1,1,25,1,0
288427,-166.666666666667,4,1,1,25,0,0
288428,566.037735849057,4,1,1,25,1,0
289560,612.244897959184,4,1,1,25,1,0
290784,652.173913043478,4,1,1,25,1,0
291436,681.818181818182,4,1,1,25,1,0
291776,659.340659340659,4,1,1,25,1,0
292435,774.193548387097,4,1,1,25,1,0
292823,731.707317073171,4,1,1,25,1,0
293555,769.230769230769,4,1,1,25,1,0
293555,-200,4,1,1,25,0,0
295093,810.810810810811,4,1,1,25,1,0
295498,833.333333333333,4,1,1,25,1,0
296331,869.565217391304,4,1,1,24,1,0
296767,526.315789473684,4,1,1,23,1,0
297188,909.090909090909,4,1,1,22,1,0
298097,952.380952380952,4,1,1,21,1,0
299525,1004.18410041841,4,1,1,20,1,0
299525,-250,4,1,1,20,0,0

[HitObjects]
200,120,231,6,0,P|136:96|56:120,2,135.000005149842
272,184,1016,2,0,L|405:160,1,135.000005149842
352,264,1487,2,0,P|360:304|352:336,2,67.5000025749208
256,296,1958,2,0,L|122:272,1,135.000005149842
272,184,2429,1,0,0:0:0:0:
123,272,2744,6,0,P|131:206|91:154,2,135.000005149842
56,352,3529,2,0,P|120:376|192:352,1,135.000005149842
264,296,4000,2,0,L|341:316,2,67.5000025749208
176,264,4471,2,0,L|44:228,1,135.000005149842
136,160,4943,1,0,0:0:0:0:
264,296,5257,6,0,P|288:248|376:232,2,135.000005149842
376,320,6042,2,0,L|349:170,1,135.000005149842
328,80,6513,2,0,P|288:56|264:56,2,67.5000025749208
352,187,6984,2,0,P|304:216|208:216,1,135.000005149842
160,136,7456,2,0,L|271:126,1,101.250003862381
304,56,7770,6,0,L|292:191,2,135.000005149842
384,128,8555,2,0,P|392:192|376:272,1,135.000005149842
392,344,9026,2,0,P|344:336|312:312,2,67.5000025749208
472,328,9498,2,0,P|460:261|468:195,1,135.000005149842
480,112,9969,6,0,L|472:40,1,67.5
464,8,10283,6,0,P|416:40|328:24,2,135.000005149842
400,128,11068,2,0,L|376:261,1,135.000005149842
456,296,11539,2,0,L|442:362,2,67.5000025749208
472,192,12011,2,0,P|424:176|328:192,1,135.000005149842
248,216,12482,2,0,P|192:224|152:208,1,101.250003862381
144,176,12796,6,0,L|168:32,2,135.000005149842
128,280,13581,2,0,P|176:256|256:272,1,135.000005149842
328,336,14052,2,0,L|272:376,2,67.5000025749208
408,280,14524,2,0,L|419:144,1,135.000005149842
328,200,14995,1,0,0:0:0:0:
253,270,15309,6,0,P|229:214|253:134,2,135.000005149842
192,344,16094,2,0,P|128:328|56:344,1,135.000005149842
152,248,16566,2,0,L|96:200,2,67.5000025749208
224,312,17037,2,0,L|368:296,1,135.000005149842
328,200,17508,1,0,0:0:0:0:
152,248,17822,6,0,P|128:184|160:112,2,135.000005149842
224,184,18607,2,0,P|288:176|360:184,1,135.000005149842
456,152,19079,2,0,P|464:176|456:216,2,67.5000025749208
360,104,19550,2,0,P|296:96|224:104,1,135.000005149842
128,120,20021,6,0,L|56:112,1,67.5
80,192,20335,2,0,L|88:136,3,40.4999987640381
64,264,20649,2,0,L|58:223,3,40.4999987640381
80,336,20963,2,0,B|96:296|96:296|136:272,1,80.9999975280763
256,160,21278,1,0,0:0:0:0:
177,216,21435,2,0,B|161:256|161:256|128:275,1,80.9999975280763
168,128,21749,2,0,B|184:88|184:88|216:68,1,80.9999975280763
406,112,22063,6,0,B|342:152|342:152|254:160,1,161.999995056153
160,144,22534,2,0,L|72:152,1,80.9999975280763
128,274,22848,2,0,L|224:266,2,80.9999975280763
9,190,23320,2,0,B|67:152|67:152|177:142,1,161.999995056153
216,67,23791,5,0,0:0:0:0:
216,67,23948,2,0,B|240:96|240:96|240:168,1,80.9999975280763
200,224,24262,2,0,B|176:253|176:253|176:325,1,80.9999975280763
256,360,24576,6,0,B|256:280|256:280|280:240|280:240|280:176,1,161.999995056153
264,48,25047,2,0,B|240:77|240:77|240:149,1,80.9999975280763
168,112,25361,6,0,L|168:152,3,40.4999987640381
160,232,25676,5,0,0:0:0:0:
160,232,25754,1,0,0:0:0:0:
160,232,25833,2,0,L|160:280,1,40.4999987640381
224,344,25990,2,0,P|232:288|232:256,1,80.9999975280763
176,104,26304,1,0,0:0:0:0:
240,183,26461,2,0,P|232:239|232:271,1,80.9999975280763
400,240,26775,2,0,P|408:184|408:152,1,80.9999975280763
232,56,27089,6,0,P|296:102|324:177,1,161.999995056153
231,263,27560,1,0,0:0:0:0:
312,344,27717,2,0,P|313:303|320:263,1,80.9999975280763
488,240,28031,2,0,P|486:280|479:320,1,80.9999975280763
492,118,28346,6,0,P|427:164|399:239,1,161.999995056153
384,96,28817,1,0,0:0:0:0:
272,40,28974,2,0,P|224:32|184:40,1,80.9999975280763
128,176,29288,2,0,P|176:184|216:176,1,80.9999975280763
304,32,29602,2,0,P|259:11|144:32,1,161.999995056153
96,184,30073,2,0,P|141:200|182:199,1,80.9999975280763
288,168,30388,6,0,L|343:163,3,40.4999987640381
408,152,30702,5,0,0:0:0:0:
415,152,30780,1,0,0:0:0:0:
423,153,30859,1,0,0:0:0:0:
431,154,30937,1,0,0:0:0:0:
439,154,31016,2,0,B|450:203|450:203|447:243,1,80.9999975280763
368,336,31330,1,0,0:0:0:0:
337,244,31487,6,0,B|326:195|326:195|329:155,1,80.9999975280763
392,16,31801,2,0,B|394:46|394:46|383:95,1,80.9999975280763
144,96,32115,2,0,B|241:85|241:85|312:88,1,161.999995056153
488,160,32587,2,0,B|439:171|439:171|399:168,1,80.9999975280763
328,164,32901,5,0,0:0:0:0:
232,168,33058,1,0,0:0:0:0:
376,232,33215,1,0,0:0:0:0:
384,96,33372,2,0,B|328:72|328:72|224:72,1,161.999995056153
136,160,33843,1,0,0:0:0:0:
200,320,34000,6,0,B|200:264|200:264|232:216|232:216|232:152,1,161.999995056153
136,32,34471,1,0,0:0:0:0:
136,32,34628,2,0,B|136:88|136:88|152:136|152:136|152:208,1,161.999995056153
125,296,35100,2,0,B|165:320|165:320|213:320,1,80.9999975280763
312,264,35414,5,0,0:0:0:0:
312,248,35492,1,0,0:0:0:0:
312,232,35571,2,0,L|312:176,1,40.4999987640381
296,104,35728,5,0,0:0:0:0:
296,88,35806,1,0,0:0:0:0:
296,72,35885,1,0,0:0:0:0:
296,56,35963,1,0,0:0:0:0:
296,40,36042,2,0,P|248:32|208:40,1,80.9999975280763
88,104,36356,5,0,0:0:0:0:
240,200,36513,2,0,P|256:136|248:104,1,80.9999975280763
152,168,36827,2,0,P|136:232|144:264,1,80.9999975280763
264,232,37141,6,0,P|296:184|280:80,1,161.999995056153
216,37,37613,1,0,0:0:0:0:
136,184,37770,2,0,P|131:249|144:279,1,80.9999975280763
272,192,38084,2,0,P|276:126|263:96,1,80.9999975280763
104,168,38398,6,0,P|88:208|128:320,1,161.999995056153
200,360,38869,1,0,0:0:0:0:
272,112,39969,5,0,0:0:0:0:
296,128,40047,1,0,0:0:0:0:
312,152,40126,1,0,0:0:0:0:
320,176,40204,1,0,0:0:0:0:
320,200,40283,1,0,0:0:0:0:
312,224,40361,1,0,0:0:0:0:
296,248,40440,6,0,L|240:256,1,49.5000015106202,0|0,0:0|0:0,0:0:0:0:
56,208,40597,6,0,L|112:200,1,49.5000015106202,0|0,0:0|0:0,0:0:0:0:
248,160,40754,1,0,0:0:0:0:
120,296,40911,1,0,0:0:0:0:
160,112,41068,1,0,0:0:0:0:
200,336,41225,2,0,L|304:320,1,99.0000030212403,0|0,0:0|0:0,0:0:0:0:
400,304,41539,1,0,0:0:0:0:
448,160,41696,6,0,P|400:144|344:144,1,99.0000030212403,0|0,0:0|0:0,0:0:0:0:
296,208,42011,1,0,0:0:0:0:
160,112,42168,2,0,P|208:128|264:128,1,99.0000030212403,0|0,0:0|0:0,0:0:0:0:
312,56,42482,1,0,0:0:0:0:
192,237,42639,2,0,L|200:341,1,99.0000030212403
368,240,42953,6,0,L|416:232,1,49.5000015106202,0|0,0:0|0:0,0:0:0:0:
432,64,43110,2,0,L|384:72,1,49.5000015106202,0|0,0:0|0:0,0:0:0:0:
248,128,43267,2,0,B|280:176|280:176|440:144,1,198.000006042481
296,48,43738,5,0,0:0:0:0:
288,272,43895,1,0,0:0:0:0:
168,152,44052,1,0,0:0:0:0:
320,168,44210,2,0,L|440:144,1,99.0000030212403
288,272,44524,2,0,L|190:291,1,99.0000030212403,0|0,0:0|0:0,0:0:0:0:
96,224,44838,2,0,P|80:176|104:120,2,99.0000030212403,0|0|0,0:0|0:0|0:0,0:0:0:0:
160,176,45230,5,0,0:0:0:0:
192,168,45309,1,0,0:0:0:0:
216,152,45388,1,0,0:0:0:0:
232,128,45466,2,0,L|240:72,1,49.5000015106202,0|0,0:0|0:0,0:0:0:0:
392,48,45623,2,0,L|384:104,1,49.5000015106202,0|0,0:0|0:0,0:0:0:0:
312,200,45780,5,0,0:0:0:0:
312,24,45937,1,0,0:0:0:0:
160,88,46094,1,0,0:0:0:0:
312,112,46251,2,0,P|375:117|414:129,1,99.0000030212403,0|0,0:0|0:0,0:0:0:0:
312,200,46566,1,0,0:0:0:0:
328,24,46723,6,0,P|264:29|225:41,1,99.0000030212403,0|0,0:0|0:0,0:0:0:0:
312,112,47037,1,0,0:0:0:0:
240,240,47194,1,0,0:0:0:0:
160,88,47351,1,0,0:0:0:0:
312,200,47508,2,0,P|328:256|304:304,1,99.0000030212403,0|0,0:0|0:0,0:0:0:0:
168,184,47822,1,0,0:0:0:0:
384,160,47979,5,0,0:0:0:0:
314,292,48136,1,0,0:0:0:0:
242,67,48293,2,0,P|226:115|242:163,1,99.0000030212403
432,104,48607,2,0,P|384:87|336:103,1,99.0000030212403
395,293,48922,2,0,P|411:245|395:197,1,99.0000030212403
206,256,49236,2,0,P|254:272|302:256,1,99.0000030212403
239,159,49550,1,0,0:0:0:0:
328,336,49707,1,0,0:0:0:0:
432,104,50021,5,0,0:0:0:0:
312,24,50178,5,0,0:0:0:0:
320,56,50257,1,0,0:0:0:0:
320,88,50335,1,0,0:0:0:0:
312,120,50414,1,0,0:0:0:0:
296,144,50492,2,0,L|240:136,1,49.5000015106202
112,48,50649,2,0,L|161:55,1,49.5000015106202
248,64,50806,5,0,0:0:0:0:
56,128,50963,1,0,0:0:0:0:
206,256,51121,1,0,0:0:0:0:
184,136,51278,2,0,P|232:160|288:152,1,99.0000030212403
392,104,51592,2,0,L|416:208,1,99.0000030212403
276,156,51906,1,0,0:0:0:0:
368,32,52063,5,0,0:0:0:0:
336,224,52220,1,0,0:0:0:0:
248,64,52377,2,0,L|280:168,1,99.0000030212403
392,104,52691,5,0,0:0:0:0:
192,144,52848,1,0,0:0:0:0:
336,24,53005,6,0,L|328:80,1,49.5000015106202
136,64,53162,6,0,L|128:120,1,49.5000015106202
224,312,53320,2,0,L|224:200,1,99.0000030212403
128,113,53634,2,0,L|155:154,1,49.5000015106202
328,73,53791,2,0,L|360:121,1,49.5000015106202
86,176,53948,2,0,L|113:217,1,49.5000015106202
296,152,54105,2,0,L|323:193,1,49.5000015106202
360,256,54262,5,0,0:0:0:0:
248,88,54419,1,0,0:0:0:0:
368,272,54576,1,0,0:0:0:0:
224,213,54733,1,0,0:0:0:0:
328,73,54890,1,0,0:0:0:0:
216,224,55047,1,0,0:0:0:0:
121,80,55204,5,0,0:0:0:0:
145,64,55283,1,0,0:0:0:0:
169,56,55361,1,0,0:0:0:0:
201,56,55440,1,0,0:0:0:0:
233,64,55518,2,0,P|273:80|329:72,1,99.0000030212403
432,48,55833,2,0,L|424:256,1,198.000006042481
312,160,56304,5,0,0:0:0:0:
232,224,56461,2,0,P|200:169|184:131,1,99.0000030212403
328,272,56775,2,0,P|360:312|392:365,1,99.0000030212403
264,336,57089,1,0,0:0:0:0:
304,152,57246,1,0,0:0:0:0:
424,245,57403,1,0,0:0:0:0:
232,224,57560,5,0,0:0:0:0:
385,352,57717,1,0,0:0:0:0:
304,152,57874,1,0,0:0:0:0:
424,294,58032,6,0,L|424:238,1,49.5000015106202
232,224,58189,6,0,L|232:280,1,49.5000015106202
328,371,58346,2,0,L|328:259,1,99.0000030212403
248,352,58660,1,0,0:0:0:0:
376,184,58817,1,0,0:0:0:0:
232,224,58974,1,0,0:0:0:0:
328,320,59131,1,0,0:0:0:0:
376,85,59288,2,0,P|384:136|376:205,1,99.0000030212403
232,224,59602,2,0,P|224:168|232:104,1,99.0000030212403
328,320,60073,5,0,0:0:0:0:
383,238,60230,5,0,0:0:0:0:
359,222,60309,1,0,0:0:0:0:
327,214,60388,1,0,0:0:0:0:
295,222,60466,1,0,0:0:0:0:
271,230,60545,2,0,L|223:222,3,40.4999987640381
159,190,60859,5,0,0:0:0:0:
151,174,60937,1,0,0:0:0:0:
143,158,61016,1,0,0:0:0:0:
135,142,61094,1,0,0:0:0:0:
127,126,61173,2,0,L|208:88,1,80.9999975280763
88,56,61487,1,0,0:0:0:0:
232,16,61644,2,0,P|272:56|256:152,1,161.999995056153
127,126,62115,1,0,0:0:0:0:
256,176,62272,6,0,L|431:191,1,161.999995056153
488,136,62744,1,0,0:0:0:0:
400,96,62901,1,0,0:0:0:0:
488,232,63058,5,0,0:0:0:0:
416,288,63215,1,0,0:0:0:0:
304,240,63372,1,0,0:0:0:0:
224,288,63529,2,0,B|128:344|128:344|168:288,1,161.999995056153
176,208,64000,1,0,0:0:0:0:
64,272,64157,6,0,P|56:192|64:96,1,161.999995056153
224,72,64628,1,0,0:0:0:0:
72,88,64785,2,0,L|248:96,1,161.999995056153
352,168,65257,1,0,0:0:0:0:
232,240,65414,1,0,0:0:0:0:
256,88,65571,5,0,0:0:0:0:
272,88,65649,1,0,0:0:0:0:
288,88,65728,1,0,0:0:0:0:
304,88,65806,1,0,0:0:0:0:
392,80,65885,5,0,0:0:0:0:
399,89,65963,1,0,0:0:0:0:
402,100,66042,1,0,0:0:0:0:
403,112,66121,1,0,0:0:0:0:
400,123,66199,2,0,L|408:224,1,80.9999975280763
320,248,66513,1,0,0:0:0:0:
400,368,66670,2,0,L|392:267,1,80.9999975280763
376,168,66984,5,0,0:0:0:0:
304,272,67141,1,0,0:0:0:0:
200,176,67299,2,0,P|264:152|376:168,1,161.999995056153
200,176,67927,2,0,P|136:200|24:184,3,161.999995056153
208,80,69183,2,0,L|392:72,2,161.999995056153
80,272,70126,5,0,0:0:0:0:
160,320,70283,1,0,0:0:0:0:
272,272,70440,1,0,0:0:0:0:
344,328,70597,5,0,0:0:0:0:
352,320,70676,1,0,0:0:0:0:
360,312,70754,2,0,L|360:256,1,40.4999987640381
384,192,70911,6,0,L|384:144,3,40.4999987640381
384,120,71225,6,0,P|336:112|288:128,1,80.9999975280763
224,168,71539,1,0,0:0:0:0:
56,112,71696,2,0,B|104:80|104:80|224:80,1,161.999995056153
288,32,72168,1,0,0:0:0:0:
384,120,72325,2,0,B|384:224|384:224|352:272,1,161.999995056153
280,328,72796,1,0,0:0:0:0:
264,240,72953,1,0,0:0:0:0:
288,113,73110,6,0,L|288:25,2,80.9999975280763
272,232,73581,2,0,P|208:208|120:240,1,161.999995056153
200,304,74052,1,0,0:0:0:0:
272,144,74210,2,0,P|208:128|112:152,1,161.999995056153
48,216,74681,1,0,0:0:0:0:
112,320,74838,2,0,P|176:336|272:312,1,161.999995056153
352,264,75309,2,0,L|360:160,1,80.9999975280763
368,88,75623,5,0,0:0:0:0:
356,83,75702,1,0,0:0:0:0:
344,80,75780,1,0,0:0:0:0:
330,82,75859,1,0,0:0:0:0:
261,85,75937,5,0,0:0:0:0:
247,87,76016,1,0,0:0:0:0:
235,84,76094,1,0,0:0:0:0:
223,79,76173,1,0,0:0:0:0:
160,48,76251,2,0,P|144:88|144:144,1,80.9999975280763
152,216,76566,1,0,0:0:0:0:
304,184,76723,2,0,P|264:168|208:168,2,80.9999975280763
384,232,77194,1,0,0:0:0:0:
272,296,77351,6,0,L|96:288,1,161.999995056153
152,216,77822,1,0,0:0:0:0:
96,144,77979,2,0,L|104:64,2,80.9999975280763
40,264,78450,2,0,L|32:344,2,80.9999975280763
152,216,78922,1,0,0:0:0:0:
32,120,79079,1,0,0:0:0:0:
256,192,79236,12,0,80492,0:0:0:0:
352,128,80649,5,0,0:0:0:0:
360,152,80728,1,0,0:0:0:0:
360,176,80806,1,0,0:0:0:0:
360,200,80885,1,0,0:0:0:0:
352,224,80963,2,0,B|296:200|224:224|224:224|280:240,1,161.999995056153
296,352,81278,2,0,P|304:312|296:280,1,53.9999983520508
288,176,81435,2,0,P|274:137|252:113,1,53.9999983520508
208,16,81592,5,0,0:0:0:0:
192,40,81670,1,0,0:0:0:0:
176,64,81749,2,0,B|184:88|184:120|184:120|168:152|176:184,1,107.999996704102
184,200,81984,1,0,0:0:0:0:
184,224,82063,1,0,0:0:0:0:
176,248,82141,1,0,0:0:0:0:
120,304,82220,6,0,B|160:336|200:320|200:320|240:296|288:320,1,161.999995056153
176,248,82534,2,0,L|176:192,1,53.9999983520508
296,320,82691,2,0,L|296:374,1,53.9999983520508
416,248,82848,2,0,L|416:192,1,53.9999983520508
312,80,83005,6,0,P|288:132|312:192,1,107.999996704102
312,208,83241,1,0,0:0:0:0:
312,232,83320,1,0,0:0:0:0:
304,256,83398,1,0,0:0:0:0:
288,280,83477,6,0,P|312:224|256:144,1,161.999995056153
152,208,83791,2,0,L|208:216,1,53.9999983520508
328,240,83948,2,0,L|384:248,1,53.9999983520508
384,120,84105,6,0,L|330:112,1,53.9999983520508
208,88,84262,2,0,L|154:80,1,53.9999983520508
45,192,84419,6,0,L|163:209,1,107.999996704102
104,376,84733,2,0,L|40:368,1,53.9999983520508
64,280,84890,2,0,L|128:288,1,53.9999983520508
240,288,85047,2,0,L|293:281,1,53.9999983520508
416,256,85204,5,0,0:0:0:0:
432,232,85283,1,0,0:0:0:0:
440,208,85361,1,0,0:0:0:0:
432,184,85440,1,0,0:0:0:0:
416,160,85518,2,0,L|352:168,1,53.9999983520508
240,192,85676,6,0,P|176:192|248:160,1,215.999993408203
230,299,86147,1,0,0:0:0:0:
246,275,86225,1,0,0:0:0:0:
254,251,86304,1,0,0:0:0:0:
262,227,86382,1,0,0:0:0:0:
262,203,86461,1,0,0:0:0:0:
254,179,86539,1,0,0:0:0:0:
246,155,86618,2,0,P|230:99|246:51,2,107.999996704102
320,288,87089,6,0,B|264:312|264:312|168:280,1,161.999995056153
272,168,87403,2,0,L|264:232,1,53.9999983520508
136,328,87560,2,0,L|144:264,1,53.9999983520508
160,152,87717,6,0,B|168:128|168:128|152:96|152:96|136:128|136:128|152:160|152:192,1,161.999995056153
136,328,88032,2,0,P|96:296|96:240,1,107.999996704102
205,134,88346,2,0,L|152:128,1,53.9999983520508
211,228,88503,2,0,L|264:221,1,53.9999983520508
351,134,88660,1,0,0:0:0:0:
327,142,88738,1,0,0:0:0:0:
303,142,88817,1,0,0:0:0:0:
279,134,88895,1,0,0:0:0:0:
255,118,88974,6,0,P|199:110|143:134,1,107.999996704102
216,296,89210,2,0,L|224:232,1,53.9999983520508
136,152,89367,2,0,L|142:205,1,53.9999983520508
152,336,89602,6,0,P|120:280|40:312,1,161.999995056153
48,272,89916,1,0,0:0:0:0:
40,232,89995,1,0,0:0:0:0:
24,160,90073,6,0,P|24:136|48:168,1,90
32,152,90230,6,0,P|32:128|72:160,1,112.5
40,144,90388,6,0,P|64:104|88:160,1,135
40,232,90702,6,0,P|96:256|160:240,1,116.999994644165
264,192,91016,1,0,0:0:0:0:
112,120,91173,2,0,L|104:192,1,58.4999973220826
144,264,91330,1,0,0:0:0:0:
208,88,91487,1,0,0:0:0:0:
272,208,91644,2,0,L|278:266,1,58.4999973220826
240,352,91801,1,0,0:0:0:0:
192,192,91958,6,0,P|256:128|336:160,1,175.499991966248
278,266,92272,2,0,L|272:208,1,58.4999973220826
376,224,92429,1,0,0:0:0:0:
192,216,92587,1,0,0:0:0:0:
200,248,92665,1,0,0:0:0:0:
216,280,92744,1,0,0:0:0:0:
240,304,92822,1,0,0:0:0:0:
272,312,92901,2,0,L|400:304,1,116.999994644165
464,208,93215,5,0,0:0:0:0:
480,176,93293,1,0,0:0:0:0:
480,144,93372,1,0,0:0:0:0:
472,112,93450,1,0,0:0:0:0:
456,80,93529,1,0,0:0:0:0:
312,16,93686,1,0,0:0:0:0:
392,152,93843,6,0,L|328:160,1,58.4999973220826
176,176,94000,2,0,L|56:160,1,116.999994644165
120,304,94314,1,0,0:0:0:0:
192,160,94471,6,0,P|232:112|216:184,1,175.499991966248
48,144,94785,1,0,0:0:0:0:
64,112,94864,1,0,0:0:0:0:
80,80,94943,2,0,L|144:80,1,58.4999973220826
280,40,95100,2,0,L|216:40,1,58.4999973220826
368,80,95257,5,0,0:0:0:0:
400,96,95335,1,0,0:0:0:0:
424,128,95414,1,0,0:0:0:0:
432,160,95492,1,0,0:0:0:0:
424,192,95571,1,0,0:0:0:0:
400,224,95650,1,0,0:0:0:0:
368,240,95728,6,0,P|312:224|280:232,1,58.4999973220826
152,224,95885,2,0,P|178:236|207:240,1,58.4999973220826
320,304,96042,1,0,0:0:0:0:
200,160,96199,1,0,0:0:0:0:
255,352,96356,6,0,P|239:296|247:264,1,58.4999973220826
264,112,96513,2,0,P|276:138|280:167,1,58.4999973220826
320,304,96670,1,0,0:0:0:0:
200,160,96827,1,0,0:0:0:0:
424,272,96984,6,0,P|368:248|376:144,1,175.499991966248
488,64,97299,2,0,L|433:43,1,58.4999973220826
488,176,97456,2,0,L|424:200,1,58.4999973220826
318,167,97613,2,0,L|372:146,1,58.4999973220826
317,279,97770,2,0,L|371:299,1,58.4999973220826
464,336,97927,5,0,0:0:0:0:
472,304,98005,1,0,0:0:0:0:
472,272,98084,1,0,0:0:0:0:
464,240,98162,1,0,0:0:0:0:
448,208,98241,6,0,P|400:160|400:96,1,116.999994644165
240,224,98555,1,0,0:0:0:0:
371,299,98712,1,0,0:0:0:0:
296,96,98869,1,0,0:0:0:0:
296,96,98948,1,0,0:0:0:0:
296,96,99026,1,0,0:0:0:0:
288,296,99183,1,0,0:0:0:0:
472,128,99340,1,0,0:0:0:0:
240,200,99498,6,0,B|280:200|280:200|312:216|312:216|328:160|392:152,1,175.499991966248
264,112,99812,2,0,L|205:112,1,58.4999973220826
400,237,99969,2,0,L|400:296,1,58.4999973220826
480,144,100126,1,0,0:0:0:0:
264,96,100283,6,0,L|168:96,1,90
152,80,100440,6,0,L|287:80,1,135
368,32,100754,6,0,P|384:80|376:120,2,90
264,96,101225,1,0,0:0:0:0:
344,200,101382,2,0,L|336:344,1,135
336,360,101696,2,0,P|304:328|240:328,1,90
136,312,102011,6,0,P|95:292|70:255,2,90,0|0|0,3:0|3:0|3:0,3:0:0:0:
176,224,102482,1,0,0:0:0:0:
261,321,102639,2,0,L|413:313,1,135
424,312,102953,1,0,0:0:0:0:
408,288,103032,1,0,0:0:0:0:
400,264,103110,1,0,0:0:0:0:
400,240,103189,1,0,0:0:0:0:
408,216,103267,6,0,P|416:152|400:120,1,90
360,48,103581,1,0,0:0:0:0:
304,160,103738,1,0,0:0:0:0:
264,72,103895,2,0,L|120:80,1,135
104,80,104210,2,0,L|96:176,1,90
80,296,104524,6,0,P|104:336|112:280,1,135.000005149842
88,184,104838,6,0,L|224:192,1,135
248,192,105152,1,0,0:0:0:0:
208,272,105309,1,0,0:0:0:0:
192,120,105466,1,0,0:0:0:0:
128,264,105623,1,0,0:0:0:0:
104,112,105780,6,0,P|128:56|176:40,2,90
160,192,106251,1,0,0:0:0:0:
326,127,106409,2,0,L|174:119,1,135
152,72,106723,2,0,L|144:184,1,90
136,288,107037,2,0,P|192:264|256:352,1,180
80,224,107508,1,0,0:0:0:0:
184,352,107665,2,0,L|191:208,1,135
192,192,107979,5,0,0:0:0:0:
184,168,108058,1,0,0:0:0:0:
168,144,108136,1,0,0:0:0:0:
144,128,108215,1,0,0:0:0:0:
120,120,108293,2,0,P|80:104|144:96,1,180
104,208,108765,1,0,0:0:0:0:
248,112,108922,2,0,L|384:120,1,135
408,128,109236,6,0,P|392:184|408:216,1,90
448,296,109550,1,0,0:0:0:0:
480,176,109707,1,0,0:0:0:0:
328,208,109864,1,0,0:0:0:0:
376,88,110021,1,0,0:0:0:0:
232,152,110178,2,0,L|96:144,1,135
72,144,110492,5,0,0:0:0:0:
80,168,110571,1,0,0:0:0:0:
80,192,110649,1,0,0:0:0:0:
72,216,110728,1,0,0:0:0:0:
56,240,110806,2,0,L|64:344,1,90
176,280,111121,1,0,0:0:0:0:
48,344,111278,1,0,0:0:0:0:
8,176,111435,2,0,L|144:168,1,135
168,168,111749,6,0,L|264:176,1,90
384,192,112063,2,0,P|400:240|376:288,2,90
320,80,112534,1,0,0:0:0:0:
184,152,112691,2,0,L|32:144,1,135
24,144,113005,2,0,L|16:200,3,45
8,272,113320,6,0,B|56:264|96:288|96:288|144:264|208:280,1,180
304,272,113791,1,0,0:0:0:0:
184,176,113948,2,0,P|160:152|208:168,1,135
208,184,114262,2,0,P|200:216|216:280,1,90
312,288,114576,1,0,0:0:0:0:
224,192,114733,2,0,L|112:200,1,90
40,208,115047,1,0,0:0:0:0:
144,272,115204,2,0,L|296:264,1,135
304,264,115518,5,0,0:0:0:0:
288,240,115597,1,0,0:0:0:0:
280,216,115676,1,0,0:0:0:0:
280,192,115754,1,0,0:0:0:0:
288,168,115833,2,0,P|296:112|280:80,1,90
200,128,116147,1,0,0:0:0:0:
360,208,116304,1,0,0:0:0:0:
272,328,116461,2,0,L|280:168,1,135
280,168,116775,6,0,P|272:112|288:72,1,90
368,120,117089,1,0,0:0:0:0:
200,136,117246,1,0,0:0:0:0:
312,192,117403,1,0,0:0:0:0:
296,64,117560,1,0,0:0:0:0:
240,208,117717,2,0,L|248:352,1,135
248,368,118032,5,0,0:0:0:0:
232,344,118110,1,0,0:0:0:0:
208,328,118189,1,0,0:0:0:0:
184,320,118267,1,0,0:0:0:0:
160,320,118346,2,0,P|112:320|64:344,1,90
168,248,118660,1,0,0:0:0:0:
32,168,118817,1,0,0:0:0:0:
176,104,118974,2,0,L|328:96,1,135
336,96,119288,6,0,L|432:104,1,90
384,224,119602,1,0,0:0:0:0:
296,112,119759,1,0,0:0:0:0:
448,112,119916,1,0,0:0:0:0:
280,208,120073,1,0,0:0:0:0:
136,96,120388,6,0,L|136:152,1,49.5000015106202
128,176,120545,1,0,0:0:0:0:
128,208,120623,1,0,0:0:0:0:
136,232,120702,1,0,0:0:0:0:
152,256,120780,1,0,0:0:0:0:
176,272,120859,6,0,L|248:272,1,49.5000015106202
408,192,121016,2,0,L|336:192,1,49.5000015106202
216,192,121173,1,0,0:0:0:0:
360,312,121330,1,0,0:0:0:0:
280,136,121487,1,0,0:0:0:0:
224,352,121644,1,0,0:0:0:0:
96,208,121801,2,0,P|152:184|192:192,1,99.0000030212403
352,216,122115,6,0,P|381:221|408:216,1,49.5000015106202
312,104,122272,6,0,P|282:98|256:104,1,49.5000015106202
216,272,122429,6,0,P|245:277|272:272,1,49.5000015106202
384,144,122587,1,0,0:0:0:0:
272,184,122744,1,0,0:0:0:0:
344,296,122901,5,0,0:0:0:0:
376,64,123058,1,0,0:0:0:0:
187,190,123215,1,0,0:0:0:0:
464,200,123372,6,0,L|400:208,1,49.5000015106202
200,280,123529,6,0,L|136:272,1,49.5000015106202
120,96,123686,2,0,L|232:104,1,99.0000030212403
288,264,124000,1,0,0:0:0:0:
360,72,124157,1,0,0:0:0:0:
200,200,124314,1,0,0:0:0:0:
424,224,124471,1,0,0:0:0:0:
240,72,124628,6,0,L|128:64,1,99.0000030212403
296,280,124943,2,0,L|408:272,1,99.0000030212403
320,80,125257,1,0,0:0:0:0:
216,280,125414,1,0,0:0:0:0:
72,160,125571,5,0,0:0:0:0:
104,144,125649,1,0,0:0:0:0:
136,136,125728,1,0,0:0:0:0:
168,136,125806,1,0,0:0:0:0:
200,144,125885,2,0,L|256:136,1,49.5000015106202
400,88,126042,2,0,L|449:88,1,49.5000015106202
256,48,126199,6,0,L|136:64,1,99.0000030212403
336,144,126513,1,0,0:0:0:0:
232,264,126670,1,0,0:0:0:0:
224,136,126827,1,0,0:0:0:0:
112,240,126984,1,0,0:0:0:0:
104,112,127141,6,0,L|96:64,1,49.5000015106202
368,48,127299,6,0,L|376:96,1,49.5000015106202
240,104,127456,6,0,L|232:56,1,49.5000015106202
320,232,127613,1,0,0:0:0:0:
128,224,127770,2,0,B|192:200|248:232,1,99.0000030212403
176,344,128084,1,0,0:0:0:0:
56,200,128241,1,0,0:0:0:0:
248,224,128398,6,0,L|256:160,1,49.5000015106202
32,144,128555,6,0,L|38:193,1,49.5000015106202
152,128,128712,1,0,0:0:0:0:
64,280,128869,1,0,0:0:0:0:
248,224,129026,1,0,0:0:0:0:
56,200,129183,1,0,0:0:0:0:
264,144,129340,1,0,0:0:0:0:
48,120,129498,1,0,0:0:0:0:
280,64,129655,6,0,P|336:64|272:96,1,198.000006042481
40,40,130126,1,0,0:0:0:0:
152,144,130283,1,0,0:0:0:0:
216,312,130440,5,0,0:0:0:0:
248,323,130518,1,0,0:0:0:0:
282,317,130597,1,0,0:0:0:0:
311,297,130676,1,0,0:0:0:0:
324,265,130754,1,0,0:0:0:0:
320,230,130833,1,0,0:0:0:0:
312,200,130911,6,0,L|312:144,1,49.5000015106202
440,64,131068,6,0,L|440:120,1,49.5000015106202
432,240,131225,1,0,0:0:0:0:
344,72,131382,1,0,0:0:0:0:
311,297,131539,1,0,0:0:0:0:
247,95,131696,1,0,0:0:0:0:
192,288,131854,2,0,L|224:176,1,99.0000030212403
103,335,132168,6,0,P|40:301|112:304,1,198.000006042481,0|0,3:0|3:0,3:0:0:0:
256,336,132639,1,0,0:0:0:0:
288,320,132717,1,0,0:0:0:0:
320,304,132796,2,0,L|328:200,1,99.0000030212403
344,72,133110,1,0,0:0:0:0:
424,288,133267,1,0,0:0:0:0:
192,288,133424,1,0,0:0:0:0:
344,192,133581,1,0,0:0:0:0:
384,360,133738,1,0,0:0:0:0:
219,192,133895,5,0,0:0:0:0:
440,136,134052,1,0,0:0:0:0:
320,304,134210,2,0,L|328:200,2,99.0000030212403
219,335,134681,6,0,P|203:271|227:175,1,148.50000453186
235,159,134995,2,0,P|243:103|227:47,1,99.0000030212403
152,112,135309,1,0,0:0:0:0:
304,216,135466,2,0,P|288:254|304:312,1,99.0000030212403
328,328,135702,1,0,0:0:0:0:
360,336,135780,1,0,0:0:0:0:
392,328,135859,1,0,0:0:0:0:
416,304,135937,6,0,L|424:248,1,49.5000015106202
296,166,136094,6,0,L|303:215,1,49.5000015106202
432,152,136251,2,0,L|440:32,1,99.0000030212403
360,120,136566,1,0,0:0:0:0:
488,208,136723,1,0,0:0:0:0:
360,264,136880,1,0,0:0:0:0:
440,144,137037,1,0,0:0:0:0:
280,192,137194,6,0,P|216:200|176:184,1,99.0000030212403
184,312,137508,1,0,0:0:0:0:
280,192,137665,2,0,P|327:179|375:189,1,99.0000030212403
376,64,137979,1,0,0:0:0:0:
280,272,138136,1,0,0:0:0:0:
232,112,138293,1,0,0:0:0:0:
376,256,138450,6,0,L|384:208,1,49.5000015106202
304,88,138607,2,0,L|312:136,1,49.5000015106202
472,168,138765,2,0,L|480:120,1,49.5000015106202
400,8,138922,2,0,L|392:120,1,99.0000030212403
376,256,139236,1,0,0:0:0:0:
304,88,139393,1,0,0:0:0:0:
288,288,139550,1,0,0:0:0:0:
184,160,139707,5,0,0:0:0:0:
176,128,139785,1,0,0:0:0:0:
184,96,139864,2,0,P|192:48|184:8,1,90
96,48,140178,1,0,0:0:0:0:
256,128,140492,6,0,P|272:176|256:216,1,90
240,240,140728,1,0,0:0:0:0:
264,224,140806,1,0,0:0:0:0:
296,216,140885,1,0,0:0:0:0:
328,224,140963,6,0,L|424:232,1,90
392,144,141278,1,0,0:0:0:0:
352,304,141435,2,0,L|336:352,1,45
272,280,141592,2,0,L|256:328,1,45
200,248,141749,1,0,0:0:0:0:
288,160,141906,2,0,L|432:168,1,135
464,216,142220,6,0,L|472:112,1,90
376,40,142534,1,0,0:0:0:0:
352,56,142613,1,0,0:0:0:0:
336,80,142691,1,0,0:0:0:0:
328,112,142770,1,0,0:0:0:0:
328,144,142848,2,0,L|328:240,1,90
152,240,143162,2,0,L|152:192,1,45
240,168,143320,2,0,L|240:216,1,45
64,216,143477,6,0,L|64:112,1,90
240,75,143791,2,0,L|240:120,1,45
152,93,143948,2,0,L|152:48,1,45
328,48,144105,1,0,0:0:0:0:
328,80,144183,1,0,0:0:0:0:
328,112,144262,2,0,L|328:224,1,90
328,202,144576,6,0,L|328:247,1,45
168,248,144733,2,0,P|128:224|192:232,1,180
72,320,145204,2,0,L|72:256,1,45
152,320,145361,2,0,L|152:275,1,45
272,272,145518,2,0,L|272:317,1,45
352,272,145675,2,0,L|352:317,1,45
480,320,145833,1,0,0:0:0:0:
480,288,145911,1,0,0:0:0:0:
480,256,145990,2,0,L|480:160,1,90
304,184,146304,6,0,L|304:248,1,45
392,232,146461,2,0,L|392:168,1,45
276,88,146618,6,0,L|230:133,1,45,0|0,3:0|3:0,3:0:0:0:
304,184,146775,2,0,L|349:138,1,45,0|0,3:0|3:0,3:0:0:0:
192,232,146932,6,0,L|223:200,1,45,0|0,3:0|3:0,3:0:0:0:
288,260,147089,2,0,L|256:291,1,45,0|0,3:0|3:0,3:0:0:0:
223,290,147246,6,0,L|224:184,1,90
48,200,147560,2,0,L|48:248,1,45
136,248,147717,2,0,L|136:203,1,45
312,203,147874,2,0,L|312:248,1,45
400,245,148031,2,0,L|400:200,1,45
223,200,148189,2,0,L|223:296,1,90
400,335,148503,6,0,L|400:231,1,90
400,216,148738,1,0,0:0:0:0:
400,184,148817,1,0,0:0:0:0:
312,96,148974,1,0,0:0:0:0:
223,200,149131,2,0,L|223:256,1,45
312,240,149288,2,0,L|312:184,1,45
224,96,149445,1,0,0:0:0:0:
136,160,149602,2,0,L|136:224,1,45
136,240,149759,6,0,B|144:288|144:288|288:280,1,180
312,272,150152,1,0,0:0:0:0:
352,264,150230,1,0,0:0:0:0:
392,256,150309,1,0,0:0:0:0:
464,224,150388,6,0,P|480:208|440:208,1,90
480,224,150545,6,0,P|496:208|448:208,1,112.5
488,224,150702,6,0,P|512:200|464:216,1,135
392,256,151016,6,0,P|368:208|376:168,1,90
400,48,151330,1,0,0:0:0:0:
296,120,151487,1,0,0:0:0:0:
264,136,151566,1,0,0:0:0:0:
232,144,151644,1,0,0:0:0:0:
200,136,151723,1,0,0:0:0:0:
168,120,151801,1,0,0:0:0:0:
64,56,151958,2,0,P|48:112|64:144,1,90
136,240,152272,6,0,P|152:296|136:328,1,90
56,224,152587,1,0,0:0:0:0:
168,120,152744,1,0,0:0:0:0:
200,104,152823,1,0,0:0:0:0:
232,96,152901,1,0,0:0:0:0:
264,104,152980,1,0,0:0:0:0:
296,120,153058,1,0,0:0:0:0:
416,224,153215,2,0,P|432:272|416:312,1,90
232,336,153529,6,0,L|232:232,1,90
336,200,153843,1,0,0:0:0:0:
168,120,154000,1,0,0:0:0:0:
152,152,154079,1,0,0:0:0:0:
144,184,154157,1,0,0:0:0:0:
152,216,154236,1,0,0:0:0:0:
168,248,154314,1,0,0:0:0:0:
336,288,154471,2,0,L|336:176,1,90
144,184,154785,6,0,P|104:216|168:200,1,180
296,120,155257,1,0,0:0:0:0:
312,152,155336,1,0,0:0:0:0:
320,184,155414,1,0,0:0:0:0:
312,216,155493,1,0,0:0:0:0:
296,248,155571,1,0,0:0:0:0:
149,99,155728,2,0,P|133:140|143:183,1,90
296,248,156042,6,0,P|311:206|301:163,1,90
248,80,156356,1,0,0:0:0:0:
168,248,156513,1,0,0:0:0:0:
200,264,156592,1,0,0:0:0:0:
232,272,156670,1,0,0:0:0:0:
264,264,156749,1,0,0:0:0:0:
296,248,156827,1,0,0:0:0:0:
332,85,156984,2,0,P|290:69|247:79,1,90
168,248,157299,6,0,P|152:200|176:152,1,90
128,320,157613,1,0,0:0:0:0:
296,248,157770,1,0,0:0:0:0:
264,232,157849,1,0,0:0:0:0:
232,224,157927,1,0,0:0:0:0:
200,232,158006,1,0,0:0:0:0:
168,248,158084,1,0,0:0:0:0:
232,320,158241,1,0,0:0:0:0:
288,152,158398,1,0,0:0:0:0:
168,248,158555,6,0,L|258:248,1,90
208,152,158869,1,0,0:0:0:0:
344,224,159026,2,0,L|400:264,4,45
288,152,159498,1,0,0:0:0:0:
320,304,159655,1,0,0:0:0:0:
168,248,159812,2,0,P|224:240|272:256,1,90
216,336,160126,1,0,0:0:0:0:
104,296,160283,5,0,0:0:0:0:
96,232,160361,1,0,0:0:0:0:
88,144,160440,6,0,B|104:128|104:128|120:144,1,45
80,136,160597,6,0,B|120:96|120:96|160:136,1,112.5
72,128,160754,6,0,B|128:160|128:160|168:128,1,101.250003862381
208,64,161068,6,0,B|240:48|240:48|304:56,1,90
392,144,161382,1,0,0:0:0:0:
272,136,161539,1,0,0:0:0:0:
376,64,161696,1,0,0:0:0:0:
328,200,161854,1,0,0:0:0:0:
304,64,162011,1,0,0:0:0:0:
248,216,162168,1,0,0:0:0:0:
208,64,162325,6,0,B|184:96|184:96|192:160,1,90
240,232,162639,1,0,0:0:0:0:
272,136,162796,1,0,0:0:0:0:
112,152,162953,1,0,0:0:0:0:
160,240,163110,1,0,0:0:0:0:
176,64,163267,1,0,0:0:0:0:
192,160,163424,1,0,0:0:0:0:
235,315,163581,6,0,P|251:259|227:219,1,90
160,264,163895,1,0,0:0:0:0:
200,152,164052,1,0,0:0:0:0:
120,200,164210,1,0,0:0:0:0:
160,88,164367,1,0,0:0:0:0:
200,152,164524,1,0,0:0:0:0:
80,120,164681,1,0,0:0:0:0:
75,258,164838,6,0,P|123:274|175:251,1,90
240,208,165152,1,0,0:0:0:0:
120,200,165309,1,0,0:0:0:0:
192,96,165466,1,0,0:0:0:0:
80,120,165623,1,0,0:0:0:0:
184,168,165780,1,0,0:0:0:0:
176,40,165937,1,0,0:0:0:0:
120,200,166094,6,0,L|128:296,1,90
256,224,166409,2,0,L|248:320,1,90
191,78,166723,2,0,L|183:174,1,90
336,192,167037,2,0,L|343:102,1,90
112,80,167351,6,0,L|120:192,1,90
152,272,167665,1,0,0:0:0:0:
224,192,167822,1,0,0:0:0:0:
118,169,167979,1,0,0:0:0:0:
184,96,168136,1,0,0:0:0:0:
128,176,168293,1,0,0:0:0:0:
96,56,168450,1,0,0:0:0:0:
48,136,168607,6,0,B|40:184|40:184|56:240,1,90
160,320,168922,2,0,B|168:272|168:272|152:216,1,90
156,232,169236,2,0,B|148:184|148:184|164:128,1,90
168,112,169471,1,0,0:0:0:0:
176,80,169550,1,0,0:0:0:0:
248,184,169707,5,0,0:0:0:0:
80,104,169864,1,0,0:0:0:0:
248,24,170021,1,0,0:0:0:0:
416,128,170178,1,0,0:0:0:0:
256,104,170335,1,0,0:0:0:0:
264,272,170492,6,0,P|256:288|240:272,1,45
263,271,170649,6,0,P|251:312|240:271,1,112.5
264,272,170806,6,0,P|248:320|240:272,1,135
247,184,171121,6,0,P|291:175|333:190,1,90
424,256,171435,2,0,P|432:288|416:256,1,90
416,96,171749,2,0,P|425:139|410:181,1,90
216,104,172063,2,0,P|245:70|287:56,1,90
312,264,172377,2,0,P|271:244|247:207,1,90
328,152,172691,1,0,0:0:0:0:
403,266,172848,1,0,0:0:0:0:
226,258,173005,6,0,P|269:248|311:263,1,90
176,336,173320,2,0,P|132:345|90:330,1,90
56,208,173634,6,0,L|48:112,1,90
136,152,173948,1,0,0:0:0:0:
120,56,174105,1,0,0:0:0:0:
216,96,174262,1,0,0:0:0:0:
144,160,174419,1,0,0:0:0:0:
56,104,174576,1,0,0:0:0:0:
152,168,174733,1,0,0:0:0:0:
128,48,174890,6,0,L|264:56,1,112.5
336,64,175204,2,0,L|432:56,1,90
160,176,175518,6,0,L|272:184,1,90
344,184,175832,2,0,L|433:176,1,90
240,296,176147,6,0,L|336:304,1,90
328,200,176461,1,0,0:0:0:0:
408,256,176618,1,0,0:0:0:0:
408,160,176775,1,0,0:0:0:0:
416,264,176932,1,0,0:0:0:0:
400,152,177089,1,0,0:0:0:0:
320,208,177246,1,0,0:0:0:0:
416,360,177403,6,0,L|424:256,1,90
424,144,177717,2,0,L|416:40,1,90
320,128,178032,1,0,0:0:0:0:
424,248,178189,1,0,0:0:0:0:
304,136,178346,2,0,L|200:144,1,90
72,256,178660,6,0,L|176:264,1,90
264,264,178974,1,0,0:0:0:0:
200,152,179131,1,0,0:0:0:0:
152,272,179288,2,0,L|128:328,4,45
208,136,179759,1,0,0:0:0:0:
256,192,179916,12,0,180859,0:0:0:0:
136,120,181173,6,0,P|208:128|264:120,1,114.750002188683
280,120,181487,2,0,P|344:112|432:152,1,153.000002918243
