osu file format v14

[General]
AudioFilename: audio.mp3
AudioLeadIn: 0
PreviewTime: 185904
Countdown: 0
SampleSet: Soft
StackLeniency: 0.3
Mode: 0
LetterboxInBreaks: 0
WidescreenStoryboard: 1

[Editor]
Bookmarks: 11289,21341,41446,61551,81655,104273,124378,144483,164587,174640,185949,206053
DistanceSpacing: 0.7
BeatDivisor: 4
GridSize: 4
TimelineZoom: 2.599999

[Metadata]
Title:Catanoph
TitleUnicode:Catanoph
Artist:An
ArtistUnicode:An
Creator:Ryuusei Aika
Version:yf's Extra
Source:
Tags:AcuticNotes Diverse System AD PIANO AD:PIANO artcore Frontier -_Frontier_- PandaHero irotuk iCeya Crystar Miura kanor Lavender yf_bmp
BeatmapID:1697022
BeatmapSetID:775846

[Difficulty]
HPDrainRate:6
CircleSize:5
OverallDifficulty:8
ApproachRate:9
SliderMultiplier:1.8
SliderTickRate:1

[Events]
//Background and Video events
0,0,"id_70328081.jpg",0,0
//Break Periods
2,124573,133825
//Storyboard Layer 0 (Background)
//Storyboard Layer 1 (Fail)
//Storyboard Layer 2 (Pass)
//Storyboard Layer 3 (Foreground)
//Storyboard Sound Samples

[TimingPoints]
0,314.13612565445,4,2,11,70,1,0
1232,314.13612565445,4,2,1,50,1,0
1232,-133.333333333333,4,2,1,50,0,0
11284,-100,4,2,10,50,0,0
11519,-100,4,2,10,30,0,0
11598,-100,4,2,10,40,0,0
11755,-100,4,2,10,50,0,0
12462,-100,4,2,10,30,0,0
12540,-100,4,2,10,50,0,0
13169,-83.3333333333333,4,2,10,50,0,0
13797,-100,4,2,10,50,0,0
14033,-100,4,2,10,30,0,0
14111,-100,4,2,10,40,0,0
14268,-100,4,2,10,50,0,0
14975,-100,4,2,10,30,0,0
15053,-100,4,2,10,50,0,0
15682,-83.3333333333333,4,2,10,50,0,0
16310,-100,4,2,10,50,0,0
16546,-100,4,2,10,30,0,0
16624,-100,4,2,10,40,0,0
16781,-100,4,2,10,50,0,0
17488,-100,4,2,10,30,0,0
17567,-100,4,2,10,50,0,0
18195,-83.3333333333333,4,2,10,50,0,0
18823,-100,4,2,10,50,0,0
19059,-100,4,2,10,30,0,0
19137,-100,4,2,10,40,0,0
19294,-100,4,2,10,50,0,0
20080,-66.6666666666667,4,2,10,50,0,0
20237,-66.6666666666667,4,2,10,5,0,0
20315,-66.6666666666667,4,2,10,50,0,0
20472,-66.6666666666667,4,2,10,5,0,0
20551,-100,4,2,10,50,0,0
20708,-100,4,2,10,5,0,0
20786,-100,4,2,10,50,0,0
20944,-100,4,2,10,5,0,0
21022,-200,4,2,10,50,0,0
21258,-200,4,2,10,5,0,0
21336,-100,4,2,10,55,0,0
30446,-66.6666666666667,4,2,10,55,0,0
30917,-50,4,2,10,55,0,0
31389,-100,4,2,10,55,0,0
39870,-62.5,4,2,10,55,0,0
40027,-100,4,2,10,50,0,0
40184,-133.333333333333,4,2,10,50,0,0
41127,-50,4,2,10,50,0,0
41441,-100,4,2,10,50,0,0
45996,-133.333333333333,4,2,10,50,0,0
46153,-200,4,2,10,50,0,0
46467,-100,4,2,10,50,0,0
61546,-100,4,2,10,50,0,1
81650,-133.333333333333,4,2,10,50,0,0
82828,-133.333333333333,4,2,10,5,0,0
82907,-133.333333333333,4,2,10,40,0,0
83300,-133.333333333333,4,2,10,5,0,0
83378,-133.333333333333,4,2,10,40,0,0
83457,-133.333333333333,4,2,10,5,0,0
83535,-66.6666666666667,4,2,10,40,0,0
83614,-66.6666666666667,4,2,10,5,0,0
83692,-83.3333333333333,4,2,10,40,0,0
83771,-83.3333333333333,4,2,10,5,0,0
83849,-111.111111111111,4,2,10,40,0,0
83928,-111.111111111111,4,2,10,5,0,0
84006,-166.666666666667,4,2,10,40,0,0
84085,-166.666666666667,4,2,10,5,0,0
84163,-133.333333333333,4,2,10,50,0,0
86048,-100,4,2,10,60,0,0
86127,-100,4,2,10,30,0,0
86677,-133.333333333333,4,2,10,40,0,0
88561,-83.3333333333333,4,2,10,50,0,0
88640,-83.3333333333333,4,2,10,30,0,0
89190,-133.333333333333,4,2,10,40,0,0
91074,-100,4,2,10,60,0,0
91153,-100,4,2,10,30,0,0
91703,-133.333333333333,4,2,10,40,0,0
93588,-83.3333333333333,4,2,10,50,0,0
93666,-83.3333333333333,4,2,10,30,0,0
94216,-133.333333333333,4,2,10,40,0,0
96101,-100,4,2,10,60,0,0
96179,-100,4,2,10,30,0,0
96729,-133.333333333333,4,2,10,40,0,0
98614,-83.3333333333333,4,2,10,50,0,0
98692,-83.3333333333333,4,2,10,30,0,0
99242,-133.333333333333,4,2,10,40,0,0
101127,-100,4,2,10,60,0,0
101205,-100,4,2,10,30,0,0
101755,-133.333333333333,4,2,10,40,0,0
103718,-133.333333333333,4,2,10,30,0,0
104268,-100,4,2,10,50,0,0
118954,-100,4,2,10,25,0,0
119033,-100,4,2,10,50,0,0
120839,-100,4,2,10,25,0,0
120917,-100,4,2,10,50,0,0
121467,-100,4,2,10,25,0,0
121546,-100,4,2,10,50,0,0
122095,-100,4,2,10,25,0,0
122174,-100,4,2,10,50,0,0
134425,-133.333333333333,4,2,10,40,0,0
142907,-133.333333333333,4,2,0,40,0,0
143221,-66.6666666666667,4,2,10,50,0,0
143457,-50,4,2,10,50,0,0
143692,-40,4,2,10,50,0,0
143928,-33.3333333333333,4,2,10,50,0,0
144478,-133.333333333333,4,2,10,55,0,0
152410,-133.333333333333,4,2,10,5,0,0
152488,-133.333333333333,4,2,10,55,0,0
153588,-100,4,2,10,55,0,0
153902,-66.6666666666667,4,2,10,55,0,0
154216,-50,4,2,10,55,0,0
154530,-133.333333333333,4,2,10,55,0,0
163640,-100,4,2,10,55,0,0
163954,-66.6666666666667,4,2,10,55,0,0
164268,-50,4,2,10,55,0,0
164582,-133.333333333333,4,2,10,30,0,0
174635,-111.111111111111,4,2,10,40,0,0
182174,-83.3333333333333,4,2,10,40,0,0
182802,-83.3333333333333,4,2,10,45,0,0
183430,-100,4,2,10,35,0,0
184373,-100,4,2,10,40,0,0
184687,-1000,4,2,11,70,0,0
185944,-100,4,2,10,60,0,1
190341,-66.6666666666667,4,2,10,60,0,1
190656,-50,4,2,10,60,0,1
190970,-100,4,2,10,60,0,1
194739,-133.333333333333,4,2,10,60,0,1
195053,-100,4,2,10,60,0,1
195368,-66.6666666666667,4,2,10,60,0,1
195682,-50,4,2,10,60,0,0
195996,-100,4,2,10,60,0,1
200394,-66.6666666666667,4,2,10,60,0,1
200708,-50,4,2,10,60,0,1
201022,-100,4,2,10,60,0,1
204792,-133.333333333333,4,2,10,60,0,1
205106,-100,4,2,10,60,0,1
205420,-66.6666666666667,4,2,10,60,0,1
205734,-50,4,2,10,60,0,1
206048,-133.333333333333,4,2,10,40,0,0
207540,-133.333333333333,4,2,10,20,0,0
207619,-133.333333333333,4,2,10,40,0,0
208169,-133.333333333333,4,2,10,20,0,0
208247,-133.333333333333,4,2,10,40,0,0
210053,-133.333333333333,4,2,10,20,0,0
210132,-133.333333333333,4,2,10,40,0,0
210682,-133.333333333333,4,2,10,20,0,0
210760,-133.333333333333,4,2,10,40,0,0
213195,-133.333333333333,4,2,10,20,0,0
213273,-133.333333333333,4,2,10,40,0,0
215080,-133.333333333333,4,2,10,20,0,0
215158,-133.333333333333,4,2,10,40,0,0
215708,-133.333333333333,4,2,10,20,0,0
215786,-133.333333333333,4,2,10,40,0,0
216101,-133.333333333333,4,2,10,35,0,0

[Colours]
Combo1 : 100,99,107
Combo2 : 89,70,100
Combo3 : 189,163,174
Combo4 : 159,80,99

[HitObjects]
256,192,0,5,2,0:0:0:0:
296,296,1232,6,0,L|367:299,1,67.5000025749208
420,248,1546,2,0,L|423:177,1,67.5000025749208
368,96,1860,5,0,0:0:0:0:
436,64,2017,1,0,0:0:0:0:
320,156,2174,5,0,0:0:0:0:
372,24,2331,1,0,0:0:0:0:
432,176,2488,6,0,L|500:169,1,67.5000025749208
416,256,2802,2,0,P|448:265|481:262,1,67.5000025749208
332,368,3116,5,0,0:0:0:0:
344,284,3273,1,0,0:0:0:0:
240,296,3430,5,0,0:0:0:0:
280,240,3588,1,0,0:0:0:0:
216,296,3745,6,0,L|145:299,1,67.5000025749208
92,248,4059,2,0,L|89:177,1,67.5000025749208
144,96,4373,5,0,0:0:0:0:
76,64,4530,1,0,0:0:0:0:
212,128,4687,5,0,0:0:0:0:
140,24,4844,1,0,0:0:0:0:
80,176,5001,6,0,L|12:169,1,67.5000025749208
96,256,5315,2,0,P|63:265|30:262,1,67.5000025749208
168,284,5629,5,0,0:0:0:0:
180,368,5786,1,0,0:0:0:0:
232,240,5944,5,0,0:0:0:0:
272,296,6101,1,0,0:0:0:0:
256,168,6258,6,0,L|256:108,1,33.7500012874604,0|0,0:0|0:3,0:0:0:0:
256,72,6415,2,0,L|256:132,1,33.7500012874604,0|0,3:0|0:0,0:0:0:0:
332,120,6572,2,0,P|372:120|408:104,1,67.5000025749208
348,32,6886,5,0,0:0:0:0:
384,204,7043,1,0,0:0:0:0:
484,76,7200,5,0,0:0:0:0:
460,160,7357,1,0,0:0:0:0:
344,280,7514,6,0,P|350:313|365:342,1,67.5000025749208
256,248,7828,2,0,L|256:328,1,67.5000025749208
168,280,8142,5,0,0:0:0:0:
146,342,8300,1,0,0:0:0:0:
256,180,8457,5,0,0:0:0:0:
256,384,8614,1,0,0:0:0:0:
256,168,8771,6,0,L|256:108,1,33.7500012874604,0|0,0:0|0:3,0:0:0:0:
256,72,8928,2,0,L|256:132,1,33.7500012874604,0|0,3:2|0:0,0:0:0:0:
180,120,9085,2,0,P|140:120|104:104,1,67.5000025749208
164,32,9399,5,0,0:0:0:0:
128,204,9556,1,0,0:0:0:0:
28,76,9713,5,0,0:0:0:0:
52,160,9870,1,0,0:0:0:0:
168,280,10027,6,0,P|136:288|88:280,1,67.5000025749208
256,248,10341,2,0,L|256:328,1,67.5000025749208
344,280,10656,5,0,0:0:0:0:
410,284,10813,1,0,0:0:0:0:
256,180,10970,5,0,0:0:0:0:
256,384,11127,1,0,0:0:0:0:
144,92,11284,5,0,1:0:0:0:
84,268,11441,1,2,0:0:0:0:
84,267,11519,2,0,P|101:254|122:246,1,45,4|4,0:2|0:2,0:0:0:0:
72,64,11755,1,0,1:0:0:0:
344,92,11912,6,0,B|194:70|247:194|100:165,1,270,8|0,1:3|0:0,0:0:0:0:
8,172,12462,5,4,0:2:0:0:
14,239,12540,6,0,B|4:127,1,90,4|0,1:2|0:0,0:0:0:0:
8,172,12776,2,0,B|-2:60,1,90,0|0,1:0|0:0,0:0:0:0:
2,105,13012,5,0,1:0:0:0:
124,100,13169,6,0,B|243:82|201:181|318:158,1,215.999993408203,8|2,1:3|0:0,0:0:0:0:
372,328,13640,1,2,0:0:0:0:
368,92,13797,5,0,1:0:0:0:
428,268,13954,1,2,0:2:0:0:
428,268,14033,2,0,P|410:255|372:244,1,45,4|4,0:0|0:0,0:0:0:0:
440,64,14268,1,0,1:0:0:0:
168,92,14425,6,0,B|318:70|265:194|412:165,1,270,8|0,1:3|0:0,0:0:0:0:
504,172,14975,5,4,0:0:0:0:
498,239,15053,6,0,B|508:127,1,90,4|0,1:2|0:0,0:0:0:0:
504,172,15289,2,0,B|514:60,1,90,0|0,1:0|0:0,0:0:0:0:
510,105,15525,5,0,1:0:0:0:
328,100,15682,6,0,B|211:77|217:220|353:169,1,215.999993408203,8|2,1:3|0:0,0:0:0:0:
184,84,16153,1,2,0:0:0:0:
144,292,16310,5,0,1:0:0:0:
84,116,16467,1,2,0:0:0:0:
84,116,16546,2,0,P|102:129|140:140,1,45,6|4,0:0|0:0,0:0:0:0:
72,320,16781,1,0,1:0:0:0:
344,292,16938,6,0,B|194:314|247:190|100:219,1,270,8|0,1:3|0:0,0:0:0:0:
8,212,17488,5,4,0:0:0:0:
14,145,17567,6,0,B|4:257,1,90,4|0,1:2|0:0,0:0:0:0:
8,212,17802,2,0,B|-2:324,1,90,0|0,1:0|0:0,0:0:0:0:
2,279,18038,5,0,1:0:0:0:
124,284,18195,6,0,B|243:302|201:203|318:226,1,215.999993408203,8|2,1:3|0:0,0:0:0:0:
372,56,18666,1,0,0:0:0:0:
368,292,18823,5,0,1:0:0:0:
428,116,18980,1,2,0:0:0:0:
428,116,19059,2,0,P|410:129|372:140,1,45,4|4,0:0|0:0,0:0:0:0:
440,320,19294,1,0,1:0:0:0:
413,219,19451,5,8,1:3:0:0:
374,214,19530,1,2,0:0:0:0:
336,220,19608,1,2,0:0:0:0:
304,240,19687,1,0,0:0:0:0:
276,267,19766,1,0,0:0:0:0:
244,287,19844,1,2,0:0:0:0:
206,294,19923,1,2,0:0:0:0:
168,292,20001,1,0,0:0:0:0:
132,276,20080,6,0,B|92:224|92:224|132:164,1,135.000005149842,0|0,1:0|0:0,0:0:0:0:
208,168,20315,2,0,B|248:220|248:220|208:280,1,135.000005149842,0|0,1:0|0:0,0:0:0:0:
130,166,20551,6,0,B|106:130|106:130|130:90,1,90,0|0,1:0|0:0,0:0:0:0:
208,91,20786,2,0,B|232:127|232:127|208:167,1,90,0|0,1:0|0:0,0:0:0:0:
196,12,21022,6,0,B|167:12|167:12|159:22|159:22|132:22,1,67.5,2|0,1:2|0:0,0:0:0:0:
112,20,21336,5,0,1:0:0:0:
48,72,21493,1,2,0:0:0:0:
4,4,21650,1,2,1:3:0:0:
48,80,21807,1,0,1:0:0:0:
0,244,21964,5,2,0:2:0:0:
0,244,22043,1,0,0:0:0:0:
0,244,22122,1,0,1:0:0:0:
72,204,22279,1,2,1:3:0:0:
124,328,22436,1,2,0:0:0:0:
196,288,22593,2,0,L|308:288,1,90,0|0,0:0|1:0,0:0:0:0:
316,156,22907,2,0,L|204:156,1,90,2|0,1:3|2:0,0:0:0:0:
400,232,23221,5,2,0:0:0:0:
400,208,23300,1,2,0:0:0:0:
420,196,23378,1,0,1:0:0:0:
440,208,23457,1,0,0:0:0:0:
440,232,23535,1,2,1:3:0:0:
400,364,23692,1,0,3:2:0:0:
400,364,23771,1,0,3:2:0:0:
400,364,23849,5,0,1:0:0:0:
464,312,24006,1,2,0:0:0:0:
508,380,24163,1,2,1:3:0:0:
464,304,24321,1,0,1:0:0:0:
512,140,24478,5,2,0:2:0:0:
512,140,24556,1,0,0:0:0:0:
512,140,24635,1,0,1:0:0:0:
440,180,24792,1,2,1:3:0:0:
388,56,24949,1,2,0:0:0:0:
316,96,25106,2,0,L|204:96,1,90,0|0,0:0|1:0,0:0:0:0:
192,312,25420,2,0,L|304:312,1,90,2|0,1:3|2:0,0:0:0:0:
88,216,25734,5,2,0:0:0:0:
64,216,25813,1,2,0:0:0:0:
52,196,25891,1,0,1:0:0:0:
64,176,25970,1,0,0:0:0:0:
88,176,26048,1,2,1:3:0:0:
120,176,26127,5,2,0:0:0:0:
140,152,26205,1,0,3:2:0:0:
120,128,26284,1,0,3:2:0:0:
88,128,26362,5,0,1:0:0:0:
24,76,26519,1,2,0:0:0:0:
88,28,26677,1,2,1:3:0:0:
28,80,26834,1,0,1:0:0:0:
28,248,26991,5,2,0:2:0:0:
28,248,27069,1,0,0:0:0:0:
28,248,27148,1,0,1:2:0:0:
68,320,27305,1,2,1:3:0:0:
152,196,27462,1,2,0:0:0:0:
112,124,27619,2,0,L|112:12,1,90,0|0,0:0|1:0,0:0:0:0:
256,0,27933,2,0,L|256:112,1,90,2|0,1:3|1:0,0:0:0:0:
256,212,28247,5,2,0:0:0:0:
280,212,28326,1,2,0:0:0:0:
292,232,28404,1,0,1:0:0:0:
280,252,28483,1,0,0:0:0:0:
256,252,28561,1,2,1:3:0:0:
384,256,28718,6,0,L|384:200,1,45,0|0,3:2|3:2,0:0:0:0:
424,128,28875,5,0,1:0:0:0:
488,76,29033,1,2,0:0:0:0:
424,28,29190,1,2,1:3:0:0:
484,80,29347,1,0,1:0:0:0:
484,248,29504,5,2,0:2:0:0:
484,248,29582,1,0,0:0:0:0:
484,248,29661,1,0,1:2:0:0:
444,320,29818,1,2,1:3:0:0:
360,196,29975,1,2,0:0:0:0:
400,124,30132,6,0,L|400:48,1,45,2|0,0:1|0:0,0:0:0:0:
328,112,30289,2,0,L|328:36,1,45
256,100,30446,6,0,L|256:24,1,67.5000025749208,10|0,1:3|0:0,0:0:0:0:
184,88,30603,2,0,L|184:12,1,67.5000025749208,0|0,1:0|0:0,0:0:0:0:
80,220,30760,6,0,L|80:182,1,33.7500012874604,0|0,0:1|0:0,0:0:0:0:
112,216,30839,2,0,L|112:178,1,33.7500012874604,2|0,0:1|0:0,0:0:0:0:
144,212,30917,6,0,L|144:136,1,45,0|0,1:2|0:0,0:0:0:0:
176,208,30996,2,0,L|176:132,1,45,0|0,0:2|0:0,0:0:0:0:
237,255,31074,6,0,B|280:244|280:284|322:271,2,90,8|2|0,1:2|3:2|3:2,0:0:0:0:
240,252,31389,5,0,1:0:0:0:
204,384,31546,1,2,0:0:0:0:
100,308,31703,1,8,1:3:0:0:
180,308,31860,1,0,1:0:0:0:
0,192,32017,5,2,0:0:0:0:
4,196,32331,1,8,1:2:0:0:
188,300,32488,2,0,L|196:200,1,90,2|0,0:0|0:0,0:0:0:0:
84,272,32802,1,0,1:0:0:0:
304,280,32959,2,0,B|350:268|350:304|391:286,1,90,8|0,1:2|0:0,0:0:0:0:
464,172,33273,5,2,0:0:0:0:
441,169,33352,1,2,0:0:0:0:
420,176,33430,1,0,1:0:0:0:
399,183,33509,1,0,0:0:0:0:
377,178,33588,1,8,1:3:0:0:
272,132,33745,1,0,3:2:0:0:
272,132,33823,1,0,3:2:0:0:
272,132,33902,5,0,1:0:0:0:
308,0,34059,1,2,0:0:0:0:
412,76,34216,1,8,1:3:0:0:
332,76,34373,1,0,1:0:0:0:
512,192,34530,5,2,0:0:0:0:
508,188,34844,1,8,1:2:0:0:
324,84,35001,2,0,L|316:184,1,90,2|0,0:0|0:0,0:0:0:0:
428,112,35315,1,0,1:0:0:0:
208,104,35472,2,0,B|162:116|162:80|121:98,1,90,10|0,1:2|0:0,0:0:0:0:
48,212,35786,5,2,0:0:0:0:
70,214,35865,1,2,0:0:0:0:
91,207,35944,1,0,1:0:0:0:
112,200,36022,1,0,0:0:0:0:
134,205,36101,5,8,1:3:0:0:
160,228,36179,1,2,0:0:0:0:
172,264,36258,1,0,3:0:0:0:
164,300,36336,1,0,3:0:0:0:
140,328,36415,5,0,1:0:0:0:
0,344,36572,1,2,0:0:0:0:
64,284,36729,1,8,1:3:0:0:
76,384,36886,1,0,1:0:0:0:
256,304,37043,5,2,0:0:0:0:
252,308,37357,1,8,1:2:0:0:
348,376,37514,2,0,L|356:276,1,90,2|0,0:0|0:0,0:0:0:0:
452,328,37828,1,0,1:0:0:0:
400,184,37985,2,0,B|354:172|354:208|313:190,1,90,10|0,1:2|0:0,0:0:0:0:
216,96,38300,5,2,0:0:0:0:
238,94,38378,1,2,0:0:0:0:
259,101,38457,1,0,1:0:0:0:
280,108,38535,1,0,0:0:0:0:
302,103,38614,1,8,1:3:0:0:
372,56,38771,1,0,3:0:0:0:
372,56,38849,1,0,3:0:0:0:
372,56,38928,5,0,1:0:0:0:
512,40,39085,1,2,0:0:0:0:
448,100,39242,1,8,1:3:0:0:
436,0,39399,1,0,1:0:0:0:
256,80,39556,5,2,0:0:0:0:
260,76,39870,1,8,1:2:0:0:
172,120,40027,2,0,L|180:168,1,45,2|0,0:2|3:0,0:0:0:0:
340,120,40184,6,0,L|332:168,1,33.7500012874604,2|0,1:2|0:0,0:0:0:0:
368,305,40341,2,0,P|381:317|397:323,1,33.7500012874604,0|0,3:0|3:0,0:0:0:0:
263,383,40499,2,0,P|255:368|254:352,1,33.7500012874604
141,304,40656,2,0,P|130:316|125:332,1,33.7500012874604,0|0,3:0|3:0,0:0:0:0:
320,260,40813,5,0,0:0:0:0:
352,232,40891,1,2,0:0:0:0:
300,224,40970,1,2,0:0:0:0:
256,176,41048,1,2,0:0:0:0:
252,108,41127,6,0,B|241:65|281:65|268:23,2,90,2|2|2,3:2|3:2|3:2,0:0:0:0:
256,296,41441,5,4,1:0:0:0:
144,240,41598,1,0,0:0:0:0:
256,112,41755,1,4,0:0:0:0:
256,224,41912,1,0,1:0:0:0:
160,168,42069,6,0,B|104:168|104:168|88:188|88:188|32:188,1,135,8|0,1:1|0:0,0:0:0:0:
28,184,42383,1,4,0:2:0:0:
60,108,42540,1,0,1:0:0:0:
104,260,42697,6,0,B|62:276|62:276|18:260,1,90,0|0,1:0|0:0,0:0:0:0:
104,332,42933,2,0,B|62:348|62:348|18:332,1,90,0|0,1:0|0:0,0:0:0:0:
152,384,43169,2,0,B|196:368,1,45,0|0,1:0|0:0,0:0:0:0:
256,344,43326,1,8,1:1:0:0:
256,12,43640,1,4,0:2:0:0:
256,224,43797,1,0,3:0:0:0:
256,224,43875,1,0,3:0:0:0:
256,224,43954,5,0,1:0:0:0:
368,240,44111,1,0,0:0:0:0:
256,112,44268,1,4,0:0:0:0:
256,112,44347,1,0,3:0:0:0:
256,112,44425,1,0,1:0:0:0:
352,168,44582,6,0,B|408:168|408:168|424:188|424:188|480:188,1,135,8|0,1:1|0:0,0:0:0:0:
484,184,44896,1,4,0:0:0:0:
452,108,45053,1,0,1:0:0:0:
408,260,45211,6,0,B|450:276|450:276|494:260,1,90,0|0,1:0|0:0,0:0:0:0:
408,332,45446,2,0,B|450:348|450:348|494:332,1,90,0|0,1:0|0:0,0:0:0:0:
360,384,45682,2,0,B|316:368,1,45,0|0,1:0|0:0,0:0:0:0:
232,360,45839,5,8,1:0:0:0:
216,336,45917,1,0,3:0:0:0:
192,328,45996,1,0,3:0:0:0:
176,344,46074,1,0,3:0:0:0:
168,368,46153,6,0,P|152:366|100:332,1,67.5,4|0,3:2|0:0,0:0:0:0:
96,320,46467,5,0,1:0:0:0:
172,288,46624,1,0,0:0:0:0:
188,140,46781,1,4,0:2:0:0:
256,272,46938,1,0,1:0:0:0:
376,184,47095,6,0,B|416:164|416:164|449:194,1,90,8|0,1:1|0:0,0:0:0:0:
330,259,47331,1,0,0:0:0:0:
324,248,47410,2,0,L|304:208,1,45,4|0,3:2|3:0,0:0:0:0:
256,96,47567,1,0,1:0:0:0:
44,184,47724,6,0,B|60:142|60:142|44:98,1,90,0|0,1:0|0:0,0:0:0:0:
116,184,47959,2,0,B|132:142|132:142|116:98,1,90,0|0,1:0|0:0,0:0:0:0:
188,184,48195,2,0,B|204:140,1,45,0|0,1:0|0:0,0:0:0:0:
256,12,48352,5,8,1:0:0:0:
256,372,48666,1,4,0:2:0:0:
416,320,48823,1,0,3:0:0:0:
416,320,48902,1,0,3:0:0:0:
416,320,48980,5,0,1:0:0:0:
340,288,49137,1,0,0:0:0:0:
324,140,49294,1,4,0:0:0:0:
324,140,49373,1,0,3:0:0:0:
324,140,49451,1,0,0:0:0:0:
136,184,49608,6,0,B|96:164|96:164|62:194,1,90,8|0,1:1|0:0,0:0:0:0:
182,259,49844,1,0,0:0:0:0:
188,248,49923,2,0,L|208:208,1,45,4|0,3:2|3:0,0:0:0:0:
256,96,50080,1,0,1:0:0:0:
84,20,50237,6,0,B|105:28|105:28|127:20,2,45,0|0|0,1:0|0:0|0:0,0:0:0:0:
84,92,50472,2,0,B|105:100|105:100|127:92,2,45,0|4|0,1:0|0:0|0:0,0:0:0:0:
188,56,50708,2,0,B|208:65|208:65|218:86,1,45,0|0,1:0|0:0,0:0:0:0:
324,56,50865,6,0,B|303:65|303:65|293:86,1,45,8|0,1:1|0:0,0:0:0:0:
368,200,51022,2,0,B|376:178|376:178|368:157,1,45,0|2,3:0|3:2,0:0:0:0:
144,157,51179,2,0,B|136:178|136:178|144:200,1,45,4|2,3:2|3:2,0:0:0:0:
256,328,51336,1,0,3:0:0:0:
256,328,51415,1,0,3:0:0:0:
256,328,51493,5,4,1:0:0:0:
196,380,51650,2,0,B|96:376,1,90,2|4,0:0|0:0,0:0:0:0:
12,256,51964,1,0,1:0:0:0:
156,308,52122,6,0,P|171:299|183:271,1,45,8|0,1:1|0:0,0:0:0:0:
144,157,52279,1,2,3:2:0:0:
140,157,52357,1,0,3:0:0:0:
140,161,52436,1,4,3:2:0:0:
144,161,52514,1,0,3:0:0:0:
144,157,52593,6,0,B|128:92,1,45,0|0,1:0|0:0,0:0:0:0:
8,88,52750,6,2,B|40:120|40:120|72:88,1,90,0|0,1:0|0:0,0:1:0:0:
104,32,52985,2,0,B|136:0|136:0|168:32,1,90,0|0,1:0|0:0,0:0:0:0:
196,92,53221,2,0,B|217:100|217:100|239:92,1,45,0|0,1:0|3:0,0:1:0:0:
364,204,53378,6,0,B|487:210,2,90,8|2|4,1:1|0:1|0:2,0:0:0:0:
256,328,53849,1,0,3:0:0:0:
256,328,53928,1,0,3:0:0:0:
256,328,54006,5,0,1:0:0:0:
316,380,54163,2,0,B|416:376,1,90,2|4,0:0|0:0,0:0:0:0:
500,256,54478,1,0,1:0:0:0:
368,312,54635,6,0,P|353:303|341:275,1,45,8|0,1:1|0:0,0:0:0:0:
368,157,54792,1,2,3:2:0:0:
372,157,54870,1,0,3:0:0:0:
372,161,54949,1,4,3:2:0:0:
368,161,55027,1,0,3:0:0:0:
368,157,55106,6,0,B|384:92,1,45,0|0,1:0|0:0,0:0:0:0:
504,88,55263,6,2,B|472:120|472:120|440:88,1,90,0|0,1:0|0:0,0:1:0:0:
408,32,55499,2,0,B|376:0|376:0|344:32,1,90,0|0,1:0|0:0,0:0:0:0:
316,92,55734,2,0,B|294:100|294:100|273:92,1,45,0|0,1:0|3:0,0:0:0:0:
180,36,55891,6,0,B|57:42,2,90,8|2|4,1:1|0:1|0:2,0:0:0:0:
184,264,56362,1,0,3:0:0:0:
184,264,56441,1,0,3:0:0:0:
184,264,56519,5,0,1:0:0:0:
132,204,56677,2,0,B|136:104,1,90,2|4,0:0|0:0,0:0:0:0:
256,20,56991,1,0,1:0:0:0:
204,164,57148,6,0,P|213:179|241:191,1,45,8|0,1:1|0:0,0:0:0:0:
355,152,57305,1,2,3:2:0:0:
355,148,57383,1,0,3:0:0:0:
351,148,57462,1,4,3:2:0:0:
351,152,57540,1,0,3:0:0:0:
355,152,57619,6,0,B|356:208,1,45,0|0,1:0|0:0,0:0:0:0:
420,300,57776,6,2,B|452:268|452:268|484:300,1,90,0|0,1:0|0:0,0:1:0:0:
324,356,58012,2,0,B|356:388|356:388|388:356,1,90,0|0,1:0|0:0,0:0:0:0:
253,296,58247,2,0,B|274:288|274:288|296:296,1,45,0|0,1:0|3:0,0:0:0:0:
164,356,58404,6,0,L|64:364,2,90,8|2|4,1:1|0:1|0:2,0:0:0:0:
176,344,58797,1,0,3:0:0:0:
180,328,58875,1,0,3:0:0:0:
176,312,58954,1,0,3:0:0:0:
116,276,59033,5,0,1:2:0:0:
60,57,59190,2,0,B|160:61,1,90,2|4,0:0|0:0,0:0:0:0:
244,181,59504,1,0,1:0:0:0:
100,129,59661,6,0,P|85:138|73:166,1,45,8|0,1:1|0:0,0:0:0:0:
112,280,59818,1,2,3:2:0:0:
116,280,59896,1,0,3:0:0:0:
116,276,59975,1,4,3:2:0:0:
112,276,60053,1,0,3:0:0:0:
112,280,60132,6,0,B|56:281,1,45,0|0,1:0|0:0,0:0:0:0:
88,372,60289,6,0,B|109:380|109:380|131:372,1,45,0|0,1:0|3:0,0:0:0:0:
180,324,60446,2,0,B|202:316|202:316|223:324,1,45,0|0,1:0|3:0,0:0:0:0:
273,368,60603,2,0,B|294:376|294:376|316:368,1,45,0|0,1:0|3:0,0:0:0:0:
365,320,60760,2,0,B|386:312|386:312|408:320,1,45,0|0,1:0|3:0,0:0:0:0:
512,384,60917,5,8,1:1:0:0:
512,316,60996,1,0,1:0:0:0:
512,248,61074,1,2,3:2:0:0:
512,180,61153,1,2,1:2:0:0:
512,112,61231,5,8,1:3:0:0:
180,56,61546,5,4,1:0:0:0:
104,104,61703,1,0,0:0:0:0:
184,148,61860,1,8,1:2:0:0:
120,172,62017,5,2,0:0:0:0:
188,288,62174,5,0,1:0:0:0:
173,215,62331,1,2,0:0:0:0:
120,265,62488,1,8,1:2:0:0:
136,332,62645,5,2,0:0:0:0:
256,304,62802,5,0,1:0:0:0:
256,237,62959,1,0,0:0:0:0:
312,272,63116,1,8,1:2:0:0:
200,272,63273,1,2,0:0:0:0:
256,80,63430,5,0,1:0:0:0:
256,160,63588,1,2,0:0:0:0:
256,237,63745,1,8,1:2:0:0:
348,355,63902,1,0,0:0:0:0:
348,355,63980,1,0,0:0:0:0:
348,355,64059,5,0,1:0:0:0:
439,297,64216,1,0,0:0:0:0:
343,244,64373,1,8,1:2:0:0:
420,216,64530,5,2,0:0:0:0:
338,76,64687,5,0,1:0:0:0:
356,164,64844,1,2,0:0:0:0:
420,104,65001,1,8,1:2:0:0:
401,23,65158,5,2,0:0:0:0:
256,57,65315,5,0,1:0:0:0:
256,138,65472,1,0,0:0:0:0:
189,96,65629,1,8,1:2:0:0:
324,96,65786,1,2,0:0:0:0:
256,326,65944,5,0,1:0:0:0:
256,232,66101,1,2,0:0:0:0:
256,208,66179,1,0,0:0:0:0:
256,184,66258,1,8,1:2:0:0:
256,160,66336,1,0,0:0:0:0:
256,138,66415,1,2,2:0:0:0:
152,5,66572,5,0,1:0:0:0:
48,71,66729,1,2,0:0:0:0:
158,131,66886,1,10,1:3:0:0:
70,164,67043,5,2,0:0:0:0:
143,223,67200,5,0,1:0:0:0:
70,292,67357,1,2,2:0:0:0:
163,323,67514,1,10,1:3:0:0:
92,383,67671,5,2,0:0:0:0:
256,345,67828,5,0,1:0:0:0:
256,253,67985,1,0,0:0:0:0:
333,301,68142,1,10,1:3:0:0:
180,301,68300,1,2,0:0:0:0:
256,38,68457,5,0,1:0:0:0:
256,148,68614,1,2,0:0:0:0:
256,253,68771,1,10,1:3:0:0:
361,377,68928,1,2,0:0:0:0:
361,377,69006,1,0,0:0:0:0:
361,377,69085,5,0,1:0:0:0:
355,251,69242,1,2,2:0:0:0:
464,311,69399,1,10,1:3:0:0:
443,219,69556,5,2,0:0:0:0:
370,160,69713,5,0,1:0:0:0:
350,60,69870,1,2,2:0:0:0:
443,92,70027,1,10,1:3:0:0:
421,0,70184,5,2,0:0:0:0:
256,192,70341,5,0,1:0:0:0:
256,38,70499,1,2,2:0:0:0:
116,80,70656,1,8,1:3:0:0:
396,80,70813,1,2,2:0:0:0:
256,344,70970,5,0,1:0:0:0:
256,192,71127,5,2,0:0:0:0:
256,153,71205,1,0,0:0:0:0:
256,115,71284,1,8,1:0:0:0:
256,76,71362,1,0,0:0:0:0:
256,38,71441,1,2,2:0:0:0:
200,260,71598,5,4,1:0:0:0:
136,196,71755,1,0,0:0:0:0:
200,132,71912,1,8,1:2:0:0:
256,192,72069,5,2,0:0:0:0:
312,156,72226,5,0,1:0:0:0:
368,196,72383,1,2,0:0:0:0:
312,236,72540,1,8,1:2:0:0:
256,192,72697,5,2,0:0:0:0:
200,132,72855,5,0,1:0:0:0:
256,100,73012,1,0,0:0:0:0:
312,132,73169,1,8,1:2:0:0:
256,192,73326,5,2,0:0:0:0:
144,228,73483,5,0,1:0:0:0:
256,300,73640,1,2,0:0:0:0:
368,228,73797,1,8,1:2:0:0:
256,192,73954,6,0,L|256:148,1,45,0|0,1:0|0:0,0:0:0:0:
188,273,74111,5,0,1:0:0:0:
111,196,74268,1,0,0:0:0:0:
188,120,74425,1,8,1:2:0:0:
256,192,74582,5,2,0:0:0:0:
323,244,74739,5,0,1:0:0:0:
390,196,74896,1,2,0:0:0:0:
323,148,75053,1,8,1:2:0:0:
256,192,75211,5,2,0:0:0:0:
323,120,75368,5,0,1:0:0:0:
256,81,75525,1,0,0:0:0:0:
188,120,75682,1,8,1:2:0:0:
256,192,75839,5,2,0:0:0:0:
390,235,75996,6,0,P|404:249|424:288,1,45,0|0,1:0|0:0,0:0:0:0:
256,321,76153,2,0,L|256:380,1,45,2|0,0:0|0:0,0:0:0:0:
121,235,76310,2,0,P|107:249|88:288,1,45,8|0,1:2|0:0,0:0:0:0:
256,192,76467,6,0,L|256:139,1,45,2|0,0:0|0:0,0:0:0:0:
175,289,76624,5,0,1:0:0:0:
175,104,76781,1,2,2:0:0:0:
83,196,76938,1,10,1:3:0:0:
256,192,77095,5,2,0:0:0:0:
336,139,77252,5,0,1:0:0:0:
336,254,77410,1,2,2:0:0:0:
417,196,77567,1,10,1:3:0:0:
256,192,77724,5,2,0:0:0:0:
175,104,77881,5,0,1:0:0:0:
336,104,78038,1,2,2:0:0:0:
256,58,78195,1,10,1:3:0:0:
256,192,78352,5,2,0:0:0:0:
94,243,78509,5,0,1:0:0:0:
417,243,78666,1,2,2:0:0:0:
256,346,78823,1,10,1:3:0:0:
256,192,78980,6,0,L|256:128,1,45,2|0,2:0|0:0,0:0:0:0:
159,307,79137,5,2,1:2:0:0:
48,196,79294,1,2,0:0:0:0:
159,86,79451,1,10,1:3:0:0:
256,192,79608,5,2,0:0:0:0:
352,266,79766,5,0,1:0:0:0:
449,196,79923,1,2,0:0:0:0:
352,127,80080,1,10,1:3:0:0:
256,192,80237,5,2,0:0:0:0:
92,108,80394,5,0,1:0:0:0:
420,108,80551,1,2,0:0:0:0:
256,8,80708,1,8,1:3:0:0:
256,192,80865,5,2,0:0:0:0:
256,376,81022,1,0,1:0:0:0:
258,182,81179,5,0,0:0:0:0:
248,186,81258,1,2,0:0:0:0:
248,197,81336,1,8,1:0:0:0:
258,201,81415,1,2,0:0:0:0:
265,192,81493,1,2,0:0:0:0:
347,192,81650,6,0,B|256:283|256:283|163:192|163:192|256:99|256:99|347:192,1,506.250019311906,0|0,1:0|0:0,0:1:0:0:
420,176,82907,6,2,P|442:103|428:8,1,168.750006437302,0|0,3:0|0:0,0:1:0:0:
360,100,83378,2,2,P|368:80|368:44,1,33.7500012874604,0|0,0:0|0:0,0:1:0:0:
300,220,83535,6,2,P|308:197|310:136,1,67.5000025749208,0|0,0:0|0:0,0:1:0:0:
300,60,83692,6,2,P|293:29|268:-4,1,53.9999983520508,0|0,0:0|0:0,0:1:0:0:
240,172,83849,6,2,P|240:151|232:110,1,40.4999987640381,0|0,0:0|0:0,0:1:0:0:
228,60,84006,6,2,P|210:37|194:25,1,26.9999991760254,0|0,0:0|0:0,0:1:0:0:
168,108,84163,5,4,1:0:0:0:
104,76,84321,1,0,0:0:0:0:
108,148,84478,1,0,0:0:0:0:
60,204,84635,1,0,0:0:0:0:
88,272,84792,6,0,B|128:264|164:284|164:284|184:232,1,135.000005149842,8|0,3:1|0:0,0:0:0:0:
212,344,85263,6,0,L|296:348,1,67.5000025749208,2|0,1:2|0:0,0:0:0:0:
388,304,85577,1,2,0:0:0:0:
320,264,85734,2,0,L|236:268,1,67.5000025749208,0|2,1:2|0:0,0:0:0:0:
160,156,86048,6,0,P|153:137|164:114,7,45,8|2|2|2|2|2|2|2,0:2|0:0|0:0|0:0|0:0|0:0|0:0|0:0,0:0:0:0:
136,172,86677,6,0,P|136:112|256:108,1,202.500007724762,0|0,1:0|0:0,0:0:0:0:
316,64,87305,5,8,0:1:0:0:
348,0,87462,1,0,0:2:0:0:
388,60,87619,1,0,0:0:0:0:
456,84,87776,1,0,1:0:0:0:
456,300,87933,5,2,0:0:0:0:
388,324,88090,1,0,0:0:0:0:
348,384,88247,1,0,1:2:0:0:
316,320,88404,1,0,0:2:0:0:
252,281,88561,6,0,P|228:281|204:297,7,53.9999983520508,8|4|4|4|4|4|4|4,0:2|0:0|0:0|0:0|0:0|0:0|0:0|0:0,0:0:0:0:
140,264,89190,5,0,1:0:0:0:
76,296,89347,1,0,0:0:0:0:
80,224,89504,1,0,0:0:0:0:
32,168,89661,1,0,0:0:0:0:
60,100,89818,6,0,B|100:108|136:88|136:88|156:140,1,135.000005149842,8|0,1:0|0:0,0:0:0:0:
236,224,90289,6,0,L|232:140,1,67.5000025749208,2|0,1:2|0:0,0:0:0:0:
276,48,90603,1,2,0:0:0:0:
316,116,90760,2,0,L|312:200,1,67.5000025749208,0|2,1:2|0:0,0:0:0:0:
352,344,91074,6,0,P|371:351|393:340,7,45,8|2|2|2|2|2|2|2,0:2|0:0|0:0|0:0|0:0|0:0|0:0|0:0,0:0:0:0:
336,368,91703,6,0,P|396:368|400:248,1,202.500007724762,0|0,1:0|0:0,0:0:0:0:
444,188,92331,5,8,1:0:0:0:
508,156,92488,1,0,0:2:0:0:
448,116,92645,1,0,0:0:0:0:
424,48,92802,1,0,1:0:0:0:
208,56,92959,5,2,0:0:0:0:
184,124,93116,1,0,0:0:0:0:
124,164,93273,1,0,1:2:0:0:
188,196,93430,1,0,0:2:0:0:
227,260,93588,6,0,P|227:284|211:308,7,53.9999983520508,8|4|4|4|4|4|4|4,0:2|0:0|0:0|0:0|0:0|0:0|0:0|0:0,0:0:0:0:
212,328,94216,6,0,L|128:332,1,67.5000025749208,4|0,1:0|0:0,0:0:0:0:
36,256,94530,2,0,L|120:260,1,67.5000025749208,2|0,0:2|0:0,0:0:0:0:
304,256,94844,1,8,1:0:0:0:
183,171,95001,2,0,P|216:171|248:184,1,67.5000025749208,2|0,0:0|0:0,0:0:0:0:
392,272,95315,6,0,P|396:240|412:188,1,67.5000025749208,2|0,1:2|0:0,0:0:0:0:
384,56,95629,2,0,P|388:88|404:140,1,67.5000025749208,2|0,0:2|1:0,0:0:0:0:
474,161,95944,1,2,0:0:0:0:
328,176,96101,6,0,P|309:169|287:180,7,45,8|2|2|2|2|2|2|2,0:2|0:0|0:0|0:0|0:0|0:0|0:0|0:0,0:0:0:0:
308,200,96729,6,0,P|248:200|244:80,1,202.500007724762,0|0,1:0|0:0,0:0:0:0:
124,0,97357,5,8,1:0:0:0:
188,32,97514,1,0,0:2:0:0:
128,72,97671,1,0,0:0:0:0:
92,223,97828,1,0,1:0:0:0:
188,344,97985,5,2,0:0:0:0:
64,316,98142,1,0,0:0:0:0:
116,364,98300,1,0,1:2:0:0:
132,296,98457,1,0,0:2:0:0:
256,364,98614,6,0,P|280:364|304:348,7,53.9999983520508,8|4|4|4|4|4|4|4,0:2|0:0|0:0|0:0|0:0|0:0|0:0|0:0,0:0:0:0:
300,328,99242,6,0,L|384:332,1,67.5000025749208,2|0,1:2|0:0,0:0:0:0:
476,256,99556,2,0,L|392:260,1,67.5000025749208,2|0,0:2|0:0,0:0:0:0:
208,256,99870,1,8,1:0:0:0:
329,171,100027,2,0,P|296:171|264:184,1,67.5000025749208,2|0,0:0|0:0,0:0:0:0:
120,272,100341,6,0,P|116:240|100:188,1,67.5000025749208,2|0,1:2|0:0,0:0:0:0:
128,56,100656,2,0,P|124:88|108:140,1,67.5000025749208,2|0,0:2|1:0,0:0:0:0:
37,161,100970,1,2,0:0:0:0:
184,176,101127,6,0,P|203:169|225:180,7,45,8|2|2|2|2|2|2|2,0:2|0:0|0:0|0:0|0:0|0:0|0:0|0:0,0:0:0:0:
204,200,101755,6,0,P|264:200|268:80,1,202.500007724762,0|0,1:0|0:0,0:0:0:0:
208,0,102383,5,8,1:0:0:0:
144,32,102540,1,0,0:2:0:0:
204,72,102697,1,0,0:0:0:0:
332,44,102855,1,0,1:0:0:0:
440,116,103012,5,0,1:0:0:0:
372,140,103169,1,0,0:0:0:0:
428,188,103326,1,0,0:0:0:0:
360,212,103483,1,0,0:0:0:0:
464,288,103640,6,0,P|463:268|451:252,7,33.7500012874604,0|2|2|2|2|2|2|2,3:2|3:2|3:2|3:2|3:2|3:2|3:2|3:2,0:0:0:0:
391,289,104268,5,4,1:0:0:0:
284,288,104425,1,2,0:0:0:0:
400,212,104582,1,8,1:3:0:0:
500,320,104739,1,2,0:0:0:0:
424,364,104896,6,0,P|360:365|312:324,1,90,0|2,1:0|2:0,0:0:0:0:
284,288,105211,2,0,B|238:276|238:312|197:294,1,90,8|2,1:3|0:0,0:0:0:0:
96,168,105525,2,0,P|35:172|28:224,1,90,0|2,1:0|0:0,0:0:0:0:
56,272,105839,2,0,P|116:267|124:216,1,90,8|2,1:3|0:0,0:0:0:0:
148,100,106153,6,0,P|137:55|108:8,1,90,0|0,1:0|0:0,0:0:0:0:
212,156,106467,2,0,P|236:117|248:62,1,90,8|0,1:3|0:0,0:0:0:0:
292,160,106703,1,0,0:0:0:0:
292,160,106781,5,0,1:0:0:0:
356,72,106938,1,2,0:0:0:0:
400,172,107095,1,8,1:3:0:0:
500,64,107252,1,2,0:0:0:0:
424,20,107410,6,0,P|360:18|312:60,1,90,0|2,1:0|2:0,0:0:0:0:
284,96,107724,2,0,B|238:108|238:72|197:90,1,90,8|2,1:3|0:0,0:0:0:0:
96,216,108038,2,0,P|35:211|28:160,1,90,0|2,1:0|0:0,0:0:0:0:
56,112,108352,2,0,P|116:116|124:168,1,90,8|2,1:3|0:0,0:0:0:0:
147,284,108666,5,0,1:0:0:0:
114,366,108823,1,2,0:0:0:0:
212,228,108980,2,0,P|236:266|248:321,1,90,8|0,1:2|0:0,0:0:0:0:
304,352,109216,1,0,0:0:0:0:
304,352,109294,5,0,1:0:0:0:
168,340,109451,1,2,0:0:0:0:
112,212,109608,1,8,1:3:0:0:
12,320,109766,1,2,0:0:0:0:
88,364,109923,6,0,P|152:365|200:324,1,90,0|2,1:0|2:0,0:0:0:0:
228,288,110237,2,0,B|274:276|274:312|315:294,1,90,8|2,1:3|0:0,0:0:0:0:
487,191,110551,2,0,P|458:160|416:168,1,90,0|2,1:0|0:0,0:0:0:0:
388,252,110786,1,0,0:0:0:0:
384,245,110865,2,0,P|413:278|456:272,1,90,8|2,1:3|0:0,0:0:0:0:
396,17,111179,6,0,P|374:56|364:100,1,90,0|0,1:0|0:0,0:0:0:0:
266,82,111415,1,0,0:0:0:0:
264,74,111493,2,0,P|276:117|300:156,1,90,8|0,1:3|0:0,0:0:0:0:
220,160,111729,1,0,0:0:0:0:
220,160,111807,5,0,1:0:0:0:
156,72,111964,1,2,0:0:0:0:
112,172,112122,1,8,1:3:0:0:
12,64,112279,1,2,1:2:0:0:
173,29,112436,6,0,P|132:13|88:20,1,90,0|2,1:0|2:0,0:0:0:0:
315,90,112750,2,0,B|274:72|274:108|228:96,1,90,8|2,1:3|0:2,0:0:0:0:
483,199,112985,1,0,0:0:0:0:
487,191,113064,2,0,P|458:223|416:216,1,90,0|2,1:0|0:2,0:0:0:0:
384,137,113378,2,0,P|413:104|456:112,1,90,8|2,1:3|0:2,0:0:0:0:
396,366,113692,5,0,1:0:0:0:
363,283,113849,1,2,0:2:0:0:
264,309,114006,2,0,P|276:265|300:228,1,90,2|0,1:3|1:0,0:0:0:0:
244,376,114242,1,0,0:0:0:0:
244,376,114321,5,4,1:0:0:0:
124,288,114478,1,2,0:0:0:0:
152,144,114635,1,8,1:2:0:0:
12,320,114792,1,2,0:0:0:0:
88,364,114949,5,0,1:2:0:0:
172,352,115106,1,2,0:0:0:0:
228,288,115263,1,8,1:2:0:0:
314,294,115420,1,2,0:0:0:0:
416,168,115577,5,0,1:0:0:0:
488,204,115734,1,2,0:0:0:0:
416,332,115891,2,2,P|395:295|396:223,1,90,12|0,1:2|0:0,0:1:0:0:
396,17,116205,5,2,1:0:0:0:
396,17,116362,2,0,P|415:7|447:7,1,45
300,156,116519,6,0,P|276:117|268:80,1,45,2|0,1:3|0:0,0:0:0:0:
260,52,116677,2,0,P|258:6|270:-29,1,45,0|0,3:0|3:0,0:0:0:0:
220,160,116834,5,0,1:0:0:0:
156,72,116991,1,2,0:0:0:0:
112,172,117148,1,8,1:2:0:0:
12,64,117305,1,2,0:0:0:0:
88,20,117462,5,0,1:0:0:0:
172,28,117619,1,2,0:0:0:0:
228,96,117776,1,8,1:2:0:0:
314,89,117933,1,2,0:0:0:0:
416,216,118090,5,0,1:0:0:0:
487,191,118247,1,2,0:0:0:0:
456,112,118404,1,14,1:2:0:0:
384,137,118561,1,0,0:0:0:0:
365,284,118718,5,2,1:0:0:0:
365,284,118875,2,0,P|375:299|416:317,1,45,2|4,0:0|0:0,0:0:0:0:
316,204,119033,6,0,P|292:242|280:356,1,135,12|0,1:2|0:0,0:0:0:0:
208,352,119347,5,4,1:0:0:0:
344,340,119504,1,0,0:0:0:0:
344,340,119582,1,0,0:0:0:0:
344,340,119661,1,8,1:2:0:0:
480,328,119818,1,2,0:0:0:0:
408,376,119975,5,0,1:0:0:0:
324,364,120132,1,2,0:0:0:0:
284,288,120289,1,8,1:2:0:0:
197,294,120446,1,0,0:0:0:0:
25,191,120603,5,0,1:0:0:0:
128,245,120760,1,2,0:0:0:0:
128,245,120839,1,6,0:0:0:0:
128,245,120917,2,2,P|99:278|56:272,1,90,12|2,1:2|0:0,0:1:0:0:
116,17,121231,6,0,P|131:40|140:64,1,45,2|0,1:0|0:0,0:0:0:0:
144,128,121389,2,0,P|140:144|112:184,1,45,2|4,0:0|0:2,0:0:0:0:
248,74,121546,2,0,P|236:117|212:156,1,90,12|0,1:2|0:0,0:0:0:0:
72,96,121781,1,0,0:0:0:0:
72,96,121860,5,0,1:0:0:0:
208,8,122017,1,2,0:0:0:0:
208,8,122095,1,4,0:0:0:0:
208,8,122174,1,12,1:2:0:0:
328,116,122331,1,2,0:0:0:0:
340,36,122488,6,0,P|381:20|425:27,1,90,0|2,1:0|2:0,0:0:0:0:
344,196,122802,2,0,P|385:212|429:205,1,90,12|2,1:2|2:0,0:0:0:0:
236,336,123116,5,0,1:0:0:0:
251,360,123195,1,0,0:0:0:0:
279,370,123273,1,0,0:0:0:0:
307,360,123352,1,0,0:0:0:0:
324,332,123430,2,0,P|326:288|290:263,1,90,0|2,3:0|0:0,0:0:0:0:
96,368,123745,6,0,B|88:347|88:347|96:325,1,45,0|0,3:0|3:0,0:0:0:0:
144,276,123902,2,0,B|152:254|152:254|144:233,1,45,2|0,3:2|3:0,0:0:0:0:
100,183,124059,2,0,B|92:162|92:162|100:140,1,45,0|0,3:0|3:0,0:0:0:0:
148,91,124216,2,0,B|156:70|156:70|148:48,1,45,2|0,3:2|3:0,0:0:0:0:
100,0,124373,5,0,1:0:0:0:
488,272,134425,6,0,L|460:188,1,67.5000025749208,0|0,1:0|0:0,0:0:0:0:
404,260,134739,2,0,L|376:176,1,67.5000025749208,2|0,0:0|1:0,0:0:0:0:
320,248,135053,1,0,3:0:0:0:
320,248,135132,1,2,0:1:0:0:
80,360,135368,1,0,0:1:0:0:
112,288,135525,1,2,0:1:0:0:
44,244,135682,5,0,1:0:0:0:
44,244,136153,2,0,B|40:284|40:284|8:331|8:331|5:371,1,135.000005149842,0|2,1:0|0:1,0:0:0:0:
80,360,136624,1,2,0:0:0:0:
24,112,136938,6,0,L|52:196,1,67.5000025749208,0|0,1:0|0:0,0:0:0:0:
108,124,137252,2,0,L|136:208,1,67.5000025749208,2|0,0:0|1:0,0:0:0:0:
192,136,137567,1,0,3:0:0:0:
192,136,137645,1,2,0:1:0:0:
436,60,137881,1,0,0:1:0:0:
404,132,138038,1,2,0:1:0:0:
472,176,138195,6,0,B|475:135|475:135|507:88|507:88|510:48,1,135.000005149842,0|2,1:0|0:1,0:0:0:0:
364,16,138666,2,0,B|360:56|360:56|328:103|328:103|325:143,1,135.000005149842,0|2,1:0|0:1,0:0:0:0:
322,216,139137,1,2,0:0:0:0:
268,268,139294,1,2,0:1:0:0:
192,268,139451,6,0,L|108:240,1,67.5000025749208,0|0,1:0|0:0,0:0:0:0:
180,184,139766,2,0,L|96:156,1,67.5000025749208,2|0,0:0|1:0,0:0:0:0:
168,100,140080,1,0,3:0:0:0:
168,100,140158,1,2,0:1:0:0:
76,304,140394,1,0,0:1:0:0:
148,336,140551,1,2,0:1:0:0:
192,268,140708,1,0,1:0:0:0:
192,268,140786,1,2,0:1:0:0:
452,372,141179,6,0,B|455:331|455:331|487:284|487:284|490:244,1,135.000005149842,0|2,1:0|0:1,0:0:0:0:
420,220,141650,2,0,B|416:260|416:260|384:307|384:307|381:347,1,135.000005149842,2|2,0:0|1:1,0:0:0:0:
376,340,142436,2,0,B|295:336,1,67.5000025749208,0|0,1:0|3:0,0:0:0:0:
212,228,142750,5,0,0:0:0:0:
212,228,142828,1,0,0:0:0:0:
212,228,142907,2,0,P|230:218|252:224,1,33.7500012874604,2|0,3:0|0:0,0:0:0:0:
244,308,143064,2,0,P|227:308|213:299,1,33.7500012874604,2|0,3:2|0:0,0:0:0:0:
205,192,143221,6,0,B|178:218|178:218|153:192|153:192|179:166|179:166|205:192,1,135.000005149842,4|0,1:3|0:3,0:0:0:0:
256,141,143457,6,0,B|221:106|221:106|256:73|256:73|289:106|289:106|256:141,1,180,0|0,1:0|0:0,0:0:0:0:
306,192,143692,6,0,B|347:150|347:150|389:194|389:194|349:234|349:234|306:192,1,225,0|0,1:0|0:3,0:0:0:0:
256,242,143928,6,0,B|305:292|305:292|256:342|256:342|205:292|205:292|256:242,1,270.000010299683,0|0,1:0|0:0,0:0:0:0:
205,192,144163,6,0,B|129:265|129:265|57:192|57:192|132:118|132:118|205:192,1,405.000015449525,0|0,1:0|0:0,0:0:0:0:
232,328,144478,5,2,1:2:0:0:
200,124,144635,1,0,0:0:0:0:
254,249,144792,1,8,1:1:0:0:
156,344,144949,6,0,P|73:354|2:312,1,168.750006437302,2|0,0:0|0:0,0:0:0:0:
48,220,145420,2,0,P|51:236|52:284,1,33.7500012874604,0|0,1:0|0:0,0:0:0:0:
180,268,145577,6,0,P|180:192|200:144,1,101.250003862381,2|0,0:0|0:0,0:0:0:0:
152,108,145891,2,0,P|152:92|144:64,1,33.7500012874604,0|0,1:0|0:0,0:0:0:0:
256,4,146048,1,8,1:1:0:0:
96,164,146205,6,0,P|58:98|8:60,1,135.000005149842,2|0,0:0|1:0,0:0:0:0:
248,70,146677,2,0,P|257:37|256:4,1,67.5000025749208,0|0,1:2|0:0,0:0:0:0:
280,328,146991,5,2,1:2:0:0:
312,124,147148,1,0,0:0:0:0:
258,249,147305,1,8,1:1:0:0:
356,344,147462,6,0,P|438:354|509:312,1,168.750006437302,2|0,0:0|0:0,0:0:0:0:
464,220,147933,2,0,P|460:236|460:284,1,33.7500012874604,0|0,1:2|0:0,0:0:0:0:
332,268,148090,6,0,P|332:192|312:144,1,101.250003862381,2|0,0:0|0:0,0:0:0:0:
360,108,148404,2,0,P|360:92|368:64,1,33.7500012874604,0|0,1:0|0:0,0:0:0:0:
256,4,148561,1,8,1:1:0:0:
32,24,148718,6,0,P|97:61|136:112,1,135.000005149842,2|0,0:0|1:0,0:0:0:0:
0,248,149190,2,0,P|32:238|65:239,1,67.5000025749208,0|2,0:0|0:0,0:0:0:0:
248,348,149504,5,2,1:2:0:0:
44,316,149661,1,0,0:0:0:0:
169,370,149818,1,8,1:1:0:0:
264,272,149975,6,0,P|274:190|232:119,1,168.750006437302,2|0,0:0|0:0,0:0:0:0:
280,24,150446,2,0,P|276:40|276:88,1,33.7500012874604,0|0,1:2|0:0,0:0:0:0:
352,224,150603,2,0,P|387:245|464:252,1,101.250003862381,2|0,0:0|0:0,0:0:0:0:
440,332,150917,2,0,P|452:332|496:316,1,33.7500012874604,0|0,1:0|0:0,0:0:0:0:
500,200,151074,1,8,1:1:0:0:
184,288,151231,6,0,P|120:310|52:318,1,135.000005149842,2|0,0:0|0:0,0:0:0:0:
160,144,151703,2,0,P|124:132|68:124,1,67.5000025749208,0|0,1:2|0:0,0:0:0:0:
364,320,152017,6,0,P|309:352|182:361,1,168.750006437302,2|0,1:2|0:0,0:0:0:0:
60,324,152488,1,2,0:0:0:0:
512,192,152959,1,8,1:1:0:0:
512,28,153116,5,2,0:0:0:0:
512,28,153195,1,0,0:0:0:0:
512,28,153273,2,0,P|514:46|512:61,3,33.7500012874604,2|0|0|0,0:0|0:0|0:0|0:0,0:0:0:0:
440,24,153588,6,0,P|436:44|440:69,3,45,2|2|0|0,1:3|0:0|0:0|1:0,0:0:0:0:
360,16,153902,6,0,P|364:48|360:83,3,67.5000025749208,2|0|0|0,0:0|0:0|1:0|0:0,0:0:0:0:
288,8,154216,6,0,P|280:52|288:96,3,90,2|2|2|0,1:2|0:0|0:0|0:0,0:0:0:0:
204,60,154530,5,4,1:0:0:0:
172,264,154687,1,0,0:0:0:0:
226,139,154844,1,8,1:1:0:0:
128,44,155001,6,0,P|45:34|-12:64,1,135.000005149842,2|0,0:0|1:0,0:0:0:0:
104,216,155472,2,0,P|88:213|40:212,1,33.7500012874604,8|0,1:0|0:0,0:0:0:0:
180,116,155629,6,0,P|180:192|200:240,1,101.250003862381,2|0,0:0|0:0,0:0:0:0:
148,280,155944,2,0,P|148:296|140:324,1,33.7500012874604,0|0,1:0|0:0,0:0:0:0:
256,380,156101,1,8,1:1:0:0:
95,220,156258,6,0,P|64:274|22:306,1,101.250003862381,2|0,0:0|0:0,0:0:0:0:
68,367,156572,2,0,P|52:372|36:376,1,33.7500012874604,0|0,1:0|0:0,0:0:0:0:
248,314,156729,2,0,P|257:347|256:380,1,67.5000025749208,0|0,1:0|0:0,0:0:0:0:
280,56,157043,5,2,1:2:0:0:
312,260,157200,1,0,0:0:0:0:
258,135,157357,1,8,1:1:0:0:
356,40,157514,6,0,P|439:30|496:60,1,135.000005149842,2|0,0:0|1:0,0:0:0:0:
285,278,157985,2,0,P|280:295|280:312,1,33.7500012874604,8|0,1:0|0:0,0:0:0:0:
332,116,158142,6,0,P|332:192|312:240,1,101.250003862381,2|0,0:0|0:0,0:0:0:0:
360,280,158457,2,0,P|360:296|368:324,1,33.7500012874604,0|0,1:0|0:0,0:0:0:0:
448,376,158614,1,8,1:1:0:0:
138,348,158771,6,0,P|181:323|213:284,1,101.250003862381,2|0,0:0|2:0,0:0:0:0:
218,211,159085,2,0,P|235:211|252:208,1,33.7500012874604,0|0,1:0|0:0,0:0:0:0:
80,144,159242,2,0,P|112:154|145:153,1,67.5000025749208,0|2,1:2|0:0,0:0:0:0:
248,36,159556,5,2,1:2:0:0:
44,68,159713,1,0,0:0:0:0:
169,14,159870,1,8,1:1:0:0:
264,112,160027,6,0,P|274:194|236:260,1,135.000005149842,2|0,0:0|1:0,0:0:0:0:
476,200,160499,2,0,P|492:196|540:196,1,33.7500012874604,8|0,1:0|0:0,0:0:0:0:
352,160,160656,6,0,P|387:139|464:132,1,101.250003862381,2|0,0:0|0:0,0:0:0:0:
440,52,160970,2,0,P|452:52|496:68,1,33.7500012874604,0|0,1:0|0:0,0:0:0:0:
508,268,161127,1,8,1:1:0:0:
184,96,161284,6,0,P|120:74|52:66,1,135.000005149842,2|0,0:0|0:0,0:0:0:0:
160,240,161755,2,0,P|124:252|68:260,1,67.5000025749208,2|0,1:2|0:0,0:0:0:0:
364,64,162069,6,0,P|309:32|216:16,1,135.000005149842,2|8,1:2|1:1,0:0:0:0:
304,280,162540,1,2,0:0:0:0:
304,280,162619,2,0,P|259:308|192:332,1,101.250003862381,0|0,1:0|1:0,0:0:0:0:
60,184,163012,1,8,1:1:0:0:
1,322,163169,5,2,0:0:0:0:
1,322,163247,1,0,0:0:0:0:
1,322,163326,2,0,P|-2:339|0:356,2,33.7500012874604,2|0|0,0:0|0:0|1:2,0:0:0:0:
36,256,163561,1,0,0:0:0:0:
73,315,163640,6,0,P|77:337|72:360,2,45,0|2|0,1:3|0:0|0:0,0:0:0:0:
112,240,163875,1,0,1:0:0:0:
152,301,163954,6,0,P|148:334|152:368,2,67.5000025749208,2|0|0,0:0|0:0|1:0,0:0:0:0:
192,224,164190,1,2,0:0:0:0:
224,287,164268,6,0,P|232:331|224:376,2,90,2|2|2,1:2|0:0|0:0,0:0:0:0:
272,208,164504,1,0,0:0:0:0:
304,272,164582,5,4,1:0:0:0:
340,184,164739,1,0,0:0:0:0:
376,272,164896,1,2,0:0:0:0:
412,184,165053,1,0,0:0:0:0:
416,188,165682,5,2,0:0:0:0:
340,336,166153,1,2,0:0:0:0:
272,284,166467,5,2,0:0:0:0:
256,277,166546,1,2,0:0:0:0:
240,284,166624,1,0,0:0:0:0:
234,299,166703,1,0,0:0:0:0:
240,315,166781,1,0,0:0:0:0:
256,321,166860,1,2,0:0:0:0:
272,315,166938,1,2,0:0:0:0:
278,299,167017,1,0,0:0:0:0:
208,272,167095,5,2,0:0:0:0:
172,184,167252,1,0,0:0:0:0:
136,272,167410,1,2,0:0:0:0:
100,184,167567,1,0,0:0:0:0:
96,188,168195,5,2,0:0:0:0:
468,92,168666,1,2,0:0:0:0:
272,100,168980,5,2,0:0:0:0:
256,107,169059,1,2,0:0:0:0:
240,100,169137,1,0,0:0:0:0:
234,85,169216,1,0,0:0:0:0:
240,69,169294,1,0,0:0:0:0:
256,63,169373,1,2,0:0:0:0:
272,69,169451,1,2,0:0:0:0:
278,85,169530,1,0,0:0:0:0:
208,112,169608,5,2,0:0:0:0:
172,200,169766,1,0,0:0:0:0:
136,112,169923,1,2,0:0:0:0:
100,200,170080,1,0,0:0:0:0:
96,196,170708,5,2,0:0:0:0:
172,48,171179,1,2,0:0:0:0:
240,100,171493,5,2,0:0:0:0:
256,107,171572,1,2,0:0:0:0:
272,100,171650,1,0,0:0:0:0:
278,85,171729,1,0,0:0:0:0:
272,69,171807,1,0,0:0:0:0:
256,63,171886,1,2,0:0:0:0:
240,69,171964,1,2,0:0:0:0:
234,85,172043,1,0,0:0:0:0:
304,112,172122,5,2,0:0:0:0:
340,200,172279,1,0,0:0:0:0:
376,112,172436,1,2,0:0:0:0:
412,200,172593,1,0,0:0:0:0:
416,196,173221,5,2,0:0:0:0:
44,292,173692,1,2,0:0:0:0:
240,284,174006,5,2,0:0:0:0:
256,277,174085,1,2,0:0:0:0:
272,284,174163,1,0,0:0:0:0:
278,299,174242,1,2,0:0:0:0:
272,315,174321,1,2,0:0:0:0:
256,321,174399,1,0,0:0:0:0:
240,315,174478,1,0,0:0:0:0:
234,299,174556,1,0,0:0:0:0:
304,272,174635,6,0,L|408:272,1,80.9999975280763,4|0,1:0|0:0,0:0:0:0:
508,112,174949,1,2,0:0:0:0:
460,56,175106,1,0,1:0:0:0:
412,112,175263,6,0,B|336:140|336:140|260:112,1,161.999995056153,8|2,1:1|0:0,0:0:0:0:
132,64,175734,1,2,0:0:0:0:
132,60,175891,6,0,L|132:12,1,40.4999987640381,0|0,1:0|0:0,0:0:0:0:
72,188,176127,2,0,L|72:108,1,80.9999975280763,0|0,1:0|0:0,0:0:0:0:
0,168,176362,2,0,L|0:120,1,40.4999987640381,0|0,1:0|0:0,0:0:0:0:
0,284,176519,1,10,1:3:0:0:
0,356,176834,5,2,0:0:0:0:
72,356,176991,1,0,0:0:0:0:
208,272,177148,6,0,L|104:272,1,80.9999975280763,0|0,1:0|0:0,0:0:0:0:
256,328,177462,1,2,0:0:0:0:
304,384,177619,1,0,1:0:0:0:
352,328,177776,6,0,B|428:300|428:300|504:328,1,161.999995056153,8|2,1:1|0:0,0:0:0:0:
348,228,178247,1,2,0:0:0:0:
348,224,178404,6,0,L|396:224,1,40.4999987640381,0|0,1:0|0:0,0:0:0:0:
220,164,178640,2,0,L|300:164,1,80.9999975280763,0|0,1:0|0:0,0:0:0:0:
240,92,178875,2,0,L|288:92,1,40.4999987640381,0|0,1:0|0:0,0:0:0:0:
512,92,179033,1,10,1:3:0:0:
512,92,179111,1,2,0:0:0:0:
512,92,179190,1,0,0:0:0:0:
437,92,179347,5,2,0:0:0:0:
417,124,179425,1,0,0:0:0:0:
397,156,179504,1,0,0:0:0:0:
377,124,179582,1,0,0:0:0:0:
361,92,179661,6,0,L|269:92,1,80.9999975280763,0|0,1:0|0:0,0:0:0:0:
128,32,179975,1,2,0:0:0:0:
72,80,180132,1,0,1:0:0:0:
128,128,180289,6,0,B|128:192|128:192|108:220|108:220|108:282,1,161.999995056153,8|2,1:0|0:0,0:0:0:0:
172,320,180760,1,2,0:0:0:0:
172,324,180917,6,0,L|172:372,1,40.4999987640381,0|0,1:0|0:0,0:0:0:0:
232,196,181153,2,0,L|232:276,1,80.9999975280763,0|0,1:0|0:0,0:0:0:0:
304,216,181389,2,0,L|304:264,1,40.4999987640381,0|0,1:0|0:0,0:0:0:0:
304,100,181546,1,10,1:3:0:0:
376,100,181703,1,0,0:0:0:0:
440,212,181860,5,2,0:0:0:0:
304,212,182017,1,0,0:0:0:0:
304,24,182174,5,0,1:0:0:0:
304,24,182331,1,0,1:0:0:0:
376,100,182488,1,0,1:0:0:0:
376,100,182645,1,0,1:0:0:0:
256,192,182802,5,0,1:0:0:0:
256,192,182959,1,0,1:0:0:0:
156,348,183116,1,0,1:0:0:0:
156,348,183273,1,0,1:0:0:0:
356,348,183430,6,0,L|416:348,1,45,0|0,1:0|1:0,0:0:0:0:
280,349,183588,2,0,L|280:304,1,45,0|0,1:0|1:0,0:0:0:0:
319,236,183745,6,0,L|364:236,1,45,0|0,1:0|1:0,0:0:0:0:
256,147,183902,2,0,L|256:192,1,45,0|0,1:0|1:0,0:0:0:0:
376,100,184059,6,0,L|331:100,1,45,2|0,1:3|1:0,0:0:0:0:
176,12,184216,2,0,L|176:57,1,45,0|0,1:0|1:0,0:0:0:0:
304,24,184373,1,8,1:0:0:0:
208,360,184687,5,2,2:0:0:0:
240,0,185944,5,4,1:1:0:0:
296,200,186101,1,0,0:0:0:0:
168,148,186258,2,0,P|187:148|216:132,1,45,8|0,1:0|0:0,0:0:0:0:
356,40,186415,6,0,P|439:30|516:92,1,180,2|0,0:0|0:0,0:0:0:0:
431,324,186886,2,0,P|435:302|436:280,1,45,8|0,1:0|0:0,0:0:0:0:
340,116,187043,6,0,P|340:192|312:264,1,135,2|0,0:0|0:0,0:0:0:0:
352,320,187357,2,0,P|352:336|360:364,1,45,0|0,1:0|0:0,0:0:0:0:
488,376,187514,1,8,1:0:0:0:
272,312,187671,6,0,P|200:339|138:337,1,135.000005149842,2|0,0:0|2:0,0:0:0:0:
96,276,187985,2,0,P|75:269|40:268,1,45,0|0,1:0|0:0,0:0:0:0:
260,196,188142,2,0,P|213:185|172:161,1,90,0|0,1:3|0:0,0:0:0:0:
272,0,188457,5,2,0:2:0:0:
192,260,188614,1,0,1:0:0:0:
344,148,188771,2,0,P|325:148|296:132,1,45,8|0,1:0|0:0,0:0:0:0:
156,40,188928,6,0,P|73:30|-4:92,1,180,2|0,0:0|1:0,0:0:0:0:
80,324,189399,2,0,P|76:302|76:280,1,45,8|0,1:0|0:0,0:0:0:0:
172,116,189556,6,0,P|172:192|200:264,1,135,2|0,0:0|0:0,0:0:0:0:
160,320,189870,2,0,P|160:336|152:364,1,45,0|0,1:0|0:0,0:0:0:0:
256,380,190027,6,0,P|284:372|308:372,1,45,8|0,1:0|0:0,0:0:0:0:
332,375,190184,2,0,P|354:377|376:384,1,45,2|0,0:0|1:0,0:0:0:0:
446,307,190341,6,0,P|412:305|379:309,1,67.5000025749208,2|0,0:2|0:0,0:0:0:0:
288,292,190499,2,0,P|267:281|223:270,1,67.5000025749208,2|0,1:2|0:0,0:0:0:0:
232,156,190656,6,0,P|272:175|301:209,1,90,2|0,1:3|0:0,0:0:0:0:
404,231,190813,2,0,P|445:215|490:215,1,90,2|0,0:2|0:0,0:0:0:0:
480,144,190970,5,0,1:1:0:0:
280,96,191127,1,2,0:0:0:0:
324,320,191284,2,0,P|324:302|340:272,1,45,8|0,1:0|0:0,0:0:0:0:
400,156,191441,6,0,P|410:73|348:-4,1,180,2|0,0:0|1:0,0:0:0:0:
83,101,191912,2,0,P|105:97|127:96,1,45,8|0,1:0|0:0,0:0:0:0:
332,108,192069,6,0,P|256:108|184:136,1,135,2|0,0:0|0:0,0:0:0:0:
144,188,192383,2,0,P|128:188|100:180,1,45,0|0,1:0|0:0,0:0:0:0:
100,24,192540,1,8,1:0:0:0:
356,224,192697,6,0,P|284:197|222:199,1,135.000005149842,2|0,0:0|2:0,0:0:0:0:
180,260,193012,2,0,P|159:267|124:268,1,45,0|0,1:0|0:0,0:0:0:0:
344,340,193169,2,0,P|297:351|256:375,1,90,0|0,1:3|0:0,0:0:0:0:
5,364,193483,6,0,P|94:372|179:345,1,180,2|8,1:2|1:0,0:0:0:0:
256,28,193954,1,2,0:0:0:0:
256,20,194033,2,0,L|256:128,1,90,0|0,1:0|2:0,0:0:0:0:
256,104,194268,2,0,L|256:212,1,90,0|8,1:0|1:0,0:0:0:0:
512,348,194582,5,2,0:0:0:0:
512,348,194661,1,0,0:0:0:0:
512,356,194739,2,0,P|514:338|512:323,1,33.7500012874604,2|0,0:0|0:0,0:0:0:0:
512,244,194896,2,0,P|514:226|512:211,1,33.7500012874604,2|0,1:2|0:0,0:0:0:0:
440,360,195053,6,0,P|436:340|440:315,1,45,8|0,1:1|0:0,0:0:0:0:
440,248,195211,2,0,P|436:228|440:203,1,45,2|0,3:2|1:0,0:0:0:0:
360,368,195368,6,0,P|364:336|360:301,1,67.5000025749208,2|0,3:2|3:0,0:0:0:0:
360,212,195525,2,0,P|364:180|360:145,1,67.5000025749208,2|0,1:2|3:0,0:0:0:0:
288,376,195682,6,0,P|280:332|288:288,1,90,2|0,1:2|3:0,0:0:0:0:
288,220,195839,2,0,P|280:176|288:132,1,90,2|0,3:2|3:0,0:0:0:0:
216,384,195996,5,4,1:1:0:0:
200,172,196153,1,2,0:0:0:0:
330,277,196310,2,0,P|311:277|282:293,1,45,8|0,1:0|0:0,0:0:0:0:
148,348,196467,1,2,0:0:0:0:
156,344,196546,6,0,P|76:348|16:300,1,135,0|0,1:0|1:0,0:0:0:0:
112,128,196938,2,0,P|97:110|85:92,1,45,8|0,1:0|0:0,0:0:0:0:
172,268,197095,6,0,P|172:192|200:120,1,135,2|0,0:0|0:0,0:0:0:0:
160,64,197410,2,0,P|160:48|152:20,1,45,0|0,1:0|0:0,0:0:0:0:
24,8,197567,1,8,1:0:0:0:
247,68,197724,1,2,0:0:0:0:
240,72,197802,6,0,P|283:49|360:48,1,90,0|0,1:0|2:0,0:0:0:0:
404,64,198038,2,0,P|436:72|460:72,1,45,0|0,1:0|0:0,0:0:0:0:
252,188,198195,2,0,P|299:199|340:223,1,90,8|0,1:1|0:0,0:0:0:0:
240,384,198509,5,2,1:2:0:0:
320,124,198666,1,0,1:0:0:0:
168,236,198823,2,0,P|187:236|216:252,1,45,8|0,1:0|0:0,0:0:0:0:
364,348,198980,1,2,0:0:0:0:
356,344,199059,6,0,P|436:348|496:300,1,135,0|0,1:0|1:0,0:0:0:0:
432,60,199451,2,0,P|436:82|436:104,1,45,8|0,1:0|0:0,0:0:0:0:
340,268,199608,6,0,P|340:192|312:120,1,135,2|0,0:0|0:0,0:0:0:0:
352,64,199923,2,0,P|352:48|360:20,1,45,0|0,1:0|0:0,0:0:0:0:
248,80,200080,6,0,P|240:108|240:132,1,45,8|0,1:0|0:0,0:0:0:0:
243,156,200237,2,0,P|245:178|252:200,1,45,2|0,0:0|1:0,0:0:0:0:
175,270,200394,6,0,P|173:236|177:203,1,67.5000025749208,2|0,0:2|0:0,0:0:0:0:
160,112,200551,2,0,P|149:91|138:47,1,67.5000025749208,2|0,1:2|0:0,0:0:0:0:
24,56,200708,6,0,P|43:96|77:125,1,90,8|0,1:0|0:0,0:0:0:0:
99,228,200865,2,0,P|83:269|83:314,1,90,2|0,0:2|0:0,0:0:0:0:
8,352,201022,5,4,1:1:0:0:
172,288,201179,1,2,0:0:0:0:
12,192,201336,2,0,P|12:210|-4:240,1,45,8|0,1:0|0:0,0:0:0:0:
164,376,201493,1,2,0:0:0:0:
156,372,201572,6,0,P|240:376|292:328,1,135,0|0,1:0|1:0,0:0:0:0:
432,248,201964,2,0,P|410:252|388:253,1,45,8|0,1:0|0:0,0:0:0:0:
176,216,202122,6,0,P|240:236|307:234,1,135,2|0,0:0|0:0,0:0:0:0:
344,160,202436,2,0,P|360:160|388:168,1,45,0|0,1:0|0:0,0:0:0:0:
356,368,202593,1,8,1:0:0:0:
224,124,202750,1,2,0:0:0:0:
216,128,202828,6,0,P|273:101|308:63,1,90,0|0,1:0|2:0,0:0:0:0:
399,6,203064,2,0,P|385:23|376:44,1,45,0|0,1:0|0:0,0:0:0:0:
132,140,203221,2,0,P|85:129|44:105,1,90,8|0,1:0|0:0,0:0:0:0:
452,364,203535,6,0,P|477:284|470:200,1,135,2|0,1:2|2:0,0:0:0:0:
432,160,203849,2,0,P|415:142|396:104,1,45,8|0,1:0|0:0,0:0:0:0:
256,304,204006,5,2,0:0:0:0:
256,312,204085,2,0,L|256:204,1,90,0|0,1:0|2:0,0:0:0:0:
256,228,204321,2,0,L|256:120,1,90,0|8,1:0|1:0,0:0:0:0:
0,36,204635,5,2,0:0:0:0:
0,36,204713,1,0,0:0:0:0:
0,28,204792,2,0,P|-2:46|0:61,1,33.7500012874604,2|0,1:2|0:0,0:0:0:0:
0,173,204949,2,0,P|-2:156|0:140,1,33.7500012874604,2|0,0:2|0:0,0:0:0:0:
72,24,205106,6,0,P|76:44|72:69,1,45,0|0,0:2|0:0,0:0:0:0:
72,180,205263,2,0,P|76:158|72:136,1,45,2|0,3:2|3:0,0:0:0:0:
152,16,205420,6,0,P|148:48|152:83,1,67.5000025749208,2|0,3:2|3:0,0:0:0:0:
151,238,205577,2,0,P|147:205|152:172,1,67.5000025749208,2|0,3:2|3:0,0:0:0:0:
224,8,205734,6,0,P|232:52|224:96,1,90,2|0,3:2|3:0,0:0:0:0:
223,252,205891,2,0,P|232:208|224:164,1,90,2|0,3:2|3:0,0:0:0:0:
300,56,206048,6,0,P|324:68|364:60,1,67.5000025749208,4|0,1:1|0:0,0:0:0:0:
412,116,206362,2,0,P|436:103|476:112,1,67.5000025749208,4|0,0:2|0:0,0:0:0:0:
512,232,206677,2,0,P|461:262|392:240,1,135.000005149842,2|4,0:0|0:0,0:0:0:0:
320,252,207148,1,4,0:0:0:0:
256,368,207305,5,4,0:0:0:0:
192,332,207462,1,0,0:0:0:0:
192,332,207540,1,4,0:0:0:0:
192,332,207619,1,4,0:0:0:0:
256,108,207776,1,0,0:0:0:0:
247,200,207933,5,4,0:0:0:0:
256,204,208012,1,2,0:0:0:0:
264,200,208090,1,2,0:0:0:0:
268,192,208169,1,4,0:0:0:0:
264,183,208247,1,4,0:0:0:0:
256,179,208326,1,2,0:0:0:0:
247,183,208404,1,4,0:0:0:0:
243,192,208483,1,0,0:0:0:0:
248,200,208561,6,0,P|223:212|184:204,1,67.5000025749208,6|0,0:2|0:0,0:0:0:0:
136,260,208875,2,0,P|111:247|72:256,1,67.5000025749208,4|0,0:2|0:0,0:0:0:0:
68,108,209190,2,0,P|119:138|188:116,1,135.000005149842,2|4,0:0|0:0,0:0:0:0:
256,88,209661,1,6,0:0:0:0:
256,308,209818,5,4,0:0:0:0:
328,328,209975,1,0,0:0:0:0:
328,328,210053,1,4,0:0:0:0:
328,328,210132,1,6,0:0:0:0:
184,328,210289,1,2,0:0:0:0:
264,200,210446,5,4,0:0:0:0:
256,204,210525,1,2,0:0:0:0:
247,200,210603,1,2,0:0:0:0:
243,192,210682,1,4,0:0:0:0:
247,183,210760,1,4,0:0:0:0:
256,179,210839,1,2,0:0:0:0:
264,183,210917,1,4,0:0:0:0:
268,192,210996,1,0,0:0:0:0:
264,200,211074,6,0,P|288:212|328:204,1,67.5000025749208,6|0,0:2|0:0,0:0:0:0:
392,92,211389,2,0,L|380:8,1,67.5000025749208,4|0,0:0|0:0,0:0:0:0:
264,72,211703,2,0,B|200:48|200:104|132:77,1,135.000005149842,6|4,0:0|0:0,0:0:0:0:
52,0,212174,6,0,P|28:28|-5:40,1,67.5000025749208,2|4,0:0|0:0,0:0:0:0:
8,168,212488,1,0,0:0:0:0:
76,136,212645,2,0,P|106:149|126:176,1,67.5000025749208,2|0,0:0|0:0,0:0:0:0:
265,184,212959,5,4,0:0:0:0:
256,180,213038,1,2,0:0:0:0:
248,184,213116,1,2,0:0:0:0:
244,192,213195,1,4,0:0:0:0:
248,201,213273,1,4,0:0:0:0:
256,205,213352,1,2,0:0:0:0:
265,201,213430,1,4,0:0:0:0:
269,192,213509,1,0,0:0:0:0:
264,184,213588,6,0,P|289:172|328:180,1,67.5000025749208,2|0,0:2|0:0,0:0:0:0:
392,292,213902,2,0,L|380:376,1,67.5000025749208,4|0,0:0|0:0,0:0:0:0:
264,312,214216,2,0,B|200:336|200:280|132:307,1,135.000005149842,6|4,0:0|0:0,0:0:0:0:
52,383,214687,6,0,P|34:363|9:354,1,33.7500012874604,6|0,0:0|0:0,0:0:0:0:
0,208,214844,2,0,L|8:256,1,33.7500012874604,4|0,0:0|0:0,0:0:0:0:
72,268,215001,2,0,P|89:247|114:238,1,33.7500012874604,0|4,0:0|0:0,0:0:0:0:
165,310,215158,2,0,P|149:305|133:306,1,33.7500012874604,4|0,0:0|0:0,0:0:0:0:
136,184,215315,2,0,L|144:136,1,33.7500012874604,6|0,0:0|0:0,0:0:0:0:
247,184,215472,5,4,0:0:0:0:
256,180,215551,1,2,0:0:0:0:
264,184,215629,1,2,0:0:0:0:
268,192,215708,1,4,0:0:0:0:
264,201,215786,1,6,0:0:0:0:
256,205,215865,1,2,0:0:0:0:
247,201,215944,1,4,0:0:0:0:
243,192,216022,1,2,0:0:0:0:
248,184,216101,6,0,P|248:152|240:104,1,67.5000025749208,4|0,1:0|0:0,0:0:0:0:
172,24,216415,2,0,P|140:12|106:16,1,67.5000025749208
28,172,216729,2,0,P|86:177|164:160,1,135.000005149842,2|0,0:0|0:0,0:0:0:0:
248,44,217200,5,2,0:0:0:0:
264,340,217671,1,0,0:0:0:0:
264,340,217828,1,2,0:0:0:0:
328,304,217985,2,0,P|333:289|317:261,3,33.7500012874604
356,372,218300,2,0,P|371:367|384:337,3,33.7500012874604
404,280,218614,6,0,P|404:248|396:200,1,67.5000025749208,2|0,0:2|0:0,0:0:0:0:
328,120,218928,2,0,P|296:108|262:112,1,67.5000025749208
404,136,219242,2,0,P|419:70|414:3,1,135.000005149842,2|0,0:0|0:0,0:0:0:0:
264,44,219713,5,2,0:0:0:0:
248,340,220184,1,2,0:0:0:0:
248,340,220341,1,0,0:0:0:0:
184,304,220499,2,0,P|179:289|195:261,3,33.7500012874604
156,372,220813,2,0,P|140:367|127:337,3,33.7500012874604
108,280,221127,6,0,L|33:276,1,67.5000025749208,2|0,0:0|0:0,0:0:0:0:
140,208,221441,2,0,P|118:179|85:156,1,67.5000025749208
216,200,221755,2,0,P|231:147|220:52,1,135.000005149842,2|0,0:0|0:0,0:0:0:0:
188,4,222226,5,2,0:0:0:0:
324,380,222697,1,2,0:0:0:0:
324,380,222855,1,0,0:0:0:0:
256,348,223012,2,0,P|240:343|229:330,3,33.7500012874604
284,280,223326,2,0,P|278:264|283:247,3,33.7500012874604
360,264,223640,6,0,L|435:260,1,67.5000025749208,2|0,0:0|0:0,0:0:0:0:
396,344,223954,2,0,P|428:357|469:360,1,67.5000025749208
336,188,224268,2,0,P|373:101|428:68,1,135.000005149842,2|0,0:0|0:0,0:0:0:0:
372,12,224739,5,2,0:0:0:0:
140,372,225211,1,2,0:0:0:0:
140,372,225368,1,0,0:0:0:0:
216,372,225525,2,0,P|231:367|242:354,3,33.7500012874604,0|0|2|0,0:0|0:0|0:0|0:0,0:0:0:0:
228,280,225839,2,0,P|233:264|228:247,3,33.7500012874604
