osu file format v14

[General]
AudioFilename: audio.mp3
AudioLeadIn: 0
PreviewTime: 185904
Countdown: 0
SampleSet: Soft
StackLeniency: 0.7
Mode: 0
LetterboxInBreaks: 0
WidescreenStoryboard: 1

[Editor]
Bookmarks: 1232,11284,21336,41441,61546,81650,84163,104268,124373,134425,144478,164582,174635,185944,206048,216101,226153
DistanceSpacing: 1
BeatDivisor: 4
GridSize: 32
TimelineZoom: 2.199999

[Metadata]
Title:Catanoph
TitleUnicode:Catanoph
Artist:An
ArtistUnicode:An
Creator:Ryuusei Aika
Version:Miura's Extra
Source:
Tags:AcuticNotes Diverse System AD PIANO AD:PIANO artcore Frontier -_Frontier_- PandaHero irotuk iCeya Crystar Miura kanor Lavender yf_bmp
BeatmapID:1697021
BeatmapSetID:775846

[Difficulty]
HPDrainRate:6.3
CircleSize:4
OverallDifficulty:8.3
ApproachRate:9.3
SliderMultiplier:1.97
SliderTickRate:1

[Events]
//Background and Video events
0,0,"id_46454797.jpg",0,0
//Break Periods
2,124573,132458
//Storyboard Layer 0 (Background)
//Storyboard Layer 1 (Fail)
//Storyboard Layer 2 (Pass)
//Storyboard Layer 3 (Foreground)
//Storyboard Sound Samples

[TimingPoints]
0,314.13612565445,4,2,1,100,1,0
1232,314.13612565445,4,2,1,50,1,0
1232,-100,4,2,1,50,0,0
1546,-200,4,2,1,50,0,0
2802,-133.333333333333,4,2,1,50,0,0
3745,-100,4,2,1,50,0,0
4059,-200,4,2,1,50,0,0
5001,-133.333333333333,4,2,1,50,0,0
5944,-133.333333333333,4,2,1,50,0,0
6258,-100,4,2,1,50,0,0
6886,-200,4,2,1,50,0,0
8142,-133.333333333333,4,2,1,50,0,0
8771,-100,4,2,1,50,0,0
9399,-200,4,2,1,50,0,0
10970,-133.333333333333,4,2,1,50,0,0
11284,-100,4,2,1,30,0,0
12226,-133.333333333333,4,2,1,30,0,0
12540,-100,4,2,1,30,0,0
13797,-100,4,2,1,30,0,0
14739,-133.333333333333,4,2,1,30,0,0
15053,-100,4,2,1,30,0,0
15996,-133.333333333333,4,2,1,30,0,0
16310,-100,4,2,1,30,0,0
17252,-133.333333333333,4,2,1,30,0,0
17567,-100,4,2,1,30,0,0
18823,-100,4,2,1,30,0,0
20080,-100,4,2,1,30,0,0
21022,-66.6666666666667,4,2,1,30,0,0
21336,-80,4,2,1,40,0,1
23221,-100,4,2,1,40,0,1
23849,-80,4,2,1,40,0,1
25891,-100,4,2,1,40,0,1
26362,-80,4,2,1,40,0,1
28247,-100,4,2,1,40,0,1
28875,-80,4,2,1,40,0,1
30132,-100,4,2,1,40,0,1
31074,-200,4,2,1,40,0,0
31389,-80,4,2,1,40,0,1
33273,-100,4,2,1,40,0,1
33902,-80,4,2,1,40,0,1
35944,-100,4,2,1,40,0,1
36415,-80,4,2,1,40,0,1
38300,-100,4,2,1,40,0,1
38928,-80,4,2,1,40,0,1
40027,-80,4,2,1,50,0,1
40184,-100,4,2,1,40,0,0
41127,-200,4,2,1,40,0,0
41441,-100,4,2,1,40,0,0
60289,-66.6666666666667,4,2,1,40,0,0
60760,-80,4,2,1,40,0,0
61546,-80,4,2,1,50,0,0
70970,-100,4,2,1,50,0,0
71598,-80,4,2,1,50,0,0
81022,-100,4,2,1,50,0,0
81650,-200,4,2,1,40,0,0
82907,-133.333333333333,4,2,1,40,0,0
83378,-66.6666666666667,4,2,1,40,0,0
83849,-200,4,2,1,40,0,0
84163,-133.333333333333,4,2,1,40,0,0
86048,-66.6666666666667,4,2,1,40,0,0
86677,-133.333333333333,4,2,1,40,0,0
88561,-66.6666666666667,4,2,1,40,0,0
89190,-133.333333333333,4,2,1,40,0,0
91074,-66.6666666666667,4,2,1,40,0,0
91703,-133.333333333333,4,2,1,40,0,0
93588,-66.6666666666667,4,2,1,40,0,0
94216,-133.333333333333,4,2,1,40,0,0
96101,-66.6666666666667,4,2,1,40,0,0
96729,-133.333333333333,4,2,1,40,0,0
98614,-66.6666666666667,4,2,1,40,0,0
99242,-133.333333333333,4,2,1,40,0,0
101127,-66.6666666666667,4,2,1,40,0,0
101755,-133.333333333333,4,2,1,40,0,0
103640,-66.6666666666667,4,2,1,40,0,0
103797,-100,4,2,1,40,0,0
103954,-200,4,2,1,40,0,0
104268,-80,4,2,1,50,0,0
105211,-100,4,2,1,50,0,0
105682,-80,4,2,1,50,0,0
107724,-100,4,2,1,50,0,0
108195,-80,4,2,1,50,0,0
108823,-100,4,2,1,50,0,0
109294,-80,4,2,1,50,0,0
110237,-100,4,2,1,50,0,0
110708,-80,4,2,1,50,0,0
112750,-100,4,2,1,50,0,0
113221,-80,4,2,1,50,0,0
113849,-100,4,2,1,50,0,0
114321,-80,4,2,1,50,0,0
118875,-100,4,2,1,50,0,0
119347,-80,4,2,1,50,0,0
123116,-100,4,2,1,50,0,0
124059,-200,4,2,1,50,0,0
124373,-100,4,2,1,50,0,0
133012,-200,4,2,1,40,0,0
134425,-133.333333333333,4,2,1,40,0,0
135682,-200,4,2,1,40,0,0
136938,-133.333333333333,4,2,1,40,0,0
138195,-200,4,2,1,40,0,0
139451,-133.333333333333,4,2,1,40,0,0
140708,-200,4,2,1,40,0,0
141964,-133.333333333333,4,2,1,40,0,0
142907,-100,4,2,1,40,0,0
143221,-66.6666666666667,4,2,1,50,0,0
144478,-80,4,2,1,60,0,1
153273,-100,4,2,1,60,0,1
154530,-80,4,2,1,60,0,1
163326,-100,4,2,1,60,0,1
164582,-133.333333333333,4,2,1,30,0,0
165211,-200,4,2,1,30,0,0
166467,-100,4,2,1,30,0,0
167095,-133.333333333333,4,2,1,30,0,0
167724,-200,4,2,1,30,0,0
168980,-100,4,2,1,30,0,0
169608,-133.333333333333,4,2,1,30,0,0
170237,-200,4,2,1,30,0,0
171493,-100,4,2,1,30,0,0
172122,-133.333333333333,4,2,1,30,0,0
172750,-200,4,2,1,30,0,0
174006,-100,4,2,1,40,0,0
182802,-100,4,2,1,45,0,0
183430,-100,4,2,1,50,0,0
184059,-66.6666666666667,4,2,1,60,0,0
184216,-66.6666666666667,4,2,1,50,0,0
184373,-200,4,2,1,60,0,0
184608,-200,4,2,1,5,0,0
184687,-200,4,2,1,40,0,0
185944,-80,4,2,1,70,0,1
189713,-100,4,2,1,70,0,1
190970,-80,4,2,1,70,0,1
194739,-100,4,2,1,70,0,1
195996,-80,4,2,1,70,0,1
199766,-100,4,2,1,70,0,1
201022,-80,4,2,1,70,0,1
204792,-100,4,2,1,70,0,0
205734,-200,4,2,1,70,0,0
206048,-100,4,2,1,40,0,0
206677,-133.333333333333,4,2,1,40,0,0
207933,-100,4,2,1,40,0,0
209190,-133.333333333333,4,2,1,40,0,0
210446,-100,4,2,1,40,0,0
211703,-133.333333333333,4,2,1,40,0,0
212959,-100,4,2,1,40,0,0
214216,-133.333333333333,4,2,1,40,0,0
214844,-100,4,2,1,40,0,0
216101,-133.333333333333,4,2,1,30,0,0
216729,-200,4,2,1,30,0,0
217985,-100,4,2,1,30,0,0
218614,-133.333333333333,4,2,1,30,0,0
219242,-200,4,2,1,30,0,0
220499,-100,4,2,1,30,0,0
221127,-133.333333333333,4,2,1,30,0,0
221755,-200,4,2,1,30,0,0
223012,-100,4,2,1,30,0,0
223640,-133.333333333333,4,2,1,30,0,0
224268,-200,4,2,1,30,0,0
225525,-100,4,2,1,30,0,0

[Colours]
Combo1 : 238,219,187
Combo2 : 56,131,199
Combo3 : 10,78,205
Combo4 : 109,175,150
Combo5 : 255,219,104
Combo6 : 220,108,128

[HitObjects]
405,137,0,5,0,0:0:0:0:
498,128,1232,38,0,P|453:144|405:137,1,98.5,0|0,0:0|0:0,0:0:0:0:
362,206,1467,1,0,0:0:0:0:
362,206,1546,70,0,L|370:269,1,49.25,0|0,0:0|0:0,0:0:0:0:
378,335,1860,2,0,L|384:383,1,49.25,0|0,0:0|0:0,0:0:0:0:
304,303,2174,37,0,0:0:0:0:
442,286,2331,1,0,0:0:0:0:
298,324,2488,37,0,0:0:0:0:
454,305,2645,1,0,0:0:0:0:
291,344,2802,38,0,P|258:330|221:328,1,73.8750028181077,0|0,0:0|0:0,0:0:0:0:
90,384,3116,2,0,P|120:361|140:331,1,73.8750028181077,0|0,0:0|0:0,0:0:0:0:
157,191,3430,2,0,P|161:226|178:259,1,73.8750028181077,0|0,0:0|0:0,0:0:0:0:
303,132,3745,54,0,L|184:124,1,98.5,0|0,0:0|0:0,0:0:0:0:
121,119,3980,1,0,0:0:0:0:
121,119,4059,70,0,L|125:59,1,49.25,0|0,0:0|0:0,0:0:0:0:
50,1,4373,2,0,B|42:23|42:23|46:47,1,49.25,0|0,0:0|0:0,0:0:0:0:
207,12,4687,2,0,B|211:35|211:35|203:58,1,49.25,0|0,0:0|0:0,0:0:0:0:
49,154,5001,37,0,0:0:0:0:
121,119,5158,1,0,0:0:0:0:
188,164,5315,1,0,0:0:0:0:
116,199,5472,1,0,0:0:0:0:
123,97,5629,38,0,L|128:23,1,73.8750028181077,0|0,0:0|0:0,0:0:0:0:
111,280,5944,38,0,L|106:354,1,73.8750028181077,0|0,0:0|0:0,0:0:0:0:
275,200,6258,53,0,0:0:0:0:
275,200,6336,1,0,0:0:0:0:
275,200,6415,2,0,B|288:246|288:246|268:291,1,98.5,0|0,0:0|0:0,0:0:0:0:
202,240,6728,1,0,0:0:0:0:
368,252,6886,70,0,P|391:242|416:243,1,49.25,0|0,0:0|0:0,0:0:0:0:
272,374,7200,2,0,P|247:373|224:364,1,49.25,0|0,0:0|0:0,0:0:0:0:
66,349,7514,37,0,0:0:0:0:
151,296,7672,1,0,0:0:0:0:
148,318,7750,1,0,0:0:0:0:
146,340,7829,1,0,0:0:0:0:
144,362,7907,1,0,0:0:0:0:
142,384,7985,1,0,0:0:0:0:
121,224,8142,37,0,0:0:0:0:
200,232,8299,1,0,0:0:0:0:
113,204,8457,37,0,0:0:0:0:
213,215,8614,1,0,0:0:0:0:
2,143,8771,53,0,0:0:0:0:
2,143,8849,2,0,P|50:142|93:118,1,98.5,0|0,0:0|0:0,0:0:0:0:
169,145,9085,1,0,0:0:0:0:
152,20,9242,69,0,0:0:0:0:
155,41,9320,1,0,0:0:0:0:
158,63,9399,2,0,L|206:68,1,49.25,0|0,0:0|0:0,0:0:0:0:
367,85,9713,2,0,L|415:90,1,49.25,0|0,0:0|0:0,0:0:0:0:
272,116,10027,37,0,0:0:0:0:
281,36,10184,1,0,0:0:0:0:
345,83,10341,1,0,0:0:0:0:
207,68,10499,1,0,0:0:0:0:
260,218,10656,37,0,0:0:0:0:
269,138,10813,1,0,0:0:0:0:
246,303,10970,38,0,P|212:288|176:287,1,73.8750028181077,0|0,0:0|0:0,0:0:0:0:
108,384,11284,54,0,B|93:280|93:280|36:244,1,147.75,2|0,0:0|0:0,0:0:0:0:
37,247,11598,1,0,0:0:0:0:
0,318,11755,1,2,0:0:0:0:
172,184,11912,2,0,L|73:175,1,98.5,8|0,0:0|0:0,0:0:0:0:
0,101,12148,1,0,0:0:0:0:
0,101,12226,2,0,P|36:99|70:85,1,73.8750028181077,0|0,0:0|0:0,0:0:0:0:
173,4,12540,38,0,P|153:45|162:110,1,98.5,2|0,0:0|0:0,0:0:0:0:
237,109,12776,2,0,P|256:123|280:129,1,49.25,2|0,0:0|0:0,0:0:0:0:
330,66,12933,1,0,0:0:0:0:
330,66,13012,1,2,0:0:0:0:
305,301,13169,2,0,L|315:203,1,98.5,8|0,0:0|0:0,0:0:0:0:
456,271,13483,2,0,B|473:316|473:316|446:357,1,98.5,0|0,0:0|0:0,0:0:0:0:
160,351,13797,38,0,B|134:282|134:282|174:220,1,147.75,2|0,0:0|0:0,0:0:0:0:
224,292,14111,1,0,0:0:0:0:
73,347,14268,1,2,0:0:0:0:
145,145,14425,2,0,P|193:141|245:179,1,98.5,8|0,0:0|0:0,0:0:0:0:
284,237,14661,1,0,0:0:0:0:
284,237,14739,2,8,L|371:232,1,73.8750028181077,0|0,0:0|0:0,0:0:0:0:
508,93,15053,38,0,L|409:99,1,98.5,2|0,0:0|0:0,0:0:0:0:
337,153,15289,2,0,L|328:104,1,49.25,2|0,0:0|0:0,0:0:0:0:
312,25,15446,1,0,0:0:0:0:
307,4,15525,1,2,0:0:0:0:
214,188,15682,1,8,0:0:0:0:
135,170,15839,1,0,0:0:0:0:
135,170,15917,1,0,0:0:0:0:
135,170,15996,2,8,L|38:149,1,73.8750028181077,0|0,0:0|0:0,0:0:0:0:
229,268,16310,38,0,P|183:284|140:376,1,147.75,2|0,0:0|0:0,0:0:0:0:
156,384,16624,1,0,0:0:0:0:
71,302,16781,1,2,0:0:0:0:
267,339,16938,2,0,L|365:332,1,98.5,8|0,0:0|0:0,0:0:0:0:
439,377,17174,1,0,0:0:0:0:
439,377,17252,2,0,L|452:298,1,73.8750028181077,0|0,0:0|0:0,0:0:0:0:
512,182,17567,38,0,B|449:186|449:186|426:214,1,98.5,2|0,0:0|0:0,0:0:0:0:
317,239,17802,2,0,L|415:232,1,98.5,2|0,0:0|0:0,0:0:0:0:
451,304,18038,1,2,0:0:0:0:
424,68,18195,2,0,P|464:95|512:100,1,98.5,8|0,0:0|0:0,0:0:0:0:
264,42,18509,2,0,P|217:55|170:45,1,98.5,0|0,0:0|0:0,0:0:0:0:
353,0,18823,38,0,L|329:145,1,147.75,2|0,0:0|0:0,0:0:0:0:
336,168,19137,1,0,0:0:0:0:
257,181,19294,1,2,0:0:0:0:
157,78,19451,37,8,3:2:0:0:
179,106,19530,1,0,3:2:0:0:
186,142,19609,1,0,3:2:0:0:
177,178,19687,1,0,3:2:0:0:
153,205,19766,1,0,3:2:0:0:
119,220,19844,1,0,3:2:0:0:
75,196,19923,38,0,L|68:147,1,49.25,0|0,3:2|3:2,0:0:0:0:
345,285,20080,6,0,L|342:309,1,24.625,2|0,0:0|0:0,0:0:0:0:
167,285,20315,2,0,L|170:309,1,24.625,2|0,0:0|0:0,0:0:0:0:
405,360,20551,38,0,L|401:384,1,24.625,2|0,0:0|0:0,0:0:0:0:
107,360,20786,2,0,L|111:384,1,24.625,2|0,0:0|0:0,0:0:0:0:
306,192,21022,38,0,P|223:227|244:140,1,221.625008454323,2|0,0:0|0:0,0:0:0:0:
478,150,21336,38,0,L|417:144,1,61.5625,6|0,0:0|0:0,0:0:0:0:
320,113,21493,1,0,0:0:0:0:
342,115,21572,2,0,L|464:125,1,123.125,0|0,0:0|0:0,0:0:0:0:
512,60,21807,1,2,0:0:0:0:
241,0,21964,38,0,P|253:50|209:117,1,123.125,0|2,0:0|0:0,0:0:0:0:
115,24,22200,1,2,0:0:0:0:
115,24,22279,2,0,P|145:28|172:44,1,61.5625,8|0,0:0|0:0,0:0:0:0:
134,227,22436,38,0,L|119:105,2,123.125,2|0|2,0:0|0:0|0:0,0:0:0:0:
145,307,22828,1,2,0:0:0:0:
209,259,22907,38,0,B|237:247|237:247|266:257,1,61.5625,8|0,0:0|0:0,0:0:0:0:
70,276,23064,2,0,B|39:272|39:272|14:288,1,61.5625,2|0,0:0|0:0,0:0:0:0:
207,153,23222,37,0,0:0:0:0:
228,159,23300,1,0,0:0:0:0:
249,166,23379,1,2,0:0:0:0:
270,173,23457,1,0,0:0:0:0:
317,160,23535,37,8,0:0:0:0:
342,118,23613,1,0,0:0:0:0:
384,93,23692,1,2,0:0:0:0:
433,93,23770,1,0,0:0:0:0:
475,117,23849,38,0,L|479:178,1,61.5625,2|0,0:0|0:0,0:0:0:0:
462,291,24006,2,0,P|428:240|371:220,1,123.125,0|8,0:0|0:0,0:0:0:0:
309,270,24242,1,0,0:0:0:0:
309,270,24321,1,2,0:0:0:0:
220,71,24478,38,0,L|98:80,1,123.125,0|0,0:0|0:0,0:0:0:0:
14,33,24713,1,0,0:0:0:0:
16,55,24792,2,0,L|20:116,1,61.5625,8|0,0:0|0:0,0:0:0:0:
115,223,24949,38,0,P|150:172|207:152,2,123.125,2|0|2,0:0|0:0|0:0,0:0:0:0:
146,299,25341,1,0,0:0:0:0:
199,238,25420,38,0,P|259:242|305:281,1,123.125,8|2,0:0|0:0,0:0:0:0:
77,130,25734,38,0,L|137:140,1,61.5625
184,74,25891,1,2,0:0:0:0:
205,70,25969,1,0,0:0:0:0:
233,29,26048,37,8,0:0:0:0:
281,36,26126,1,0,0:0:0:0:
330,44,26205,1,0,0:0:0:0:
379,51,26283,1,0,0:0:0:0:
427,59,26362,38,0,L|488:49,1,61.5625,2|0,0:0|0:0,0:0:0:0:
271,116,26519,1,0,0:0:0:0:
292,120,26598,2,0,B|365:132|365:132|394:171,1,123.125,0|0,0:0|0:0,0:0:0:0:
436,240,26834,1,0,0:0:0:0:
198,154,26991,38,0,P|223:208|199:272,1,123.125,0|0,0:0|0:0,0:0:0:0:
85,233,27226,1,0,0:0:0:0:
85,233,27305,2,0,P|115:227|141:213,1,61.5625,8|0,0:0|0:0,0:0:0:0:
205,70,27462,38,0,P|144:64|102:11,2,123.125,2|0|2,0:0|0:0|0:0,0:0:0:0:
282,116,27855,1,2,0:0:0:0:
289,35,27933,38,0,L|284:96,1,61.5625,8|0,0:0|0:0,0:0:0:0:
278,196,28090,2,0,L|273:257,1,61.5625,2|0,0:0|0:0,0:0:0:0:
367,82,28247,37,0,0:0:0:0:
386,72,28325,1,0,0:0:0:0:
408,69,28404,1,2,0:0:0:0:
429,74,28482,1,0,0:0:0:0:
479,74,28561,37,8,0:0:0:0:
437,97,28640,1,0,0:0:0:0:
412,139,28718,1,2,0:0:0:0:
411,188,28797,1,0,0:0:0:0:
433,228,28875,38,0,P|456:249|484:259,1,61.5625,2|0,0:0|0:0,0:0:0:0:
292,337,29033,2,0,L|414:318,1,123.125,0|8,0:0|0:0,0:0:0:0:
491,340,29268,1,0,0:0:0:0:
512,336,29346,1,2,0:0:0:0:
238,273,29504,38,0,B|202:322|202:322|220:381,1,123.125,0|2,0:0|0:0,0:0:0:0:
132,367,29739,1,0,0:0:0:0:
132,367,29818,2,0,L|71:357,1,61.5625,8|0,0:0|0:0,0:0:0:0:
225,193,29975,2,0,L|164:183,1,61.5625,2|2,0:0|0:0,0:0:0:0:
92,226,30132,37,8,0:0:0:0:
85,250,30210,1,0,0:0:0:0:
99,270,30289,2,0,B|106:246|106:246|92:226,1,49.25,2|2,0:0|0:0,0:0:0:0:
105,112,30446,37,8,0:0:0:0:
70,120,30524,1,0,0:0:0:0:
53,153,30603,2,0,B|77:147|77:147|87:124,1,49.25,2|0,0:0|0:0,0:0:0:0:
231,74,30760,37,0,3:2:0:0:
198,37,30839,1,0,3:2:0:0:
149,41,30917,2,0,B|166:59|166:59|190:56,1,49.25,2|0,3:2|3:2,0:0:0:0:
313,75,31074,54,0,B|301:110|301:110|322:139,1,73.875,2|0,3:2|3:2,0:0:0:0:
451,88,31389,70,0,B|391:97,1,61.5625,2|0,0:0|0:0,0:0:0:0:
314,223,31546,1,0,0:0:0:0:
336,220,31624,2,0,B|457:202,1,123.125,0|0,0:0|0:0,0:0:0:0:
512,143,31860,1,2,0:0:0:0:
426,371,32017,38,0,P|392:320|335:301,1,123.125,0|2,0:0|0:0,0:0:0:0:
257,279,32252,1,0,0:0:0:0:
257,278,32331,2,0,P|242:305|217:323,1,61.5625,8|0,0:0|0:0,0:0:0:0:
101,232,32488,38,0,L|109:109,2,123.125,2|0|2,0:0|0:0|0:0,0:0:0:0:
67,305,32881,1,2,0:0:0:0:
18,241,32959,38,0,L|22:179,1,61.5625,8|0,0:0|0:0,0:0:0:0:
181,252,33116,2,0,L|185:190,1,61.5625,2|0,0:0|0:0,0:0:0:0:
271,85,33273,37,0,0:0:0:0:
275,106,33351,1,0,0:0:0:0:
279,127,33430,1,2,0:0:0:0:
284,149,33508,1,0,0:0:0:0:
266,195,33588,37,8,0:0:0:0:
303,163,33666,1,0,0:0:0:0:
351,155,33745,1,0,0:0:0:0:
397,171,33823,1,0,0:0:0:0:
428,207,33902,38,0,P|459:230|500:234,1,61.5625,2|0,0:0|0:0,0:0:0:0:
462,47,34059,2,0,P|402:42|351:74,1,123.125,0|8,0:0|0:0,0:0:0:0:
270,68,34294,1,0,0:0:0:0:
270,68,34372,1,2,0:0:0:0:
372,266,34530,38,0,L|494:274,1,123.125,0|2,0:0|0:0,0:0:0:0:
359,370,34766,1,0,0:0:0:0:
356,348,34844,2,0,L|348:286,1,61.5625,8|0,0:0|0:0,0:0:0:0:
193,168,35001,38,0,P|253:173|305:141,2,123.125,2|0|2,0:0|0:0|0:0,0:0:0:0:
149,101,35394,1,2,0:0:0:0:
112,173,35472,38,0,P|137:227|191:255,1,123.125,8|2,0:0|0:0,0:0:0:0:
16,273,35786,38,0,L|78:281,1,61.5625
139,334,35944,1,2,0:0:0:0:
160,331,36022,1,0,0:0:0:0:
194,369,36101,37,8,0:0:0:0:
224,331,36179,1,0,0:0:0:0:
269,312,36258,1,0,0:0:0:0:
317,319,36336,1,0,0:0:0:0:
356,348,36415,38,0,L|418:340,1,61.5625,2|0,0:0|0:0,0:0:0:0:
512,270,36572,1,0,0:0:0:0:
490,268,36650,2,0,B|410:258|410:258|384:224,1,123.125,0|0,0:0|0:0,0:0:0:0:
334,161,36886,1,2,0:0:0:0:
193,368,37043,38,0,P|174:311|195:254,1,123.125,0|2,0:0|0:0,0:0:0:0:
124,167,37279,1,2,0:0:0:0:
124,167,37357,2,0,L|186:175,1,61.5625,8|0,0:0|0:0,0:0:0:0:
276,105,37514,38,0,L|153:89,2,123.125,0|0|2,0:0|0:0|0:0,0:0:0:0:
356,115,37907,1,2,0:0:0:0:
395,44,37985,38,0,B|367:33|367:33|337:37,1,61.5625,8|0,0:0|0:0,0:0:0:0:
316,185,38142,2,0,B|344:196|344:196|375:193,1,61.5625,2|0,0:0|0:0,0:0:0:0:
512,105,38300,37,0,0:0:0:0:
506,83,38378,1,0,0:0:0:0:
500,62,38457,1,2,0:0:0:0:
494,40,38535,1,0,0:0:0:0:
467,82,38614,37,8,0:0:0:0:
460,130,38692,1,0,0:0:0:0:
454,179,38771,1,0,0:0:0:0:
448,228,38849,1,0,0:0:0:0:
442,277,38928,38,0,L|432:358,1,61.5625,2|0,0:0|0:0,0:0:0:0:
256,263,39085,2,0,P|315:276|354:323,1,123.125,0|8,0:0|0:0,0:0:0:0:
284,363,39321,1,0,0:0:0:0:
281,384,39399,1,2,0:0:0:0:
170,175,39556,38,0,L|161:52,1,123.125,0|2,0:0|0:0,0:0:0:0:
295,73,39792,1,0,0:0:0:0:
295,73,39870,2,0,P|274:95|246:107,1,61.5625,8|0,0:0|0:0,0:0:0:0:
84,117,40027,2,0,P|54:109|30:90,1,61.5625,0|0,0:0|0:0,0:0:0:0:
177,255,40184,37,0,0:0:0:0:
178,278,40262,1,0,0:0:0:0:
180,300,40341,2,0,L|183:349,1,49.25,0|0,0:0|0:0,0:0:0:0:
73,242,40499,22,0,L|32:269,3,49.25,0|0|0|0,0:0|0:0|0:0|0:0,0:0:0:0:
277,228,40813,2,0,L|321:249,3,49.25,0|0|0|0,0:0|0:0|0:0|0:0,0:0:0:0:
170,175,41127,21,0,3:0:0:0:
169,163,41205,1,0,3:0:0:0:
168,152,41284,2,0,L|166:127,1,24.625,0|0,3:0|3:0,0:0:0:0:
356,7,41441,6,0,B|334:107|334:107|373:163,1,147.75,6|0,0:0|0:0,0:0:0:0:
452,156,41755,2,0,L|501:152,1,49.25,0|0,0:0|0:0,0:0:0:0:
373,163,41912,1,2,0:0:0:0:
260,67,42070,37,8,0:0:0:0:
182,49,42226,1,0,0:0:0:0:
104,32,42383,1,0,0:0:0:0:
206,127,42540,2,0,B|195:175,1,49.25,2|0,0:0|0:0,0:0:0:0:
172,283,42697,38,0,P|210:254|259:252,1,98.5,2|0,0:0|0:0,0:0:0:0:
350,320,42933,2,0,P|306:301|281:260,1,98.5,2|0,0:0|0:0,0:0:0:0:
302,182,43169,1,2,0:0:0:0:
458,231,43326,38,0,L|359:239,1,98.5,8|2,0:0|0:0,0:0:0:0:
266,372,43640,1,0,3:0:0:0:
243,370,43718,1,0,3:0:0:0:
221,368,43797,1,0,3:0:0:0:
199,366,43875,1,0,3:0:0:0:
177,364,43954,38,0,P|151:322|107:303,1,98.5,2|0,0:0|0:0,0:0:0:0:
21,267,44190,1,0,0:0:0:0:
21,267,44268,2,0,L|37:384,1,98.5,0|2,0:0|0:0,0:0:0:0:
169,238,44582,37,8,0:0:0:0:
141,163,44739,1,0,0:0:0:0:
90,225,44896,1,0,0:0:0:0:
154,84,45053,2,0,L|167:6,1,49.25,2|0,0:0|0:0,0:0:0:0:
413,129,45211,38,0,B|371:154|371:154|325:136,1,98.5,2|0,0:0|0:0,0:0:0:0:
217,135,45446,2,0,B|258:109|258:109|304:127,1,98.5,2|0,0:0|0:0,0:0:0:0:
266,199,45682,1,2,0:0:0:0:
362,52,45839,38,0,B|460:44,1,98.5,8|2,0:0|0:0,0:0:0:0:
349,235,46153,1,0,3:0:0:0:
349,235,46231,1,0,3:0:0:0:
349,235,46310,1,0,3:0:0:0:
512,265,46467,38,0,P|451:262|390:324,1,147.75,2|0,0:0|0:0,0:0:0:0:
453,384,46781,2,0,B|502:380,1,49.25,0|0,0:0|0:0,0:0:0:0:
385,341,46938,1,2,0:0:0:0:
238,353,47095,37,8,0:0:0:0:
249,273,47252,1,0,0:0:0:0:
260,193,47410,1,0,0:0:0:0:
372,249,47567,2,0,L|323:242,1,49.25,2|0,0:0|0:0,0:0:0:0:
185,223,47724,38,0,P|147:194|98:192,1,98.5,2|0,0:0|0:0,0:0:0:0:
6,259,47959,2,0,P|51:240|77:199,1,98.5,2|0,0:0|0:0,0:0:0:0:
62,120,48195,1,2,0:0:0:0:
127,279,48352,38,0,L|140:376,1,98.5,8|2,0:0|0:0,0:0:0:0:
260,193,48667,1,0,3:0:0:0:
263,171,48745,1,0,3:0:0:0:
266,149,48824,1,0,3:0:0:0:
269,127,48902,1,0,3:0:0:0:
271,104,48980,38,0,P|316:87|363:98,1,98.5,2|0,0:0|0:0,0:0:0:0:
441,175,49216,1,0,0:0:0:0:
441,175,49294,2,0,L|342:180,1,98.5,0|2,0:0|0:0,0:0:0:0:
190,109,49608,37,8,0:0:0:0:
147,41,49766,1,0,0:0:0:0:
227,37,49923,1,0,0:0:0:0:
154,181,50080,2,0,L|104:183,1,49.25,2|0,0:0|0:0,0:0:0:0:
5,263,50237,53,2,0:2:0:0:
19,243,50315,1,0,0:2:0:0:
42,236,50394,2,0,P|28:255|5:263,1,49.25,0|2,0:2|0:2,0:0:0:0:
111,336,50551,37,0,0:2:0:0:
103,300,50629,1,0,0:2:0:0:
120,266,50708,2,0,P|123:289|112:311,1,49.25,2|0,0:2|0:2,0:0:0:0:
252,305,50865,37,8,3:2:0:0:
211,278,50944,1,0,3:2:0:0:
195,232,51022,2,0,P|214:246|222:269,1,49.25,0|0,3:2|3:2,0:0:0:0:
338,166,51179,37,0,3:2:0:0:
278,181,51258,1,0,3:2:0:0:
223,154,51336,2,0,P|246:150|268:161,1,49.25,0|0,3:2|3:2,0:0:0:0:
444,47,51493,22,0,B|402:107|402:107|425:177,1,147.75,2|0,0:0|0:0,0:0:0:0:
457,276,51807,2,0,L|475:333,1,49.25,0|0,0:0|0:0,0:0:0:0:
433,199,51964,1,2,0:0:0:0:
294,234,52122,37,8,0:0:0:0:
338,166,52279,1,0,0:0:0:0:
313,90,52436,1,0,0:0:0:0:
189,56,52593,2,0,L|238:60,1,49.25,2|0,0:0|0:0,0:0:0:0:
392,75,52750,37,2,0:0:0:0:
251,142,52907,1,0,0:0:0:0:
251,142,52986,1,2,0:0:0:0:
379,230,53142,1,0,0:0:0:0:
379,230,53220,1,2,0:0:0:0:
238,297,53378,37,8,0:0:0:0:
191,197,53535,2,0,P|218:236|219:285,1,98.5,2|0,0:0|3:0,0:0:0:0:
142,262,53771,1,0,3:0:0:0:
120,268,53849,1,0,3:0:0:0:
99,275,53928,1,0,3:0:0:0:
78,282,54006,38,0,P|50:242|49:193,1,98.5,2|0,0:0|0:0,0:0:0:0:
7,110,54242,1,0,0:0:0:0:
7,110,54321,2,0,L|104:117,1,98.5,0|2,0:0|0:0,0:0:0:0:
206,22,54635,37,8,0:0:0:0:
183,99,54792,1,0,0:0:0:0:
127,41,54949,1,0,0:0:0:0:
239,158,55106,2,0,L|286:146,1,49.25,2|0,0:0|0:0,0:0:0:0:
397,120,55263,37,2,0:0:0:0:
364,229,55420,1,0,0:0:0:0:
364,229,55499,1,2,0:0:0:0:
331,338,55656,1,0,0:0:0:0:
331,338,55735,1,2,0:0:0:0:
323,153,55891,37,8,0:0:0:0:
403,300,56048,2,0,L|500:307,1,98.5,2|0,0:0|3:0,0:0:0:0:
512,327,56284,2,0,L|415:320,1,49.25,0|0,3:0|3:0,0:0:0:0:
255,384,56519,38,0,B|236:284|236:284|196:261,1,147.75,2|0,0:0|0:0,0:0:0:0:
97,267,56834,2,0,L|47:263,1,49.25,0|0,0:0|0:0,0:0:0:0:
177,274,56991,1,2,0:0:0:0:
241,145,57148,37,8,0:0:0:0:
320,130,57305,1,0,0:0:0:0:
400,115,57462,1,0,0:0:0:0:
258,20,57619,2,0,L|268:69,1,49.25,2|0,0:0|0:0,0:0:0:0:
294,206,57776,37,2,0:0:0:0:
188,84,57933,1,0,0:0:0:0:
188,84,58012,1,2,0:0:0:0:
66,190,58169,1,0,0:0:0:0:
66,190,58248,1,2,0:0:0:0:
172,312,58404,37,8,0:0:0:0:
181,192,58561,2,0,L|174:290,1,98.5,2|0,0:0|3:0,0:0:0:0:
92,327,58797,1,0,3:0:0:0:
70,323,58876,1,0,3:0:0:0:
50,314,58955,1,0,3:0:0:0:
32,300,59033,38,0,P|74:277|98:234,1,98.5,2|0,0:0|0:0,0:0:0:0:
257,245,59268,1,0,0:0:0:0:
257,245,59347,2,0,P|273:290|313:319,1,98.5,0|2,0:0|0:0,0:0:0:0:
413,270,59661,37,8,0:0:0:0:
338,242,59818,1,0,0:0:0:0:
353,323,59975,1,0,0:0:0:0:
323,161,60132,1,2,3:2:0:0:
246,134,60289,54,0,P|217:156|204:190,1,73.8750028181077,2|0,3:2|3:2,0:0:0:0:
384,107,60446,2,0,P|379:70|355:42,1,73.8750028181077,2|0,3:2|3:2,0:0:0:0:
338,242,60603,2,0,P|371:255|407:249,1,73.8750028181077,2|0,3:2|3:2,0:0:0:0:
277,59,60760,38,0,L|246:-8,1,61.5625,2|0,3:2|3:2,0:0:0:0:
433,172,60917,2,0,L|506:180,1,61.5625,2|0,3:2|3:2,0:0:0:0:
258,251,61074,2,0,L|214:310,1,61.5625,2|0,3:2|3:2,0:0:0:0:
323,161,61231,21,2,0:2:0:0:
90,137,61546,6,0,L|213:151,1,123.125,2|0,0:0|0:0,0:0:0:0:
244,78,61781,1,0,0:0:0:0:
244,78,61860,1,2,0:0:0:0:
221,260,62017,38,0,B|189:207|189:207|213:150,1,123.125,0|2,0:0|0:0,0:0:0:0:
417,134,62331,2,0,B|449:187|449:187|425:244,1,123.125,0|2,0:0|0:0,0:0:0:0:
279,200,62645,1,0,0:0:0:0:
359,194,62802,1,2,0:0:0:0:
280,359,62959,38,0,P|266:299|221:260,1,123.125,0|2,0:0|0:0,0:0:0:0:
170,323,63195,1,0,0:0:0:0:
170,323,63273,2,0,L|159:418,1,61.5625,0|0,0:0|0:0,0:0:0:0:
185,188,63430,1,2,0:0:0:0:
15,248,63588,2,0,P|72:266|130:247,1,123.125,0|2,0:0|0:0,0:0:0:0:
271,214,63902,37,0,0:0:0:0:
271,214,63981,1,0,0:0:0:0:
271,214,64059,2,0,L|246:69,1,123.125,2|0,0:0|0:0,0:0:0:0:
211,22,64294,1,0,0:0:0:0:
207,0,64372,1,2,0:0:0:0:
366,94,64530,38,0,P|309:112|251:93,1,123.125,0|2,0:0|0:0,0:0:0:0:
130,25,64844,2,0,L|155:170,1,123.125,0|2,0:0|0:0,0:0:0:0:
166,233,65158,1,0,0:0:0:0:
173,153,65315,1,2,0:0:0:0:
0,294,65472,38,0,P|57:276|115:295,1,123.125,0|2,0:0|0:0,0:0:0:0:
158,369,65708,1,0,0:0:0:0:
158,369,65786,1,0,0:0:0:0:
348,295,65944,2,0,L|286:289,1,61.5625,2|0,0:0|0:0,0:0:0:0:
206,303,66101,2,0,L|328:314,1,123.125,0|2,0:0|0:0,0:0:0:0:
450,174,66415,38,0,L|512:168,1,61.5625,0|0,0:0|0:0,0:0:0:0:
495,331,66572,38,0,P|467:276|414:248,1,123.125,2|0,0:0|0:0,0:0:0:0:
370,182,66808,1,0,0:0:0:0:
347,184,66886,1,2,0:0:0:0:
402,107,67043,37,0,0:0:0:0:
335,264,67200,1,2,0:0:0:0:
225,96,67357,37,0,0:0:0:0:
272,214,67514,1,2,0:0:0:0:
118,192,67671,37,0,0:0:0:0:
192,223,67828,1,2,0:0:0:0:
128,271,67985,1,0,0:0:0:0:
54,240,68143,37,2,0:0:0:0:
54,240,68221,1,0,0:0:0:0:
54,240,68300,1,0,0:0:0:0:
182,143,68457,1,2,0:0:0:0:
202,303,68614,2,0,L|324:287,1,123.125,0|2,0:0|0:0,0:0:0:0:
480,268,68928,37,0,0:0:0:0:
480,268,69006,1,0,0:0:0:0:
480,268,69085,2,0,B|399:254|399:254|375:221,1,123.125,2|0,0:0|0:0,0:0:0:0:
328,157,69321,1,0,0:0:0:0:
314,138,69399,1,2,0:0:0:0:
295,230,69556,37,0,0:0:0:0:
330,59,69713,1,2,0:0:0:0:
154,151,69870,37,0,0:0:0:0:
253,85,70027,1,2,0:0:0:0:
101,33,70184,37,0,0:0:0:0:
180,48,70341,1,2,0:0:0:0:
173,72,70499,37,0,0:0:0:0:
212,208,70656,1,2,0:0:0:0:
251,344,70813,1,0,0:0:0:0:
105,244,70970,38,0,P|150:263|182:300,1,98.5,2|0,0:0|0:0,0:0:0:0:
320,181,71284,2,0,P|292:221|284:269,1,98.5,2|0,0:0|0:0,0:0:0:0:
163,28,71598,38,0,L|149:151,1,123.125,2|0,0:0|0:0,0:0:0:0:
212,208,71833,1,0,0:0:0:0:
212,208,71912,1,2,0:0:0:0:
40,158,72069,38,0,B|97:182|97:182|150:150,1,123.125,0|2,0:0|0:0,0:0:0:0:
346,90,72383,2,0,B|289:66|289:66|236:98,1,123.125,0|2,0:0|0:0,0:0:0:0:
394,154,72697,1,0,0:0:0:0:
426,80,72855,1,2,0:0:0:0:
357,240,73012,38,0,L|480:226,1,123.125,0|2,0:0|0:0,0:0:0:0:
417,318,73247,1,0,0:0:0:0:
417,318,73326,2,0,L|479:311,1,61.5625,0|0,0:0|0:0,0:0:0:0:
307,176,73483,1,2,0:0:0:0:
213,329,73640,38,0,P|247:279|239:220,1,123.125,0|2,0:0|0:0,0:0:0:0:
169,262,73954,37,0,0:0:0:0:
169,262,74033,1,0,0:0:0:0:
169,262,74111,2,0,L|46:276,1,123.125,2|0,0:0|0:0,0:0:0:0:
21,352,74347,1,0,0:0:0:0:
0,342,74425,1,2,0:0:0:0:
73,167,74582,38,0,P|38:216|46:275,1,123.125,0|2,0:0|0:0,0:0:0:0:
242,376,74896,2,0,L|249:253,1,123.125,0|2,0:0|0:0,0:0:0:0:
256,149,75210,1,0,0:0:0:0:
252,230,75368,1,2,0:0:0:0:
433,188,75525,38,0,P|462:240|447:299,1,123.125,0|2,0:0|0:0,0:0:0:0:
410,372,75761,1,0,0:0:0:0:
410,372,75839,1,0,0:0:0:0:
382,251,75996,2,0,B|323:269,1,61.5625,2|0,0:0|0:0,0:0:0:0:
197,300,76153,38,0,P|254:316|285:368,1,123.125,0|2,0:0|0:0,0:0:0:0:
127,258,76467,38,0,P|147:235|175:221,1,61.5625,0|0,0:0|0:0,0:0:0:0:
261,147,76624,38,0,L|138:139,1,123.125,2|0,0:0|0:0,0:0:0:0:
58,134,76860,1,0,0:0:0:0:
35,132,76938,1,2,0:0:0:0:
103,67,77095,37,0,0:0:0:0:
10,209,77252,1,2,0:0:0:0:
138,139,77410,37,0,0:0:0:0:
161,254,77567,1,2,0:0:0:0:
214,166,77724,37,0,0:0:0:0:
281,211,77881,1,2,0:0:0:0:
326,144,78038,1,0,0:0:0:0:
259,99,78195,37,2,0:0:0:0:
259,99,78273,1,0,0:0:0:0:
259,99,78352,1,0,0:0:0:0:
297,291,78509,1,2,0:0:0:0:
444,162,78666,2,0,L|419:282,1,123.125,0|2,0:0|0:0,0:0:0:0:
255,384,78980,37,0,0:0:0:0:
255,384,79058,1,0,0:0:0:0:
254,383,79137,2,0,P|224:331|169:306,1,123.125,2|0,0:0|0:0,0:0:0:0:
84,283,79373,1,0,0:0:0:0:
88,304,79451,1,2,0:0:0:0:
221,236,79608,37,0,0:0:0:0:
127,374,79766,1,2,0:0:0:0:
149,198,79923,37,0,0:0:0:0:
34,219,80081,1,2,0:0:0:0:
124,120,80237,37,0,0:0:0:0:
58,74,80395,1,2,0:0:0:0:
48,94,80551,37,0,0:0:0:0:
187,69,80708,1,2,0:0:0:0:
326,44,80865,1,0,0:0:0:0:
202,167,81022,38,0,P|246:147|277:109,1,98.5,2|0,0:0|0:0,0:0:0:0:
365,276,81336,2,0,P|337:236|295:212,1,98.5,2|0,0:0|0:0,0:0:0:0:
90,225,81650,6,0,L|92:245,30,12.3125,2|0|0|0|0|0|0|0|0|0|0|0|0|0|0|0|0|0|0|0|0|0|0|0|0|0|0|0|0|0|0,0:0|0:0|0:0|0:0|0:0|0:0|0:0|0:0|0:0|0:0|0:0|0:0|0:0|0:0|0:0|0:0|0:0|0:0|0:0|0:0|0:0|0:0|0:0|0:0|0:0|0:0|0:0|0:0|0:0|0:0|0:0,0:0:0:0:
30,170,82907,38,0,P|115:147|170:216,1,184.687507045269,0|0,0:0|0:0,0:0:0:0:
246,245,83378,70,0,P|276:228|270:194,1,73.8750028181077,0|0,0:0|0:0,0:0:0:0:
352,177,83535,2,0,P|352:142|320:130,1,73.8750028181077,0|0,0:0|0:0,0:0:0:0:
346,50,83692,2,0,P|316:32|289:54,1,73.8750028181077,0|0,0:0|0:0,0:0:0:0:
217,121,83849,38,0,L|241:117,1,24.625,0|0,0:0|0:0,0:0:0:0:
415,92,84006,2,0,L|449:87,1,24.625,0|0,0:0|0:0,0:0:0:0:
503,274,84163,22,0,B|351:258|351:258|410:294,1,221.625008454323,6|0,0:0|0:0,0:0:0:0:
290,342,84792,38,0,B|286:304,1,36.9375014090539,8|0,0:0|0:0,0:0:0:0:
274,188,84949,2,0,B|278:225,1,36.9375014090539,0|0,0:0|0:0,0:0:0:0:
176,277,85106,2,0,B|212:273,1,36.9375014090539,0|0,0:0|0:0,0:0:0:0:
411,183,85263,38,0,P|355:158|325:66,1,147.750005636215,2|0,0:0|0:0,0:0:0:0:
472,130,85734,2,0,B|480:56,1,73.8750028181077,2|0,0:0|0:0,0:0:0:0:
510,224,86048,5,8,0:0:0:0:
474,234,86126,1,0,0:0:0:0:
445,257,86205,1,0,0:0:0:0:
427,289,86283,1,0,0:0:0:0:
444,335,86362,38,0,B|479:344|479:344|511:327,1,73.8750028181077,0|0,0:0|0:0,0:0:0:0:
411,183,86519,2,0,B|375:173|375:173|343:190,1,73.8750028181077,0|0,0:0|0:0,0:0:0:0:
282,304,86677,22,0,B|274:233|274:233|253:200|253:200|267:163|267:163|259:92,1,221.625008454323,2|0,0:0|0:0,0:0:0:0:
184,152,87305,38,0,P|171:164|154:171,1,36.9375014090539,8|0,0:0|0:0,0:0:0:0:
128,57,87462,2,0,P|131:75|129:94,1,36.9375014090539,0|0,0:0|0:0,0:0:0:0:
17,59,87619,2,0,P|34:65|49:77,1,36.9375014090539,0|0,0:0|0:0,0:0:0:0:
75,154,87776,1,2,0:0:0:0:
1,292,87933,37,0,0:0:0:0:
53,231,88090,1,0,0:0:0:0:
131,212,88247,1,2,0:0:0:0:
205,241,88404,1,0,0:0:0:0:
126,361,88561,6,0,L|108:289,1,73.8750028181077,8|0,0:0|0:0,0:0:0:0:
292,224,88718,2,0,L|274:295,1,73.8750028181077,0|0,0:0|0:0,0:0:0:0:
337,384,88876,37,0,0:0:0:0:
345,348,88954,1,0,0:0:0:0:
354,312,89033,1,0,0:0:0:0:
362,276,89111,1,0,0:0:0:0:
371,240,89190,22,0,P|459:259|413:178,1,221.625008454323,2|0,0:0|0:0,0:0:0:0:
306,166,89818,38,0,L|342:163,1,36.9375014090539,8|0,0:0|0:0,0:0:0:0:
427,96,89975,2,0,L|391:99,1,36.9375014090539,0|0,0:0|0:0,0:0:0:0:
380,19,90132,2,0,L|344:22,1,36.9375014090539,0|0,0:0|0:0,0:0:0:0:
216,172,90289,38,0,B|244:104|244:104|206:40,1,147.750005636215,2|0,0:0|0:0,0:0:0:0:
140,145,90760,2,0,B|154:111|154:111|135:79,1,73.8750028181077,2|0,0:0|0:0,0:0:0:0:
35,159,91074,5,8,0:0:0:0:
67,177,91152,1,0,0:0:0:0:
89,207,91231,1,0,0:0:0:0:
98,243,91309,1,0,0:0:0:0:
74,286,91389,38,0,L|0:280,1,73.8750028181077,0|0,0:0|0:0,0:0:0:0:
259,191,91546,2,0,L|332:196,1,73.8750028181077,0|0,0:0|0:0,0:0:0:0:
218,366,91703,22,0,B|175:219|175:219|221:270,1,221.625008454323,2|0,0:0|0:0,0:0:0:0:
302,274,92331,38,0,P|296:291|299:309,1,36.9375014090539,8|0,0:0|0:0,0:0:0:0:
412,282,92488,2,0,P|394:286|379:297,1,36.9375014090539,0|0,0:0|0:0,0:0:0:0:
459,381,92645,2,0,P|446:367|429:360,1,36.9375014090539,0|0,0:0|0:0,0:0:0:0:
350,372,92802,1,2,0:0:0:0:
457,215,92959,37,0,0:0:0:0:
377,209,93116,1,0,0:0:0:0:
319,154,93273,1,2,0:0:0:0:
239,148,93430,1,0,0:0:0:0:
116,317,93588,6,0,B|98:284|98:284|106:249,1,73.8750028181077,8|0,0:0|0:0,0:0:0:0:
266,224,93745,2,0,B|283:256|283:256|275:291,1,73.8750028181077,0|0,0:0|0:0,0:0:0:0:
202,351,93902,37,0,0:0:0:0:
196,314,93980,1,0,0:0:0:0:
191,277,94059,1,0,0:0:0:0:
186,241,94137,1,0,0:0:0:0:
181,204,94216,22,0,B|28:193|28:193|88:227,1,221.625008454323,2|0,0:0|0:0,0:0:0:0:
39,113,94844,38,0,B|2:110,1,36.9375014090539,8|0,0:0|0:0,0:0:0:0:
112,52,95001,2,0,B|117:88,1,36.9375014090539,0|0,0:0|0:0,0:0:0:0:
190,123,95158,2,0,B|226:125,1,36.9375014090539,0|0,0:0|0:0,0:0:0:0:
288,0,95315,38,0,B|301:92|301:92|343:124,1,147.750005636215,2|0,0:0|0:0,0:0:0:0:
449,37,95786,2,0,B|376:48,1,73.8750028181077,2|0,0:0|0:0,0:0:0:0:
401,189,96101,5,8,0:0:0:0:
419,157,96179,1,0,0:0:0:0:
448,134,96258,1,0,0:0:0:0:
484,124,96336,1,0,0:0:0:0:
512,163,96415,38,0,P|516:199|506:234,1,73.8750028181077,0|0,0:0|0:0,0:0:0:0:
325,218,96572,2,0,P|320:181|330:146,1,73.8750028181077,0|0,0:0|0:0,0:0:0:0:
407,348,96729,22,0,B|369:303|369:303|266:294|266:294|221:331,1,221.625008454323,2|0,0:0|0:0,0:0:0:0:
143,356,97357,38,0,P|137:338|138:320,1,36.9375014090539,8|0,0:0|0:0,0:0:0:0:
77,267,97514,2,0,P|90:254|106:246,1,36.9375014090539,0|0,0:0|0:0,0:0:0:0:
120,168,97671,2,0,P|138:172|154:182,1,36.9375014090539,0|0,0:0|0:0,0:0:0:0:
187,256,97828,1,2,0:0:0:0:
73,104,97985,37,0,0:0:0:0:
153,94,98142,1,0,0:0:0:0:
233,84,98300,1,2,0:0:0:0:
313,74,98457,1,0,0:0:0:0:
271,222,98614,6,0,L|282:149,1,73.8750028181077,8|0,0:0|0:0,0:0:0:0:
393,62,98771,2,0,L|403:-10,1,73.8750028181077,0|0,0:0|0:0,0:0:0:0:
488,149,98927,37,0,0:0:0:0:
453,137,99006,1,0,0:0:0:0:
416,139,99084,1,0,0:0:0:0:
383,155,99163,1,0,0:0:0:0:
358,182,99242,22,0,B|421:230|421:230|441:369,1,221.625008454323,2|0,0:0|0:0,0:0:0:0:
347,274,99870,38,0,L|341:310,1,36.9375014090539,8|0,0:0|0:0,0:0:0:0:
179,306,100027,2,0,L|173:342,1,36.9375014090539,0|0,0:0|0:0,0:0:0:0:
263,290,100184,2,0,L|257:326,1,36.9375014090539,0|0,0:0|0:0,0:0:0:0:
94,322,100341,38,0,P|80:251|22:209,1,147.750005636215,2|0,0:0|0:0,0:0:0:0:
181,168,100813,2,0,L|107:162,1,73.8750028181077,2|0,0:0|0:0,0:0:0:0:
30,105,101127,5,8,0:0:0:0:
65,94,101205,1,0,0:0:0:0:
94,71,101284,1,0,0:0:0:0:
112,39,101362,1,0,0:0:0:0:
99,2,101441,38,0,B|83:35|83:35|94:70,1,73.8750028181077,0|0,0:0|0:0,0:0:0:0:
252,208,101598,2,0,B|267:174|267:174|256:139,1,73.8750028181077,0|0,0:0|0:0,0:0:0:0:
274,26,101755,22,0,B|339:46|339:46|187:67,1,221.625008454323,2|0,0:0|0:0,0:0:0:0:
338,128,102383,38,0,B|374:122,1,36.9375014090539,8|0,0:0|0:0,0:0:0:0:
438,172,102540,2,0,B|444:209,1,36.9375014090539,0|0,0:0|0:0,0:0:0:0:
416,20,102697,2,0,B|422:57,1,36.9375014090539,0|0,0:0|0:0,0:0:0:0:
486,107,102855,37,2,0:0:0:0:
258,139,103012,1,2,0:0:0:0:
258,139,103640,6,0,B|242:232,1,73.8750028181077,0|0,0:0|0:0,0:0:0:0:
167,198,103797,38,0,B|159:246,1,49.25,0|0,0:0|0:0,0:0:0:0:
273,289,103954,54,0,B|269:313,3,24.625,0|0|0|0,0:0|0:0|0:0|0:0,0:0:0:0:
329,367,104268,70,0,P|386:346|420:296,1,123.125,6|0,0:0|0:0,0:0:0:0:
502,281,104504,1,0,0:0:0:0:
502,281,104583,1,2,0:0:0:0:
358,130,104739,37,0,0:0:0:0:
443,219,104896,1,2,0:0:0:0:
476,100,105053,1,0,0:0:0:0:
279,150,105211,37,2,0:0:0:0:
249,33,105368,2,0,L|274:129,1,98.5,0|2,0:0|0:0,0:0:0:0:
308,266,105682,1,0,0:0:0:0:
98,247,105839,37,2,0:0:0:0:
98,247,105917,1,0,0:0:0:0:
98,247,105996,1,0,0:0:0:0:
242,220,106153,37,2,0:0:0:0:
235,300,106310,1,0,0:0:0:0:
176,174,106467,37,2,0:0:0:0:
162,334,106624,1,0,0:0:0:0:
95,101,106781,38,0,L|217:90,1,123.125,2|0,0:0|0:0,0:0:0:0:
298,82,107017,1,0,0:0:0:0:
320,80,107095,1,2,0:0:0:0:
494,89,107252,37,0,0:0:0:0:
379,135,107410,1,2,0:0:0:0:
396,13,107567,1,0,0:0:0:0:
368,215,107724,37,2,0:0:0:0:
221,173,107881,2,0,P|265:193|289:235,1,98.5,0|2,0:0|0:0,0:0:0:0:
211,334,108195,1,0,0:0:0:0:
156,124,108352,38,0,P|179:103|208:93,1,61.5625,2|0,0:0|0:0,0:0:0:0:
195,254,108509,1,0,0:0:0:0:
195,254,108587,1,0,0:0:0:0:
195,254,108666,1,2,0:0:0:0:
82,156,108823,38,0,P|75:132|76:107,1,49.25,0|0,0:0|0:0,0:0:0:0:
221,173,108980,1,2,0:0:0:0:
243,175,109058,1,0,0:0:0:0:
266,178,109137,1,0,0:0:0:0:
289,181,109215,1,0,0:0:0:0:
323,145,109294,38,0,L|444:123,1,123.125,2|0,0:0|0:0,0:0:0:0:
488,57,109530,1,0,0:0:0:0:
488,57,109609,1,2,0:0:0:0:
426,255,109766,37,0,0:0:0:0:
464,134,109923,1,2,0:0:0:0:
494,298,110080,1,0,0:0:0:0:
358,212,110237,37,2,0:0:0:0:
264,340,110394,2,0,B|243:311|243:311|182:300,1,98.5,0|2,0:0|0:0,0:0:0:0:
96,219,110708,1,0,0:0:0:0:
127,359,110865,37,2,0:0:0:0:
127,359,110944,1,0,0:0:0:0:
127,359,111022,1,0,0:0:0:0:
140,151,111179,37,2,0:0:0:0:
31,171,111336,1,0,0:0:0:0:
157,165,111493,37,2,0:0:0:0:
20,190,111650,1,0,0:0:0:0:
265,145,111807,38,0,P|215:110|196:53,1,123.125,2|0,0:0|0:0,0:0:0:0:
257,0,112043,1,0,0:0:0:0:
257,0,112121,1,2,0:0:0:0:
309,213,112279,37,0,0:0:0:0:
320,86,112436,1,2,0:0:0:0:
424,159,112593,1,0,0:0:0:0:
236,248,112750,37,2,0:0:0:0:
390,320,112907,2,0,P|348:294|300:297,1,98.5,0|2,0:0|0:0,0:0:0:0:
172,198,113221,1,0,0:0:0:0:
154,339,113378,38,0,L|162:278,1,61.5625,2|0,0:0|0:0,0:0:0:0:
188,124,113535,1,0,0:0:0:0:
188,124,113614,1,0,0:0:0:0:
188,124,113692,1,2,0:0:0:0:
42,181,113849,38,0,L|91:187,1,49.25,0|0,0:0|0:0,0:0:0:0:
253,208,114006,37,2,0:0:0:0:
274,210,114084,1,0,0:0:0:0:
296,213,114163,1,0,0:0:0:0:
318,216,114241,1,0,0:0:0:0:
358,246,114321,38,0,B|325:193|325:193|348:136,1,123.125,2|0,0:0|0:0,0:0:0:0:
382,65,114556,1,0,0:0:0:0:
382,65,114635,1,2,0:0:0:0:
176,87,114792,38,0,L|298:71,1,123.125,0|2,0:0|0:0,0:0:0:0:
201,270,115106,2,0,L|78:254,1,123.125,0|2,0:0|0:0,0:0:0:0:
45,161,115420,1,0,0:0:0:0:
87,276,115577,1,2,0:0:0:0:
270,225,115734,38,0,B|290:282|290:282|256:334,1,123.125,0|2,0:0|0:0,0:0:0:0:
182,357,115969,1,0,0:0:0:0:
182,357,116048,2,0,L|105:347,1,61.5625,0|0,0:0|0:0,0:0:0:0:
361,240,116205,37,2,0:0:0:0:
413,384,116362,1,0,0:0:0:0:
441,250,116519,37,2,0:0:0:0:
468,325,116677,1,0,0:0:0:0:
355,144,116834,38,0,P|409:170|469:159,1,123.125,2|0,0:0|0:0,0:0:0:0:
475,80,117069,1,0,0:0:0:0:
476,57,117147,1,2,0:0:0:0:
274,111,117305,38,0,P|278:171|317:217,1,123.125,0|2,0:0|0:0,0:0:0:0:
262,24,117619,2,0,P|211:58|191:114,1,123.125,0|2,0:0|0:0,0:0:0:0:
221,234,117933,37,0,0:0:0:0:
123,158,118090,1,2,0:0:0:0:
40,250,118247,1,0,0:0:0:0:
121,136,118404,38,0,L|115:74,1,61.5625,2|0,0:0|0:0,0:0:0:0:
147,333,118561,1,0,0:0:0:0:
147,333,118640,1,0,0:0:0:0:
147,333,118718,1,2,0:0:0:0:
44,169,118875,38,0,L|8:118,1,49.25,0|0,0:0|0:0,0:0:0:0:
202,155,119033,1,2,0:0:0:0:
211,134,119111,1,0,0:0:0:0:
220,114,119190,1,0,0:0:0:0:
230,94,119268,1,0,0:0:0:0:
218,46,119347,38,0,P|274:66|308:116,1,123.125,2|0,0:0|0:0,0:0:0:0:
278,193,119582,1,0,0:0:0:0:
278,193,119660,1,2,0:0:0:0:
416,73,119818,38,0,P|369:111|309:116,1,123.125,0|2,0:0|0:0,0:0:0:0:
139,0,120132,2,0,L|132:122,1,123.125,0|2,0:0|0:0,0:0:0:0:
11,171,120446,1,0,0:0:0:0:
132,146,120603,1,2,0:0:0:0:
121,349,120760,38,0,L|127:226,1,123.125,0|2,0:0|0:0,0:0:0:0:
211,194,120996,1,0,0:0:0:0:
211,194,121074,2,0,L|207:255,1,61.5625,0|0,0:0|0:0,0:0:0:0:
324,311,121231,37,2,0:0:0:0:
203,336,121388,1,0,0:0:0:0:
334,330,121546,37,2,0:0:0:0:
201,358,121703,1,0,0:0:0:0:
433,346,121860,38,0,B|397:276|397:276|411:234,1,123.125,2|0,0:0|0:0,0:0:0:0:
437,158,122096,1,0,0:0:0:0:
444,137,122174,1,2,0:0:0:0:
298,257,122331,38,0,P|350:227|410:233,1,123.125,0|2,0:0|0:0,0:0:0:0:
489,70,122645,2,0,P|436:100|376:94,1,123.125,0|2,0:0|0:0,0:0:0:0:
280,0,122959,2,0,P|298:25|305:55,1,61.5625,0|0,0:0|0:0,0:0:0:0:
194,146,123116,37,2,3:2:0:0:
201,125,123194,1,0,3:2:0:0:
208,104,123273,2,0,B|224:58,1,49.25,0|0,3:2|3:2,0:0:0:0:
117,181,123430,22,0,B|150:218,3,49.25,0|0|0|0,3:2|3:2|3:2|3:2,0:0:0:0:
141,302,123745,2,0,B|190:292,1,49.25,0|0,3:2|3:2,0:0:0:0:
397,250,123902,2,0,B|348:260,1,49.25,0|0,3:2|3:2,0:0:0:0:
269,275,124059,21,0,3:2:0:0:
272,286,124137,1,0,3:2:0:0:
275,297,124216,2,0,B|281:321,1,24.625,0|0,3:2|3:2,0:0:0:0:
218,24,124373,1,0,0:0:0:0:
218,24,133012,86,0,L|214:48,1,24.625,0|0,0:0|0:0,0:0:0:0:
198,160,133169,2,0,P|162:110|75:97,1,147.75,0|0,0:0|0:0,0:0:0:0:
269,115,133797,37,0,0:0:0:0:
269,115,134111,1,0,0:0:0:0:
409,272,134425,54,0,L|483:265,2,73.8750028181077,2|0|0,0:0|0:0|0:0,0:0:0:0:
250,289,134896,1,2,0:0:0:0:
330,281,135053,1,0,0:0:0:0:
213,384,135525,69,0,0:0:0:0:
213,384,135603,1,0,0:0:0:0:
213,384,135682,2,0,P|189:341|146:317,1,98.5,2|0,0:0|0:0,0:0:0:0:
28,277,136153,2,0,B|76:271|76:271|114:239|114:239|163:234,1,147.75,2|0,0:0|0:0,0:0:0:0:
3,134,136938,6,0,P|17:168|44:194,2,73.8750028181077,2|0|0,0:0|0:0|0:0,0:0:0:0:
99,44,137410,1,2,0:0:0:0:
84,123,137567,1,0,0:0:0:0:
271,204,138038,21,0,0:0:0:0:
271,204,138116,1,0,0:0:0:0:
271,204,138195,2,0,L|253:108,1,98.5,2|0,0:0|0:0,0:0:0:0:
350,188,138666,2,0,L|331:91,1,98.5,2|0,0:0|0:0,0:0:0:0:
428,171,139137,1,0,0:0:0:0:
506,154,139294,1,0,0:0:0:0:
324,266,139451,54,0,L|419:274,2,73.8750028181077,2|0|0,0:0|0:0|0:0,0:0:0:0:
164,251,139923,1,2,0:0:0:0:
244,258,140080,1,0,0:0:0:0:
72,335,140551,69,0,0:0:0:0:
72,335,140629,1,0,0:0:0:0:
72,335,140708,2,0,B|91:305|91:305|79:244,1,98.5,2|0,0:0|0:0,0:0:0:0:
11,91,141179,2,0,B|-17:135|-17:135|0:228,1,147.75,2|0,0:0|0:0,0:0:0:0:
147,199,141964,5,2,0:0:0:0:
147,199,142436,69,2,0:0:0:0:
214,154,142593,1,0,0:0:0:0:
268,260,142750,37,0,0:0:0:0:
268,260,142828,1,0,0:0:0:0:
268,260,142907,2,0,L|272:210,1,49.25,0|0,0:0|0:0,0:0:0:0:
281,109,143064,2,0,L|286:45,1,49.25,0|0,0:0|0:0,0:0:0:0:
361,301,143221,70,0,P|371:286|387:276,1,36.9375014090539,2|0,0:0|0:0,0:0:0:0:
150,301,143457,2,0,P|140:286|124:276,1,36.9375014090539,2|0,0:0|0:0,0:0:0:0:
431,344,143692,38,0,P|447:335|465:334,1,36.9375014090539,2|0,0:0|0:0,0:0:0:0:
81,344,143928,2,0,P|64:335|46:334,1,36.9375014090539,2|0,0:0|0:0,0:0:0:0:
268,171,144163,38,0,P|288:258|206:223,1,221.625008454323,2|0,0:0|0:0,0:0:0:0:
76,52,144478,38,0,L|67:112,1,61.5625,6|0,0:0|0:0,0:0:0:0:
191,205,144635,2,0,L|182:144,1,61.5625,2|0,0:0|0:0,0:0:0:0:
284,83,144792,1,8,0:0:0:0:
130,281,144949,37,0,0:0:0:0:
130,281,145027,2,0,P|105:225|54:192,1,123.125,2|0,0:0|0:0,0:0:0:0:
0,316,145263,2,0,L|61:324,1,61.5625,2|0,0:0|0:0,0:0:0:0:
184,341,145420,1,8,0:0:0:0:
335,147,145577,38,0,B|315:182|315:182|326:263,1,123.125,0|0,0:0|0:0,0:0:0:0:
383,321,145813,1,0,0:0:0:0:
403,290,145891,1,2,0:0:0:0:
434,271,145970,1,2,0:0:0:0:
470,267,146048,1,8,0:0:0:0:
241,234,146205,37,0,0:0:0:0:
241,234,146284,2,0,L|180:225,1,61.5625,2|0,0:0|0:0,0:0:0:0:
416,112,146441,1,0,0:0:0:0:
416,112,146519,2,0,L|356:121,1,61.5625,2|0,0:0|0:0,0:0:0:0:
326,259,146677,2,0,B|317:198|317:198|276:152|276:152|267:92,1,184.6875,8|0,0:0|0:0,0:0:0:0:
135,0,146991,38,0,P|143:29|136:59,1,61.5625,2|0,0:0|0:0,0:0:0:0:
1,149,147148,2,0,P|-4:119|1:89,1,61.5625,2|0,0:0|0:0,0:0:0:0:
191,127,147305,2,0,B|132:144|132:144|76:118,1,123.125,8|0,0:0|0:0,0:0:0:0:
60,32,147540,1,2,0:0:0:0:
56,11,147619,37,0,0:0:0:0:
95,216,147776,1,2,0:0:0:0:
265,95,147933,2,0,P|270:126|265:156,1,61.5625,8|0,0:0|0:0,0:0:0:0:
195,303,148090,38,0,P|156:255|99:236,1,123.125,0|0,0:0|0:0,0:0:0:0:
19,246,148326,1,0,0:0:0:0:
16,282,148404,1,2,0:0:0:0:
13,319,148483,1,2,0:0:0:0:
11,356,148561,1,8,0:0:0:0:
189,181,148718,37,0,0:0:0:0:
189,181,148797,2,0,L|165:60,1,123.125,2|0,0:0|0:0,0:0:0:0:
246,52,149033,2,0,L|234:-8,1,61.5625,2|0,0:0|0:0,0:0:0:0:
103,161,149190,1,8,0:0:0:0:
277,202,149347,1,0,0:0:0:0:
423,99,149504,38,0,B|452:91|452:91|480:104,1,61.5625,2|0,0:0|0:0,0:0:0:0:
297,280,149661,2,0,B|267:287|267:287|240:274,1,61.5625,2|0,0:0|0:0,0:0:0:0:
444,177,149818,1,8,0:0:0:0:
312,13,149975,37,0,0:0:0:0:
324,31,150053,2,0,B|345:65|345:65|337:146,1,123.125,2|0,0:0|0:0,0:0:0:0:
201,93,150289,2,0,L|262:85,1,61.5625,2|0,0:0|0:0,0:0:0:0:
426,61,150446,1,8,0:0:0:0:
209,176,150603,38,0,L|86:163,1,123.125,0|0,0:0|0:0,0:0:0:0:
0,131,150839,1,0,0:0:0:0:
5,167,150917,1,2,0:0:0:0:
10,204,150996,1,2,0:0:0:0:
15,240,151074,1,8,0:0:0:0:
67,85,151231,37,0,0:0:0:0:
67,85,151310,2,0,P|41:61|-2:49,1,61.5625,2|0,0:0|0:0,0:0:0:0:
99,247,151467,1,0,0:0:0:0:
99,247,151546,2,0,P|91:277|94:308,1,61.5625,2|0,0:0|0:0,0:0:0:0:
224,138,151703,2,0,P|257:127|298:46,1,123.125,8|0,0:0|0:0,0:0:0:0:
418,274,152017,38,0,L|478:265,1,61.5625,2|0,0:0|0:0,0:0:0:0:
373,103,152174,2,0,L|354:234,1,123.125,2|8,0:0|0:0,0:0:0:0:
172,364,152488,37,0,0:0:0:0:
172,364,152567,2,0,B|192:329|192:329|181:248,1,123.125,2|0,0:0|0:0,0:0:0:0:
280,184,152802,2,0,L|219:175,1,61.5625,2|0,0:0|0:0,0:0:0:0:
55,152,152959,1,8,0:0:0:0:
168,58,153116,2,0,B|158:76|158:76|164:117,1,61.5625,0|0,0:0|0:0,0:0:0:0:
286,83,153273,37,0,0:0:0:0:
262,77,153352,1,0,0:0:0:0:
242,91,153430,2,0,B|266:97|266:97|286:83,1,49.25,2|0,0:0|0:0,0:0:0:0:
401,91,153588,37,8,0:0:0:0:
391,56,153667,1,0,0:0:0:0:
358,40,153745,2,0,B|364:63|364:63|386:74,1,49.25,0|2,0:0|0:0,0:0:0:0:
444,215,153902,37,0,3:2:0:0:
479,180,153980,1,0,3:2:0:0:
475,131,154059,2,0,B|457:148|457:148|459:173,1,49.25,2|0,3:2|3:2,0:0:0:0:
336,319,154216,37,8,3:2:0:0:
395,334,154294,1,0,3:2:0:0:
446,299,154373,2,0,B|422:293|422:293|402:306,1,49.25,0|0,3:2|3:2,0:0:0:0:
264,384,154530,38,0,L|253:323,1,61.5625,6|0,0:0|0:0,0:0:0:0:
162,206,154687,2,0,L|152:267,1,61.5625,0|0,0:0|0:0,0:0:0:0:
39,286,154844,1,8,0:0:0:0:
217,97,155001,37,0,0:0:0:0:
217,97,155080,2,0,P|162:124|102:118,1,123.125,2|0,0:0|0:0,0:0:0:0:
81,196,155315,2,0,P|54:183|33:161,1,61.5625,2|0,0:0|0:0,0:0:0:0:
142,21,155472,1,8,0:0:0:0:
330,175,155629,38,0,B|302:145|302:145|295:63,1,123.125,0|0,0:0|0:0,0:0:0:0:
371,1,155866,1,0,0:0:0:0:
374,37,155944,1,2,0:0:0:0:
377,74,156023,1,2,0:0:0:0:
380,111,156101,1,8,0:0:0:0:
306,256,156257,37,0,0:0:0:0:
306,256,156336,2,0,L|242:244,1,61.5625,2|0,0:0|0:0,0:0:0:0:
464,121,156494,1,0,0:0:0:0:
464,121,156572,2,0,L|536:114,1,61.5625,2|0,0:0|0:0,0:0:0:0:
281,167,156729,2,0,B|334:176|334:176|365:199|365:199|401:188|401:188|456:198,1,184.6875,8|0,0:0|0:0,0:0:0:0:
406,57,157043,38,0,P|387:81|380:111,1,61.5625,2|0,0:0|0:0,0:0:0:0:
259,164,157200,2,0,P|251:134|233:109,1,61.5625,2|0,0:0|0:0,0:0:0:0:
143,0,157357,2,0,L|153:122,1,123.125,8|0,0:0|0:0,0:0:0:0:
161,203,157593,1,2,0:0:0:0:
163,225,157671,37,0,0:0:0:0:
227,29,157828,1,2,0:0:0:0:
73,122,157985,2,0,P|59:150|58:181,1,61.5625,8|0,0:0|0:0,0:0:0:0:
172,326,158142,38,0,P|217:286|277:280,1,123.125,0|0,0:0|0:0,0:0:0:0:
358,271,158379,1,0,0:0:0:0:
354,307,158457,1,2,0:0:0:0:
351,344,158536,1,2,0:0:0:0:
348,381,158614,1,8,0:0:0:0:
512,222,158771,37,0,0:0:0:0:
512,222,158849,2,0,B|482:195|482:195|466:113,1,123.125,2|0,0:0|0:0,0:0:0:0:
481,29,159085,2,0,B|421:41,1,61.5625,2|0,0:0|0:0,0:0:0:0:
240,77,159242,1,8,0:0:0:0:
386,114,159399,1,0,0:0:0:0:
174,30,159556,38,0,B|156:54|156:54|160:85,1,61.5625,2|0,0:0|0:0,0:0:0:0:
280,221,159713,2,0,B|297:196|297:196|293:165,1,61.5625,2|0,0:0|0:0,0:0:0:0:
82,97,159870,1,8,0:0:0:0:
202,243,160027,37,0,0:0:0:0:
199,221,160106,2,0,P|152:181|92:176,1,123.125,2|0,0:0|0:0,0:0:0:0:
30,301,160341,2,0,L|45:241,1,61.5625,2|0,0:0|0:0,0:0:0:0:
82,97,160499,1,8,0:0:0:0:
212,322,160656,38,0,P|272:317|317:278,1,123.125,0|0,0:0|0:0,0:0:0:0:
391,243,160891,1,0,0:0:0:0:
399,278,160969,1,2,0:0:0:0:
408,314,161048,1,2,0:0:0:0:
417,350,161126,1,8,0:0:0:0:
390,162,161284,37,0,0:0:0:0:
390,162,161362,2,0,P|419:168|448:185,1,61.5625,2|0,0:0|0:0,0:0:0:0:
335,351,161519,1,0,0:0:0:0:
335,351,161598,2,0,P|315:373|288:389,1,61.5625,2|0,0:0|0:0,0:0:0:0:
199,209,161755,2,0,L|212:79,1,123.125,8|0,0:0|0:0,0:0:0:0:
183,359,162069,38,0,L|189:297,1,61.5625,2|0,0:0|0:0,0:0:0:0:
309,221,162226,2,0,B|251:242|251:242|200:209,1,123.125,2|8,0:0|0:0,0:0:0:0:
7,120,162540,37,0,0:0:0:0:
7,120,162619,2,0,L|129:107,1,123.125,2|0,0:0|0:0,0:0:0:0:
202,71,162855,2,0,B|215:98|215:98|207:127,1,61.5625,2|0,0:0|0:0,0:0:0:0:
166,284,163012,1,8,0:0:0:0:
295,258,163169,2,0,L|236:243,1,61.5625,0|0,0:0|0:0,0:0:0:0:
126,214,163326,37,0,0:0:0:0:
103,208,163404,1,0,0:0:0:0:
80,216,163483,2,0,P|103:222|144:185,1,49.25,2|0,0:0|0:0,0:0:0:0:
169,145,163640,37,8,0:0:0:0:
166,109,163718,1,0,0:0:0:0:
145,79,163797,2,0,P|146:102|194:130,1,49.25,0|2,0:0|0:0,0:0:0:0:
248,165,163954,37,0,3:2:0:0:
293,147,164032,1,0,3:2:0:0:
321,107,164111,2,0,P|298:115|287:169,1,49.25,2|0,3:2|3:2,0:0:0:0:
253,246,164268,37,8,3:2:0:0:
292,292,164346,1,0,3:2:0:0:
350,310,164425,2,0,P|334:291|280:297,1,49.25,0|0,3:2|3:2,0:0:0:0:
159,347,164582,6,0,L|178:276,2,73.8750028181077,0|0|0,0:0|0:0|0:0,0:0:0:0:
203,182,165053,1,0,0:0:0:0:
75,207,165211,38,0,P|97:196|121:192,1,49.25,0|0,0:0|0:0,0:0:0:0:
289,279,165682,2,0,P|268:264|252:246,1,49.25,0|0,0:0|0:0,0:0:0:0:
245,58,166153,2,0,P|242:82|234:105,1,49.25,0|0,0:0|0:0,0:0:0:0:
302,0,166467,5,0,0:0:0:0:
315,17,166545,1,0,0:0:0:0:
323,37,166624,1,0,0:0:0:0:
326,59,166702,1,0,0:0:0:0:
349,103,166781,37,0,0:0:0:0:
374,61,166859,1,0,0:0:0:0:
419,42,166938,1,0,0:0:0:0:
466,52,167016,1,0,0:0:0:0:
499,88,167095,70,0,L|506:161,2,73.8750028181077,0|0|0,0:0|0:0|0:0,0:0:0:0:
347,183,167567,1,0,0:0:0:0:
423,136,167724,38,0,L|428:184,1,49.25,0|0,0:0|0:0,0:0:0:0:
321,311,168195,2,0,L|331:262,1,49.25,0|0,0:0|0:0,0:0:0:0:
282,104,168666,2,0,L|272:153,1,49.25,0|0,0:0|0:0,0:0:0:0:
280,200,168901,1,0,0:0:0:0:
258,197,168979,5,0,0:0:0:0:
236,200,169058,1,0,0:0:0:0:
216,209,169136,1,0,0:0:0:0:
199,223,169215,1,0,0:0:0:0:
191,271,169294,37,0,0:0:0:0:
142,261,169372,1,0,0:0:0:0:
94,251,169451,1,0,0:0:0:0:
46,241,169529,1,0,0:0:0:0:
0,231,169608,70,0,P|28:254|43:287,2,73.8750028181077,0|0|0,0:0|0:0|0:0,0:0:0:0:
44,368,170080,1,0,0:0:0:0:
125,281,170237,38,0,P|122:305|113:328,1,49.25,0|0,0:0|0:0,0:0:0:0:
40,160,170708,2,0,P|19:145|4:126,1,49.25,0|0,0:0|0:0,0:0:0:0:
186,145,171179,2,0,P|208:134|233:131,1,49.25,0|0,0:0|0:0,0:0:0:0:
311,191,171493,5,0,0:0:0:0:
312,168,171571,1,0,0:0:0:0:
313,146,171650,1,0,0:0:0:0:
314,124,171729,1,0,0:0:0:0:
348,89,171807,37,0,0:0:0:0:
361,136,171885,1,0,0:0:0:0:
399,166,171964,1,0,0:0:0:0:
448,169,172042,1,0,0:0:0:0:
489,144,172122,70,0,P|509:105|499:53,2,73.8750028181077,0|0|0,0:0|0:0|0:0,0:0:0:0:
429,90,172593,1,0,0:0:0:0:
467,247,172750,38,0,L|483:313,1,49.25,0|0,0:0|0:0,0:0:0:0:
276,205,173221,2,0,L|286:253,1,49.25,0|0,0:0|0:0,0:0:0:0:
334,55,173692,2,0,L|286:43,1,49.25,0|0,0:0|0:0,0:0:0:0:
271,124,174006,5,0,0:0:0:0:
249,129,174084,1,0,0:0:0:0:
227,134,174163,1,0,0:0:0:0:
206,139,174242,1,0,0:0:0:0:
158,150,174320,37,0,0:0:0:0:
171,103,174398,1,0,0:0:0:0:
153,58,174477,1,0,0:0:0:0:
112,30,174555,1,0,0:0:0:0:
64,32,174635,38,0,B|50:133|50:133|75:171,1,147.75,2|0,0:0|0:0,0:0:0:0:
16,230,174949,2,0,B|-11:188,1,49.25,0|0,0:0|0:0,0:0:0:0:
87,190,175106,1,2,0:0:0:0:
216,226,175263,38,0,B|230:327|230:327|205:365,1,147.75,8|0,0:0|0:0,0:0:0:0:
193,384,175578,1,0,0:0:0:0:
312,337,175734,2,0,B|306:289,1,49.25,0|0,0:0|0:0,0:0:0:0:
292,183,175891,38,0,P|330:212|379:214,1,98.5,2|0,0:0|0:0,0:0:0:0:
470,146,176127,2,0,P|426:165|401:206,1,98.5,2|0,0:0|0:0,0:0:0:0:
422,284,176363,1,2,0:0:0:0:
351,128,176520,37,8,3:2:0:0:
356,106,176598,1,0,3:2:0:0:
361,84,176677,1,0,3:2:0:0:
366,63,176755,1,0,3:2:0:0:
329,30,176833,37,0,3:2:0:0:
313,75,176911,1,0,3:2:0:0:
274,104,176990,1,0,3:2:0:0:
225,103,177068,1,0,3:2:0:0:
185,77,177148,38,0,P|147:48|98:46,1,98.5,2|0,0:0|0:0,0:0:0:0:
21,139,177383,1,0,0:0:0:0:
21,139,177462,2,0,L|119:124,1,98.5,0|2,0:0|0:0,0:0:0:0:
254,210,177776,38,0,B|243:143|243:143|268:87|268:87|258:21,1,197,8|0,0:0|0:0,0:0:0:0:
258,20,178247,1,0,0:0:0:0:
326,154,178404,38,0,L|424:160,1,98.5,2|0,0:0|0:0,0:0:0:0:
512,149,178640,2,0,L|413:142,1,98.5,2|0,0:0|0:0,0:0:0:0:
420,62,178875,1,2,0:0:0:0:
407,240,179033,37,8,3:2:0:0:
405,262,179111,1,0,3:2:0:0:
403,284,179190,1,0,3:2:0:0:
402,306,179268,1,0,3:2:0:0:
409,355,179347,37,0,3:2:0:0:
363,336,179425,1,0,3:2:0:0:
318,317,179504,1,0,3:2:0:0:
281,350,179582,1,0,3:2:0:0:
244,382,179661,38,0,P|230:311|282:244,1,147.75,2|0,0:0|0:0,0:0:0:0:
172,242,179975,2,0,L|122:245,1,49.25,0|0,0:0|0:0,0:0:0:0:
253,236,180133,1,2,0:0:0:0:
67,168,180289,38,0,B|102:165|102:165|137:149|137:149|173:160|173:160|209:158,1,147.75,8|0,0:0|0:0,0:0:0:0:
209,136,180603,1,0,0:0:0:0:
110,71,180760,2,0,L|159:67,1,49.25,0|0,0:0|0:0,0:0:0:0:
326,23,180917,38,0,P|278:16|235:39,1,98.5,2|0,0:0|0:0,0:0:0:0:
290,138,181153,2,0,P|276:91|239:60,1,98.5,2|0,0:0|0:0,0:0:0:0:
209,136,181389,1,2,0:0:0:0:
312,216,181546,37,8,3:2:0:0:
290,219,181624,1,0,3:2:0:0:
268,216,181703,1,0,3:2:0:0:
248,207,181781,1,0,3:2:0:0:
230,252,181860,37,0,3:2:0:0:
198,216,181938,1,0,3:2:0:0:
152,200,182017,1,0,3:2:0:0:
104,210,182095,1,0,3:2:0:0:
68,242,182174,54,0,L|-4:231,1,49.25,2|0,0:0|0:0,0:0:0:0:
43,157,182331,2,0,L|-5:150,1,49.25,2|0,0:0|0:0,0:0:0:0:
191,32,182488,38,0,L|118:42,1,49.25,2|0,0:0|0:0,0:0:0:0:
166,117,182645,2,0,L|117:123,1,49.25,2|0,0:0|0:0,0:0:0:0:
290,273,182802,38,0,L|217:262,1,49.25,2|0,0:0|0:0,0:0:0:0:
265,188,182959,2,0,L|216:181,1,49.25,2|0,0:0|0:0,0:0:0:0:
413,1,183116,38,0,L|340:11,1,49.25,2|0,0:0|0:0,0:0:0:0:
388,86,183273,2,0,L|339:92,1,49.25,2|0,0:0|0:0,0:0:0:0:
512,304,183431,37,2,0:0:0:0:
499,302,183509,1,2,0:0:0:0:
487,300,183588,1,2,0:0:0:0:
475,298,183666,1,2,0:0:0:0:
463,297,183745,1,2,0:0:0:0:
451,295,183823,1,2,0:0:0:0:
438,293,183902,1,2,0:0:0:0:
426,292,183980,1,2,0:0:0:0:
387,324,184059,38,0,P|372:290|371:254,1,73.8750028181077,6|2,0:3|0:0,0:0:0:0:
478,146,184216,2,0,P|456:176|425:193,1,73.8750028181077,2|2,0:0|0:0,0:0:0:0:
279,157,184373,6,0,P|315:159|347:177,1,73.8750028181077,6|0,0:3|0:0,0:0:0:0:
293,237,184687,37,0,0:0:0:0:
293,237,185944,70,0,L|299:298,1,61.5625,6|0,0:0|0:0,0:0:0:0:
174,372,186101,2,0,L|181:311,1,61.5625,2|0,0:0|0:0,0:0:0:0:
285,157,186258,1,8,0:0:0:0:
101,301,186415,37,0,0:0:0:0:
101,301,186493,2,0,B|73:271|73:271|64:190,1,123.125,2|0,0:0|0:0,0:0:0:0:
144,175,186729,2,0,L|150:236,1,61.5625,2|0,0:0|0:0,0:0:0:0:
164,351,186886,1,8,0:0:0:0:
379,222,187043,38,0,P|319:230|275:272,1,123.125,0|0,0:0|0:0,0:0:0:0:
245,347,187279,1,0,0:0:0:0:
281,353,187357,1,2,0:0:0:0:
317,359,187436,1,2,0:0:0:0:
354,366,187514,1,8,0:0:0:0:
456,132,187671,37,0,0:0:0:0:
456,132,187750,2,0,L|396:143,1,61.5625,2|0,0:0|0:0,0:0:0:0:
276,253,187906,1,0,0:0:0:0:
276,253,187985,2,0,L|215:242,1,61.5625,2|0,0:0|0:0,0:0:0:0:
320,112,188142,2,0,B|304:161|336:198|336:198|366:234|352:285,1,184.6875,8|0,0:0|0:0,0:0:0:0:
178,154,188457,38,0,B|208:148|208:148|235:164,1,61.5625,2|0,0:0|0:0,0:0:0:0:
208,322,188614,2,0,B|177:328|177:328|152:313,1,61.5625,2|0,0:0|0:0,0:0:0:0:
95,221,188771,2,0,L|216:242,1,123.125,8|0,0:0|0:0,0:0:0:0:
294,256,189006,1,2,0:0:0:0:
316,260,189084,37,0,0:0:0:0:
241,63,189242,1,2,0:0:0:0:
383,53,189399,2,0,L|321:57,1,61.5625,8|0,0:0|0:0,0:0:0:0:
163,100,189556,2,0,L|159:38,1,61.5625,0|0,0:0|0:0,0:0:0:0:
58,19,189713,37,0,0:0:0:0:
78,32,189791,1,0,0:0:0:0:
80,57,189870,2,0,B|59:44|59:44|57:19,1,49.25,2|0,0:0|0:0,0:0:0:0:
0,138,190027,37,8,0:0:0:0:
31,121,190105,1,0,0:0:0:0:
64,136,190184,2,0,B|42:147|42:147|20:136,1,49.25,0|2,0:0|0:0,0:0:0:0:
89,259,190341,37,0,0:0:0:0:
91,211,190419,1,0,0:0:0:0:
131,181,190499,2,0,B|129:205|129:205|110:218,1,49.25,2|0,0:0|0:0,0:0:0:0:
259,240,190656,37,8,0:0:0:0:
209,207,190734,1,0,0:0:0:0:
204,145,190813,2,0,B|224:157|224:157|226:182,1,49.25,0|0,0:0|0:0,0:0:0:0:
242,324,190970,38,0,L|302:315,1,61.5625,2|0,0:0|0:0,0:0:0:0:
338,160,191127,2,0,L|398:168,1,61.5625,2|0,0:0|0:0,0:0:0:0:
352,379,191284,1,8,0:0:0:0:
512,185,191441,37,0,0:0:0:0:
512,185,191519,2,0,P|474:137|474:77,1,123.125,2|0,0:0|0:0,0:0:0:0:
395,64,191755,2,0,P|404:35|425:12,1,61.5625,2|0,0:0|0:0,0:0:0:0:
260,149,191912,1,8,0:0:0:0:
177,0,192069,38,0,B|197:35|197:35|186:116,1,123.125,0|0,0:0|0:0,0:0:0:0:
129,174,192305,1,0,0:0:0:0:
109,143,192383,1,2,0:0:0:0:
78,124,192462,1,2,0:0:0:0:
42,120,192540,1,8,0:0:0:0:
196,273,192697,37,0,0:0:0:0:
196,273,192776,2,0,P|211:299|235:317,1,61.5625,2|0,0:0|0:0,0:0:0:0:
56,204,192933,1,0,0:0:0:0:
56,204,193012,2,0,P|25:203|-2:215,1,61.5625,2|0,0:0|0:0,0:0:0:0:
184,117,193169,2,0,P|204:60|178:6,1,123.125,8|0,0:0|0:0,0:0:0:0:
270,244,193483,38,0,L|331:239,1,61.5625,2|0,0:0|0:0,0:0:0:0:
428,209,193640,2,0,L|305:217,1,123.125,2|8,0:0|0:0,0:0:0:0:
167,364,193954,37,0,0:0:0:0:
189,362,194033,2,0,B|212:305|212:305|181:252,1,123.125,2|0,0:0|0:0,0:0:0:0:
125,145,194268,2,0,L|114:205,1,61.5625,2|0,0:0|0:0,0:0:0:0:
86,369,194425,1,8,0:0:0:0:
25,242,194582,2,0,L|36:182,1,61.5625,0|0,0:0|0:0,0:0:0:0:
125,145,194739,37,0,0:0:0:0:
113,124,194817,1,0,0:0:0:0:
90,115,194896,2,0,P|102:135|125:145,1,49.25,2|0,0:0|0:0,0:0:0:0:
211,219,195053,37,8,0:0:0:0:
175,209,195131,1,0,0:0:0:0:
142,224,195211,2,0,P|165:229|188:220,1,49.25,0|2,0:0|0:0,0:0:0:0:
333,200,195368,37,0,3:2:0:0:
291,224,195446,1,0,3:2:0:0:
273,270,195525,2,0,P|293:257|303:234,1,49.25,2|0,3:2|3:2,0:0:0:0:
407,85,195682,37,8,3:2:0:0:
389,142,195760,1,0,3:2:0:0:
414,197,195839,2,0,P|419:173|410:150,1,49.25,0|0,3:2|3:2,0:0:0:0:
249,68,195996,38,0,B|240:97|240:97|252:124,1,61.5625,6|0,0:0|0:0,0:0:0:0:
485,108,196153,2,0,B|493:78|493:78|481:51,1,61.5625,2|0,0:0|0:0,0:0:0:0:
326,91,196310,1,8,0:0:0:0:
464,284,196467,37,0,0:0:0:0:
464,284,196546,2,0,L|336:268,1,123.125,2|0,0:0|0:0,0:0:0:0:
266,319,196781,2,0,L|258:257,1,61.5625,2|0,0:0|0:0,0:0:0:0:
242,125,196938,1,8,0:0:0:0:
201,369,197095,38,0,P|147:343|119:290,1,123.125,0|0,0:0|0:0,0:0:0:0:
147,215,197331,1,0,0:0:0:0:
110,210,197409,1,2,0:0:0:0:
73,205,197488,1,0,0:0:0:0:
37,201,197566,1,8,0:0:0:0:
232,208,197724,37,0,0:0:0:0:
232,208,197802,2,0,L|224:270,1,61.5625,2|0,0:0|0:0,0:0:0:0:
101,129,197959,1,0,0:0:0:0:
101,129,198037,2,0,L|93:67,1,61.5625,2|0,0:0|0:0,0:0:0:0:
169,12,198195,2,0,B|184:136|184:136|211:84,1,184.6875,8|0,0:0|0:0,0:0:0:0:
326,45,198509,38,0,P|353:31|384:30,1,61.5625,2|0,0:0|0:0,0:0:0:0:
229,203,198666,2,0,P|201:217|170:218,1,61.5625,2|0,0:0|0:0,0:0:0:0:
372,110,198823,2,0,B|390:146|390:146|374:227,1,123.125,8|0,0:0|0:0,0:0:0:0:
358,305,199059,1,2,0:0:0:0:
354,327,199137,37,0,0:0:0:0:
469,129,199294,1,2,0:0:0:0:
246,168,199451,2,0,L|306:157,1,61.5625,8|0,0:0|0:0,0:0:0:0:
435,280,199608,2,0,L|495:291,1,61.5625,0|0,0:0|0:0,0:0:0:0:
277,291,199766,37,0,0:0:0:0:
268,268,199844,1,0,0:0:0:0:
274,245,199923,2,0,P|283:267|277:291,1,49.25,2|0,0:0|0:0,0:0:0:0:
147,290,200080,37,8,0:0:0:0:
161,256,200158,1,0,0:0:0:0:
192,238,200237,2,0,P|182:260|161:273,1,49.25,0|2,0:0|0:0,0:0:0:0:
44,184,200394,37,0,0:0:0:0:
90,166,200472,1,0,0:0:0:0:
136,178,200551,2,0,P|113:187|89:181,1,49.25,2|0,0:0|0:0,0:0:0:0:
48,21,200708,37,8,0:0:0:0:
104,45,200786,1,0,0:0:0:0:
134,97,200865,2,0,P|111:87|98:66,1,49.25,0|0,0:0|0:0,0:0:0:0:
200,0,201022,38,0,L|206:61,1,61.5625,2|0,0:0|0:0,0:0:0:0:
310,169,201179,2,0,L|316:107,1,61.5625,2|0,0:0|0:0,0:0:0:0:
416,39,201336,1,8,0:0:0:0:
250,226,201493,37,0,0:0:0:0:
250,226,201572,2,0,B|301:258|301:258|358:237,1,123.125,2|0,0:0|0:0,0:0:0:0:
431,274,201807,2,0,B|444:246|444:246|436:217,1,61.5625,2|0,0:0|0:0,0:0:0:0:
216,300,201964,1,8,0:0:0:0:
371,112,202122,38,0,B|320:80|320:80|260:101,1,123.125,0|0,0:0|0:0,0:0:0:0:
190,141,202358,1,0,0:0:0:0:
180,105,202436,1,2,0:0:0:0:
170,69,202515,1,2,0:0:0:0:
160,34,202593,1,8,0:0:0:0:
214,223,202750,37,0,0:0:0:0:
214,223,202828,2,0,P|241:208|260:184,1,61.5625,2|0,0:0|0:0,0:0:0:0:
100,108,202985,1,0,0:0:0:0:
100,108,203063,2,0,P|73:92|43:88,1,61.5625,2|0,0:0|0:0,0:0:0:0:
23,246,203221,2,0,B|103:224|103:224|127:192,1,123.125,8|0,0:0|0:0,0:0:0:0:
315,301,203535,38,0,B|254:295,1,61.5625,2|0,0:0|0:0,0:0:0:0:
165,384,203692,2,0,L|176:262,1,123.125,2|8,0:0|0:0,0:0:0:0:
190,103,204006,37,0,0:0:0:0:
188,125,204085,2,0,P|208:181|259:213,1,123.125,2|0,0:0|0:0,0:0:0:0:
323,164,204321,2,0,L|383:153,1,61.5625,2|0,0:0|0:0,0:0:0:0:
125,199,204478,1,8,0:0:0:0:
271,102,204635,2,0,B|276:72|276:72|261:46,1,61.5625,0|0,0:0|0:0,0:0:0:0:
296,240,204792,37,2,0:0:0:0:
299,261,204870,1,0,0:0:0:0:
304,283,204949,2,0,L|312:331,1,49.25,0|0,0:0|0:0,0:0:0:0:
189,351,205106,22,0,P|213:351|236:360,3,49.25,0|0|0|0,0:0|0:0|0:0|0:0,0:0:0:0:
434,304,205420,2,0,P|411:314|393:330,3,49.25,0|0|0|0,3:0|3:0|3:0|3:0,0:0:0:0:
282,160,205734,69,0,3:0:0:0:
280,149,205812,1,0,3:0:0:0:
278,138,205891,2,0,L|273:113,1,24.625,0|0,3:0|3:0,0:0:0:0:
134,291,206048,54,0,L|35:284,1,98.5,2|0,0:0|0:0,0:0:0:0:
144,211,206284,1,0,0:0:0:0:
144,211,206362,2,0,P|189:230|213:273,1,98.5,0|0,0:0|0:0,0:0:0:0:
127,129,206677,38,0,L|112:56,1,73.8750028181077,0|0,0:0|0:0,0:0:0:0:
66,182,206991,1,0,0:0:0:0:
205,113,207148,38,0,L|190:40,1,73.8750028181077,0|0,0:0|0:0,0:0:0:0:
142,208,207462,1,0,0:0:0:0:
283,97,207619,38,0,L|268:24,1,73.8750028181077,0|0,0:0|0:0,0:0:0:0:
218,234,207933,37,0,3:0:0:0:
238,241,208011,1,0,3:0:0:0:
259,248,208090,1,0,3:0:0:0:
280,255,208168,1,0,3:0:0:0:
317,289,208247,37,0,3:0:0:0:
329,242,208325,1,0,3:0:0:0:
363,207,208404,1,0,3:0:0:0:
410,193,208482,1,0,3:0:0:0:
456,204,208561,38,0,B|478:170|478:170|473:142|467:114,1,98.5,0|0,0:0|0:0,0:0:0:0:
512,37,208797,1,0,2:0:0:0:
512,37,208875,2,0,L|413:30,1,98.5,0|0,0:0|0:0,0:0:0:0:
278,20,209190,38,0,P|312:32|338:58,1,73.8750028181077,0|0,0:0|0:0,0:0:0:0:
401,109,209504,1,0,0:0:0:0:
268,100,209661,38,0,P|274:136|264:171,1,73.8750028181077,0|0,0:0|0:0,0:0:0:0:
252,250,209975,1,0,0:0:0:0:
193,131,210132,38,0,P|164:154|129:163,1,73.8750028181077,0|0,0:0|0:0,0:0:0:0:
55,99,210446,37,0,3:0:0:0:
52,121,210524,1,0,3:0:0:0:
50,143,210603,1,0,3:0:0:0:
48,165,210681,1,0,3:0:0:0:
0,150,210760,37,0,3:0:0:0:
10,198,210838,1,0,3:0:0:0:
20,246,210917,1,0,3:0:0:0:
30,294,210995,1,0,3:0:0:0:
40,342,211074,38,0,P|56:296|96:268,1,98.5,0|0,0:0|0:0,0:0:0:0:
219,354,211310,1,0,0:0:0:0:
219,354,211389,2,0,L|122:344,1,98.5,0|0,0:0|0:0,0:0:0:0:
215,206,211703,38,0,L|288:198,1,73.8750028181077,0|0,0:0|0:0,0:0:0:0:
339,135,212017,1,0,0:0:0:0:
258,283,212174,38,0,L|331:275,1,73.8750028181077,0|0,0:0|0:0,0:0:0:0:
407,179,212488,1,0,0:0:0:0:
301,360,212645,38,0,L|374:352,1,73.8750028181077,0|0,0:0|0:0,0:0:0:0:
475,223,212959,1,0,3:0:0:0:
484,202,213037,1,0,3:0:0:0:
487,181,213116,1,0,3:0:0:0:
485,159,213194,1,0,3:0:0:0:
512,118,213273,37,0,3:0:0:0:
463,117,213351,1,0,3:0:0:0:
421,92,213430,1,0,3:0:0:0:
397,50,213508,1,0,3:0:0:0:
399,11,213588,38,0,P|371:50|325:67,1,98.5,0|0,0:0|0:0,0:0:0:0:
258,109,213823,1,0,0:0:0:0:
258,109,213902,2,0,P|230:69|184:52,1,98.5,0|0,0:0|0:0,0:0:0:0:
159,201,214216,38,0,P|178:169|180:133,1,73.8750028181077,0|0,0:0|0:0,0:0:0:0:
113,88,214530,1,0,0:0:0:0:
86,235,214687,38,0,L|77:283,1,36.9375014090539,0|0,0:0|0:0,0:0:0:0:
168,327,214844,5,0,3:0:0:0:
155,306,214923,1,0,3:0:0:0:
160,282,215001,2,0,B|172:303|172:303|168:327,1,49.25,0|0,3:0|3:0,0:0:0:0:
299,252,215158,37,0,3:0:0:0:
263,259,215237,1,0,3:0:0:0:
230,241,215315,2,0,B|253:236|253:236|275:247,1,49.25,0|0,3:0|3:0,0:0:0:0:
252,79,215472,37,0,3:0:0:0:
248,127,215551,1,0,3:0:0:0:
212,161,215629,2,0,B|214:136|214:136|231:119,1,49.25,0|0,3:0|3:0,0:0:0:0:
50,76,215786,37,0,3:0:0:0:
105,98,215865,1,0,3:0:0:0:
130,153,215944,2,0,B|107:143|107:143|97:121,1,49.25,0|0,3:0|3:0,0:0:0:0:
24,235,216101,54,0,L|97:227,2,73.8750028181077,2|0|0,0:0|0:0|0:0,0:0:0:0:
177,219,216572,1,0,0:0:0:0:
164,336,216729,38,0,P|157:313|144:293,1,49.25,0|0,0:0|0:0,0:0:0:0:
304,206,217200,2,0,P|280:201|255:202,1,49.25,0|0,0:0|0:0,0:0:0:0:
154,96,217671,2,0,P|136:114|125:136,1,49.25,0|0,0:0|0:0,0:0:0:0:
46,146,217985,5,0,0:0:0:0:
51,167,218063,1,0,0:0:0:0:
62,186,218142,1,0,0:0:0:0:
78,201,218220,1,0,0:0:0:0:
106,243,218300,37,0,0:0:0:0:
128,199,218378,1,0,0:0:0:0:
170,174,218457,1,0,0:0:0:0:
219,173,218535,1,0,0:0:0:0:
261,196,218614,70,0,L|253:269,2,73.8750028181077,0|0|0,0:0|0:0|0:0,0:0:0:0:
324,309,219085,1,0,0:0:0:0:
279,117,219242,38,0,L|327:108,1,49.25,0|0,0:0|0:0,0:0:0:0:
401,282,219713,2,0,L|352:273,1,49.25,0|0,0:0|0:0,0:0:0:0:
407,94,220184,2,0,L|455:85,1,49.25,0|0,0:0|0:0,0:0:0:0:
504,79,220420,1,0,0:0:0:0:
500,100,220498,5,0,0:0:0:0:
496,122,220577,1,0,0:0:0:0:
492,144,220655,1,0,0:0:0:0:
488,166,220734,1,0,0:0:0:0:
478,214,220813,37,0,0:0:0:0:
441,182,220892,1,0,0:0:0:0:
393,173,220970,1,0,0:0:0:0:
346,190,221049,1,0,0:0:0:0:
314,225,221127,70,0,P|305:276|319:319,2,73.8750028181077,0|0|0,0:0|0:0|0:0,0:0:0:0:
385,325,221598,1,0,0:0:0:0:
308,145,221755,38,0,P|284:150|263:162,1,49.25,0|0,0:0|0:0,0:0:0:0:
219,345,222226,2,0,P|226:321|226:297,1,49.25,0|0,0:0|0:0,0:0:0:0:
90,167,222697,2,0,P|107:186|128:198,1,49.25,0|0,0:0|0:0,0:0:0:0:
201,133,223012,5,0,0:0:0:0:
204,154,223090,1,0,0:0:0:0:
207,176,223169,1,0,0:0:0:0:
210,198,223247,1,0,0:0:0:0:
248,229,223326,37,0,0:0:0:0:
255,181,223404,1,0,0:0:0:0:
262,132,223483,1,0,0:0:0:0:
269,83,223561,1,0,0:0:0:0:
276,34,223640,70,0,P|301:75|346:94,2,73.8750028181077,0|0|0,0:0|0:0|0:0,0:0:0:0:
335,168,224111,1,0,0:0:0:0:
402,7,224268,38,0,L|354:14,1,49.25,0|0,0:0|0:0,0:0:0:0:
415,180,224739,2,0,L|463:186,1,49.25,0|0,0:0|0:0,0:0:0:0:
273,25,225211,2,0,L|225:32,1,49.25,0|0,0:0|0:0,0:0:0:0:
158,104,225525,5,0,0:0:0:0:
179,107,225603,1,0,0:0:0:0:
201,110,225682,1,0,0:0:0:0:
223,113,225760,1,0,0:0:0:0:
272,119,225839,37,0,0:0:0:0:
227,136,225917,1,0,0:0:0:0:
198,175,225996,1,0,0:0:0:0:
199,223,226074,1,0,0:0:0:0:
