osu file format v14

[General]
AudioFilename: audio.mp3
AudioLeadIn: 0
PreviewTime: 185904
Countdown: 0
SampleSet: Soft
StackLeniency: 0.6
Mode: 0
LetterboxInBreaks: 0
WidescreenStoryboard: 1

[Editor]
DistanceSpacing: 0.9
BeatDivisor: 4
GridSize: 32
TimelineZoom: 2.599999

[Metadata]
Title:Catanoph
TitleUnicode:Catanoph
Artist:An
ArtistUnicode:An
Creator:Ryuusei Aika
Version:Frontier's Normal
Source:
Tags:AcuticNotes Diverse System AD PIANO AD:PIANO artcore Frontier -_Frontier_- PandaHero irotuk iCeya Crystar Miura kanor Lavender yf_bmp
BeatmapID:1652366
BeatmapSetID:775846

[Difficulty]
HPDrainRate:4
CircleSize:3.3
OverallDifficulty:4
ApproachRate:5
SliderMultiplier:1.1
SliderTickRate:1

[Events]
//Background and Video events
0,0,"id_41243652.jpg",0,0
//Break Periods
2,1232,10084
2,124373,142021
2,164782,173435
//Storyboard Layer 0 (Background)
//Storyboard Layer 1 (Fail)
//Storyboard Layer 2 (Pass)
//Storyboard Layer 3 (Foreground)
//Storyboard Sound Samples

[TimingPoints]
0,314.13612565445,4,2,1,100,1,0
1232,314.13612565445,4,2,1,50,1,0
1232,-100,4,2,1,50,0,0
11284,-100,4,2,1,30,0,0
21336,-100,4,2,1,40,0,0
40027,-100,4,2,1,50,0,0
41441,-100,4,2,1,40,0,0
61546,-100,4,2,1,50,0,0
86088,-100,4,2,1,80,0,0
86677,-100,4,2,1,40,0,0
91114,-100,4,2,1,80,0,0
91703,-100,4,2,1,40,0,0
96140,-100,4,2,1,80,0,0
96729,-100,4,2,1,40,0,0
101166,-100,4,2,1,80,0,0
101755,-100,4,2,1,40,0,0
104268,-100,4,2,1,50,0,0
124373,-100,4,2,1,40,0,0
143221,-100,4,2,1,50,0,0
144478,-100,4,2,1,60,0,1
154216,-100,4,2,1,60,0,0
154530,-100,4,2,1,60,0,1
164582,-100,4,2,1,30,0,0
174635,-100,4,2,1,40,0,0
182802,-100,4,2,1,45,0,0
183430,-100,4,2,1,50,0,0
184687,-100,4,2,1,20,0,0
185944,-100,4,2,1,70,0,1
195682,-100,4,2,1,70,0,0
195996,-100,4,2,1,70,0,1
206048,-100,4,2,1,40,0,0
216101,-1,4,2,1,30,0,0

[Colours]
Combo1 : 153,215,238
Combo2 : 135,125,124
Combo3 : 217,199,166
Combo4 : 107,88,84
Combo5 : 205,34,39
Combo6 : 233,134,44

[HitObjects]
256,192,0,5,0,0:0:0:0:
0,145,11284,6,0,P|59:82|133:109,1,165,2|2,0:0|0:0,0:0:0:0:
157,144,11912,2,0,L|172:16,1,110,8|0,0:0|0:0,0:0:0:0:
265,63,12540,2,0,B|257:128|257:128|235:152,2,82.5,2|2|2,0:0|0:0|0:0,0:0:0:0:
300,27,13169,2,0,P|352:16|396:47,1,110,8|0,0:0|0:0,0:0:0:0:
480,99,13797,6,0,B|474:121|458:132|458:132|482:267,1,165,2|2,0:0|0:0,0:0:0:0:
512,298,14425,2,0,P|459:287|421:322,1,110,8|0,0:0|0:0,0:0:0:0:
322,318,15053,2,0,B|334:378|334:378|370:390,2,82.5,2|2|2,0:0|0:0|0:0,0:0:0:0:
292,285,15682,2,0,B|184:306,1,110,8|0,0:0|0:0,0:0:0:0:
105,365,16310,6,0,P|86:322|139:218,1,165,2|2,0:0|0:0,0:0:0:0:
179,205,16938,2,0,B|157:97,1,110,8|0,0:0|0:0,0:0:0:0:
213,15,17567,2,0,B|182:6|182:6|169:13|169:13|153:8|153:8|117:20,2,82.5,2|2|2,0:0|0:0|0:0,0:0:0:0:
239,56,18195,2,0,P|292:62|333:28,1,110,8|0,0:0|0:0,0:0:0:0:
428,52,18823,6,0,L|406:220,1,165,2|2,0:0|0:0,0:0:0:0:
382,257,19451,2,0,B|333:237|288:265|313:286|268:314|220:294,1,165,8|0,0:0|0:0,0:0:0:0:
186,280,20080,6,0,B|197:362,2,82.5,2|2|2,0:0|0:0|0:0,0:0:0:0:
124,238,20786,2,0,B|135:156,1,82.5,2|2,0:0|0:0,0:0:0:0:
162,61,21336,6,0,P|215:105|304:88,1,165,6|2,0:0|0:0,0:0:0:0:
379,23,22122,2,0,L|451:32,1,55,2|8,0:0|0:0,0:0:0:0:
509,157,22750,2,0,L|500:229,1,55,2|8,0:0|0:0,0:0:0:0:
452,212,23064,2,0,P|401:214|356:175,1,110,2|2,0:0|0:0,0:0:0:0:
314,203,23535,1,8,0:0:0:0:
363,288,23849,6,0,P|285:268|221:315,1,165,2|2,0:0|0:0,0:0:0:0:
148,382,24635,2,0,L|76:373,1,55,2|8,0:0|0:0,0:0:0:0:
17,272,25263,2,0,L|71:265,1,55,2|8,0:0|0:0,0:0:0:0:
106,230,25577,2,0,P|115:178|86:132,1,110,2|2,0:0|0:0,0:0:0:0:
37,119,26048,1,8,0:0:0:0:
106,49,26362,6,0,L|280:71,1,165,2|2,0:0|0:0,0:0:0:0:
358,25,27148,2,0,L|412:19,1,55,2|8,0:0|0:0,0:0:0:0:
444,156,27776,2,0,L|438:210,1,55,2|8,0:0|0:0,0:0:0:0:
460,254,28090,2,0,P|420:217|366:217,1,110,2|2,0:0|0:0,0:0:0:0:
331,252,28561,1,8,0:0:0:0:
264,325,28875,6,0,L|98:305,1,165,2|2,0:0|0:0,0:0:0:0:
81,208,29661,2,0,L|87:149,1,55,2|8,0:0|0:0,0:0:0:0:
160,84,30132,2,0,L|269:97,1,110,0|8,0:0|0:0,0:0:0:0:
314,78,30603,1,0,0:0:0:0:
383,147,30917,2,0,L|376:201,1,55,2|2,0:0|0:0,0:0:0:0:
434,281,31389,6,0,P|391:300|287:244,1,165,2|2,0:0|0:0,0:0:0:0:
238,336,32174,2,0,L|183:342,1,55,2|8,0:0|0:0,0:0:0:0:
46,250,32802,2,0,L|101:244,1,55,2|8,0:0|0:0,0:0:0:0:
135,209,33116,2,0,P|149:157|124:110,1,110,2|2,0:0|0:0,0:0:0:0:
83,82,33588,1,8,0:0:0:0:
146,6,33902,6,0,L|318:26,1,165,2|2,0:0|0:0,0:0:0:0:
410,0,34687,2,0,P|415:30|407:54,1,55,2|8,0:0|0:0,0:0:0:0:
512,164,35315,2,0,P|496:186|472:199,1,55,2|8,0:0|0:0,0:0:0:0:
437,163,35629,2,0,L|450:272,1,110,2|2,0:0|0:0,0:0:0:0:
486,305,36101,1,8,0:0:0:0:
406,364,36415,6,0,P|345:306|267:323,1,165,2|2,0:0|0:0,0:0:0:0:
194,382,37200,2,0,L|139:376,1,55,2|8,0:0|0:0,0:0:0:0:
35,276,37828,2,0,L|90:270,1,55,2|8,0:0|0:0,0:0:0:0:
124,235,38142,2,0,B|139:181|139:181|106:136,1,110,2|2,0:0|0:0,0:0:0:0:
72,102,38614,1,8,0:0:0:0:
141,32,38928,6,0,P|220:25|282:78,1,165,2|2,0:0|0:0,0:0:0:0:
338,160,39713,2,0,L|393:154,1,55,2|8,0:0|0:0,0:0:0:0:
482,115,40184,1,2,0:0:0:0:
482,115,41441,6,0,L|458:300,1,165,6|2,0:0|0:0,0:0:0:0:
495,313,42069,1,8,0:0:0:0:
363,381,42540,1,2,0:0:0:0:
323,351,42697,2,0,P|282:346|238:374,2,82.5,2|2|2,0:0|0:0|0:0,0:0:0:0:
369,333,43326,2,0,L|385:205,1,110,8|0,0:0|0:0,0:0:0:0:
290,258,43954,6,0,B|244:276|203:251|227:231|185:206|140:224,1,165,2|2,0:0|0:0,0:0:0:0:
101,255,44582,1,8,0:0:0:0:
176,128,45054,1,2,0:0:0:0:
224,118,45211,2,0,P|256:143|267:194,2,82.5,2|2|2,0:0|0:0|0:0,0:0:0:0:
188,82,45840,2,0,L|60:65,1,110,8|0,0:0|0:0,0:0:0:0:
9,137,46467,6,0,L|31:312,1,165,2|2,0:0|0:0,0:0:0:0:
64,335,47095,1,8,0:0:0:0:
221,312,47567,1,2,0:0:0:0:
255,277,47724,2,0,L|268:173,2,82.5,2|2|2,0:0|0:0|0:0,0:0:0:0:
273,322,48352,2,0,P|325:306|376:325,1,110,8|0,0:0|0:0,0:0:0:0:
471,348,48980,6,0,P|419:326|429:222,1,165,2|2,0:0|0:0,0:0:0:0:
461,201,49608,1,8,0:0:0:0:
333,125,50080,1,2,0:0:0:0:
300,87,50237,2,0,L|314:-17,2,82.5,2|2|2,0:0|0:0|0:0,0:0:0:0:
285,134,50865,1,8,0:0:0:0:
227,323,51493,6,0,P|175:367|85:326,1,165,2|2,0:0|0:0,0:0:0:0:
93,281,52122,2,0,L|72:167,1,110,8|0,0:0|0:0,0:0:0:0:
143,102,52750,2,0,L|158:19,2,82.5,2|2|2,0:0|0:0|0:0,0:0:0:0:
167,145,53378,1,8,0:0:0:0:
329,31,54006,6,0,B|382:26|382:26|438:48|438:48|491:43,1,165,2|2,0:0|0:0,0:0:0:0:
504,90,54635,2,0,L|483:204,1,110,8|0,0:0|0:0,0:0:0:0:
427,279,55263,2,0,B|363:267|363:267|380:254,2,82.5,2|2|2,0:0|0:0|0:0,0:0:0:0:
470,303,55891,1,8,0:0:0:0:
286,376,56519,6,0,P|242:324|147:350,1,165,2|2,0:0|0:0,0:0:0:0:
120,376,57148,2,0,L|3:351,1,110,8|0,0:0|0:0,0:0:0:0:
33,256,57776,2,0,L|115:273,2,82.5,2|2|2,0:0|0:0|0:0,0:0:0:0:
6,214,58404,1,8,0:0:0:0:
148,77,59033,6,0,B|233:59|213:135|299:117,1,165,2|2,0:0|0:0,0:0:0:0:
348,122,59661,2,0,L|334:13,1,110,8|0,0:0|0:0,0:0:0:0:
432,1,60289,2,0,L|446:110,1,110,2|2,0:0|0:0,0:0:0:0:
406,200,60917,2,0,L|414:265,2,55,6|2|6,0:3|0:0|0:3,0:0:0:0:
348,122,61546,6,0,P|301:101|248:123,1,110,2|2,0:0|0:0,0:0:0:0:
214,156,62017,2,0,L|84:140,1,110,0|0,0:0|0:0,0:0:0:0:
182,324,62959,2,0,P|235:339|297:306,1,110,0|0,0:0|0:0,0:0:0:0:
321,286,63430,2,0,L|386:294,1,55,2|0,0:0|0:0,0:0:0:0:
454,352,63902,1,0,0:0:0:0:
454,352,64059,6,0,B|451:319|451:319|466:282|466:282|462:245,1,110,2|2,0:0|0:0,0:0:0:0:
425,211,64530,2,0,P|396:168|408:112,1,110,0|0,0:0|0:0,0:0:0:0:
241,4,65472,2,0,L|125:21,1,110,0|0,0:0|0:0,0:0:0:0:
93,51,65944,2,0,L|35:42,1,55,2|0,0:0|0:0,0:0:0:0:
11,137,66415,1,0,0:0:0:0:
11,137,66572,6,0,P|61:162|131:137,1,110,2|2,0:0|0:0,0:0:0:0:
156,129,67043,2,0,L|139:245,1,110,0|0,0:0|0:0,0:0:0:0:
291,365,67985,2,0,P|332:327|406:333,1,110,0|0,0:0|0:0,0:0:0:0:
419,358,68457,2,0,L|485:348,1,55,2|0,0:0|0:0,0:0:0:0:
483,251,68928,1,0,0:0:0:0:
483,251,69085,6,0,L|374:234,1,110,2|2,0:0|0:0,0:0:0:0:
339,199,69556,2,0,P|324:149|353:97,1,110,0|0,0:0|0:0,0:0:0:0:
165,26,70499,2,0,L|56:42,1,110,0|0,0:0|0:0,0:0:0:0:
30,84,70970,2,0,P|35:119|58:145,1,55,2|0,0:0|0:0,0:0:0:0:
10,227,71441,1,0,0:0:0:0:
10,227,71598,6,0,P|54:192|127:205,1,110,2|2,0:0|0:0,0:0:0:0:
140,228,72069,2,0,L|123:337,1,110,0|0,0:0|0:0,0:0:0:0:
288,379,73012,2,0,P|308:328|281:263,1,110,0|0,0:0|0:0,0:0:0:0:
258,241,73483,2,0,L|272:177,1,55,2|0,0:0|0:0,0:0:0:0:
337,114,73955,1,0,0:0:0:0:
337,113,74111,6,0,P|286:133|237:112,1,110,2|2,0:0|0:0,0:0:0:0:
194,87,74582,2,0,P|144:66|94:85,1,110,0|0,0:0|0:0,0:0:0:0:
16,267,75525,2,0,L|125:250,1,110,0|0,0:0|0:0,0:0:0:0:
152,209,75996,2,0,L|207:218,1,55,2|0,0:0|0:0,0:0:0:0:
293,276,76467,1,0,0:0:0:0:
293,276,76623,6,0,P|346:282|388:249,1,110,2|2,0:0|0:0,0:0:0:0:
434,268,77095,2,0,P|414:218|440:157,1,110,0|0,0:0|0:0,0:0:0:0:
293,27,78039,2,0,L|184:43,1,110,0|0,0:0|0:0,0:0:0:0:
149,77,78510,2,0,P|125:63|98:61,1,55,2|0,0:0|0:0,0:0:0:0:
28,131,78980,1,0,0:0:0:0:
28,131,79137,6,0,P|7:178|29:231,1,110,2|2,0:0|0:0,0:0:0:0:
62,264,79608,2,0,L|192:248,1,110,0|0,0:0|0:0,0:0:0:0:
311,110,80551,2,0,P|352:148|426:142,1,110,0|0,0:0|0:0,0:0:0:0:
449,133,81022,2,0,L|515:143,1,55,2|0,0:0|0:0,0:0:0:0:
492,239,81493,2,0,L|437:230,1,55,0|2,0:0|0:0,0:0:0:0:
256,192,81807,12,0,82907,0:0:0:0:
392,194,84163,6,0,P|335:181|263:266,1,165,6|0,0:0|0:0,0:0:0:0:
281,297,84792,1,8,0:0:0:0:
176,192,85263,2,0,L|191:12,1,165,2|2,0:0|0:0,0:0:0:0:
93,4,86048,1,8,0:0:0:0:
0,181,86677,6,0,P|64:190|109:285,1,165,2|0,0:0|0:0,0:0:0:0:
84,314,87305,1,8,0:0:0:0:
215,382,87776,2,0,L|394:366,1,165,2|2,0:0|0:0,0:0:0:0:
478,374,88561,1,8,0:0:0:0:
475,163,89190,6,0,P|418:150|346:235,1,165,2|0,0:0|0:0,0:0:0:0:
364,266,89819,1,8,0:0:0:0:
233,195,90289,2,0,P|202:121|247:56,1,165,2|2,0:0|0:0,0:0:0:0:
343,39,91074,1,8,0:0:0:0:
326,237,91703,6,0,L|153:260,1,165,2|0,0:0|0:0,0:0:0:0:
127,293,92331,1,8,0:0:0:0:
10,200,92802,2,0,P|40:126|117:112,1,165,2|2,0:0|0:0,0:0:0:0:
196,173,93588,1,8,0:0:0:0:
358,60,94216,6,0,P|309:122|336:197,1,165,2|0,0:0|0:0,0:0:0:0:
373,228,94844,1,8,0:0:0:0:
350,374,95315,2,0,B|263:391|284:315|198:333,1,165,2|2,0:0|0:0,0:0:0:0:
107,372,96101,1,8,0:0:0:0:
83,175,96729,6,0,P|139:162|211:247,1,165,2|0,0:0|0:0,0:0:0:0:
170,261,97358,1,8,0:0:0:0:
23,242,97828,2,0,L|0:56,1,165,2|2,0:0|0:0,0:0:0:0:
71,7,98614,1,8,0:0:0:0:
268,10,99242,6,0,P|321:67|297:142,1,165,2|0,0:0|0:0,0:0:0:0:
252,119,99870,1,8,0:0:0:0:
378,196,100341,2,0,P|326:187|249:267,1,165,2|2,0:0|0:0,0:0:0:0:
276,354,101127,1,8,0:0:0:0:
473,336,101755,6,0,L|504:158,1,165,2|0,0:0|0:0,0:0:0:0:
509,124,102383,1,8,0:0:0:0:
386,63,102855,2,0,L|376:9,1,55,2|2,0:0|0:0,0:0:0:0:
374,7,104268,6,0,P|277:37|283:138,1,220,6|2,0:0|0:0,0:0:0:0:
353,209,105211,1,2,0:0:0:0:
353,209,105525,2,0,B|238:232|265:131|151:154,1,220,2|2,0:0|0:0,0:0:0:0:
87,342,106781,6,0,P|181:349|182:247,1,220,2|2,0:0|0:0,0:0:0:0:
150,155,107724,1,2,0:0:0:0:
150,155,108038,2,0,P|99:181|71:66,1,220,2|2,0:0|0:0,0:0:0:0:
277,71,109294,6,0,B|342:52|391:96|391:96|391:154|448:182,1,220,2|2,0:0|0:0,0:0:0:0:
488,92,110237,1,2,0:0:0:0:
488,92,110551,2,0,L|457:314,1,220,2|2,0:0|0:0,0:0:0:0:
266,365,111807,6,0,P|162:369|113:277,1,220,2|2,0:0|0:0,0:0:0:0:
212,283,112750,1,2,0:0:0:0:
212,283,113064,2,0,L|422:359,1,220,2|2,0:0|0:0,0:0:0:0:
475,167,114321,6,0,P|398:149|335:198,1,165,2|0,0:0|0:0,0:0:0:0:
265,268,115106,2,0,L|23:238,1,220,0|0,0:0|0:0,0:0:0:0:
15,147,116048,2,0,L|4:74,1,55
48,63,116362,2,0,P|119:59|160:98,1,110,0|0,0:0|0:0,0:0:0:0:
153,129,116834,6,0,B|197:153|228:127|219:106|278:88|304:117,1,165,2|0,0:0|0:0,0:0:0:0:
372,189,117619,2,0,B|351:59|351:59|366:122|428:119,1,220
452,29,118561,2,0,L|526:40,1,55,0|2,0:0|0:0,0:0:0:0:
512,87,118875,2,0,P|531:143|487:193,1,110,0|0,0:0|0:0,0:0:0:0:
500,234,119347,6,0,P|421:211|360:265,1,165,2|0,0:0|0:0,0:0:0:0:
306,340,120132,2,0,P|212:373|213:272,1,220,0|0,0:0|0:0,0:0:0:0:
268,209,121074,2,0,P|275:182|272:155,1,55,0|2,0:0|0:0,0:0:0:0:
304,117,121389,2,0,L|176:105,1,110,0|0,0:0|0:0,0:0:0:0:
158,73,121860,6,0,P|79:82|47:154,1,165,2|0,0:0|0:0,0:0:0:0:
9,246,122645,2,0,B|65:265|108:232|108:232|144:229|151:273|132:277,1,165,0|2,0:0|0:0,0:0:0:0:
204,33,143221,6,0,P|159:38|130:83,2,82.5
265,87,143928,2,0,P|305:87|335:113,1,82.5
302,210,144478,6,0,L|311:320,1,110,6|8,0:0|0:0,0:0:0:0:
350,348,144949,2,0,P|413:361|449:329,1,110,0|2,0:0|0:0,0:0:0:0:
493,247,145577,2,0,B|436:199|436:199|336:220,1,165,0|8,0:0|0:0,0:0:0:0:
302,210,146205,2,0,B|128:173,1,165,0|8,0:0|0:0,0:0:0:0:
60,233,146991,6,0,P|41:175|58:120,1,110,2|8,0:0|0:0,0:0:0:0:
24,88,147462,2,0,P|84:89|121:50,1,110,0|2,0:0|0:0,0:0:0:0:
198,114,148090,2,0,P|256:67|339:95,1,165,0|8,0:0|0:0,0:0:0:0:
330,140,148718,2,0,L|462:125,1,110
488,120,149190,2,0,P|501:159|496:193,1,55,8|0,0:0|0:0,0:0:0:0:
498,219,149504,6,0,L|383:231,1,110,2|8,0:0|0:0,0:0:0:0:
353,265,149975,2,0,P|312:229|258:233,1,110,0|2,0:0|0:0,0:0:0:0:
188,164,150603,2,0,P|220:216|186:319,1,165,0|8,0:0|0:0,0:0:0:0:
230,344,151231,2,0,P|178:329|117:367,1,110
98,379,151703,1,8,0:0:0:0:
7,319,152017,6,0,L|21:199,1,110,2|8,0:0|0:0,0:0:0:0:
39,166,152488,2,0,P|113:195|187:163,1,165,0|8,0:0|0:0,0:0:0:0:
264,101,153273,2,0,P|283:150|271:214,1,110,0|8,0:0|0:0,0:0:0:0:
364,249,153902,2,0,P|396:208|458:186,1,110,0|8,3:2|3:2,0:0:0:0:
442,88,154530,6,0,P|390:79|340:37,1,110,6|8,0:0|0:0,0:0:0:0:
303,19,155001,2,0,P|250:7|198:41,1,110,0|2,0:0|0:0,0:0:0:0:
109,3,155629,2,0,P|151:62|139:153,1,165,0|8,0:0|0:0,0:0:0:0:
167,185,156258,2,0,B|114:229|114:229|61:219,1,110
25,208,156729,1,8,0:0:0:0:
1,306,157043,6,0,L|110:328,1,110,2|8,0:0|0:0,0:0:0:0:
143,363,157514,2,0,P|184:328|238:331,1,110,0|2,0:0|0:0,0:0:0:0:
334,356,158142,2,0,P|402:376|461:309,1,165,0|8,0:0|0:0,0:0:0:0:
499,344,158771,2,0,P|480:269|497:218,1,110,0|8,0:0|0:0,0:0:0:0:
505,192,159242,2,0,P|506:158|491:117,1,55,8|0,0:0|0:0,0:0:0:0:
466,103,159556,6,0,P|437:92|363:117,1,110,2|8,0:0|0:0,0:0:0:0:
333,153,160027,2,0,L|217:134,1,110,0|2,0:0|0:0,0:0:0:0:
146,73,160656,2,0,P|198:136|162:227,1,165,0|8,0:0|0:0,0:0:0:0:
216,243,161284,2,0,B|163:236|163:236|107:256,1,110,0|8,0:0|0:0,0:0:0:0:
60,248,161755,1,8,0:0:0:0:
74,346,162069,6,0,B|126:352|126:352|182:332,1,110,2|8,0:0|0:0,0:0:0:0:
222,359,162540,2,0,P|264:322|327:321,1,110,0|2,0:0|0:0,0:0:0:0:
413,336,163169,1,0,0:0:0:0:
413,336,163326,2,0,L|486:351,2,55,0|2|8,0:0|0:0|0:0,0:0:0:0:
379,243,163954,2,0,L|306:228,2,55,0|2|8,3:2|3:2|3:2,0:0:0:0:
451,175,164582,5,4,0:0:0:0:
461,189,174635,6,0,B|369:170|391:251|299:232,1,165,2|2,0:0|0:0,0:0:0:0:
275,198,175263,2,0,L|291:82,1,110,8|0,0:0|0:0,0:0:0:0:
361,20,175891,2,0,B|378:11|378:11|440:20,2,82.5,2|2|2,0:0|0:0|0:0,0:0:0:0:
314,3,176519,2,0,P|273:43|208:34,1,110,8|0,0:0|0:0,0:0:0:0:
129,8,177148,6,0,P|188:61|166:157,1,165,2|2,0:0|0:0,0:0:0:0:
146,177,177776,2,0,L|32:157,1,110,8|0,0:0|0:0,0:0:0:0:
13,253,178404,2,0,B|72:242|72:242|92:251,2,82.5,2|2|2,0:0|0:0|0:0,0:0:0:0:
0,299,179033,2,0,P|1:352|42:386,1,110,8|0,0:0|0:0,0:0:0:0:
128,339,179661,6,0,B|182:310|182:310|300:342,1,165,2|2,0:0|0:0,0:0:0:0:
314,374,180289,2,0,P|346:329|339:273,1,110,8|0,0:0|0:0,0:0:0:0:
270,206,180917,2,0,B|237:201|237:201|227:210|227:210|191:218,2,82.5,2|2|2,0:0|0:0|0:0,0:0:0:0:
312,180,181546,2,0,P|373:178|423:216,1,110,8|0,0:0|0:0,0:0:0:0:
256,192,182174,12,0,184687,0:0:0:0:
224,96,185944,6,0,P|179:64|114:72,1,110,6|8,0:0|0:0,0:0:0:0:
91,101,186415,2,0,L|100:211,1,110,0|2,0:0|0:0,0:0:0:0:
13,258,187043,2,0,B|127:243|127:243|173:294,1,165,0|8,0:0|0:0,0:0:0:0:
189,321,187671,2,0,B|305:305,1,110
346,294,188142,1,8,0:0:0:0:
422,230,188457,6,0,P|441:172|424:117,1,110,2|8,0:0|0:0,0:0:0:0:
387,98,188928,2,0,B|277:84,1,110,0|2,0:0|0:0,0:0:0:0:
215,5,189556,2,0,P|168:63|196:146,1,165,0|8,0:0|0:0,0:0:0:0:
227,177,190184,2,0,L|213:291,1,110
219,335,190656,2,0,P|262:355|281:353,1,55,8|0,0:0|0:0,0:0:0:0:
307,325,190970,6,0,L|319:210,1,110,2|8,0:0|0:0,0:0:0:0:
360,188,191441,2,0,B|414:180|414:180|453:220,1,110,0|2,0:0|0:0,0:0:0:0:
507,302,192069,2,0,B|421:276|435:355|350:329,1,165,0|8,0:0|0:0,0:0:0:0:
307,325,192697,2,0,P|251:316|201:358,1,110,0|8,0:0|0:0,0:0:0:0:
159,350,193169,1,8,0:0:0:0:
95,283,193483,6,0,L|81:163,1,110,2|8,0:0|0:0,0:0:0:0:
47,138,193954,2,0,B|130:162|116:84|201:109,1,165,0|8,0:0|0:0,0:0:0:0:
235,73,194582,2,0,L|219:11,2,55
277,98,195053,1,8,0:0:0:0:
379,78,195368,2,0,L|392:24,2,55,0|0|8,0:0|0:0|0:0,0:0:0:0:
433,160,195996,6,0,P|382:173|337:222,1,110,6|8,0:0|0:0,0:0:0:0:
326,260,196467,2,0,L|339:382,1,110,0|2,0:0|0:0,0:0:0:0:
238,369,197095,2,0,L|220:204,1,165,0|8,0:0|0:0,0:0:0:0:
255,169,197724,2,0,B|202:125|202:125|136:139,1,110,0|8,0:0|0:0,0:0:0:0:
115,150,198195,1,8,0:0:0:0:
83,48,198509,6,0,L|192:26,1,110,2|8,0:0|0:0,0:0:0:0:
233,51,198980,2,0,P|274:16|328:19,1,110,0|2,0:0|0:0,0:0:0:0:
419,56,199608,2,0,P|366:102|387:198,1,165,0|8,0:0|0:0,0:0:0:0:
384,238,200237,2,0,L|268:228,1,110
226,217,200708,2,0,P|202:184|204:152,1,55,8|0,0:0|0:0,0:0:0:0:
191,126,201022,6,0,P|160:118|90:152,1,110,2|8,0:0|0:0,0:0:0:0:
57,185,201493,2,0,L|66:306,1,110,0|2,0:0|0:0,0:0:0:0:
150,345,202122,2,0,P|227:326|288:378,1,165,0|8,0:0|0:0,0:0:0:0:
323,343,202750,2,0,B|310:234,1,110,0|0,0:0|0:0,0:0:0:0:
318,185,203221,1,8,0:0:0:0:
385,111,203535,6,0,P|337:79|277:91,1,110,2|8,0:0|0:0,0:0:0:0:
252,120,204006,2,0,B|200:127|200:127|144:107,1,110,0|2,0:0|0:0,0:0:0:0:
62,53,204635,2,0,L|48:-21,1,55,0|2,0:0|0:0,0:0:0:0:
51,0,206048,5,2,0:0:0:0:
