osu file format v14

[General]
AudioFilename: audio.mp3
AudioLeadIn: 0
PreviewTime: 185904
Countdown: 0
SampleSet: Soft
StackLeniency: 0
Mode: 0
LetterboxInBreaks: 0
WidescreenStoryboard: 0

[Editor]
Bookmarks: 11289,21341,41446,61551,81655,104273,124378,144483,164587,174640,185949,206053
DistanceSpacing: 1.2
BeatDivisor: 4
GridSize: 4
TimelineZoom: 2.599999

[Metadata]
Title:Catanoph
TitleUnicode:Catanoph
Artist:An
ArtistUnicode:An
Creator:Lavender
Version:Extra(OWC Version)
Source:
Tags:AcuticNotes diverse system AD:PIANO Yumeno Himiko ad piano OWC2016 osu! world cup 2016 Finals CWC2017 Catch 2017 Quarterfinals artcore electronic instrumental
BeatmapID:1118285
BeatmapSetID:527069

[Difficulty]
HPDrainRate:6
CircleSize:4.2
OverallDifficulty:8
ApproachRate:9.4
SliderMultiplier:1.8
SliderTickRate:1

[Events]
//Background and Video events
0,0,"orz.jpg",0,0
//Break Periods
//Storyboard Layer 0 (Background)
//Storyboard Layer 1 (Fail)
//Storyboard Layer 2 (Pass)
//Storyboard Layer 3 (Foreground)
//Storyboard Layer 4 (Overlay)
//Storyboard Sound Samples

[TimingPoints]
0,314.13612565445,4,2,1,100,1,0
1232,314.13612565445,4,2,1,100,1,0
1232,-133.333333333333,4,2,1,50,0,0
7514,-100,4,2,1,50,0,0
7828,-133.333333333333,4,2,1,50,0,0
11284,-111.111111111111,4,2,1,30,0,0
21022,-166.666666666667,4,2,1,30,0,0
21336,-83.3333333333333,4,2,1,40,0,0
39713,-71.4285714285714,4,2,1,40,0,0
39870,-62.5,4,2,1,40,0,0
40027,-100,4,2,1,50,0,0
41441,-100,4,2,1,40,0,0
81650,-200,4,2,1,40,0,0
83535,-66.6666666666667,4,2,1,40,0,0
83849,-100,4,2,1,40,0,0
84163,-133.333333333333,4,2,1,40,0,0
86088,-133.333333333333,4,2,1,80,0,0
86677,-133.333333333333,4,2,1,40,0,0
88561,-66.6666666666667,4,2,1,40,0,0
89190,-133.333333333333,4,2,1,40,0,0
91114,-133.333333333333,4,2,1,80,0,0
91703,-133.333333333333,4,2,1,40,0,0
93588,-66.6666666666667,4,2,1,40,0,0
94216,-133.333333333333,4,2,1,40,0,0
96140,-133.333333333333,4,2,1,80,0,0
96729,-133.333333333333,4,2,1,40,0,0
98614,-66.6666666666667,4,2,1,40,0,0
99242,-133.333333333333,4,2,1,40,0,0
101166,-133.333333333333,4,2,1,80,0,0
101755,-133.333333333333,4,2,1,40,0,0
103640,-66.6666666666667,4,2,1,40,0,0
104268,-83.3333333333333,4,2,1,50,0,0
124373,-133.333333333333,4,2,1,40,0,0
143221,-66.6666666666667,4,2,1,50,0,0
144163,-100,4,2,1,50,0,0
144478,-66.6666666666667,4,2,1,60,0,1
154216,-66.6666666666667,4,2,1,60,0,0
154530,-66.6666666666667,4,2,1,60,0,1
164582,-133.333333333333,4,2,1,30,0,0
174635,-111.111111111111,4,2,1,40,0,0
182174,-83.3333333333333,4,2,1,40,0,0
182802,-83.3333333333333,4,2,1,45,0,0
183430,-83.3333333333333,4,2,1,50,0,0
184687,-1000,4,2,1,20,0,0
185944,-62.5,4,2,1,70,0,1
195682,-62.5,4,2,1,70,0,0
195996,-62.5,4,2,1,70,0,1
206048,-111.111111111111,4,2,1,40,0,0
216101,-133.333333333333,4,2,1,30,0,0

[Colours]
Combo1 : 180,98,247
Combo2 : 157,253,130
Combo3 : 255,128,255
Combo4 : 254,153,78
Combo5 : 104,255,255

[HitObjects]
256,192,0,5,0,0:0:0:0:
69,109,1232,6,0,P|103:115|135:107,1,67.5000025749208
256,47,1546,1,0,0:0:0:0:
152,186,1703,1,0,0:0:0:0:
232,196,1860,5,0,0:0:0:0:
215,117,2017,1,0,0:0:0:0:
303,233,2174,5,0,0:0:0:0:
320,154,2331,1,0,0:0:0:0:
195,268,2488,6,0,L|127:261,1,67.5000025749208
340,305,2802,2,0,L|407:298,1,67.5000025749208
303,233,3116,5,0,0:0:0:0:
275,353,3273,1,0,0:0:0:0:
298,223,3430,1,0,0:0:0:0:
340,305,3588,1,0,0:0:0:0:
293,213,3745,6,0,B|257:215|257:215|226:205,1,67.5000025749208
145,84,4059,2,0,B|165:114|165:114|172:145,1,67.5000025749208
147,222,4373,1,0,0:0:0:0:
251,127,4530,1,0,0:0:0:0:
202,283,4687,1,0,0:0:0:0:
92,161,4844,1,0,0:0:0:0:
281,266,5001,6,0,P|331:254|380:265,1,101.250003862381
416,283,5315,2,0,L|424:215,1,67.5000025749208
422,38,5629,5,0,0:0:0:0:
353,177,5786,1,0,0:0:0:0:
457,142,5944,1,0,0:0:0:0:
318,73,6101,1,0,0:0:0:0:
318,72,6258,6,0,P|285:80|252:75,1,67.5000025749208
252,75,6493,1,0,0:0:0:0:
252,75,6572,1,0,0:0:0:0:
160,176,6729,1,0,0:0:0:0:
166,74,6886,5,0,0:0:0:0:
174,97,6965,1,0,0:0:0:0:
249,160,7122,1,0,0:0:0:0:
241,183,7201,1,0,0:0:0:0:
180,286,7357,1,0,0:0:0:0:
98,269,7514,6,0,B|195:253|195:253|180:286,1,135.000005149842
50,339,7828,1,0,0:0:0:0:
26,315,7906,1,0,0:0:0:0:
13,284,7985,1,0,0:0:0:0:
13,250,8063,1,0,0:0:0:0:
27,220,8142,1,0,0:0:0:0:
127,348,8300,5,0,0:0:0:0:
135,184,8457,1,0,0:0:0:0:
50,339,8614,1,0,0:0:0:0:
180,286,8771,5,0,0:0:0:0:
254,255,8928,1,0,0:0:0:0:
254,255,9006,1,0,0:0:0:0:
254,255,9085,2,0,L|287:259,1,33.7500012874604
400,280,9242,2,0,L|434:285,1,33.7500012874604
344,320,9399,2,0,B|369:273|369:273|360:225,1,101.250003862381
360,225,9713,5,0,0:0:0:0:
267,337,9870,1,0,0:0:0:0:
242,169,10027,1,0,0:0:0:0:
344,320,10184,1,0,0:0:0:0:
344,320,10263,1,0,0:0:0:0:
344,320,10341,6,0,L|410:308,1,67.5000025749208
270,259,10656,2,0,L|246:322,1,67.5000025749208
360,225,10970,2,0,L|316:173,1,67.5000025749208
241,37,11284,5,2,0:0:0:0:
188,98,11441,1,0,0:0:0:0:
109,79,11598,1,0,0:0:0:0:
56,140,11755,1,2,0:0:0:0:
120,272,11912,6,0,B|180:302|224:242|292:269,1,161.999995056153,8|0,0:0|0:0,0:0:0:0:
245,345,12383,1,0,0:0:0:0:
154,195,12540,6,0,B|140:156|140:156|152:118,1,80.9999975280763,2|0,0:0|0:0,0:0:0:0:
151,42,12776,2,0,B|165:81|165:81|152:118,1,80.9999975280763,2|0,0:0|0:0,0:0:0:0:
37,79,13012,2,0,L|75:92,1,40.4999987640381,2|0,0:0|0:0,0:0:0:0:
228,143,13169,6,0,B|286:124|286:124|343:142,1,121.499996292114,8|0,0:0|0:0,0:0:0:0:
286,208,13483,1,0,0:0:0:0:
286,94,13640,1,0,0:0:0:0:
286,289,13797,5,2,0:0:0:0:
208,307,13954,1,0,0:0:0:0:
205,287,14032,1,0,0:0:0:0:
208,267,14111,1,0,0:0:0:0:
286,289,14268,1,2,0:0:0:0:
137,368,14425,2,0,P|120:289|135:210,1,161.999995056153,8|0,0:0|0:0,0:0:0:0:
185,120,14896,1,0,0:0:0:0:
233,181,15053,6,0,P|197:197|157:193,1,80.9999975280763,2|0,0:0|0:0,0:0:0:0:
81,121,15289,2,0,P|113:144|129:180,1,80.9999975280763,2|0,0:0|0:0,0:0:0:0:
119,247,15525,2,0,L|135:210,1,40.4999987640381,2|0,0:0|0:0,0:0:0:0:
185,120,15682,5,8,0:0:0:0:
52,199,15839,1,0,0:0:0:0:
198,278,15996,1,0,0:0:0:0:
81,121,16153,1,0,0:0:0:0:
227,200,16310,5,2,0:0:0:0:
299,164,16467,1,0,0:0:0:0:
424,139,16624,5,0,0:0:0:0:
352,103,16781,1,2,0:0:0:0:
284,263,16938,6,0,B|267:141|267:141|298:163,1,161.999995056153,8|0,0:0|0:0,0:0:0:0:
358,218,17410,1,0,0:0:0:0:
210,308,17567,6,0,B|170:312|170:312|132:295,1,80.9999975280763,2|0,0:0|0:0,0:0:0:0:
17,266,17802,2,0,B|57:262|57:262|95:279,1,80.9999975280763,2|0,0:0|0:0,0:0:0:0:
96,358,18038,2,0,L|98:318,1,40.4999987640381,2|0,0:0|0:0,0:0:0:0:
156,210,18195,5,8,0:0:0:0:
160,129,18352,1,0,0:0:0:0:
164,48,18509,1,0,0:0:0:0:
160,129,18666,1,0,0:0:0:0:
79,125,18823,5,2,0:0:0:0:
241,133,18980,1,0,0:0:0:0:
241,133,19059,1,0,0:0:0:0:
241,133,19137,1,0,0:0:0:0:
403,141,19294,1,2,0:0:0:0:
311,79,19451,5,8,0:0:0:0:
323,106,19529,1,0,0:0:0:0:
326,136,19608,1,0,0:0:0:0:
320,166,19686,1,0,0:0:0:0:
311,195,19765,1,0,0:0:0:0:
301,224,19843,1,0,0:0:0:0:
295,253,19922,1,0,0:0:0:0:
296,284,20000,1,0,0:0:0:0:
306,312,20080,6,0,P|267:318|229:305,1,80.9999975280763,2|0,0:0|0:0,0:0:0:0:
171,145,20315,6,0,P|206:163|230:195,1,80.9999975280763,2|0,0:0|0:0,0:0:0:0:
182,359,20551,6,0,P|163:323|163:283,1,80.9999975280763,2|0,0:0|0:0,0:0:0:0:
305,179,20786,6,0,P|298:218|274:250,1,80.9999975280763,2|0,0:0|0:0,0:0:0:0:
97,256,21022,6,0,P|125:227|163:215,1,80.9999975280763,2|0,0:0|0:0,0:0:0:0:
189,219,21336,6,0,B|175:166|175:166|190:114,1,107.999996704102,6|0,0:0|0:0,0:0:0:0:
220,84,21572,1,0,0:0:0:0:
219,84,21650,2,0,L|166:93,1,53.9999983520508,8|0,0:0|0:0,0:0:0:0:
26,117,21807,2,0,L|79:108,1,53.9999983520508,2|0,0:0|0:0,0:0:0:0:
109,23,21964,5,0,0:0:0:0:
122,101,22122,1,2,0:0:0:0:
136,180,22279,1,8,0:0:0:0:
151,259,22436,1,0,0:0:0:0:
151,259,22750,5,2,0:0:0:0:
151,259,22828,1,2,0:0:0:0:
151,259,22907,1,8,0:0:0:0:
136,180,23064,1,2,0:0:0:0:
66,244,23221,5,0,0:0:0:0:
63,264,23300,1,0,0:0:0:0:
67,285,23378,2,0,P|77:311|96:329,1,53.9999983520508,2|0,0:0|0:0,0:0:0:0:
238,276,23535,5,8,0:0:0:0:
241,256,23614,1,0,0:0:0:0:
236,234,23692,2,0,P|226:208|207:190,1,53.9999983520508
136,180,23849,6,0,P|189:184|235:157,1,107.999996704102,2|0,0:0|0:0,0:0:0:0:
286,106,24085,1,0,0:0:0:0:
286,106,24163,2,0,L|281:159,1,53.9999983520508,8|0,0:0|0:0,0:0:0:0:
317,239,24321,1,2,0:0:0:0:
353,318,24478,2,0,L|348:371,2,53.9999983520508,0|0|2,0:0|0:0|0:0,0:0:0:0:
437,169,24792,1,8,0:0:0:0:
474,249,24949,6,0,B|413:274|375:214|315:239,1,161.999995056153
440,336,25263,1,2,0:0:0:0:
350,150,25420,1,8,0:0:0:0:
316,238,25577,1,2,0:0:0:0:
436,169,25734,5,0,0:0:0:0:
438,135,25812,1,0,0:0:0:0:
427,103,25891,1,2,0:0:0:0:
405,78,25969,1,0,0:0:0:0:
375,62,26048,1,8,0:0:0:0:
342,59,26126,1,0,0:0:0:0:
310,68,26205,1,0,0:0:0:0:
283,88,26283,1,0,0:0:0:0:
266,117,26362,6,0,B|218:138|218:138|163:128,1,107.999996704102,2|0,0:0|0:0,0:0:0:0:
122,113,26598,1,0,0:0:0:0:
122,113,26677,2,0,L|129:166,1,53.9999983520508,8|0,0:0|0:0,0:0:0:0:
141,252,26834,2,0,L|148:306,1,53.9999983520508,2|0,0:0|0:0,0:0:0:0:
73,306,26991,5,0,0:0:0:0:
209,198,27148,1,2,0:0:0:0:
61,221,27305,1,8,0:0:0:0:
221,283,27462,6,0,P|291:317|360:281,1,161.999995056153
400,204,27776,1,2,0:0:0:0:
405,230,27855,1,2,0:0:0:0:
411,256,27933,1,8,0:0:0:0:
382,381,28090,1,2,0:0:0:0:
291,233,28247,5,0,0:0:0:0:
282,208,28325,1,0,0:0:0:0:
280,181,28404,1,2,0:0:0:0:
285,154,28482,1,0,0:0:0:0:
292,128,28561,1,8,0:0:0:0:
299,102,28639,1,0,0:0:0:0:
303,75,28718,1,0,0:0:0:0:
300,47,28796,1,0,0:0:0:0:
291,23,28875,6,0,L|184:37,1,107.999996704102,2|0,0:0|0:0,0:0:0:0:
99,16,29111,1,0,0:0:0:0:
99,16,29190,2,0,L|107:69,1,53.9999983520508,8|0,0:0|0:0,0:0:0:0:
176,122,29347,2,0,L|167:175,1,53.9999983520508,2|0,0:0|0:0,0:0:0:0:
108,312,29504,5,0,0:0:0:0:
176,260,29661,1,2,0:0:0:0:
98,227,29818,1,8,0:0:0:0:
254,293,29975,5,0,0:0:0:0:
254,293,30053,1,0,0:0:0:0:
254,293,30132,2,0,L|308:288,3,53.9999983520508,0|0|2|2,0:0|0:0|0:0|0:0,0:0:0:0:
332,324,30446,2,0,L|386:319,3,53.9999983520508,8|0|0|0,0:0|0:0|0:0|0:0,0:0:0:0:
386,297,30760,5,0,0:0:0:0:
393,277,30839,1,0,0:0:0:0:
406,260,30917,1,2,0:0:0:0:
424,247,30996,1,0,0:0:0:0:
444,240,31074,5,2,0:0:0:0:
440,200,31152,1,0,0:0:0:0:
436,160,31231,1,0,0:0:0:0:
433,119,31309,1,0,0:0:0:0:
429,79,31389,6,0,B|322:95,1,107.999996704102,2|0,0:0|0:0,0:0:0:0:
261,143,31624,1,0,0:0:0:0:
261,143,31703,2,0,L|314:148,1,53.9999983520508,8|0,0:0|0:0,0:0:0:0:
373,212,31860,1,2,0:0:0:0:
274,228,32017,6,0,P|273:254|268:281,1,53.9999983520508
180,189,32174,2,0,L|189:242,1,53.9999983520508,2|0,0:0|0:0,0:0:0:0:
106,257,32331,2,0,P|114:282|128:305,1,53.9999983520508,8|0,0:0|0:0,0:0:0:0:
207,348,32488,1,0,0:0:0:0:
155,50,32802,5,2,0:0:0:0:
155,50,32881,1,2,0:0:0:0:
155,50,32959,1,8,0:0:0:0:
180,189,33116,1,2,0:0:0:0:
57,151,33273,5,0,0:0:0:0:
80,154,33352,1,0,0:0:0:0:
107,148,33430,1,2,0:0:0:0:
130,139,33509,1,0,0:0:0:0:
205,100,33588,5,8,0:0:0:0:
228,91,33667,1,0,0:0:0:0:
255,85,33745,1,0,0:0:0:0:
278,88,33824,1,0,0:0:0:0:
300,94,33902,6,0,P|285:145|306:194,1,107.999996704102,2|0,0:0|0:0,0:0:0:0:
343,215,34137,1,0,0:0:0:0:
343,215,34216,1,8,0:0:0:0:
334,65,34373,1,2,0:0:0:0:
200,261,34530,6,0,L|224:213,1,53.9999983520508
179,56,34687,2,0,L|209:100,1,53.9999983520508,2|0,0:0|0:0,0:0:0:0:
367,141,34844,2,0,L|313:144,1,53.9999983520508,8|0,0:0|0:0,0:0:0:0:
97,159,35001,5,0,0:0:0:0:
317,293,35315,5,2,0:0:0:0:
317,293,35394,1,2,0:0:0:0:
316,292,35472,2,0,P|289:287|262:291,1,53.9999983520508,8|0,0:0|0:0,0:0:0:0:
263,206,35629,2,0,P|289:209|316:205,1,53.9999983520508,2|0,0:0|0:0,0:0:0:0:
394,254,35786,5,0,0:0:0:0:
396,275,35865,1,0,0:0:0:0:
398,296,35944,2,0,L|403:349,1,53.9999983520508,2|0,0:0|0:0,0:0:0:0:
186,253,36101,1,8,0:0:0:0:
184,274,36180,1,0,0:0:0:0:
182,295,36259,2,0,L|176:348,1,53.9999983520508
289,123,36415,6,0,L|289:14,1,107.999996704102,2|0,0:0|0:0,0:0:0:0:
289,15,36650,1,0,0:0:0:0:
289,15,36729,1,8,0:0:0:0:
124,133,36886,1,2,0:0:0:0:
232,189,37043,6,0,P|207:200|180:200,1,53.9999983520508
21,198,37200,2,0,P|23:171|36:147,1,53.9999983520508,2|0,0:0|0:0,0:0:0:0:
118,11,37357,2,0,P|139:26|153:49,1,53.9999983520508,8|0,0:0|0:0,0:0:0:0:
196,279,37514,6,0,B|76:269|76:269|105:239,1,161.999995056153
176,146,37828,1,2,0:0:0:0:
176,146,37907,1,2,0:0:0:0:
176,146,37985,2,0,L|179:199,1,53.9999983520508,8|0,0:0|0:0,0:0:0:0:
106,348,38142,1,2,0:0:0:0:
276,312,38300,5,0,0:0:0:0:
301,319,38378,1,0,0:0:0:0:
328,324,38457,1,2,0:0:0:0:
355,324,38535,1,0,0:0:0:0:
382,321,38614,1,8,0:0:0:0:
408,315,38692,1,0,0:0:0:0:
433,305,38771,1,0,0:0:0:0:
456,291,38849,1,0,0:0:0:0:
478,275,38928,6,0,B|457:224|457:224|472:173,1,107.999996704102,2|0,0:0|0:0,0:0:0:0:
485,133,39163,1,0,0:0:0:0:
485,133,39242,2,0,L|431:141,1,53.9999983520508,8|0,0:0|0:0,0:0:0:0:
270,122,39399,1,2,0:0:0:0:
366,241,39556,6,0,L|358:188,1,53.9999983520508
260,60,39713,2,0,L|270:122,1,62.9999980773926,2|0,0:0|0:0,0:0:0:0:
174,269,39870,2,0,L|163:198,1,72,8|0,0:0|0:0,0:0:0:0:
55,62,40027,1,0,0:0:0:0:
55,62,40106,1,0,0:0:0:0:
55,62,40184,5,2,0:0:0:0:
50,88,40262,1,0,0:0:0:0:
46,115,40341,1,0,0:0:0:0:
42,142,40419,1,0,0:0:0:0:
38,168,40498,1,0,0:0:0:0:
34,195,40576,1,0,0:0:0:0:
30,222,40655,1,0,0:0:0:0:
25,248,40733,1,0,0:0:0:0:
21,275,40813,5,0,0:0:0:0:
47,244,40891,1,0,0:0:0:0:
82,224,40970,1,0,0:0:0:0:
122,220,41048,1,0,0:0:0:0:
161,232,41127,1,0,0:0:0:0:
192,257,41205,1,0,0:0:0:0:
211,293,41284,1,0,0:0:0:0:
215,333,41362,1,0,0:0:0:0:
204,371,41441,6,0,L|294:357,1,90,6|0,0:0|0:0,0:0:0:0:
450,312,41755,2,0,L|361:298,1,90,0|2,0:0|0:0,0:0:0:0:
313,222,42069,1,8,0:0:0:0:
381,163,42226,1,0,0:0:0:0:
333,87,42383,1,0,0:0:0:0:
223,208,42540,1,2,0:0:0:0:
223,208,42697,6,0,L|134:194,1,90,2|0,0:0|0:0,0:0:0:0:
45,180,42933,2,0,L|133:193,1,90,2|0,0:0|0:0,0:0:0:0:
127,238,43169,2,0,L|133:193,1,45,2|0,0:0|0:0,0:0:0:0:
147,104,43326,5,8,0:0:0:0:
113,326,43483,1,0,0:0:0:0:
83,62,43640,5,0,0:0:0:0:
116,32,43718,1,0,0:0:0:0:
160,27,43797,1,0,0:0:0:0:
200,47,43875,1,0,0:0:0:0:
222,85,43954,6,0,P|266:87|309:73,1,90,2|0,0:0|0:0,0:0:0:0:
448,157,44268,2,0,P|403:159|361:146,1,90,0|2,0:0|0:0,0:0:0:0:
254,291,44582,1,8,0:0:0:0:
307,218,44739,1,0,0:0:0:0:
343,300,44896,1,0,0:0:0:0:
165,282,45053,1,2,0:0:0:0:
164,281,45211,6,0,P|135:249|128:205,1,90,2|0,0:0|0:0,0:0:0:0:
177,134,45446,2,0,P|163:176|128:203,1,90,2|0,0:0|0:0,0:0:0:0:
3,189,45682,2,0,L|47:193,1,45,2|0,0:0|0:0,0:0:0:0:
235,214,45839,5,8,0:0:0:0:
53,281,45996,1,0,0:0:0:0:
98,128,46153,1,0,0:0:0:0:
98,128,46231,1,0,0:0:0:0:
98,128,46310,1,0,0:0:0:0:
164,281,46467,5,2,0:0:0:0:
243,322,46624,1,0,0:0:0:0:
335,168,46781,1,0,0:0:0:0:
414,209,46938,1,2,0:0:0:0:
289,245,47095,6,0,P|297:288|283:330,2,90,8|0|0,0:0|0:0|0:0,0:0:0:0:
210,204,47567,1,2,0:0:0:0:
210,204,47724,2,0,P|197:138|218:75,2,135,2|2|2,0:0|0:0|0:0,0:0:0:0:
133,251,48352,2,0,L|88:246,1,45,8|0,0:0|0:0,0:0:0:0:
0,237,48509,1,0,0:0:0:0:
193,321,48666,5,0,0:0:0:0:
215,323,48744,1,0,0:0:0:0:
238,325,48823,1,0,0:0:0:0:
260,327,48901,1,0,0:0:0:0:
283,330,48980,6,0,B|277:282|277:282|294:244,1,90,2|0,0:0|0:0,0:0:0:0:
345,77,49294,2,0,B|351:125|351:125|334:163,1,90,0|2,0:0|0:0,0:0:0:0:
204,250,49608,1,8,0:0:0:0:
384,238,49766,1,0,0:0:0:0:
284,88,49923,1,0,0:0:0:0:
244,169,50080,1,2,0:0:0:0:
244,169,50158,1,0,0:0:0:0:
244,169,50237,6,0,L|199:171,3,45,2|0|0|2,0:0|0:0|0:0|0:0,0:0:0:0:
151,106,50551,2,0,L|106:108,3,45,0|0|2|0,0:0|0:0|0:0|0:0,0:0:0:0:
58,42,50866,5,8,0:0:0:0:
30,77,50944,1,0,0:0:0:0:
25,121,51023,1,0,0:0:0:0:
44,161,51101,1,0,0:0:0:0:
82,185,51180,1,0,0:0:0:0:
120,210,51258,1,0,0:0:0:0:
139,250,51336,1,0,0:0:0:0:
134,294,51415,1,0,0:0:0:0:
107,329,51493,6,0,L|196:325,1,90,2|0,0:0|0:0,0:0:0:0:
254,255,51807,1,0,0:0:0:0:
335,292,51964,1,2,0:0:0:0:
393,221,52122,2,0,P|400:178|384:136,2,90,8|0|0,0:0|0:0|0:0,0:0:0:0:
335,292,52593,1,2,0:0:0:0:
377,371,52750,2,0,L|511:364,2,135,2|2|2,0:0|0:0|0:0,0:0:0:0:
287,367,53378,2,0,L|242:362,1,45,8|0,0:0|0:0,0:0:0:0:
63,344,53535,1,0,0:0:0:0:
152,353,53692,5,0,0:0:0:0:
154,330,53770,1,0,0:0:0:0:
156,308,53849,1,0,0:0:0:0:
158,285,53927,1,0,0:0:0:0:
160,263,54006,5,2,0:0:0:0:
168,173,54163,1,0,0:0:0:0:
176,83,54321,1,0,0:0:0:0:
88,175,54478,5,2,0:0:0:0:
178,183,54636,1,8,0:0:0:0:
268,191,54793,1,0,0:0:0:0:
429,112,54949,5,0,0:0:0:0:
357,232,55106,1,2,0:0:0:0:
357,232,55263,2,0,P|350:164|339:98,2,135,2|2|2,0:0|0:0|0:0,0:0:0:0:
438,269,55891,1,8,0:0:0:0:
318,169,56048,1,0,0:0:0:0:
263,337,56205,1,0,0:0:0:0:
263,337,56284,1,0,0:0:0:0:
263,337,56362,1,0,0:0:0:0:
190,281,56519,6,0,P|146:275|101:274,1,90,2|0,0:0|0:0,0:0:0:0:
245,209,56834,2,0,P|289:202|334:201,1,90,0|2,0:0|0:0,0:0:0:0:
172,153,57148,1,8,0:0:0:0:
227,81,57305,1,0,0:0:0:0:
245,209,57462,1,0,0:0:0:0:
99,97,57619,1,2,0:0:0:0:
99,96,57776,6,0,B|57:113|57:113|11:108,1,90,2|0,0:0|0:0,0:0:0:0:
30,236,58012,2,0,B|72:219|72:219|117:224,1,90,2|0,0:0|0:0,0:0:0:0:
172,152,58247,2,0,L|216:147,1,45,2|0,0:0|0:0,0:0:0:0:
383,126,58404,1,8,0:0:0:0:
289,53,58561,1,0,0:0:0:0:
311,221,58718,1,0,0:0:0:0:
313,243,58796,1,0,0:0:0:0:
316,265,58875,1,0,0:0:0:0:
319,288,58953,1,0,0:0:0:0:
320,310,59033,6,0,P|276:304|231:302,1,90,2|0,0:0|0:0,0:0:0:0:
97,337,59347,2,0,P|124:301|149:264,1,90,0|2,0:0|0:0,0:0:0:0:
184,130,59661,2,0,P|201:171|221:211,2,90,8|0|0,0:0|0:0|0:0,0:0:0:0:
114,72,60132,5,2,0:0:0:0:
114,72,60211,1,0,0:0:0:0:
114,72,60289,5,2,0:0:0:0:
151,46,60367,1,0,0:0:0:0:
195,41,60446,1,2,0:0:0:0:
237,58,60524,1,0,0:0:0:0:
265,93,60603,1,2,0:0:0:0:
293,128,60682,1,0,0:0:0:0:
335,145,60760,1,2,0:0:0:0:
379,140,60839,1,0,0:0:0:0:
416,115,60917,5,2,0:0:0:0:
410,159,60995,1,0,0:0:0:0:
405,204,61074,1,2,0:0:0:0:
400,249,61152,1,0,0:0:0:0:
394,292,61231,2,0,L|389:337,3,45,2|0|0|0,0:0|0:0|0:0|0:0,0:0:0:0:
356,369,61546,5,2,0:0:0:0:
156,369,61703,1,0,0:0:0:0:
166,369,61860,5,2,0:0:0:0:
346,369,62017,1,0,0:0:0:0:
256,300,62174,5,2,0:0:0:0:
243,287,62331,1,0,0:0:0:0:
256,274,62488,1,2,0:0:0:0:
269,287,62645,1,0,0:0:0:0:
188,225,62802,5,2,0:0:0:0:
345,146,62959,1,0,0:0:0:0:
324,225,63116,1,2,0:0:0:0:
167,146,63273,1,0,0:0:0:0:
256,185,63430,5,2,0:0:0:0:
256,103,63588,1,0,0:0:0:0:
256,21,63745,1,2,0:0:0:0:
256,21,63823,1,0,0:0:0:0:
256,21,63903,1,0,0:0:0:0:
433,92,64059,5,2,0:0:0:0:
433,292,64216,1,0,0:0:0:0:
433,282,64373,5,2,0:0:0:0:
433,102,64530,1,0,0:0:0:0:
364,192,64687,5,2,0:0:0:0:
346,192,64844,1,0,0:0:0:0:
328,192,65001,1,2,0:0:0:0:
310,192,65158,1,0,0:0:0:0:
238,192,65315,5,2,0:0:0:0:
337,268,65472,1,0,0:0:0:0:
220,192,65629,5,2,0:0:0:0:
337,116,65786,1,0,0:0:0:0:
202,192,65944,5,2,0:0:0:0:
310,192,66101,1,0,0:0:0:0:
112,192,66258,1,2,0:0:0:0:
93,192,66337,1,0,0:0:0:0:
75,192,66415,1,0,0:0:0:0:
156,15,66572,5,2,0:0:0:0:
356,15,66729,1,0,0:0:0:0:
346,15,66886,5,2,0:0:0:0:
166,15,67043,1,0,0:0:0:0:
256,84,67200,5,2,0:0:0:0:
268,126,67357,1,0,0:0:0:0:
234,100,67514,1,2,0:0:0:0:
277,100,67671,1,0,0:0:0:0:
242,126,67828,1,2,0:0:0:0:
256,210,67985,5,0,0:0:0:0:
172,176,68142,1,2,0:0:0:0:
340,244,68300,1,0,0:0:0:0:
161,265,68457,1,2,0:0:0:0:
351,155,68614,1,0,0:0:0:0:
256,308,68771,1,2,0:0:0:0:
256,308,68849,1,0,0:0:0:0:
256,308,68928,1,0,0:0:0:0:
79,292,69085,5,2,0:0:0:0:
79,92,69242,1,0,0:0:0:0:
79,102,69399,5,2,0:0:0:0:
79,282,69556,1,0,0:0:0:0:
148,192,69713,5,2,0:0:0:0:
161,179,69870,1,0,0:0:0:0:
174,192,70027,1,2,0:0:0:0:
187,205,70184,1,0,0:0:0:0:
200,192,70341,5,2,0:0:0:0:
338,147,70498,1,0,0:0:0:0:
253,265,70655,1,2,0:0:0:0:
253,119,70812,1,0,0:0:0:0:
338,237,70969,1,2,0:0:0:0:
200,192,71127,5,0,0:0:0:0:
402,192,71284,1,2,0:0:0:0:
421,192,71363,1,0,0:0:0:0:
439,192,71441,1,0,0:0:0:0:
253,351,71598,5,2,0:0:0:0:
79,251,71755,1,0,0:0:0:0:
88,256,71912,5,2,0:0:0:0:
244,346,72069,1,0,0:0:0:0:
165,300,72226,5,2,0:0:0:0:
165,300,72383,1,0,0:0:0:0:
165,300,72540,1,2,0:0:0:0:
165,300,72697,1,0,0:0:0:0:
80,346,72855,5,2,0:0:0:0:
252,256,73012,1,0,0:0:0:0:
184,63,73169,5,2,0:0:0:0:
175,256,73326,1,0,0:0:0:0:
377,294,73483,5,2,0:0:0:0:
214,190,73640,1,0,0:0:0:0:
213,322,73797,5,2,0:0:0:0:
213,322,73875,1,0,0:0:0:0:
213,322,73954,1,0,0:0:0:0:
318,192,74111,5,2,0:0:0:0:
417,365,74268,1,0,0:0:0:0:
412,357,74425,5,2,0:0:0:0:
322,201,74582,1,0,0:0:0:0:
381,269,74739,5,2,0:0:0:0:
393,256,74896,1,0,0:0:0:0:
351,286,75054,1,2,0:0:0:0:
334,290,75211,1,0,0:0:0:0:
367,279,75368,5,2,0:0:0:0:
403,174,75525,1,0,0:0:0:0:
367,279,75682,5,2,0:0:0:0:
331,384,75839,1,0,0:0:0:0:
367,279,75996,5,2,0:0:0:0:
472,315,76153,1,0,0:0:0:0:
262,243,76310,5,2,0:0:0:0:
245,237,76389,1,0,0:0:0:0:
227,231,76467,1,0,0:0:0:0:
114,192,76624,5,2,0:0:0:0:
287,93,76781,1,0,0:0:0:0:
279,98,76938,5,2,0:0:0:0:
123,188,77095,1,0,0:0:0:0:
189,120,77252,5,2,0:0:0:0:
197,135,77409,1,0,0:0:0:0:
205,150,77567,1,2,0:0:0:0:
213,165,77724,1,0,0:0:0:0:
249,232,77881,5,2,0:0:0:0:
153,53,78038,1,0,0:0:0:0:
183,277,78195,5,2,0:0:0:0:
279,98,78352,1,0,0:0:0:0:
309,344,78509,5,2,0:0:0:0:
213,165,78666,1,0,0:0:0:0:
117,322,78823,1,2,0:0:0:0:
117,322,78902,1,0,0:0:0:0:
117,322,78980,1,0,0:0:0:0:
351,192,79137,5,2,0:0:0:0:
252,19,79294,1,0,0:0:0:0:
257,27,79451,5,2,0:0:0:0:
347,183,79608,1,0,0:0:0:0:
318,110,79766,5,2,0:0:0:0:
334,101,79923,1,0,0:0:0:0:
286,100,80080,5,2,0:0:0:0:
270,109,80237,1,0,0:0:0:0:
302,105,80394,5,2,0:0:0:0:
206,216,80551,1,0,0:0:0:0:
346,182,80708,1,2,0:0:0:0:
213,126,80865,1,0,0:0:0:0:
290,251,81022,1,2,0:0:0:0:
302,105,81179,5,0,0:0:0:0:
283,341,81336,1,2,0:0:0:0:
282,359,81415,1,0,0:0:0:0:
281,377,81493,1,0,0:0:0:0:
192,278,81650,6,0,B|259:257|294:194|294:194|321:264|381:291,1,270,2|0,0:0|0:0,0:0:0:0:
302,105,82907,6,0,L|294:194,1,90
283,341,83378,1,0,0:0:0:0:
425,268,83535,6,0,P|392:276|359:271,1,67.5000025749208
148,265,83692,2,0,P|180:256|213:261,1,67.5000025749208
290,384,83849,6,0,P|284:361|283:339,1,45
284,151,84006,2,0,P|292:171|293:193,1,45
171,383,84163,6,0,B|26:364|26:364|67:325,1,202.500007724762,6|0,0:0|0:0,0:0:0:0:
174,119,84792,2,0,L|169:152,1,33.7500012874604,8|0,0:0|0:0,0:0:0:0:
142,299,84949,2,0,L|147:265,1,33.7500012874604
69,194,85106,2,0,L|103:199,1,33.7500012874604
217,221,85263,6,0,B|284:208|284:208|341:244,1,135.000005149842,2|0,0:0|0:0,0:0:0:0:
255,365,85734,2,0,L|266:298,1,67.5000025749208,2|0,0:0|0:0,0:0:0:0:
295,131,86048,2,0,L|298:115,14,16.8750006437302,8|0|0|0|0|0|0|0|0|0|0|0|0|0|0,0:0|0:0|0:0|0:0|0:0|0:0|0:0|0:0|0:0|0:0|0:0|0:0|0:0|0:0|0:0,0:0:0:0:
299,96,86677,6,0,B|260:81|242:38|242:38|235:115|188:137,1,202.500007724762,2|0,0:0|0:0,0:0:0:0:
172,145,87305,1,8,0:0:0:0:
329,15,87462,1,0,0:0:0:0:
276,176,87619,1,0,0:0:0:0:
149,56,87776,1,2,0:0:0:0:
374,146,87933,5,0,0:0:0:0:
411,217,88090,1,0,0:0:0:0:
355,276,88247,1,2,0:0:0:0:
392,347,88404,1,0,0:0:0:0:
306,141,88561,6,0,L|373:145,1,67.5000025749208,8|0,0:0|0:0,0:0:0:0:
478,212,88718,2,0,L|410:217,1,67.5000025749208
287,271,88875,2,0,L|354:275,1,67.5000025749208
459,342,89032,2,0,L|391:347,1,67.5000025749208
212,310,89190,6,0,B|186:267|219:213|219:213|186:267|135:266,1,202.500007724762,2|0,0:0|0:0,0:0:0:0:
128,148,89818,2,0,L|134:181,1,33.7500012874604,8|0,0:0|0:0,0:0:0:0:
293,237,89975,2,0,L|286:270,1,33.7500012874604
179,384,90132,1,0,0:0:0:0:
370,310,90289,6,0,P|434:292|496:313,1,135.000005149842,2|0,0:0|0:0,0:0:0:0:
496,313,90760,2,0,L|489:245,1,67.5000025749208,2|0,0:0|0:0,0:0:0:0:
473,93,91074,2,0,L|471:76,14,16.8750006437302,8|0|0|0|0|0|0|0|0|0|0|0|0|0|0,0:0|0:0|0:0|0:0|0:0|0:0|0:0|0:0|0:0|0:0|0:0|0:0|0:0|0:0|0:0,0:0:0:0:
481,169,91703,1,2,0:0:0:0:
31,169,92331,5,8,0:0:0:0:
39,88,92488,1,0,0:0:0:0:
165,265,92645,1,0,0:0:0:0:
157,346,92802,1,2,0:0:0:0:
98,217,92959,5,0,0:0:0:0:
240,232,93116,1,0,0:0:0:0:
173,184,93273,1,2,0:0:0:0:
315,199,93430,1,0,0:0:0:0:
89,283,93588,6,0,L|97:215,1,67.5000025749208,8|0,0:0|0:0,0:0:0:0:
165,251,93745,2,0,L|172:184,1,67.5000025749208
322,266,93902,6,0,L|315:199,1,67.5000025749208
398,298,94059,2,0,L|390:230,1,67.5000025749208
260,8,94216,6,0,B|245:83|250:151|250:151|213:104,1,202.500007724762,2|0,0:0|0:0,0:0:0:0:
330,125,94844,2,0,L|363:120,1,33.7500012874604,8|0,0:0|0:0,0:0:0:0:
172,183,95001,2,0,L|138:178,1,33.7500012874604
273,228,95158,2,0,L|274:261,1,33.7500012874604
222,329,95315,6,0,B|267:354|317:335|317:335|288:357,1,135.000005149842,2|0,0:0|0:0,0:0:0:0:
145,368,95786,2,0,P|135:336|141:303,1,67.5000025749208,2|0,0:0|0:0,0:0:0:0:
172,183,96101,2,0,L|172:166,14,16.8750006437302,8|0|0|0|0|0|0|0|0|0|0|0|0|0|0,0:0|0:0|0:0|0:0|0:0|0:0|0:0|0:0|0:0|0:0|0:0|0:0|0:0|0:0|0:0,0:0:0:0:
174,149,96729,6,0,B|271:173|271:173|356:116,1,202.500007724762,2|0,0:0|0:0,0:0:0:0:
256,80,97357,5,8,0:0:0:0:
269,159,97514,1,0,0:0:0:0:
283,238,97671,1,0,0:0:0:0:
297,317,97828,1,2,0:0:0:0:
81,214,97985,5,0,0:0:0:0:
95,135,98142,1,0,0:0:0:0:
174,149,98300,1,2,0:0:0:0:
160,228,98457,1,0,0:0:0:0:
81,213,98614,6,0,P|49:224|15:224,1,67.5000025749208,8|0,0:0|0:0,0:0:0:0:
236,201,98771,2,0,P|269:205|302:200,1,67.5000025749208
147,73,98928,2,0,L|152:140,1,67.5000025749208
160,228,99085,2,0,L|165:295,1,67.5000025749208
363,374,99242,6,0,L|378:172,1,202.500007724762,2|0,0:0|0:0,0:0:0:0:
386,57,99870,6,0,L|383:90,1,33.7500012874604,8|0,0:0|0:0,0:0:0:0:
273,223,100027,2,0,L|303:208,1,33.7500012874604
474,238,100184,2,0,L|446:218,1,33.7500012874604
267,93,100341,6,0,P|208:122|144:104,1,135.000005149842,2|0,0:0|0:0,0:0:0:0:
221,273,100813,2,0,L|215:205,1,67.5000025749208,2|0,0:0|0:0,0:0:0:0:
202,40,101127,2,0,L|200:23,14,16.8750006437302,8|0|0|0|0|0|0|0|0|0|0|0|0|0|0,0:0|0:0|0:0|0:0|0:0|0:0|0:0|0:0|0:0|0:0|0:0|0:0|0:0|0:0|0:0,0:0:0:0:
208,123,101755,1,2,0:0:0:0:
477,303,102383,5,8,0:0:0:0:
402,333,102540,1,0,0:0:0:0:
194,279,102697,5,0,0:0:0:0:
262,321,102854,1,2,0:0:0:0:
336,284,103012,6,0,L|341:217,3,67.5000025749208,2|0|0|0,0:0|0:0|0:0|0:0,0:0:0:0:
469,220,103640,6,0,L|414:180,1,67.5000025749208
281,87,103797,2,0,L|226:47,1,67.5000025749208
483,71,103954,6,0,L|421:98,1,67.5000025749208
273,167,104111,2,0,L|211:194,1,67.5000025749208
63,263,104268,5,6,0:0:0:0:
145,122,104425,1,0,0:0:0:0:
145,122,104504,1,0,0:0:0:0:
145,122,104582,1,2,0:0:0:0:
160,283,104739,1,0,0:0:0:0:
54,162,104896,5,2,0:0:0:0:
127,207,105053,1,0,0:0:0:0:
211,194,105211,1,2,0:0:0:0:
267,129,105369,1,0,0:0:0:0:
268,43,105525,6,0,B|260:98|260:98|285:144,1,107.999996704102,2|0,0:0|0:0,0:0:0:0:
449,115,105839,2,0,B|457:63|457:63|431:14,1,107.999996704102,2|0,0:0|0:0,0:0:0:0:
375,171,106153,5,2,0:0:0:0:
377,181,106310,1,0,0:0:0:0:
379,191,106467,1,2,0:0:0:0:
380,200,106624,1,0,0:0:0:0:
382,210,106781,6,0,L|400:316,1,107.999996704102,2|0,0:0|0:0,0:0:0:0:
406,343,107017,1,0,0:0:0:0:
407,343,107095,2,0,P|380:336|353:335,1,53.9999983520508,2|0,0:0|0:0,0:0:0:0:
229,228,107252,2,0,P|255:234|282:235,1,53.9999983520508
382,210,107410,5,2,0:0:0:0:
254,361,107567,1,0,0:0:0:0:
313,151,107724,1,2,0:0:0:0:
354,334,107881,1,0,0:0:0:0:
175,278,108038,5,2,0:0:0:0:
203,118,108195,2,0,L|212:64,2,53.9999983520508,0|0|2,0:0|0:0|0:0,0:0:0:0:
55,174,108509,5,0,0:0:0:0:
55,174,108588,1,0,0:0:0:0:
55,174,108666,2,0,L|108:183,1,53.9999983520508,2|0,0:0|0:0,0:0:0:0:
189,198,108823,2,0,L|242:207,1,53.9999983520508
443,253,108980,2,0,L|389:262,1,53.9999983520508,2|0,0:0|0:0,0:0:0:0:
309,277,109137,2,0,L|255:286,1,53.9999983520508
94,316,109294,5,2,0:0:0:0:
175,301,109451,1,0,0:0:0:0:
175,301,109530,1,0,0:0:0:0:
175,301,109608,2,0,P|169:274|174:248,1,53.9999983520508,2|0,0:0|0:0,0:0:0:0:
281,50,109766,2,0,P|286:76|281:102,1,53.9999983520508
152,165,109923,6,0,B|228:144|228:218|309:188,1,161.999995056153,2|0,0:0|0:0,0:0:0:0:
305,189,110237,1,2,0:0:0:0:
91,233,110394,1,0,0:0:0:0:
194,79,110551,5,2,0:0:0:0:
260,281,110708,1,0,0:0:0:0:
281,102,110865,1,2,0:0:0:0:
174,248,111022,1,0,0:0:0:0:
364,181,111179,5,2,0:0:0:0:
366,160,111258,1,0,0:0:0:0:
368,139,111337,2,0,L|373:86,1,53.9999983520508
450,215,111493,1,2,0:0:0:0:
452,236,111572,1,0,0:0:0:0:
454,257,111651,2,0,L|459:310,1,53.9999983520508
296,311,111807,6,0,P|248:286|196:296,1,107.999996704102,2|0,0:0|0:0,0:0:0:0:
174,311,112043,1,0,0:0:0:0:
174,311,112122,2,0,L|181:258,1,53.9999983520508,2|0,0:0|0:0,0:0:0:0:
275,148,112279,2,0,L|282:201,1,53.9999983520508
377,362,112436,5,2,0:0:0:0:
196,296,112593,1,0,0:0:0:0:
376,255,112750,1,2,0:0:0:0:
237,368,112907,1,0,0:0:0:0:
282,201,113064,6,0,P|266:150|267:97,1,107.999996704102,2|0,0:0|0:0,0:0:0:0:
267,97,113300,1,0,0:0:0:0:
267,97,113378,1,2,0:0:0:0:
88,96,113535,1,0,0:0:0:0:
88,96,113613,1,0,0:0:0:0:
87,95,113692,2,0,P|88:149|72:201,1,107.999996704102,2|0,0:0|0:0,0:0:0:0:
178,142,114006,5,2,0:0:0:0:
178,58,114163,1,0,0:0:0:0:
178,226,114321,5,2,0:0:0:0:
140,314,114478,1,0,0:0:0:0:
140,314,114556,1,0,0:0:0:0:
140,314,114635,2,0,L|193:309,1,53.9999983520508,2|0,0:0|0:0,0:0:0:0:
356,228,114792,2,0,L|409:232,1,53.9999983520508
283,344,114949,6,0,B|286:300|286:300|266:237|266:237|270:185,1,161.999995056153,2|0,0:0|0:0,0:0:0:0:
280,170,115263,1,2,0:0:0:0:
369,311,115420,1,0,0:0:0:0:
193,309,115577,5,2,0:0:0:0:
140,314,115734,1,0,0:0:0:0:
356,228,115891,5,2,0:0:0:0:
409,233,116048,1,0,0:0:0:0:
211,117,116205,5,2,0:0:0:0:
168,121,116362,1,0,0:0:0:0:
341,52,116519,5,2,0:0:0:0:
383,56,116676,1,0,0:0:0:0:
282,170,116834,5,2,0:0:0:0:
203,229,116991,1,0,0:0:0:0:
203,229,117069,1,0,0:0:0:0:
203,229,117148,2,0,L|211:282,1,53.9999983520508,2|0,0:0|0:0,0:0:0:0:
357,229,117305,2,0,L|348:282,1,53.9999983520508
356,378,117462,6,0,B|280:348|280:348|205:377,1,161.999995056153,2|0,0:0|0:0,0:0:0:0:
205,377,117776,1,2,0:0:0:0:
82,225,117933,1,0,0:0:0:0:
38,319,118090,6,0,L|145:308,1,107.999996704102,2|0,0:0|0:0,0:0:0:0:
213,146,118404,2,0,L|320:156,1,107.999996704102,2|0,0:0|0:0,0:0:0:0:
387,101,118718,5,2,0:0:0:0:
432,288,118875,1,0,0:0:0:0:
456,47,119033,1,2,0:0:0:0:
376,221,119190,1,0,0:0:0:0:
444,167,119347,5,2,0:0:0:0:
308,275,119504,1,0,0:0:0:0:
308,275,119582,1,0,0:0:0:0:
308,275,119661,2,0,L|254:281,1,53.9999983520508,2|0,0:0|0:0,0:0:0:0:
93,301,119818,1,0,0:0:0:0:
175,344,119975,6,0,B|163:185|163:185|198:232,1,215.999993408203,2|2,0:0|0:0,0:0:0:0:
293,357,120446,1,0,0:0:0:0:
383,324,120603,6,0,B|397:271|397:271|378:221,1,107.999996704102,2|0,0:0|0:0,0:0:0:0:
343,37,120917,2,0,B|329:90|329:90|348:140,1,107.999996704102,2|0,0:0|0:0,0:0:0:0:
490,146,121231,6,0,L|436:153,1,53.9999983520508,2|0,0:0|0:0,0:0:0:0:
254,291,121389,1,0,0:0:0:0:
237,201,121546,6,0,L|290:208,1,53.9999983520508,2|0,0:0|0:0,0:0:0:0:
477,344,121703,1,0,0:0:0:0:
348,140,121860,5,2,0:0:0:0:
397,271,122017,1,0,0:0:0:0:
397,271,122095,1,0,0:0:0:0:
397,271,122174,2,0,L|377:220,1,53.9999983520508,2|0,0:0|0:0,0:0:0:0:
436,32,122331,2,0,L|402:73,1,53.9999983520508
263,124,122488,5,2,0:0:0:0:
348,140,122645,1,0,0:0:0:0:
93,92,122802,1,2,0:0:0:0:
178,108,122959,1,0,0:0:0:0:
178,108,123038,1,0,0:0:0:0:
178,108,123116,5,2,0:0:0:0:
173,134,123194,1,0,0:0:0:0:
169,161,123273,1,0,0:0:0:0:
165,188,123351,1,0,0:0:0:0:
161,214,123430,1,0,0:0:0:0:
156,241,123508,1,0,0:0:0:0:
152,268,123587,1,0,0:0:0:0:
148,294,123665,1,0,0:0:0:0:
144,321,123745,5,0,0:0:0:0:
126,285,123823,1,0,0:0:0:0:
129,245,123902,1,0,0:0:0:0:
153,213,123980,1,0,0:0:0:0:
189,198,124059,1,0,0:0:0:0:
229,204,124137,1,0,0:0:0:0:
260,229,124216,1,0,0:0:0:0:
272,267,124294,1,0,0:0:0:0:
263,306,124373,6,0,L|330:313,1,67.5000025749208
392,260,124687,2,0,L|459:266,1,67.5000025749208
256,14,125472,5,0,0:0:0:0:
53,266,126101,1,0,0:0:0:0:
205,77,126572,1,0,0:0:0:0:
104,203,126886,5,0,0:0:0:0:
92,89,127043,1,0,0:0:0:0:
155,140,127200,1,0,0:0:0:0:
218,191,127357,1,0,0:0:0:0:
401,287,127985,6,0,P|299:257|350:349,1,270.000010299683
200,286,128928,2,0,L|116:295,2,67.5000025749208
237,214,129399,6,0,P|236:180|227:148,1,67.5000025749208
306,132,129713,2,0,P|307:98|316:66,1,67.5000025749208
79,286,130499,5,0,0:0:0:0:
398,235,131127,1,0,0:0:0:0:
195,369,131598,1,0,0:0:0:0:
161,210,131912,5,0,0:0:0:0:
480,261,132383,1,0,0:0:0:0:
210,138,133169,6,0,B|128:164|128:164|49:139,1,168.750006437302
60,301,133797,2,0,L|70:234,1,67.5000025749208
186,234,134111,2,0,L|196:300,1,67.5000025749208
351,344,134425,5,2,0:0:0:0:
332,267,134582,1,0,0:0:0:0:
274,322,134739,1,0,0:0:0:0:
428,365,134896,2,0,P|452:268|436:169,1,202.500007724762,2|0,0:0|0:0,0:0:0:0:
278,131,135682,6,0,P|226:173|161:168,1,135.000005149842,2|0,0:0|0:0,0:0:0:0:
119,39,136153,2,0,P|170:-2|235:2,1,135.000005149842,2|0,0:0|0:0,0:0:0:0:
75,124,136624,2,0,L|10:144,1,67.5000025749208
117,282,136938,5,2,0:0:0:0:
96,203,137095,1,0,0:0:0:0:
246,255,137252,5,0,0:0:0:0:
224,334,137410,2,0,P|293:265|388:287,1,202.500007724762,2|0,0:0|0:0,0:0:0:0:
430,197,138195,6,0,P|370:225|307:206,1,135.000005149842,2|0,0:0|0:0,0:0:0:0:
141,146,138666,2,0,P|200:117|264:137,1,135.000005149842,2|0,0:0|0:0,0:0:0:0:
308,207,139137,2,0,L|297:273,1,67.5000025749208
285,353,139451,5,2,0:0:0:0:
359,324,139608,1,0,0:0:0:0:
149,331,139766,1,0,0:0:0:0:
223,302,139923,1,2,0:0:0:0:
115,25,140708,6,0,P|129:89|95:145,1,135.000005149842,2|0,0:0|0:0,0:0:0:0:
53,76,141179,2,0,L|185:100,1,135.000005149842,2|0,0:0|0:0,0:0:0:0:
411,142,141650,2,0,L|344:129,1,67.5000025749208
265,115,141964,6,0,B|251:187|251:187|272:244,1,135.000005149842,2|0,0:0|0:0,0:0:0:0:
342,286,142436,2,0,B|270:272|270:272|212:293,1,135.000005149842,2|0,0:0|0:0,0:0:0:0:
137,323,142828,1,0,0:0:0:0:
137,323,142907,1,0,0:0:0:0:
143,182,143064,5,0,0:0:0:0:
143,182,143142,1,0,0:0:0:0:
143,182,143221,6,0,B|145:82|145:82|169:107,1,135.000005149842,2|0,0:0|0:0,0:0:0:0:
205,231,143457,6,0,B|146:311|146:311|141:275,1,135.000005149842,2|0,0:0|0:0,0:0:0:0:
180,154,143692,6,0,B|272:118|272:118|257:151,1,135.000005149842,2|0,0:0|0:0,0:0:0:0:
157,231,143928,6,0,B|59:207|59:207|90:188,1,135.000005149842,2|0,0:0|0:0,0:0:0:0:
219,180,144163,6,0,B|285:252|285:252|249:251,1,135.000005149842,2|0,0:0|0:0,0:0:0:0:
91,102,144478,6,0,P|156:114|211:77,1,135.000005149842,6|2,0:0|0:0,0:0:0:0:
262,15,144713,1,0,0:0:0:0:
262,15,144792,2,0,L|257:150,1,135.000005149842,8|0,0:0|0:0,0:0:0:0:
319,206,145027,6,0,B|255:179|255:179|192:200,1,135.000005149842,2|0,0:0|0:0,0:0:0:0:
193,199,145263,2,0,P|226:202|259:195,1,67.5000025749208,2|0,0:0|0:0,0:0:0:0:
349,120,145420,1,8,0:0:0:0:
252,275,145577,1,0,0:0:0:0:
166,113,145734,5,0,0:0:0:0:
260,195,145891,1,2,0:0:0:0:
260,195,145970,1,2,0:0:0:0:
260,195,146048,2,0,L|394:202,1,135.000005149842,8|0,0:0|0:0,0:0:0:0:
462,258,146284,6,0,B|488:221|474:171|474:171|497:207,1,135.000005149842,2|0,0:0|0:0,0:0:0:0:
471,342,146519,2,0,P|437:337|408:321,1,67.5000025749208,2|0,0:0|0:0,0:0:0:0:
321,197,146677,2,0,B|363:105|363:105|395:201,1,202.500007724762,8|0,0:0|0:0,0:0:0:0:
252,275,146991,5,2,0:0:0:0:
79,321,147148,1,2,0:0:0:0:
232,296,147305,2,0,B|183:291|183:291|146:304|146:304|99:300,1,135.000005149842,8|0,0:0|0:0,0:0:0:0:
78,321,147540,6,0,P|106:261|80:201,1,135.000005149842,2|0,0:0|0:0,0:0:0:0:
80,201,147776,2,0,P|111:211|144:212,1,67.5000025749208,2|0,0:0|0:0,0:0:0:0:
230,207,147933,1,8,0:0:0:0:
195,376,148090,1,0,0:0:0:0:
22,261,148247,5,0,0:0:0:0:
232,296,148404,1,2,0:0:0:0:
232,296,148483,1,2,0:0:0:0:
232,296,148561,6,0,B|294:269|294:269|355:298,1,135.000005149842,8|0,0:0|0:0,0:0:0:0:
417,344,148797,2,0,B|390:282|390:282|419:221,1,135.000005149842,2|0,0:0|0:0,0:0:0:0:
418,221,149033,2,0,P|385:219|355:204,1,67.5000025749208,2|0,0:0|0:0,0:0:0:0:
230,207,149190,1,8,0:0:0:0:
294,360,149347,1,0,0:0:0:0:
479,284,149504,5,2,0:0:0:0:
357,282,149661,1,2,0:0:0:0:
417,344,149818,1,8,0:0:0:0:
418,221,149975,5,0,0:0:0:0:
418,221,150053,2,0,B|421:118|421:118|444:139,1,135.000005149842,2|0,0:0|0:0,0:0:0:0:
507,204,150289,2,0,P|508:236|496:268,1,67.5000025749208,2|0,0:0|0:0,0:0:0:0:
329,198,150446,2,0,P|324:230|334:262,1,67.5000025749208,8|0,0:0|0:0,0:0:0:0:
417,313,150603,1,0,0:0:0:0:
337,110,150760,6,0,B|274:134|274:134|211:110,1,135.000005149842,0|2,0:0|0:0,0:0:0:0:
136,76,150996,1,2,0:0:0:0:
136,76,151074,2,0,L|138:143,1,67.5000025749208,8|0,0:0|0:0,0:0:0:0:
186,319,151231,5,0,0:0:0:0:
186,319,151310,2,0,B|190:215|190:215|166:237,1,135.000005149842,2|0,0:0|0:0,0:0:0:0:
121,322,151546,2,0,P|154:327|186:319,1,67.5000025749208,2|0,0:0|0:0,0:0:0:0:
273,240,151703,2,0,B|414:257|414:257|358:280,1,202.500007724762,8|0,0:0|0:0,0:0:0:0:
292,328,152017,5,2,0:0:0:0:
364,170,152174,1,2,0:0:0:0:
427,344,152331,1,8,0:0:0:0:
448,232,152488,5,0,0:0:0:0:
448,232,152567,2,0,B|465:170|465:170|445:102,1,135.000005149842,2|0,0:0|0:0,0:0:0:0:
445,102,152802,2,0,P|479:101|510:90,1,67.5000025749208,2|0,0:0|0:0,0:0:0:0:
284,102,152959,2,0,P|250:101|218:90,1,67.5000025749208,8|0,0:0|0:0,0:0:0:0:
364,170,153116,1,0,0:0:0:0:
364,170,153195,1,0,0:0:0:0:
364,170,153273,6,0,L|364:237,3,67.5000025749208,0|0|2|0,0:0|0:0|0:0|0:0,0:0:0:0:
253,344,153588,2,0,L|253:277,3,67.5000025749208,8|0|0|2,0:0|0:0|0:0|0:0,0:0:0:0:
232,258,153902,5,0,0:0:0:0:
207,246,153980,1,0,0:0:0:0:
180,240,154059,1,2,0:0:0:0:
153,240,154137,1,0,0:0:0:0:
126,247,154216,5,8,0:0:0:0:
134,207,154294,1,0,0:0:0:0:
143,167,154373,1,0,0:0:0:0:
152,127,154451,1,0,0:0:0:0:
160,86,154530,6,0,P|225:101|279:64,1,135.000005149842,6|0,0:0|0:0,0:0:0:0:
210,21,154766,1,0,0:0:0:0:
210,21,154844,2,0,L|234:153,1,135.000005149842,8|0,0:0|0:0,0:0:0:0:
292,210,155080,6,0,B|355:186|355:186|418:210,1,135.000005149842,2|0,0:0|0:0,0:0:0:0:
418,210,155315,2,0,P|385:217|352:211,1,67.5000025749208,2|0,0:0|0:0,0:0:0:0:
253,344,155472,2,0,P|285:336|318:342,1,67.5000025749208,8|0,0:0|0:0,0:0:0:0:
472,384,155629,2,0,P|464:351|470:318,1,67.5000025749208
512,144,155786,5,0,0:0:0:0:
391,297,155944,1,2,0:0:0:0:
391,297,156022,1,2,0:0:0:0:
391,297,156101,1,8,0:0:0:0:
309,121,156258,5,0,0:0:0:0:
309,120,156336,2,0,P|245:138|186:108,1,135.000005149842,2|0,0:0|0:0,0:0:0:0:
186,108,156572,2,0,L|190:176,1,67.5000025749208,2|0,0:0|0:0,0:0:0:0:
164,296,156729,2,0,P|86:305|137:246,1,202.500007724762,8|0,0:0|0:0,0:0:0:0:
238,253,157043,5,2,0:0:0:0:
400,179,157200,1,2,0:0:0:0:
321,285,157357,2,0,B|325:238|325:238|312:201|312:201|317:152,1,135.000005149842,8|0,0:0|0:0,0:0:0:0:
265,89,157593,6,0,B|202:104|202:104|139:72,1,135.000005149842,2|0,0:0|0:0,0:0:0:0:
139,72,157828,2,0,P|146:104|139:137,1,67.5000025749208,2|0,0:0|0:0,0:0:0:0:
84,198,157985,5,8,0:0:0:0:
215,12,158142,1,0,0:0:0:0:
213,188,158300,1,0,0:0:0:0:
63,106,158457,1,2,0:0:0:0:
63,106,158535,1,2,0:0:0:0:
63,106,158614,1,8,0:0:0:0:
166,264,158771,5,0,0:0:0:0:
166,264,158849,2,0,P|232:274|287:238,1,135.000005149842,2|0,0:0|0:0,0:0:0:0:
330,169,159085,2,0,L|339:235,1,67.5000025749208,2|0,0:0|0:0,0:0:0:0:
429,328,159242,2,0,L|438:261,1,67.5000025749208,8|0,0:0|0:0,0:0:0:0:
512,92,159399,1,0,0:0:0:0:
458,166,159556,6,0,B|395:188|395:188|329:168,1,135.000005149842,2|2,0:0|0:0,0:0:0:0:
278,104,159792,1,0,0:0:0:0:
278,104,159870,2,0,L|144:122,1,135.000005149842,8|0,0:0|0:0,0:0:0:0:
80,71,160106,6,0,P|62:134|97:190,1,135.000005149842,2|0,0:0|0:0,0:0:0:0:
193,208,160341,2,0,P|159:203|126:210,1,67.5000025749208,2|0,0:0|0:0,0:0:0:0:
63,283,160499,2,0,P|83:256|93:224,1,67.5000025749208,8|0,0:0|0:0,0:0:0:0:
144,122,160656,1,0,0:0:0:0:
163,288,160813,5,0,0:0:0:0:
7,218,160970,1,2,0:0:0:0:
7,218,161048,1,2,0:0:0:0:
7,218,161127,1,8,0:0:0:0:
193,208,161284,5,0,0:0:0:0:
193,208,161362,2,0,B|229:204|252:182|252:182|280:197|319:195,1,135.000005149842,2|0,0:0|0:0,0:0:0:0:
319,195,161598,2,0,P|307:163|310:130,1,67.5000025749208,2|0,0:0|0:0,0:0:0:0:
367,47,161755,2,0,B|216:34|216:34|255:65,1,202.500007724762,8|0,0:0|0:0,0:0:0:0:
398,151,162069,5,2,0:0:0:0:
264,278,162226,1,2,0:0:0:0:
184,121,162383,1,8,0:0:0:0:
354,268,162540,5,0,0:0:0:0:
354,268,162619,2,0,B|343:366|343:366|323:336,1,135.000005149842,2|0,0:0|0:0,0:0:0:0:
263,277,162855,2,0,P|231:270|197:272,1,67.5000025749208,2|0,0:0|0:0,0:0:0:0:
439,296,163012,2,0,P|472:295|505:304,1,67.5000025749208,8|0,0:0|0:0,0:0:0:0:
362,188,163169,1,0,0:0:0:0:
362,188,163247,1,0,0:0:0:0:
362,188,163326,5,0,0:0:0:0:
364,167,163404,1,0,0:0:0:0:
366,147,163483,1,2,0:0:0:0:
368,127,163561,1,0,0:0:0:0:
370,107,163640,1,8,0:0:0:0:
372,87,163718,1,0,0:0:0:0:
374,67,163797,1,0,0:0:0:0:
376,47,163875,1,2,0:0:0:0:
378,26,163954,5,0,0:0:0:0:
340,44,164032,1,0,0:0:0:0:
299,54,164111,1,2,0:0:0:0:
257,52,164189,1,0,0:0:0:0:
216,42,164268,1,8,0:0:0:0:
176,29,164346,1,0,0:0:0:0:
135,20,164425,1,0,0:0:0:0:
93,23,164503,1,0,0:0:0:0:
53,40,164582,6,0,P|69:70|93:93,1,67.5000025749208
229,124,164896,2,0,P|196:122|164:132,1,67.5000025749208
67,233,165211,2,0,P|85:204|93:172,2,67.5000025749208
118,294,165682,6,0,P|184:278|251:283,1,135.000005149842
436,303,166153,2,0,P|403:311|370:309,1,67.5000025749208
305,381,166467,2,0,L|299:348,3,33.7500012874604
322,244,166781,2,0,L|328:211,3,33.7500012874604
378,155,167095,6,0,P|346:166|313:164,1,67.5000025749208
100,114,167410,2,0,P|133:116|164:104,1,67.5000025749208
249,45,167724,2,0,L|233:180,1,135.000005149842
284,241,168195,6,0,P|226:208|161:219,1,135.000005149842
210,328,168666,2,0,L|278:321,1,67.5000025749208
364,278,168980,2,0,L|368:244,3,33.7500012874604
333,164,169294,2,0,L|328:130,3,33.7500012874604
376,78,169608,6,0,P|346:91|312:93,1,67.5000025749208
254,163,169923,2,0,P|221:167|188:160,1,67.5000025749208
119,212,170237,2,0,P|91:150|87:83,1,135.000005149842
131,293,170708,6,0,P|91:347|35:384,1,135.000005149842
196,243,171179,2,0,L|262:232,1,67.5000025749208
316,142,171493,2,0,L|321:175,3,33.7500012874604
375,238,171807,2,0,L|369:271,3,33.7500012874604
320,329,172122,6,0,P|352:321|385:325,2,67.5000025749208
160,284,172593,2,0,P|127:291|94:287,2,67.5000025749208
250,239,173064,1,0,0:0:0:0:
238,373,173221,6,0,L|249:238,1,135.000005149842
269,7,173692,2,0,L|263:74,1,67.5000025749208
181,149,174006,2,0,L|214:151,3,33.7500012874604
297,160,174321,2,0,L|331:163,3,33.7500012874604
413,171,174635,5,2,0:0:0:0:
492,188,174792,1,0,0:0:0:0:
494,273,174949,1,0,0:0:0:0:
413,301,175106,1,2,0:0:0:0:
361,235,175263,2,0,P|330:164|370:97,1,161.999995056153,8|0,0:0|0:0,0:0:0:0:
441,48,175734,1,0,0:0:0:0:
256,127,175891,6,0,L|175:121,1,80.9999975280763,2|0,0:0|0:0,0:0:0:0:
94,116,176127,2,0,L|174:121,1,80.9999975280763,2|0,0:0|0:0,0:0:0:0:
177,80,176362,2,0,L|174:120,1,40.4999987640381,2|0,0:0|0:0,0:0:0:0:
170,201,176519,5,8,0:0:0:0:
168,221,176597,1,0,0:0:0:0:
167,241,176676,1,0,0:0:0:0:
166,261,176754,1,0,0:0:0:0:
164,281,176833,1,0,0:0:0:0:
163,302,176911,1,0,0:0:0:0:
162,322,176990,1,0,0:0:0:0:
161,342,177068,1,0,0:0:0:0:
159,362,177148,5,2,0:0:0:0:
131,286,177305,1,0,0:0:0:0:
208,258,177462,1,0,0:0:0:0:
237,335,177619,1,2,0:0:0:0:
317,343,177776,6,0,B|375:324|375:324|432:342,1,121.499996292114,8|0,0:0|0:0,0:0:0:0:
471,353,178090,2,0,L|463:272,1,80.9999975280763
397,184,178404,6,0,P|365:213|321:220,1,80.9999975280763,2|0,0:0|0:0,0:0:0:0:
264,179,178639,2,0,P|306:193|333:228,1,80.9999975280763,2|0,0:0|0:0,0:0:0:0:
317,343,178875,2,0,L|320:302,1,40.4999987640381,2|0,0:0|0:0,0:0:0:0:
340,123,179033,5,8,0:0:0:0:
341,102,179111,1,0,0:0:0:0:
342,82,179190,1,0,0:0:0:0:
344,62,179268,1,0,0:0:0:0:
345,42,179347,1,0,0:0:0:0:
328,51,179425,1,0,0:0:0:0:
308,57,179504,1,0,0:0:0:0:
287,56,179582,1,0,0:0:0:0:
267,51,179661,6,0,L|186:61,1,80.9999975280763,2|0,0:0|0:0,0:0:0:0:
62,119,179975,2,0,L|143:130,1,80.9999975280763,0|2,0:0|0:0,0:0:0:0:
202,201,180289,6,0,B|176:321|176:321|154:290,1,161.999995056153,8|0,0:0|0:0,0:0:0:0:
117,217,180761,1,0,0:0:0:0:
267,295,180917,2,0,P|324:310|381:289,2,121.499996292114,2|2|2,0:0|0:0|0:0,0:0:0:0:
460,331,181546,5,8,0:0:0:0:
466,312,181624,1,0,0:0:0:0:
468,292,181703,1,0,0:0:0:0:
467,272,181781,1,0,0:0:0:0:
461,253,181860,1,0,0:0:0:0:
455,234,181938,1,0,0:0:0:0:
454,214,182016,1,0,0:0:0:0:
456,194,182095,1,0,0:0:0:0:
463,175,182173,5,2,0:0:0:0:
313,62,182331,1,2,0:0:0:0:
294,154,182488,2,0,L|347:147,1,53.9999983520508,2|0,0:0|0:0,0:0:0:0:
475,37,182645,1,2,0:0:0:0:
333,236,182802,5,2,0:0:0:0:
183,349,182960,1,2,0:0:0:0:
164,257,183117,2,0,L|217:263,1,53.9999983520508,2|0,0:0|0:0,0:0:0:0:
345,374,183274,1,2,0:0:0:0:
203,175,183430,5,2,0:0:0:0:
197,148,183509,1,2,0:0:0:0:
191,121,183588,1,2,0:0:0:0:
185,94,183666,1,2,0:0:0:0:
178,67,183745,1,2,0:0:0:0:
149,94,183824,1,2,0:0:0:0:
111,108,183902,1,2,0:0:0:0:
71,106,183980,1,2,0:0:0:0:
34,87,184059,6,0,P|38:114|30:140,1,53.9999983520508,6|2,0:3|0:0,0:0:0:0:
119,250,184216,2,0,P|109:225|109:198,1,53.9999983520508,2|2,0:0|0:0,0:0:0:0:
100,15,184373,1,6,0:3:0:0:
355,304,184687,6,0,L|423:310,1,67.5
422,309,185944,6,0,P|387:243|432:157,1,144,6|2,0:0|0:0,0:0:0:0:
450,106,186179,1,0,0:0:0:0:
450,106,186258,2,0,L|306:93,1,144,8|0,0:0|0:0,0:0:0:0:
262,166,186493,6,0,B|192:144|192:144|126:168,1,144,2|0,0:0|0:0,0:0:0:0:
125,168,186729,2,0,B|135:133|135:133|123:100,1,72,2|0,0:0|0:0,0:0:0:0:
256,8,186886,2,0,B|245:42|245:42|257:75,1,72,8|0,0:0|0:0,0:0:0:0:
230,242,187043,2,0,B|195:231|195:231|162:243,1,72
0,341,187200,5,0,0:0:0:0:
43,135,187357,1,2,0:0:0:0:
43,135,187436,1,2,0:0:0:0:
43,135,187514,2,0,B|32:169|32:169|44:202,1,72,8|0,0:0|0:0,0:0:0:0:
198,319,187671,5,0,0:0:0:0:
198,319,187750,2,0,B|311:327|311:327|288:305,1,144,2|0,0:0|0:0,0:0:0:0:
242,171,187986,2,0,L|228:249,1,72,2|0,0:0|0:0,0:0:0:0:
117,347,188142,2,0,P|40:316|119:293,1,216,8|0,0:0|0:0,0:0:0:0:
198,319,188457,5,2,0:0:0:0:
366,228,188614,1,2,0:0:0:0:
242,171,188771,1,8,0:0:0:0:
329,312,188928,1,0,0:0:0:0:
329,312,189006,2,0,P|399:313|449:264,1,144,2|0,0:0|0:0,0:0:0:0:
449,263,189242,2,0,L|460:335,1,72,2|0,0:0|0:0,0:0:0:0:
275,215,189399,2,0,L|286:143,1,72,8|0,0:0|0:0,0:0:0:0:
455,13,189556,5,0,0:0:0:0:
455,13,189635,1,0,0:0:0:0:
455,13,189713,2,0,P|419:15|387:2,3,72,0|0|2|0,0:0|0:0|0:0|0:0,0:0:0:0:
266,60,190027,2,0,P|301:57|334:71,3,72,8|0|0|2,0:0|0:0|0:0|0:0,0:0:0:0:
376,147,190341,5,0,0:0:0:0:
370,182,190419,1,0,0:0:0:0:
365,218,190498,1,2,0:0:0:0:
359,253,190576,1,0,0:0:0:0:
354,289,190656,2,0,P|328:264|294:251,1,72,8|0,0:0|0:0,0:0:0:0:
441,289,190813,2,0,P|467:264|500:251,1,72
398,365,190970,5,2,0:0:0:0:
206,261,191127,1,2,0:0:0:0:
286,170,191284,1,8,0:0:0:0:
274,340,191441,5,0,0:0:0:0:
274,340,191519,2,0,B|204:362|204:362|138:338,1,144,2|0,0:0|0:0,0:0:0:0:
137,337,191755,2,0,P|173:339|208:330,1,72,2|0,0:0|0:0,0:0:0:0:
365,258,191912,2,0,P|329:259|294:250,1,72,8|0,0:0|0:0,0:0:0:0:
153,133,192069,1,0,0:0:0:0:
201,235,192226,5,0,0:0:0:0:
230,105,192383,1,2,0:0:0:0:
230,105,192462,1,2,0:0:0:0:
230,105,192540,2,0,B|123:110|123:110|152:132,1,144,8|0,0:0|0:0,0:0:0:0:
286,169,192776,6,0,P|316:107|288:43,1,144,2|0,0:0|0:0,0:0:0:0:
288,43,193012,2,0,L|360:50,1,72,2|0,0:0|0:0,0:0:0:0:
488,123,193169,2,0,B|460:167|448:223|448:223|436:167|408:123,1,216,8|0,0:0|0:0,0:0:0:0:
447,46,193483,5,2,0:0:0:0:
286,169,193640,1,2,0:0:0:0:
448,222,193797,1,8,0:0:0:0:
288,43,193954,5,0,0:0:0:0:
288,43,194033,2,0,B|241:39|241:39|194:51|194:51|146:47,1,144,2|0,0:0|0:0,0:0:0:0:
63,70,194268,2,0,L|52:-1,1,72,2|0,0:0|0:0,0:0:0:0:
261,128,194425,2,0,L|250:199,1,72,8|0,0:0|0:0,0:0:0:0:
69,346,194582,5,0,0:0:0:0:
69,346,194661,1,0,0:0:0:0:
69,346,194739,5,0,0:0:0:0:
46,309,194817,1,0,0:0:0:0:
50,265,194896,1,2,0:0:0:0:
79,232,194974,1,0,0:0:0:0:
122,223,195053,1,8,0:0:0:0:
162,242,195131,1,0,0:0:0:0:
183,281,195210,1,0,0:0:0:0:
176,325,195288,1,2,0:0:0:0:
144,355,195367,5,0,0:0:0:0:
153,299,195445,1,0,0:0:0:0:
161,242,195524,1,2,0:0:0:0:
169,184,195602,1,0,0:0:0:0:
177,127,195682,1,8,0:0:0:0:
203,173,195760,1,0,0:0:0:0:
250,199,195839,1,0,0:0:0:0:
303,198,195917,1,0,0:0:0:0:
349,170,195996,6,0,B|415:146|415:146|485:168,1,144,6|2,0:0|0:0,0:0:0:0:
485,168,196231,1,0,0:0:0:0:
485,168,196310,2,0,L|480:96,1,72,8|0,0:0|0:0,0:0:0:0:
417,238,196467,5,0,0:0:0:0:
417,238,196546,2,0,B|404:338|404:338|380:301,1,144,2|0,0:0|0:0,0:0:0:0:
310,355,196781,2,0,P|295:322|296:286,1,72,2|0,0:0|0:0,0:0:0:0:
399,111,196938,2,0,P|386:144|361:170,1,72,8|0,0:0|0:0,0:0:0:0:
210,180,197095,2,0,L|279:199,1,72
417,238,197252,5,0,0:0:0:0:
211,269,197410,1,2,0:0:0:0:
297,115,197567,1,8,0:0:0:0:
271,331,197724,5,0,0:0:0:0:
270,331,197802,2,0,P|204:354|142:321,1,144,2|0,0:0|0:0,0:0:0:0:
66,277,198038,2,0,L|60:349,1,72,2|0,0:0|0:0,0:0:0:0:
211,269,198195,2,0,B|225:109|225:109|183:145,1,216,8|0,0:0|0:0,0:0:0:0:
132,215,198509,5,2,0:0:0:0:
404,182,198666,1,2,0:0:0:0:
337,258,198823,2,0,B|307:194|307:194|323:122,1,144,8|0,0:0|0:0,0:0:0:0:
471,107,199059,6,0,B|501:174|501:174|486:243,1,144,2|0,0:0|0:0,0:0:0:0:
484,242,199294,2,0,L|414:228,1,72,2|0,0:0|0:0,0:0:0:0:
294,334,199451,2,0,L|223:348,1,72,8|0,0:0|0:0,0:0:0:0:
68,247,199608,5,0,0:0:0:0:
68,247,199687,1,0,0:0:0:0:
68,247,199766,2,0,B|74:209|74:209|60:178,3,72,0|0|2|0,0:0|0:0|0:0|0:0,0:0:0:0:
146,165,200080,2,0,B|132:134|132:134|138:96,3,72,8|0|0|2,0:0|0:0|0:0|0:0,0:0:0:0:
78,34,200394,5,0,0:0:0:0:
109,50,200472,1,0,0:0:0:0:
144,58,200551,1,2,0:0:0:0:
180,55,200629,1,0,0:0:0:0:
214,42,200708,2,0,L|285:51,1,72,8|0,0:0|0:0,0:0:0:0:
426,108,200865,2,0,L|354:117,1,72
241,133,201022,5,2,0:0:0:0:
380,26,201179,1,2,0:0:0:0:
353,214,201336,1,8,0:0:0:0:
286,51,201493,5,0,0:0:0:0:
286,51,201572,2,0,B|239:42|239:42|191:50|191:50|144:42,1,144,2|0,0:0|0:0,0:0:0:0:
63,12,201807,2,0,L|74:83,1,72,2|0,0:0|0:0,0:0:0:0:
241,133,201964,2,0,L|229:204,1,72,8|0,0:0|0:0,0:0:0:0:
68,319,202122,1,0,0:0:0:0:
145,151,202279,5,0,0:0:0:0:
1,247,202436,1,2,0:0:0:0:
1,247,202514,1,2,0:0:0:0:
1,247,202593,2,0,B|67:223|67:223|137:245,1,144,8|0,0:0|0:0,0:0:0:0:
210,289,202828,6,0,L|353:274,1,144,2|0,0:0|0:0,0:0:0:0:
379,249,203064,2,0,P|343:252|309:241,1,72,2|0,0:0|0:0,0:0:0:0:
190,115,203221,2,0,P|211:144|218:179,1,72,8|0,0:0|0:0,0:0:0:0:
169,345,203378,2,0,P|184:312|210:288,1,72
319,132,203535,5,2,0:0:0:0:
301,350,203692,1,2,0:0:0:0:
119,226,203849,1,8,0:0:0:0:
401,186,204006,5,0,0:0:0:0:
401,185,204085,2,0,P|414:116|381:54,1,144,2|0,0:0|0:0,0:0:0:0:
381,54,204321,2,0,L|452:46,1,72,2|0,0:0|0:0,0:0:0:0:
207,198,204478,2,0,L|135:189,1,72,8|0,0:0|0:0,0:0:0:0:
301,350,204635,5,0,0:0:0:0:
301,350,204713,1,0,0:0:0:0:
301,350,204792,2,0,L|301:278,7,72,2|0|0|0|0|0|0|0,0:0|0:0|0:0|0:0|0:0|0:0|0:0|0:0,0:0:0:0:
284,233,205420,5,0,0:0:0:0:
251,199,205499,1,0,0:0:0:0:
206,181,205577,1,0,0:0:0:0:
159,183,205656,1,0,0:0:0:0:
116,204,205734,1,0,0:0:0:0:
85,241,205813,1,0,0:0:0:0:
72,286,205891,1,0,0:0:0:0:
79,334,205970,1,0,0:0:0:0:
104,374,206048,6,0,L|184:361,1,80.9999975280763
236,297,206362,2,0,L|316:284,1,80.9999975280763
382,338,206677,2,0,P|352:287|370:230,1,121.499996292114
398,201,206991,2,0,L|317:188,1,80.9999975280763
278,112,207305,5,0,0:0:0:0:
167,238,207462,1,0,0:0:0:0:
167,238,207540,1,0,0:0:0:0:
167,238,207619,2,0,L|86:225,1,80.9999975280763
210,65,207933,5,0,0:0:0:0:
198,92,208011,1,0,0:0:0:0:
195,122,208090,1,0,0:0:0:0:
204,151,208168,1,0,0:0:0:0:
223,175,208247,1,0,0:0:0:0:
242,199,208325,1,0,0:0:0:0:
251,228,208403,1,0,0:0:0:0:
248,258,208482,1,0,0:0:0:0:
234,284,208561,6,0,L|315:278,1,80.9999975280763
409,204,208875,2,0,L|329:198,1,80.9999975280763
279,132,209190,2,0,P|221:147|170:118,1,121.499996292114
137,93,209504,2,0,L|142:173,1,80.9999975280763
149,294,209818,5,0,0:0:0:0:
85,238,209975,1,0,0:0:0:0:
85,238,210053,1,0,0:0:0:0:
85,238,210132,2,0,L|5:243,1,80.9999975280763
207,230,210446,5,0,0:0:0:0:
227,228,210524,1,0,0:0:0:0:
247,227,210603,1,0,0:0:0:0:
267,226,210681,1,0,0:0:0:0:
287,224,210760,1,0,0:0:0:0:
308,223,210838,1,0,0:0:0:0:
328,222,210917,1,0,0:0:0:0:
348,221,210995,1,0,0:0:0:0:
368,220,211074,6,0,P|406:230|445:219,1,80.9999975280763
445,219,211310,1,0,0:0:0:0:
445,219,211389,1,0,0:0:0:0:
405,148,211546,1,0,0:0:0:0:
329,290,211703,2,0,L|207:297,1,121.499996292114
170,281,212017,2,0,P|155:243|163:204,1,80.9999975280763
280,101,212331,6,0,P|255:132|218:145,1,80.9999975280763
70,96,212567,1,0,0:0:0:0:
70,96,212645,2,0,P|109:101|139:128,1,80.9999975280763
240,221,212959,5,0,0:0:0:0:
267,233,213037,1,0,0:0:0:0:
297,236,213116,1,0,0:0:0:0:
326,227,213194,1,0,0:0:0:0:
350,208,213273,1,0,0:0:0:0:
374,189,213351,1,0,0:0:0:0:
403,180,213429,1,0,0:0:0:0:
433,183,213508,1,0,0:0:0:0:
459,197,213587,6,0,L|453:116,1,80.9999975280763
453,116,213823,1,0,0:0:0:0:
453,116,213902,1,0,0:0:0:0:
289,150,214059,1,0,0:0:0:0:
410,267,214216,6,0,B|399:359|399:359|382:334,1,121.499996292114
326,277,214530,1,0,0:0:0:0:
258,321,214687,5,0,0:0:0:0:
258,321,214766,1,0,0:0:0:0:
258,321,214844,5,0,0:0:0:0:
231,333,214922,1,0,0:0:0:0:
201,336,215001,1,0,0:0:0:0:
172,327,215079,1,0,0:0:0:0:
148,308,215158,1,0,0:0:0:0:
124,289,215236,1,0,0:0:0:0:
95,280,215314,1,0,0:0:0:0:
65,283,215393,1,0,0:0:0:0:
39,297,215472,5,0,0:0:0:0:
42,266,215550,1,0,0:0:0:0:
46,236,215629,1,0,0:0:0:0:
49,206,215707,1,0,0:0:0:0:
53,176,215786,1,0,0:0:0:0:
56,146,215864,1,0,0:0:0:0:
60,115,215943,1,0,0:0:0:0:
63,85,216021,1,0,0:0:0:0:
67,55,216101,6,0,P|100:60|127:79,1,67.5000025749208
160,220,216415,2,0,P|147:188|150:155,1,67.5000025749208
257,57,216729,2,0,P|236:83|206:98,2,67.5000025749208
331,25,217200,6,0,L|345:159,1,135.000005149842
424,144,217671,2,0,L|416:211,1,67.5000025749208
363,271,217985,2,0,L|329:267,3,33.7500012874604
270,323,218300,2,0,L|236:326,3,33.7500012874604
168,279,218614,6,0,P|137:269|104:275,1,67.5000025749208
3,197,218928,2,0,P|35:208|68:202,1,67.5000025749208
97,126,219242,2,0,L|231:110,1,135.000005149842
288,52,219713,6,0,P|263:113|287:175,1,135.000005149842
346,229,220184,2,0,L|413:221,1,67.5000025749208
480,175,220499,2,0,L|487:207,3,33.7500012874604
460,284,220813,2,0,L|452:316,3,33.7500012874604
381,356,221127,6,0,P|414:351|446:362,2,67.5000025749208
316,307,221598,2,0,P|282:311|250:300,2,67.5000025749208
390,275,222069,1,0,0:0:0:0:
389,275,222226,6,0,P|408:210|393:145,1,135.000005149842
330,93,222697,2,0,L|262:99,1,67.5000025749208
211,163,223012,2,0,L|214:196,3,33.7500012874604
137,219,223326,2,0,L|133:252,3,33.7500012874604
63,293,223640,6,0,L|129:284,1,67.5000025749208
156,360,223954,2,0,L|222:368,1,67.5000025749208
301,349,224268,2,0,P|330:289|313:226,1,135.000005149842
278,37,224739,6,0,P|248:96|266:160,1,135.000005149842
346,152,225211,2,0,L|413:144,1,67.5000025749208
233,234,225525,2,0,L|199:237,3,33.7500012874604
173,314,225839,2,0,L|139:317,3,33.7500012874604
