osu file format v14

[General]
AudioFilename: Artcore Jinja Armpit.mp3
AudioLeadIn: 1000
PreviewTime: 10013
Countdown: 0
SampleSet: Soft
StackLeniency: 0.7
Mode: 2
LetterboxInBreaks: 0
WidescreenStoryboard: 0

[Editor]
DistanceSpacing: 1.1
BeatDivisor: 4
GridSize: 4
TimelineZoom: 2.5

[Metadata]
Title:Artcore Jinja
TitleUnicode:Artcore Jinja
Artist:An
ArtistUnicode:An
Creator:ursa
Version:Platter
Source:
Tags:Sauci Nwolf Spectator
BeatmapID:506537
BeatmapSetID:215155

[Difficulty]
HPDrainRate:6
CircleSize:4
OverallDifficulty:8
ApproachRate:8
SliderMultiplier:1.6
SliderTickRate:2

[Events]
//Background and Video events
0,0,"Reimu.jpg",0,0
//Break Periods
2,60897,70052
//Storyboard Layer 0 (Background)
//Storyboard Layer 1 (Fail)
//Storyboard Layer 2 (Pass)
//Storyboard Layer 3 (Foreground)
//Storyboard Sound Samples

[TimingPoints]
66,315.789473684211,4,2,1,40,1,0
10171,-100,4,2,1,45,0,0
19013,-100,4,2,1,45,0,0
20276,-100,4,2,1,45,0,0
40487,-100,4,2,1,45,0,0
60697,-100,4,3,1,30,0,0
60776,-100,4,2,1,45,0,0
70802,-100,4,2,1,45,0,0
102381,-100,4,2,1,45,0,1
122592,-100,4,2,1,45,0,0
132697,-100,4,3,1,30,0,0
132776,-100,4,2,1,45,0,0
142802,-100,4,3,1,20,0,0
142881,-100,4,2,1,45,0,0

[Colours]
Combo1 : 80,80,80
Combo2 : 255,0,0
Combo3 : 255,255,255
Combo4 : 255,96,96

[HitObjects]
360,280,66,5,2,0:0:0:0:
172,256,381,1,0,0:0:0:0:
88,196,539,1,2,0:0:0:0:
236,240,855,1,2,0:0:0:0:
168,164,1013,1,0,0:0:0:0:
288,156,1171,1,2,0:0:0:0:
436,96,1329,1,0,0:0:0:0:
248,112,1644,5,0,0:0:0:0:
156,144,1802,1,0,0:0:0:0:
292,252,1960,1,2,0:0:0:0:
392,276,2117,1,0,0:0:0:0:
456,216,2275,1,0,0:0:0:0:
368,144,2434,1,0,0:0:0:0:
200,136,2592,5,2,0:0:0:0:
364,144,2908,1,0,0:0:0:0:
436,208,3066,1,2,0:0:0:0:
172,268,3381,1,2,0:0:0:0:
344,192,3697,1,2,0:0:0:0:
420,96,3855,1,0,0:0:0:0:
108,80,4487,1,0,0:0:0:0:
420,296,5118,5,6,0:0:0:0:
200,224,5434,1,0,0:0:0:0:
128,156,5592,1,2,0:0:0:0:
52,72,5908,1,2,0:0:0:0:
256,168,6223,1,2,0:0:0:0:
172,92,6381,1,0,0:0:0:0:
400,320,6697,5,0,0:0:0:0:
472,240,6855,1,0,0:0:0:0:
312,224,7013,1,2,0:0:0:0:
252,140,7171,1,0,0:0:0:0:
352,88,7329,1,0,0:0:0:0:
448,48,7487,1,0,0:0:0:0:
160,72,7644,5,2,0:0:0:0:
312,124,7960,1,0,0:0:0:0:
400,188,8118,1,2,0:0:0:0:
112,192,8434,1,0,0:0:0:0:
336,216,8750,1,2,0:0:0:0:
428,244,8908,1,0,0:0:0:0:
88,264,9539,1,0,0:0:0:0:
420,216,10171,5,4,0:0:0:0:
180,224,10487,1,0,0:0:0:0:
104,176,10644,1,2,0:0:0:0:
56,96,10960,1,2,0:0:0:0:
272,336,11276,5,0,0:0:0:0:
384,272,11434,1,2,0:0:0:0:
320,200,11592,1,0,0:0:0:0:
240,228,11750,1,0,0:0:0:0:
324,204,11908,1,2,0:0:0:0:
424,132,12066,1,0,0:0:0:0:
336,68,12223,1,0,0:0:0:0:
92,100,12381,1,2,0:0:0:0:
236,140,12697,5,2,0:0:0:0:
56,212,13013,1,2,0:0:0:0:
8,304,13171,1,2,0:0:0:0:
280,284,13487,1,2,0:0:0:0:
368,232,13644,1,2,0:0:0:0:
416,152,13802,1,0,0:0:0:0:
172,84,13960,5,2,0:0:0:0:
88,148,14118,1,0,0:0:0:0:
132,240,14276,1,0,0:0:0:0:
264,288,14434,1,2,0:0:0:0:
348,224,14592,1,0,0:0:0:0:
304,132,14750,1,0,0:0:0:0:
380,64,14908,1,2,0:0:0:0:
160,80,15223,5,4,0:0:0:0:
364,164,15539,1,0,0:0:0:0:
408,256,15697,1,2,0:0:0:0:
144,256,16013,1,2,0:0:0:0:
64,160,16171,1,2,0:0:0:0:
144,92,16329,1,0,0:0:0:0:
300,64,16487,5,2,0:0:0:0:
392,128,16644,1,0,0:0:0:0:
472,184,16802,1,0,0:0:0:0:
300,69,16960,1,2,0:0:0:0:
392,172,17117,1,0,0:0:0:0:
444,260,17275,1,0,0:0:0:0:
360,280,17434,1,2,0:0:0:0:
276,304,17592,1,0,0:0:0:0:
52,272,17750,5,2,0:0:0:0:
156,264,18066,1,2,0:0:0:0:
40,120,18223,1,2,0:0:0:0:
224,100,18539,1,2,0:0:0:0:
332,124,18697,1,2,0:0:0:0:
432,152,18855,1,0,0:0:0:0:
288,64,19013,5,0,0:0:0:0:
160,152,19250,1,0,0:0:0:0:
300,220,19487,1,0,0:0:0:0:
456,232,19644,1,0,0:0:0:0:
384,304,19802,1,0,0:0:0:0:
452,104,20118,5,0,0:0:0:0:
76,164,20276,1,6,0:0:0:0:
160,128,20592,1,0,0:0:0:0:
252,104,20750,1,2,0:0:0:0:
112,220,21066,1,2,0:0:0:0:
304,288,21381,5,0,0:0:0:0:
404,240,21539,1,2,0:0:0:0:
448,148,21697,1,0,0:0:0:0:
268,192,21855,1,0,0:0:0:0:
204,120,22013,1,2,0:0:0:0:
264,44,22171,1,0,0:0:0:0:
140,116,22329,1,0,0:0:0:0:
80,188,22487,1,2,0:0:0:0:
140,276,22644,1,0,0:0:0:0:
280,240,22802,5,2,0:0:0:0:
112,192,23118,1,2,0:0:0:0:
64,88,23276,1,2,0:0:0:0:
352,216,23592,1,2,0:0:0:0:
424,152,23750,1,2,0:0:0:0:
348,72,23908,1,0,0:0:0:0:
156,80,24066,5,2,0:0:0:0:
224,164,24223,1,0,0:0:0:0:
312,272,24381,1,0,0:0:0:0:
256,100,24539,1,2,0:0:0:0:
356,128,24697,1,0,0:0:0:0:
460,152,24855,1,0,0:0:0:0:
388,204,25013,1,2,0:0:0:0:
316,256,25171,1,0,0:0:0:0:
80,264,25329,5,2,0:0:0:0:
208,236,25644,1,2,0:0:0:0:
124,160,25802,1,2,0:0:0:0:
388,248,26118,1,2,0:0:0:0:
308,196,26276,1,0,0:0:0:0:
244,124,26434,1,0,0:0:0:0:
324,60,26592,5,2,0:0:0:0:
416,112,26750,1,0,0:0:0:0:
356,192,26908,1,0,0:0:0:0:
200,332,27066,1,2,0:0:0:0:
124,248,27223,1,0,0:0:0:0:
184,180,27381,1,0,0:0:0:0:
80,172,27539,1,2,0:0:0:0:
56,76,27697,1,0,0:0:0:0:
328,60,27855,5,2,0:0:0:0:
432,100,28171,1,2,0:0:0:0:
292,156,28329,1,0,0:0:0:0:
64,92,28644,1,2,0:0:0:0:
124,184,28802,1,2,0:0:0:0:
56,268,28960,1,0,0:0:0:0:
216,332,29118,1,2,0:0:0:0:
456,192,29592,1,2,0:0:0:0:
148,100,30066,1,0,0:0:0:0:
388,116,30381,5,4,0:0:0:0:
160,224,30697,1,0,0:0:0:0:
76,260,30855,1,2,0:0:0:0:
372,332,31171,1,2,0:0:0:0:
464,276,31329,1,2,0:0:0:0:
384,204,31487,1,0,0:0:0:0:
156,40,31644,5,2,0:0:0:0:
68,64,31802,1,0,0:0:0:0:
0,136,31960,1,0,0:0:0:0:
112,120,32118,1,2,0:0:0:0:
176,156,32276,1,0,0:0:0:0:
240,200,32434,1,0,0:0:0:0:
148,228,32592,1,2,0:0:0:0:
208,268,32750,1,0,0:0:0:0:
448,256,32908,5,2,0:0:0:0:
316,220,33223,1,2,0:0:0:0:
432,164,33381,1,2,0:0:0:0:
200,88,33697,1,2,0:0:0:0:
108,112,33855,1,0,0:0:0:0:
176,196,34013,1,0,0:0:0:0:
324,112,34171,5,2,0:0:0:0:
388,188,34329,1,0,0:0:0:0:
440,276,34487,1,0,0:0:0:0:
300,136,34644,1,2,0:0:0:0:
248,224,34802,1,0,0:0:0:0:
144,280,34960,1,0,0:0:0:0:
40,268,35118,1,2,0:0:0:0:
100,192,35276,1,0,0:0:0:0:
356,68,35434,5,6,0:0:0:0:
184,200,35750,1,2,0:0:0:0:
280,176,35908,1,2,0:0:0:0:
112,196,36223,1,2,0:0:0:0:
36,132,36381,1,0,0:0:0:0:
96,64,36539,1,0,0:0:0:0:
364,304,36697,5,2,0:0:0:0:
432,236,36855,1,0,0:0:0:0:
448,140,37013,1,0,0:0:0:0:
232,64,37171,1,2,0:0:0:0:
312,104,37329,1,0,0:0:0:0:
260,188,37487,1,0,0:0:0:0:
148,284,37644,1,2,0:0:0:0:
88,200,37802,1,0,0:0:0:0:
328,184,37960,5,2,0:0:0:0:
112,168,38276,1,0,0:0:0:0:
68,88,38434,1,2,0:0:0:0:
320,88,38750,1,2,0:0:0:0:
408,136,38908,1,2,0:0:0:0:
364,220,39066,1,0,0:0:0:0:
212,240,39223,1,2,0:0:0:0:
476,112,39855,1,2,0:0:0:0:
228,104,40487,6,0,L|80:200,1,160,12|0,0:0|0:0,0:0:0:0:
352,128,40960,2,0,P|420:196|408:272,1,160,8|0,0:0|0:0,0:0:0:0:
104,280,41592,1,8,0:0:0:0:
292,240,41908,2,0,L|352:168,1,80,0|0,0:0|0:0,0:0:0:0:
156,192,42381,2,0,L|72:132,1,80,0|0,0:0|0:0,0:0:0:0:
172,76,42697,1,0,0:0:0:0:
384,80,43013,6,0,L|280:236,1,160,8|0,0:0|0:0,0:0:0:0:
52,196,43487,2,8,L|160:48,1,160,8|0,0:0|0:0,0:0:0:0:
392,80,44118,1,0,0:0:0:0:
236,140,44434,2,0,L|312:208,1,80
80,200,44908,2,0,L|20:264,1,80
144,312,45223,1,8,0:0:0:0:
284,292,45539,6,0,L|396:144,1,160,8|0,0:0|0:0,0:0:0:0:
160,188,46013,2,0,L|56:48,1,160,8|0,0:0|0:0,0:0:0:0:
304,92,46644,1,0,0:0:0:0:
428,108,46960,2,0,L|368:200,1,80
196,168,47434,1,0,0:0:0:0:
128,232,47592,1,0,0:0:0:0:
232,272,47750,1,0,0:0:0:0:
436,276,48066,6,0,L|332:144,1,160,8|0,0:0|0:0,0:0:0:0:
88,132,48539,2,0,L|32:320,1,160,8|0,0:0|0:0,0:0:0:0:
296,280,49171,1,0,0:0:0:0:
72,136,49487,2,0,L|136:80,1,80
376,84,49960,1,0,0:0:0:0:
316,136,50118,1,0,0:0:0:0:
256,200,50276,1,0,0:0:0:0:
40,320,50592,5,0,0:0:0:0:
136,264,50750,1,0,0:0:0:0:
152,116,50908,1,0,0:0:0:0:
56,72,51066,1,0,0:0:0:0:
296,84,51381,5,0,0:0:0:0:
108,152,51697,1,0,0:0:0:0:
280,176,51855,5,0,0:0:0:0:
188,212,52013,1,0,0:0:0:0:
112,268,52171,1,0,0:0:0:0:
264,256,52329,1,0,0:0:0:0:
340,192,52644,1,0,0:0:0:0:
156,64,52960,1,0,0:0:0:0:
408,64,53118,5,0,0:0:0:0:
480,128,53276,1,0,0:0:0:0:
448,212,53434,1,0,0:0:0:0:
360,256,53592,1,0,0:0:0:0:
112,288,53908,5,0,0:0:0:0:
44,216,54066,1,0,0:0:0:0:
72,124,54223,1,0,0:0:0:0:
336,76,54381,1,0,0:0:0:0:
152,204,54855,1,0,0:0:0:0:
348,296,55171,1,0,0:0:0:0:
420,236,55329,1,0,0:0:0:0:
456,164,55487,1,0,0:0:0:0:
180,72,55644,5,0,0:0:0:0:
112,132,55802,1,0,0:0:0:0:
64,228,55960,1,0,0:0:0:0:
120,308,56118,1,0,0:0:0:0:
328,248,56434,1,0,0:0:0:0:
400,200,56592,1,0,0:0:0:0:
444,120,56750,1,0,0:0:0:0:
224,68,56908,6,0,L|128:104,1,80
248,136,57223,2,0,L|280:240,1,80
184,192,57539,2,0,L|80:228,1,80
296,216,57855,2,0,L|248:304,1,80
92,300,58171,5,0,0:0:0:0:
32,236,58329,1,0,0:0:0:0:
64,152,58487,1,0,0:0:0:0:
144,108,58644,1,0,0:0:0:0:
292,56,58960,1,0,0:0:0:0:
372,120,59118,1,0,0:0:0:0:
440,196,59276,1,0,0:0:0:0:
216,272,59434,5,0,0:0:0:0:
356,172,59908,1,0,0:0:0:0:
156,200,60223,1,0,0:0:0:0:
88,136,60381,1,0,0:0:0:0:
60,56,60539,1,0,0:0:0:0:
284,80,60697,1,4,0:0:0:0:
200,264,70802,6,0,P|112:200|88:128,1,160
240,136,71434,1,0,0:0:0:0:
408,120,71750,1,0,0:0:0:0:
284,116,72066,6,0,P|312:192|408:232,1,160
148,280,72697,1,0,0:0:0:0:
340,200,73013,1,0,0:0:0:0:
72,180,73329,6,0,P|96:104|192:72,1,160
388,88,73960,1,0,0:0:0:0:
448,200,74276,1,0,0:0:0:0:
152,252,74592,6,0,P|68:188|80:124,1,160
288,192,75223,2,0,P|368:172|404:76,1,160
160,128,75855,6,0,P|68:128|36:72,1,160
252,80,76487,1,0,0:0:0:0:
15,240,76802,2,0,L|72:184,1,80,8|8,0:0|0:0,0:0:0:0:
264,284,77118,6,0,P|332:316|412:292,1,160
248,192,77750,1,0,0:0:0:0:
484,136,78066,2,8,L|406:156,1,80
272,76,78381,6,0,P|208:96|92:100,1,160
268,288,79013,2,0,P|404:284|448:296,1,160
384,232,79644,1,0,0:0:0:0:
148,184,80276,1,0,0:0:0:0:
380,72,80908,6,0,P|304:104|208:88,1,160,4|2,0:0|0:0,0:0:0:0:
364,184,81381,1,0,0:0:0:0:
104,256,81697,1,2,0:0:0:0:
272,276,82013,2,0,L|364:292,1,80,2|0,0:0|0:0,0:0:0:0:
176,144,82487,2,0,L|64:108,1,80,2|0,0:0|0:0,0:0:0:0:
304,96,82960,2,2,P|376:112|472:72,1,160
368,168,83434,5,2,0:0:0:0:
96,248,83750,2,0,L|168:156,1,80,2|0,0:0|0:0,0:0:0:0:
380,104,84223,1,0,0:0:0:0:
160,96,84539,1,2,0:0:0:0:
276,128,84697,5,0,0:0:0:0:
368,168,84855,1,0,0:0:0:0:
432,228,85013,1,0,0:0:0:0:
336,276,85171,1,2,0:0:0:0:
168,184,85487,2,0,L|80:176,2,80,0|2|0,0:0|0:0|0:0,0:0:0:0:
296,188,85960,5,2,0:0:0:0:
172,120,86276,2,0,L|97:90,1,80,2|0,0:0|0:0,0:0:0:0:
420,156,86750,2,0,L|344:120,2,80,0|0|0,0:0|0:0|0:0,0:0:0:0:
288,180,87223,5,2,0:0:0:0:
208,236,87381,1,0,0:0:0:0:
292,288,87539,1,0,0:0:0:0:
196,336,87697,1,2,0:0:0:0:
68,304,87855,1,2,0:0:0:0:
140,232,88013,1,0,0:0:0:0:
64,168,88171,1,0,0:0:0:0:
128,108,88329,1,2,0:0:0:0:
364,76,88487,5,0,0:0:0:0:
164,152,88802,2,0,L|68:184,1,80,0|2,0:0|0:0,0:0:0:0:
304,256,89276,1,2,0:0:0:0:
208,192,89592,1,2,0:0:0:0:
316,88,89750,6,0,L|424:72,2,80,0|2|0,0:0|0:0|0:0,0:0:0:0:
148,120,90223,1,0,0:0:0:0:
288,160,90539,1,0,0:0:0:0:
408,232,90855,1,2,0:0:0:0:
136,288,91013,6,0,P|76:224|104:160,1,160,0|0,0:0|0:0,0:0:0:0:
304,76,91644,2,0,L|408:104,2,80,2|0|2,0:0|0:0|0:0,0:0:0:0:
80,96,92276,6,0,L|192:236,1,160,0|2,0:0|0:0,0:0:0:0:
424,220,92908,2,0,L|346:199,2,80,2|0|2,0:0|0:0|0:0,0:0:0:0:
148,248,93539,6,0,P|88:220|56:120,1,160
328,80,94171,1,2,0:0:0:0:
236,132,94329,1,0,0:0:0:0:
324,168,94487,1,2,0:0:0:0:
264,240,94644,1,0,0:0:0:0:
392,264,94802,6,0,P|448:220|472:100,1,160
176,104,95434,1,2,0:0:0:0:
84,144,95592,1,0,0:0:0:0:
132,224,95750,1,0,0:0:0:0:
224,272,95908,1,2,0:0:0:0:
344,284,96066,6,0,P|440:252|468:184,1,160
300,64,96697,1,2,0:0:0:0:
224,112,96855,1,0,0:0:0:0:
296,172,97013,1,0,0:0:0:0:
208,216,97171,1,2,0:0:0:0:
56,264,97329,6,2,P|100:160|144:116,1,160,0|2,0:0|0:0,0:0:0:0:
392,68,97960,1,0,0:0:0:0:
304,88,98118,1,0,0:0:0:0:
228,156,98276,1,0,0:0:0:0:
328,200,98434,1,0,0:0:0:0:
168,260,98592,6,2,P|236:280|328:280,1,160
172,56,99223,1,2,0:0:0:0:
244,112,99381,1,0,0:0:0:0:
156,148,99539,1,0,0:0:0:0:
240,208,99697,1,2,0:0:0:0:
416,164,99855,6,0,P|368:104|296:32,1,160,0|2,0:0|0:0,0:0:0:0:
72,232,100487,2,0,P|192:296|244:300,1,160,0|2,0:0|0:0,0:0:0:0:
408,232,101118,5,0,0:0:0:0:
444,156,101276,1,0,0:0:0:0:
420,80,101434,1,2,0:0:0:0:
88,152,101908,1,0,0:0:0:0:
444,88,102381,6,0,L|352:120,2,80,2|0|0,0:0|0:0|0:0,0:0:0:0:
204,96,102855,2,0,P|252:152|352:192,1,160,2|0,0:0|0:0,0:0:0:0:
248,216,103329,1,0,0:0:0:0:
132,236,103487,1,2,0:0:0:0:
256,272,103644,6,0,L|344:296,2,80,0|2|0,0:0|0:0|0:0,0:0:0:0:
104,256,104118,1,2,0:0:0:0:
276,168,104434,1,2,0:0:0:0:
120,80,104750,1,0,0:0:0:0:
248,88,104908,6,0,L|360:68,2,80,2|0|0,0:0|0:0|0:0,0:0:0:0:
24,116,105381,2,0,P|56:192|132:236,1,160,2|0,0:0|0:0,0:0:0:0:
256,268,105855,2,0,L|360:280,1,80,0|2,0:0|0:0,0:0:0:0:
256,188,106171,6,0,P|156:152|104:112,1,160,2|0,0:0|0:0,0:0:0:0:
256,80,106644,2,0,P|364:68|440:48,1,160,2|0,0:0|0:0,0:0:0:0:
264,132,107118,2,0,L|316:212,1,80,2|0,0:0|0:0,0:0:0:0:
440,216,107434,6,0,L|332:252,2,80,2|0|0,0:0|0:0|0:0,0:0:0:0:
220,268,107908,2,0,P|136:200|92:128,1,160,2|0,0:0|0:0,0:0:0:0:
276,92,108381,2,0,L|236:176,1,80,0|2,0:0|0:0,0:0:0:0:
104,116,108697,6,0,L|177:82,1,80,0|2,0:0|0:0,0:0:0:0:
276,196,109013,2,0,L|204:164,1,80,0|2,0:0|0:0,0:0:0:0:
52,204,109329,2,0,L|144:244,1,80,2|0,0:0|0:0,0:0:0:0:
276,256,109644,2,0,L|180:292,1,80,0|2,0:0|0:0,0:0:0:0:
348,224,109960,6,0,L|432:198,2,80,2|0|0,0:0|0:0|0:0,0:0:0:0:
128,192,110434,2,0,P|48:144|16:48,1,160,2|0,0:0|0:0,0:0:0:0:
216,64,110908,2,0,L|324:52,1,80,2|0,0:0|0:0,0:0:0:0:
168,168,111223,6,0,P|96:196|8:196,1,160,2|0,0:0|0:0,0:0:0:0:
128,288,111697,2,2,P|232:272|300:304,1,160
200,220,112171,2,0,L|132:172,1,80,2|0,0:0|0:0,0:0:0:0:
244,236,112487,5,2,0:0:0:0:
336,204,112644,1,0,0:0:0:0:
404,140,112802,1,0,0:0:0:0:
152,44,112960,2,0,P|88:80|48:172,1,160,2|0,0:0|0:0,0:0:0:0:
184,172,113434,6,0,L|280:192,1,80,0|2,0:0|0:0,0:0:0:0:
387,201,113750,2,0,L|464:180,2,80,0|2|0,0:0|0:0|0:0,0:0:0:0:
120,268,114223,1,2,0:0:0:0:
320,176,114539,1,2,0:0:0:0:
200,96,114855,1,0,0:0:0:0:
336,80,115013,5,2,0:0:0:0:
248,132,115171,1,0,0:0:0:0:
164,192,115329,1,0,0:0:0:0:
384,268,115487,2,0,P|484:220|508:152,1,160,2|0,0:0|0:0,0:0:0:0:
332,156,115960,2,0,L|232:176,1,80,0|2,0:0|0:0,0:0:0:0:
96,200,116276,6,0,P|168:244|264:264,1,160,2|0,0:0|0:0,0:0:0:0:
400,92,116750,2,2,P|304:68|240:92,1,160
324,144,117223,1,2,0:0:0:0:
420,176,117381,1,0,0:0:0:0:
252,256,117539,5,2,0:0:0:0:
172,220,117697,1,0,0:0:0:0:
112,148,117855,1,0,0:0:0:0:
376,64,118013,2,0,P|448:128|456:204,1,160,2|0,0:0|0:0,0:0:0:0:
328,184,118487,2,0,L|251:208,1,80,0|2,0:0|0:0,0:0:0:0:
8,272,118802,6,0,L|56:184,1,80,0|2,0:0|0:0,0:0:0:0:
160,76,119118,2,0,L|124:156,1,80,0|2,0:0|0:0,0:0:0:0:
264,68,119434,2,0,L|228:148,1,80,2|0,0:0|0:0,0:0:0:0:
104,276,119750,2,0,L|156:188,1,80,0|2,0:0|0:0,0:0:0:0:
284,48,120066,5,2,0:0:0:0:
204,96,120223,1,0,0:0:0:0:
144,160,120381,1,0,0:0:0:0:
380,288,120539,2,0,P|452:248|480:168,1,160,2|2,0:0|0:0,0:0:0:0:
384,172,121013,2,0,L|280:196,1,80
72,244,121329,1,2,0:0:0:0:
336,104,121802,1,2,0:0:0:0:
152,124,122118,2,0,L|68:112,2,80,2|2|0,0:0|0:0|0:0,0:0:0:0:
400,156,122592,5,0,0:0:0:0:
152,224,123066,1,0,0:0:0:0:
360,268,123539,1,0,0:0:0:0:
240,92,124013,1,0,0:0:0:0:
420,116,124487,1,0,0:0:0:0:
208,256,124802,6,0,L|132:176,1,80
276,184,125118,1,2,0:0:0:0:
316,148,125197,1,0,0:0:0:0:
312,112,125276,1,0,0:0:0:0:
160,88,125434,1,0,0:0:0:0:
288,36,125592,5,2,0:0:0:0:
324,40,125671,1,0,0:0:0:0:
372,56,125750,1,0,0:0:0:0:
404,88,125829,1,0,0:0:0:0:
472,120,125908,6,0,L|444:176,1,40
436,240,126066,2,0,L|408:272,1,40,0|0,0:0|0:0,0:0:0:0:
352,328,126223,2,0,L|312:336,1,40
216,312,126381,2,0,L|176:292,1,40
100,260,126539,6,0,L|72:212,1,40
36,160,126697,2,0,L|48:112,1,40
84,48,126855,2,0,L|148:40,1,40
200,72,127013,2,0,L|248:48,1,40
328,44,127171,6,0,L|336:92,1,40
408,96,127329,2,0,L|424:144,1,40
392,224,127487,1,0,0:0:0:0:
136,296,127644,5,2,0:0:0:0:
88,256,127723,1,0,0:0:0:0:
44,220,127802,1,0,0:0:0:0:
44,172,127881,1,0,0:0:0:0:
64,116,127960,1,0,0:0:0:0:
184,60,128118,5,2,0:0:0:0:
232,72,128197,1,0,0:0:0:0:
264,120,128276,1,0,0:0:0:0:
256,168,128355,1,0,0:0:0:0:
220,208,128434,1,0,0:0:0:0:
376,76,128592,5,2,0:0:0:0:
408,116,128671,1,0,0:0:0:0:
424,160,128750,1,0,0:0:0:0:
416,208,128829,1,0,0:0:0:0:
336,284,128908,1,0,0:0:0:0:
252,332,129066,1,0,0:0:0:0:
144,328,129223,1,2,0:0:0:0:
52,280,129381,1,0,0:0:0:0:
192,48,129539,5,2,0:0:0:0:
244,68,129618,1,0,0:0:0:0:
276,112,129697,1,0,0:0:0:0:
244,160,129776,1,0,0:0:0:0:
180,176,129855,1,0,0:0:0:0:
128,196,129934,1,0,0:0:0:0:
144,240,130013,1,0,0:0:0:0:
384,308,130171,5,2,0:0:0:0:
420,268,130250,1,0,0:0:0:0:
460,232,130329,1,0,0:0:0:0:
476,188,130408,1,0,0:0:0:0:
488,136,130487,1,0,0:0:0:0:
244,68,130644,5,2,0:0:0:0:
208,88,130723,1,0,0:0:0:0:
168,116,130802,1,0,0:0:0:0:
136,160,130881,1,0,0:0:0:0:
148,204,130960,1,0,0:0:0:0:
372,120,131118,5,2,0:0:0:0:
404,164,131197,1,0,0:0:0:0:
408,212,131276,1,0,0:0:0:0:
368,244,131355,1,0,0:0:0:0:
336,272,131434,1,0,0:0:0:0:
288,292,131513,1,0,0:0:0:0:
244,300,131592,1,2,0:0:0:0:
140,296,131750,1,2,0:0:0:0:
32,216,131908,1,0,0:0:0:0:
80,144,132066,5,2,0:0:0:0:
112,108,132144,1,0,0:0:0:0:
152,84,132223,1,0,0:0:0:0:
140,144,132302,1,0,0:0:0:0:
108,196,132381,1,0,0:0:0:0:
76,228,132460,1,0,0:0:0:0:
112,268,132539,1,0,0:0:0:0:
424,288,132697,5,4,0:0:0:0:
260,232,133013,6,0,L|348:208,1,80,0|2,0:0|0:0,0:0:0:0:
144,152,133487,1,0,0:0:0:0:
332,124,133802,2,0,L|440:100,1,80,2|0,0:0|0:0,0:0:0:0:
208,80,134434,5,0,0:0:0:0:
144,116,134592,1,2,0:0:0:0:
88,180,134750,1,0,0:0:0:0:
164,220,134908,1,0,0:0:0:0:
276,240,135066,1,2,0:0:0:0:
172,288,135223,5,2,0:0:0:0:
332,164,135539,2,0,L|428:144,1,80,0|2,0:0|0:0,0:0:0:0:
196,168,136013,1,0,0:0:0:0:
368,88,136329,2,0,L|444:64,1,80,2|0,0:0|0:0,0:0:0:0:
116,108,137118,1,0,0:0:0:0:
308,152,137750,5,0,0:0:0:0:
152,200,138066,2,0,L|60:228,1,80,0|2,0:0|0:0,0:0:0:0:
232,148,138539,2,0,L|280:48,1,80,0|0,0:0|0:0,0:0:0:0:
124,80,138855,2,0,L|32:104,1,80,2|0,0:0|0:0,0:0:0:0:
412,48,139487,5,0,0:0:0:0:
328,96,139644,1,2,0:0:0:0:
268,164,139802,1,0,0:0:0:0:
360,216,139960,1,0,0:0:0:0:
272,264,140118,1,2,0:0:0:0:
48,300,140276,5,0,0:0:0:0:
236,240,140592,2,0,L|192:148,1,80,0|2,0:0|0:0,0:0:0:0:
52,72,141066,2,0,L|140:92,2,80,2|0|2,0:0|0:0|0:0,0:0:0:0:
196,144,141539,1,0,0:0:0:0:
32,240,142171,1,0,0:0:0:0:
340,256,142802,1,4,0:0:0:0:
