osu file format v14

[General]
AudioFilename: Artcore Jinja Armpit.mp3
AudioLeadIn: 1000
PreviewTime: 10013
Countdown: 0
SampleSet: Normal
StackLeniency: 0.7
Mode: 1
LetterboxInBreaks: 0
WidescreenStoryboard: 0

[Editor]
DistanceSpacing: 0.6
BeatDivisor: 4
GridSize: 32
TimelineZoom: 2.5

[Metadata]
Title:Artcore Jinja
TitleUnicode:Artcore Jinja
Artist:An
ArtistUnicode:An
Creator:ursa
Version:Futsuu
Source:
Tags:Sauci Nwolf Spectator
BeatmapID:505581
BeatmapSetID:215155

[Difficulty]
HPDrainRate:6
CircleSize:4
OverallDifficulty:4.5
ApproachRate:8
SliderMultiplier:1.4
SliderTickRate:1

[Events]
//Background and Video events
0,0,"Reimu.jpg",0,0
//Break Periods
//Storyboard Layer 0 (Background)
//Storyboard Layer 1 (Fail)
//Storyboard Layer 2 (Pass)
//Storyboard Layer 3 (Foreground)
//Storyboard Sound Samples

[TimingPoints]
66,315.789473684211,4,1,0,30,1,0
66,-111.111111111111,4,1,0,30,0,0
10171,-100,4,1,0,60,0,0
50592,-100,4,1,0,70,0,0
60697,-111.111111111111,4,1,0,45,0,0
70802,-105.263157894737,4,1,0,55,0,0
82171,-105.263157894737,4,1,0,30,0,0
91013,-105.263157894737,4,1,0,60,0,0
102381,-100,4,1,0,80,0,1
121329,-100,4,1,0,80,0,0
127644,-100,4,1,0,80,0,1
132697,-100,4,1,0,80,0,0

[Colours]
Combo1 : 80,80,80
Combo2 : 255,0,0
Combo3 : 255,255,255
Combo4 : 255,96,96

[HitObjects]
288,160,66,5,8,0:0:0:0:
288,160,1329,1,8,0:0:0:0:
288,160,1960,1,8,0:0:0:0:
224,160,2592,1,0,0:0:0:0:
288,160,3066,1,8,0:0:0:0:
288,160,3539,1,8,0:0:0:0:
224,160,3855,1,0,0:0:0:0:
288,160,5118,1,8,0:0:0:0:
288,160,6381,1,8,0:0:0:0:
288,160,7013,1,8,0:0:0:0:
224,160,7644,1,0,0:0:0:0:
288,160,8118,1,8,0:0:0:0:
288,160,8592,1,8,0:0:0:0:
224,160,8908,1,0,0:0:0:0:
224,160,10171,1,0,0:0:0:0:
288,160,10487,1,8,0:0:0:0:
224,160,10960,1,0,0:0:0:0:
288,160,11118,1,8,0:0:0:0:
224,160,11434,1,0,0:0:0:0:
224,160,12066,1,0,0:0:0:0:
224,160,12697,1,0,0:0:0:0:
288,160,13013,1,8,0:0:0:0:
224,160,13487,1,0,0:0:0:0:
288,160,13644,1,8,0:0:0:0:
224,160,13960,1,0,0:0:0:0:
224,160,14592,1,0,0:0:0:0:
224,160,15223,1,0,0:0:0:0:
288,160,15539,1,8,0:0:0:0:
224,160,16013,1,0,0:0:0:0:
288,160,16171,1,8,0:0:0:0:
224,160,16487,1,0,0:0:0:0:
224,160,17118,1,0,0:0:0:0:
224,160,17750,1,0,0:0:0:0:
288,160,18066,1,8,0:0:0:0:
224,160,18539,1,0,0:0:0:0:
288,160,18697,1,8,0:0:0:0:
224,160,19013,1,0,0:0:0:0:
288,224,20276,1,12,0:0:0:0:
288,160,20592,1,8,0:0:0:0:
224,160,20750,1,0,0:0:0:0:
288,160,21223,1,8,0:0:0:0:
224,160,21539,1,0,0:0:0:0:
288,160,21855,1,8,0:0:0:0:
224,160,22329,1,0,0:0:0:0:
288,160,22487,1,8,0:0:0:0:
224,160,22802,1,0,0:0:0:0:
288,160,23118,1,8,0:0:0:0:
224,160,23592,1,0,0:0:0:0:
288,160,23750,1,8,0:0:0:0:
224,160,24066,1,0,0:0:0:0:
224,160,25329,1,0,0:0:0:0:
288,160,25644,1,8,0:0:0:0:
224,160,26118,1,0,0:0:0:0:
288,160,26276,1,8,0:0:0:0:
224,160,26592,1,0,0:0:0:0:
288,160,26908,1,8,0:0:0:0:
224,160,27381,1,0,0:0:0:0:
288,160,27539,1,8,0:0:0:0:
224,160,27855,1,0,0:0:0:0:
288,160,28171,1,8,0:0:0:0:
224,160,28329,1,0,0:0:0:0:
288,160,28802,1,8,0:0:0:0:
224,160,29118,1,0,0:0:0:0:
224,160,30381,1,0,0:0:0:0:
288,160,30697,1,8,0:0:0:0:
224,160,30855,1,0,0:0:0:0:
288,160,31329,1,8,0:0:0:0:
224,160,31644,1,0,0:0:0:0:
288,160,31960,1,8,0:0:0:0:
224,160,32434,1,0,0:0:0:0:
288,160,32592,1,8,0:0:0:0:
224,160,32908,1,0,0:0:0:0:
288,160,33223,1,8,0:0:0:0:
224,160,33697,1,0,0:0:0:0:
288,160,33855,1,8,0:0:0:0:
224,160,34171,1,0,0:0:0:0:
224,160,35434,1,0,0:0:0:0:
288,160,35750,1,8,0:0:0:0:
224,160,36223,1,0,0:0:0:0:
288,160,36381,1,8,0:0:0:0:
224,160,36697,1,0,0:0:0:0:
288,160,37013,1,8,0:0:0:0:
224,160,37487,1,0,0:0:0:0:
288,160,37644,1,8,0:0:0:0:
224,160,37960,1,0,0:0:0:0:
288,160,38276,1,8,0:0:0:0:
224,160,38434,1,0,0:0:0:0:
288,160,38908,1,8,0:0:0:0:
224,160,39223,1,0,0:0:0:0:
288,224,40487,5,12,0:0:0:0:
224,160,40960,1,0,0:0:0:0:
288,160,41434,1,8,0:0:0:0:
224,160,41750,1,0,0:0:0:0:
224,160,42223,1,0,0:0:0:0:
224,160,43013,1,0,0:0:0:0:
224,160,43487,1,0,0:0:0:0:
288,160,43960,1,8,0:0:0:0:
224,160,44276,1,0,0:0:0:0:
288,160,44592,1,8,0:0:0:0:
224,160,44908,1,0,0:0:0:0:
288,160,45539,1,8,0:0:0:0:
288,160,46013,1,8,0:0:0:0:
288,160,46487,1,8,0:0:0:0:
224,160,46802,1,0,0:0:0:0:
224,160,47276,1,0,0:0:0:0:
224,160,48066,1,0,0:0:0:0:
224,160,48539,1,0,0:0:0:0:
288,160,49013,1,8,0:0:0:0:
224,160,49329,1,0,0:0:0:0:
288,160,49644,1,8,0:0:0:0:
224,160,49960,1,0,0:0:0:0:
288,224,50592,1,12,0:0:0:0:
288,160,51066,1,8,0:0:0:0:
224,160,51381,1,0,0:0:0:0:
288,160,51697,1,8,0:0:0:0:
224,160,51855,1,0,0:0:0:0:
224,160,52487,1,0,0:0:0:0:
224,160,53118,1,0,0:0:0:0:
288,160,53592,1,8,0:0:0:0:
224,160,53908,1,0,0:0:0:0:
288,160,54223,1,8,0:0:0:0:
224,160,54381,1,0,0:0:0:0:
288,160,55329,1,8,0:0:0:0:
224,160,55644,1,0,0:0:0:0:
288,160,56118,1,8,0:0:0:0:
224,160,56434,1,0,0:0:0:0:
288,160,56750,1,8,0:0:0:0:
224,160,56908,1,0,0:0:0:0:
288,160,57223,1,8,0:0:0:0:
224,160,57539,1,0,0:0:0:0:
224,160,58171,1,0,0:0:0:0:
288,160,58644,1,8,0:0:0:0:
224,160,58960,1,0,0:0:0:0:
288,160,59276,1,8,0:0:0:0:
288,160,59434,1,8,0:0:0:0:
224,224,60697,5,4,0:0:0:0:
288,160,61960,1,8,0:0:0:0:
288,160,62592,1,8,0:0:0:0:
224,160,63223,1,0,0:0:0:0:
288,160,63697,1,8,0:0:0:0:
288,160,64171,1,8,0:0:0:0:
224,160,64487,1,0,0:0:0:0:
288,160,65750,1,8,0:0:0:0:
288,160,67013,1,8,0:0:0:0:
288,160,67644,1,8,0:0:0:0:
224,160,68276,1,0,0:0:0:0:
288,160,68750,1,8,0:0:0:0:
288,160,69223,1,8,0:0:0:0:
224,160,69539,1,0,0:0:0:0:
224,160,70802,1,0,0:0:0:0:
224,160,71434,1,0,0:0:0:0:
224,160,72066,1,0,0:0:0:0:
224,160,72697,1,0,0:0:0:0:
224,160,73329,1,0,0:0:0:0:
288,160,73644,1,8,0:0:0:0:
288,160,74276,1,8,0:0:0:0:
224,160,74592,1,0,0:0:0:0:
288,160,74908,1,8,0:0:0:0:
288,160,75539,1,8,0:0:0:0:
224,160,75855,1,0,0:0:0:0:
288,160,76171,1,8,0:0:0:0:
224,160,76487,1,0,0:0:0:0:
288,160,76802,1,8,0:0:0:0:
288,160,77434,1,8,0:0:0:0:
224,160,77750,1,0,0:0:0:0:
288,160,78066,1,8,0:0:0:0:
224,160,78381,1,0,0:0:0:0:
288,160,78697,1,8,0:0:0:0:
288,160,79329,1,8,0:0:0:0:
288,160,79487,1,8,0:0:0:0:
224,160,79644,1,0,0:0:0:0:
288,224,80908,5,12,0:0:0:0:
288,160,82171,1,8,0:0:0:0:
224,160,83434,1,0,0:0:0:0:
288,160,84697,1,8,0:0:0:0:
224,160,85960,1,0,0:0:0:0:
288,160,87223,1,8,0:0:0:0:
288,160,88487,1,8,0:0:0:0:
224,160,89750,1,0,0:0:0:0:
320,224,91013,5,12,0:0:0:0:
224,160,92276,1,0,0:0:0:0:
224,160,92908,1,0,0:0:0:0:
224,160,93539,1,0,0:0:0:0:
224,160,94802,1,0,0:0:0:0:
224,160,95434,1,0,0:0:0:0:
288,160,95750,1,8,0:0:0:0:
224,160,96066,1,0,0:0:0:0:
288,160,96381,1,8,0:0:0:0:
288,160,97013,1,8,0:0:0:0:
224,160,97329,1,0,0:0:0:0:
224,160,97487,1,0,0:0:0:0:
288,160,97644,1,8,0:0:0:0:
288,160,98276,1,8,0:0:0:0:
224,160,98592,1,0,0:0:0:0:
288,160,98908,1,8,0:0:0:0:
288,160,99539,1,8,0:0:0:0:
224,160,99855,1,0,0:0:0:0:
288,160,100171,1,8,0:0:0:0:
224,160,100487,1,0,0:0:0:0:
288,160,100802,1,8,0:0:0:0:
224,160,101118,1,0,0:0:0:0:
288,224,102381,5,12,0:0:0:0:
288,160,102697,1,8,0:0:0:0:
224,160,102855,1,0,0:0:0:0:
288,160,103329,1,8,0:0:0:0:
224,160,103644,1,0,0:0:0:0:
288,160,103960,1,8,0:0:0:0:
224,160,104276,1,0,0:0:0:0:
224,160,104908,1,0,0:0:0:0:
288,160,105223,1,8,0:0:0:0:
224,160,105697,1,0,0:0:0:0:
288,160,105855,1,8,0:0:0:0:
224,160,106171,1,0,0:0:0:0:
224,160,106802,1,0,0:0:0:0:
288,160,107118,1,8,0:0:0:0:
288,160,107276,1,8,0:0:0:0:
224,160,107434,1,0,0:0:0:0:
288,160,107750,1,8,0:0:0:0:
224,160,108223,1,0,0:0:0:0:
288,160,108381,1,8,0:0:0:0:
224,160,108697,1,0,0:0:0:0:
288,160,109013,1,8,0:0:0:0:
224,160,109329,1,0,0:0:0:0:
224,160,109960,1,0,0:0:0:0:
288,160,110276,1,8,0:0:0:0:
224,160,110434,1,0,0:0:0:0:
288,160,110908,1,8,0:0:0:0:
224,160,111223,1,0,0:0:0:0:
224,160,111381,1,0,0:0:0:0:
288,160,111539,1,8,0:0:0:0:
224,160,112171,1,0,0:0:0:0:
224,160,112487,1,0,0:0:0:0:
288,160,112802,1,8,0:0:0:0:
224,160,113276,1,0,0:0:0:0:
288,160,113434,1,8,0:0:0:0:
224,160,113750,1,0,0:0:0:0:
288,160,114066,1,8,0:0:0:0:
224,160,114381,1,0,0:0:0:0:
224,160,115013,1,0,0:0:0:0:
224,160,115171,1,0,0:0:0:0:
288,160,115329,1,8,0:0:0:0:
288,160,115960,1,8,0:0:0:0:
224,160,116276,1,0,0:0:0:0:
288,160,116592,1,8,0:0:0:0:
288,160,117223,1,8,0:0:0:0:
288,160,117381,1,8,0:0:0:0:
224,160,117539,1,0,0:0:0:0:
288,160,117855,1,8,0:0:0:0:
224,160,118329,1,0,0:0:0:0:
288,160,118487,1,8,0:0:0:0:
224,160,118802,1,0,0:0:0:0:
288,160,119118,1,8,0:0:0:0:
224,160,119434,1,0,0:0:0:0:
224,160,120066,1,0,0:0:0:0:
224,160,120223,1,0,0:0:0:0:
288,160,120381,1,8,0:0:0:0:
288,160,121013,1,8,0:0:0:0:
224,160,121329,1,0,0:0:0:0:
224,224,122592,5,4,0:0:0:0:
224,224,123539,1,4,0:0:0:0:
224,224,124487,1,4,0:0:0:0:
224,224,125434,1,4,0:0:0:0:
224,224,126381,1,4,0:0:0:0:
224,224,127171,1,4,0:0:0:0:
224,160,127644,1,0,0:0:0:0:
224,160,127960,1,0,0:0:0:0:
224,160,128118,1,0,0:0:0:0:
288,160,128276,1,8,0:0:0:0:
224,160,128592,1,0,0:0:0:0:
224,160,128750,1,0,0:0:0:0:
224,160,129066,1,0,0:0:0:0:
224,160,129223,1,0,0:0:0:0:
288,160,129539,1,8,0:0:0:0:
224,160,130171,1,0,0:0:0:0:
224,160,130487,1,0,0:0:0:0:
224,160,130644,1,0,0:0:0:0:
288,160,130802,1,8,0:0:0:0:
224,160,131118,1,0,0:0:0:0:
224,160,131276,1,0,0:0:0:0:
224,160,131592,1,0,0:0:0:0:
224,160,131750,1,0,0:0:0:0:
288,160,132066,1,8,0:0:0:0:
288,224,132697,1,12,0:0:0:0:
