osu file format v14

[General]
AudioFilename: An - Aleie_192.mp3
AudioLeadIn: 0
PreviewTime: 41692
Countdown: 0
SampleSet: Normal
StackLeniency: 0.4
Mode: 0
LetterboxInBreaks: 1
EpilepsyWarning: 1
WidescreenStoryboard: 1

[Editor]
Bookmarks: 1271,21481,31586,41692,61902,82113,102323,121271,129639,132639,142744,162955,173060,183165,205902,226113,236218,246323
DistanceSpacing: 1.1
BeatDivisor: 4
GridSize: 4
TimelineZoom: 2.5

[Metadata]
Title:Aleie
TitleUnicode:Aleie
Artist:An
ArtistUnicode:An
Creator:Hathz
Version:Hard
Source:
Tags:acuticnotes digital logics ciera c87 comiket fort happyrocket88 kawa
BeatmapID:683528
BeatmapSetID:304984

[Difficulty]
HPDrainRate:5
CircleSize:4
OverallDifficulty:6
ApproachRate:8
SliderMultiplier:1.5
SliderTickRate:1

[Events]
//Background and Video events
0,0,"map_bga.jpg",0,0
//Break Periods
2,122734,128850
//Storyboard Layer 0 (Background)
//Storyboard Layer 1 (Fail)
//Storyboard Layer 2 (Pass)
//Storyboard Layer 3 (Foreground)
//Storyboard Sound Samples

[TimingPoints]
1271,315.789473684211,4,2,0,30,1,0
1271,-133.333333333333,4,2,0,30,0,0
21481,-100,4,1,0,60,0,0
40429,-166.666666666667,4,1,0,70,0,0
41692,-100,4,1,0,90,0,1
82113,-100,4,1,0,70,0,1
102323,-133.333333333333,4,2,0,60,0,0
129639,-133.333333333333,4,2,0,50,0,0
132639,-100,4,2,0,60,0,0
142744,-100,4,1,0,80,0,0
162955,-133.333333333333,4,2,0,40,0,0
173060,-100,4,2,0,50,0,0
183165,-133.333333333333,4,2,0,60,0,0
205192,-133.333333333333,4,2,0,5,0,0
205902,-100,4,1,0,90,0,1
226113,-133.333333333333,4,2,0,70,0,0
236218,-100,4,1,0,90,0,1
246323,-133.333333333333,4,1,0,100,0,0

[Colours]
Combo1 : 171,50,71
Combo2 : 68,92,208
Combo3 : 208,64,172
Combo4 : 38,193,221

[HitObjects]
120,216,1271,6,0,P|168:228|228:208,1,112.500004291535,2|0,0:0|0:0,0:0:0:0:
292,176,1744,2,0,P|342:163|400:176,1,112.500004291535,2|0,0:0|0:0,0:0:0:0:
464,216,2218,2,0,L|444:344,2,112.500004291535,2|2|2,0:0|0:0|0:0,0:0:0:0:
436,60,3165,1,2,0:0:0:0:
436,60,3481,1,2,0:0:0:0:
288,112,3797,6,0,P|232:128|168:100,1,112.500004291535,2|0,0:0|0:0,0:0:0:0:
116,80,4271,2,0,P|69:110|58:174,1,112.500004291535,2|0,0:0|0:0,0:0:0:0:
80,232,4744,2,0,L|168:304,2,112.500004291535,2|2|2,0:0|0:0|0:0,0:0:0:0:
260,144,5692,6,0,P|272:182|260:224,2,84.3750032186509
232,76,6323,2,0,B|284:64|284:64|356:80,1,112.500004291535,2|0,0:0|0:0,0:0:0:0:
412,100,6797,1,2,0:0:0:0:
184,148,7271,2,0,L|180:204,1,56.2500021457673,2|0,0:0|0:0,0:0:0:0:
176,276,7586,6,0,B|228:296|228:296|292:284,1,112.500004291535,2|0,0:0|0:0,0:0:0:0:
356,268,8060,1,2,0:0:0:0:
140,220,8534,2,0,L|144:148,1,56.2500021457673,2|0,0:0|0:0,0:0:0:0:
148,92,8850,6,0,B|204:80|204:80|264:100,1,112.500004291535,2|0,0:0|0:0,0:0:0:0:
308,148,9323,2,0,P|300:196|352:256,1,112.500004291535,2|0,0:0|0:0,0:0:0:0:
408,260,9797,2,0,L|468:260,1,56.2500021457673,2|0,0:0|0:0,0:0:0:0:
492,191,10113,2,0,B|446:177|446:177|364:180,1,112.500004291535,2|0,0:0|0:0,0:0:0:0:
313,205,10586,1,0,0:0:0:0:
313,205,10744,2,0,L|180:203,1,112.500004291535,2|0,0:0|0:0,0:0:0:0:
261,23,11376,6,0,P|229:71|241:131,1,112.500004291535,2|0,0:0|0:0,0:0:0:0:
258,193,11850,2,0,P|270:221|242:301,1,112.500004291535,2|0,0:0|0:0,0:0:0:0:
190,342,12323,1,2,0:0:0:0:
336,324,12639,6,0,L|452:308,2,112.500004291535,2|0|0,0:0|0:0|0:0,0:0:0:0:
200,228,13586,2,0,L|204:292,1,56.2500021457673,2|0,0:0|0:0,0:0:0:0:
128,268,13902,2,0,P|100:220|124:156,1,112.500004291535,2|0,0:0|0:0,0:0:0:0:
180,136,14376,2,0,B|232:128|232:128|296:144,1,112.500004291535,2|0,0:0|0:0,0:0:0:0:
224,208,14850,2,0,B|172:216|172:216|108:200,2,112.500004291535,2|2|2,0:0|0:0|0:0,0:0:0:0:
416,168,15797,2,0,P|428:128|412:88,2,84.3750032186509,2|0|0,0:0|0:0|0:0,0:0:0:0:
360,216,16429,6,0,L|224:236,1,112.500004291535,2|0,0:0|0:0,0:0:0:0:
236,308,16902,2,0,L|347:291,1,112.500004291535,2|0,0:0|0:0,0:0:0:0:
420,276,17376,2,0,P|444:232|420:160,2,112.500004291535,2|2|2,0:0|0:0|0:0,0:0:0:0:
300,192,18323,2,0,B|248:164|248:164|224:100,1,112.500004291535,2|0,0:0|0:0,0:0:0:0:
88,148,18955,6,0,P|64:198|80:252,1,112.500004291535,2|0,0:0|0:0,0:0:0:0:
132,300,19429,2,0,P|180:288|244:309,1,112.500004291535,2|0,0:0|0:0,0:0:0:0:
304,336,19902,1,2,0:0:0:0:
256,192,20218,1,2,0:0:0:0:
318,200,21481,6,0,P|310:168|334:104,1,75,2|0,0:0|0:0,0:0:0:0:
400,112,21797,1,0,0:0:0:0:
400,112,21955,2,0,L|476:124,2,75,2|0|0,0:0|0:0|0:0,0:0:0:0:
318,127,22429,1,2,0:0:0:0:
248,168,22586,6,0,P|252:239|329:276,1,150,2|0,0:0|0:0,0:0:0:0:
388,316,23060,2,0,L|407:244,1,75,2|0,0:0|0:0,0:0:0:0:
489,225,23376,2,0,L|468:297,1,75,2|0,0:0|0:0,0:0:0:0:
433,177,23692,2,0,P|403:152|353:152,1,75,2|0,0:0|0:0,0:0:0:0:
288,172,24008,6,0,B|230:191|230:191|162:179,1,112.5,2|0,0:0|0:0,0:0:0:0:
156,176,24323,2,0,P|160:135|140:93,1,75,0|2,0:0|0:0,0:0:0:0:
76,152,24639,2,0,P|71:192|91:234,1,75
168,260,24955,1,2,0:0:0:0:
252,280,25113,6,0,L|408:300,1,150,2|0,0:0|0:0,0:0:0:0:
384,220,25586,2,0,P|372:184|396:128,1,75,2|0,0:0|0:0,0:0:0:0:
296,96,25902,2,0,P|307:131|300:167,1,75,2|0,0:0|0:0,0:0:0:0:
224,136,26218,2,0,P|188:144|148:136,1,75,2|0,0:0|0:0,0:0:0:0:
68,120,26534,6,0,P|56:176|76:232,1,112.5,2|0,0:0|0:0,0:0:0:0:
88,244,26850,2,0,L|168:248,1,75,0|2,0:0|0:0,0:0:0:0:
188,328,27165,2,0,L|108:324,1,75
232,268,27481,1,2,0:0:0:0:
312,252,27639,6,0,P|332:216|284:120,1,150,2|0,0:0|0:0,0:0:0:0:
216,96,28113,2,0,L|116:108,1,75,2|0,0:0|0:0,0:0:0:0:
176,28,28429,2,0,L|250:19,1,75,2|0,0:0|0:0,0:0:0:0:
332,36,28744,2,0,P|368:44|416:32,1,75,2|0,0:0|0:0,0:0:0:0:
432,116,29060,6,0,B|432:172|432:172|408:232,1,112.5,2|0,0:0|0:0,0:0:0:0:
400,244,29376,2,0,L|316:224,1,75,0|2,0:0|0:0,0:0:0:0:
348,144,29692,1,0,0:0:0:0:
432,116,29850,1,0,0:0:0:0:
496,172,30008,1,2,0:0:0:0:
480,252,30165,6,0,P|448:304|362:304,1,150,2|0,0:0|0:0,0:0:0:0:
288,284,30639,2,0,L|216:344,1,75,2|0,0:0|0:0,0:0:0:0:
200,252,30955,2,0,L|108:292,1,75,2|0,0:0|0:0,0:0:0:0:
116,200,31271,2,0,L|32:204,1,75,2|0,0:0|0:0,0:0:0:0:
80,128,31586,6,0,L|252:120,1,150,2|8,0:0|0:0,0:0:0:0:
312,116,32060,1,2,0:0:0:0:
312,116,32376,6,0,P|304:160|316:192,2,75,8|0|0,0:0|0:0|0:0,0:0:0:0:
340,36,32850,2,0,L|164:16,1,150,2|8,0:0|0:0,0:0:0:0:
112,44,33323,1,2,0:0:0:0:
112,44,33639,6,0,P|124:84|104:136,1,75,8|0,0:0|0:0,0:0:0:0:
80,192,33955,1,0,0:0:0:0:
108,272,34113,2,0,L|208:312,2,75,2|0|8,0:0|0:0|0:0,0:0:0:0:
80,192,34586,6,0,P|96:140|188:124,1,150,2|8,0:0|0:0,0:0:0:0:
260,152,35060,2,0,P|288:164|360:144,1,75
412,148,35376,6,0,P|448:180|440:284,1,150,2|8,0:0|0:0,0:0:0:0:
384,224,35850,2,0,P|371:295|418:351,1,150,2|8,0:0|0:0,0:0:0:0:
480,296,36323,1,2,0:0:0:0:
492,216,36481,1,0,0:0:0:0:
476,136,36639,6,0,L|376:120,1,75,2|0,0:0|0:0,0:0:0:0:
320,120,36955,1,8,0:0:0:0:
236,128,37113,2,0,P|200:192|228:264,1,150,2|8,0:0|0:0,0:0:0:0:
224,259,37586,1,2,0:0:0:0:
76,332,37902,6,0,L|-16:324,2,75,2|0|8,0:0|0:0|0:0,0:0:0:0:
156,336,38376,2,0,P|192:272|164:200,1,150,2|8,0:0|0:0,0:0:0:0:
167,204,38850,1,2,0:0:0:0:
300,60,39165,6,0,L|320:216,1,150,2|8,0:0|0:0,0:0:0:0:
324,292,39639,2,0,B|288:304|288:304|228:296,2,75,2|0|8,0:0|0:0|0:0,0:0:0:0:
319,208,40113,2,0,B|290:195|290:195|228:202,1,75,2|0,0:0|0:0,0:0:0:0:
164,207,40429,6,0,B|98:161|98:161|143:59|143:59|236:73,1,269.999991760254,10|0,0:0|0:0,0:0:0:0:
358,160,41692,6,0,P|358:112|334:68,1,75,6|0,0:0|0:0,0:0:0:0:
278,136,42008,1,10,0:0:0:0:
294,216,42165,2,0,P|370:240|438:184,1,150,0|2,0:0|0:0,0:0:0:0:
217,190,42639,2,0,P|212:226|227:262,1,75,0|8,0:0|0:0,0:0:0:0:
260,337,42955,6,0,L|110:351,1,150,2|8,0:0|0:0,0:0:0:0:
166,262,43429,2,0,L|316:248,1,150,2|0,0:0|0:0,0:0:0:0:
371,187,43902,2,0,P|388:162|387:87,1,75,10|0,0:0|0:0,0:0:0:0:
327,71,44218,6,0,L|275:71,2,37.5,2|0|0,0:0|0:0|0:0,0:0:0:0:
400,31,44534,2,0,P|436:39|496:11,1,75,10|0,0:0|0:0,0:0:0:0:
489,111,44850,1,0,0:0:0:0:
414,147,45008,1,2,0:0:0:0:
332,144,45165,2,0,L|228:156,1,75,0|8,0:0|0:0,0:0:0:0:
175,166,45481,6,0,P|136:219|176:309,1,150,2|8,0:0|0:0,0:0:0:0:
220,240,45955,2,2,P|242:308|202:368,1,150,2|0,0:0|0:0,0:0:0:0:
308,366,46429,2,0,L|394:339,1,75,10|0,0:0|0:0,0:0:0:0:
450,300,46744,6,0,P|482:256|478:208,1,75,2|0,0:0|0:0,0:0:0:0:
378,168,47060,2,0,P|393:220|434:245,1,75,10|0,0:0|0:0,0:0:0:0:
458,168,47376,2,0,L|510:100,2,75,0|2|0,0:0|0:0|0:0,0:0:0:0:
412,98,47850,1,8,0:0:0:0:
412,98,48008,6,0,B|348:62|348:62|240:58,1,150,2|0,0:0|0:0,0:0:0:0:
224,126,48481,2,0,P|196:192|232:255,1,150,2|0,0:0|0:0,0:0:0:0:
193,52,48955,2,0,L|198:2,2,37.5,10|0|0,0:0|0:0|0:0,0:0:0:0:
112,64,49271,6,0,L|4:44,1,75,2|0,0:0|0:0,0:0:0:0:
51,131,49586,2,0,L|143:147,1,75,10|0,0:0|0:0,0:0:0:0:
204,168,49902,2,0,P|212:204|196:244,2,75,0|2|0,0:0|0:0|0:0,0:0:0:0:
124,143,50376,1,8,0:0:0:0:
96,221,50534,6,0,P|72:297|108:365,1,150,2|0,0:0|0:0,0:0:0:0:
174,319,51008,2,0,P|254:295|318:325,1,150,2|0,0:0|0:0,0:0:0:0:
385,358,51481,1,10,0:0:0:0:
385,358,51639,1,0,0:0:0:0:
381,275,51797,6,0,P|389:231|369:187,1,75,2|0,0:0|0:0,0:0:0:0:
321,143,52113,2,0,P|309:111|317:67,1,75,10|0,0:0|0:0,0:0:0:0:
378,17,52429,1,0,0:0:0:0:
448,59,52586,1,2,0:0:0:0:
439,141,52744,2,0,L|503:149,2,37.5,0|0|8,0:0|0:0|0:0,0:0:0:0:
357,157,53060,6,0,P|313:212|344:297,1,150,2|0,0:0|0:0,0:0:0:0:
394,231,53534,2,0,P|438:176|407:91,1,150,2|0,0:0|0:0,0:0:0:0:
342,75,54008,2,0,P|329:39|330:2,1,75,10|0,0:0|0:0,0:0:0:0:
357,157,54323,6,0,L|269:165,1,75,2|0,0:0|0:0,0:0:0:0:
258,243,54639,1,10,0:0:0:0:
258,243,54797,2,0,L|166:251,1,75
110,289,55113,2,0,P|98:249|122:197,2,75,2|0|8,0:0|0:0|0:0,0:0:0:0:
183,249,55586,6,0,P|187:177|131:101,1,150,2|0,0:0|0:0,0:0:0:0:
104,184,56060,2,0,L|280:196,1,150,2|0,0:0|0:0,0:0:0:0:
340,172,56534,1,10,0:0:0:0:
372,88,56692,1,0,0:0:0:0:
316,20,56850,6,0,P|280:12|216:36,1,75,2|0,0:0|0:0,0:0:0:0:
184,84,57165,2,0,P|172:120|120:144,1,75,10|0,0:0|0:0,0:0:0:0:
244,140,57481,2,0,L|296:136,2,37.5,0|0|2,0:0|0:0|0:0,0:0:0:0:
184,208,57797,1,0,0:0:0:0:
240,280,57955,1,8,0:0:0:0:
320,316,58113,6,0,B|380:316|380:316|360:272|392:212,1,150,2|0,0:0|0:0,0:0:0:0:
460,272,58586,2,0,B|476:200|476:200|452:112,1,150,2|0,0:0|0:0,0:0:0:0:
384,72,59060,2,0,P|368:112|376:160,1,75,10|0,0:0|0:0,0:0:0:0:
380,232,59376,6,0,L|292:256,1,75,2|0,0:0|0:0,0:0:0:0:
248,320,59692,2,0,L|144:348,1,75,10|0,0:0|0:0,0:0:0:0:
112,276,60008,1,0,0:0:0:0:
156,196,60165,1,2,0:0:0:0:
108,120,60323,1,0,0:0:0:0:
168,52,60481,1,8,0:0:0:0:
256,64,60639,6,0,P|316:80|380:48,1,112.5,2|0,0:0|0:0,0:0:0:0:
380,56,60955,2,0,P|406:88|410:128,1,75,0|2,0:0|0:0,0:0:0:0:
394,201,61271,2,0,L|339:230,2,37.5,0|0|2,0:0|0:0|0:0,0:0:0:0:
472,225,61586,2,0,P|476:255|464:299,1,75,10|2,0:0|0:0,0:0:0:0:
382,300,61902,6,0,P|335:288|286:301,1,75,6|0,0:0|0:0,0:0:0:0:
257,355,62218,1,10,0:0:0:0:
257,355,62376,2,0,P|226:282|271:219,1,150,0|2,0:0|0:0,0:0:0:0:
303,155,62850,2,0,B|306:114|306:114|290:76,1,75,0|8,0:0|0:0,0:0:0:0:
216,52,63165,6,0,P|176:96|64:80,1,150,2|0,0:0|0:0,0:0:0:0:
132,20,63639,2,0,P|176:76|140:172,1,150,2|0,0:0|0:0,0:0:0:0:
136,236,64113,2,0,P|132:272|156:320,1,75,10|0,0:0|0:0,0:0:0:0:
224,260,64429,6,0,L|280:244,2,37.5,2|0|0,0:0|0:0|0:0,0:0:0:0:
212,172,64744,2,0,L|220:84,1,75,10|0,0:0|0:0,0:0:0:0:
152,36,65060,1,0,0:0:0:0:
68,68,65218,1,2,0:0:0:0:
48,156,65376,2,0,P|60:200|44:244,1,75,0|8,0:0|0:0,0:0:0:0:
40,316,65692,6,0,B|112:332|112:332|192:312,1,150,2|0,0:0|0:0,0:0:0:0:
272,284,66165,2,0,B|345:265|345:265|417:281,1,150,2|0,0:0|0:0,0:0:0:0:
348,339,66639,2,0,P|331:306|342:240,1,75,10|0,0:0|0:0,0:0:0:0:
301,182,66955,6,0,P|264:172|228:180,1,75,2|0,0:0|0:0,0:0:0:0:
377,182,67271,2,0,P|413:191|449:183,1,75,10|0,0:0|0:0,0:0:0:0:
301,182,67586,2,0,B|298:229|298:229|322:273,1,75,0|2,0:0|0:0,0:0:0:0:
383,294,67902,2,0,P|354:322|290:330,1,75,0|8,0:0|0:0,0:0:0:0:
243,303,68218,6,0,P|163:287|135:199,1,150,2|0,0:0|0:0,0:0:0:0:
132,144,68692,2,0,P|60:184|48:256,1,150,2|0,0:0|0:0,0:0:0:0:
76,332,69165,2,0,L|72:376,2,37.5,10|0|0,0:0|0:0|0:0,0:0:0:0:
132,260,69481,6,0,P|160:252|216:264,1,75,2|0,0:0|0:0,0:0:0:0:
288,296,69797,2,0,P|296:256|272:204,1,75,10|0,0:0|0:0,0:0:0:0:
236,148,70113,2,0,L|148:124,2,75,0|2|0,0:0|0:0|0:0,0:0:0:0:
324,168,70586,1,8,0:0:0:0:
324,168,70744,6,0,P|388:160|428:64,1,150,2|0,0:0|0:0,0:0:0:0:
488,164,71218,2,0,L|464:328,1,150,2|0,0:0|0:0,0:0:0:0:
380,344,71692,2,0,P|336:348|280:328,1,75,10|0,0:0|0:0,0:0:0:0:
228,296,72008,6,0,L|216:208,1,75,2|0,0:0|0:0,0:0:0:0:
136,184,72323,2,0,L|152:292,1,75,10|0,0:0|0:0,0:0:0:0:
80,320,72639,2,0,L|16:312,2,37.5,0|0|2,0:0|0:0|0:0,0:0:0:0:
168,332,72955,1,0,0:0:0:0:
256,324,73113,1,8,0:0:0:0:
344,316,73271,6,0,B|392:292|392:292|420:256|420:256|464:228,1,150,2|0,0:0|0:0,0:0:0:0:
412,156,73744,2,0,P|376:208|408:296,1,150,2|0,0:0|0:0,0:0:0:0:
476,332,74218,2,0,P|500:320|516:252,1,75,10|0,0:0|0:0,0:0:0:0:
512,184,74534,6,0,L|484:96,1,75,2|0,0:0|0:0,0:0:0:0:
432,44,74850,2,0,P|392:32|340:52,1,75,10|0,0:0|0:0,0:0:0:0:
300,108,75165,2,0,L|204:144,2,75,0|2|0,0:0|0:0|0:0,0:0:0:0:
390,112,75639,1,8,0:0:0:0:
464,60,75797,6,0,L|504:212,1,150,2|0,0:0|0:0,0:0:0:0:
444,272,76271,2,0,L|396:92,1,150,2|0,0:0|0:0,0:0:0:0:
332,72,76744,2,0,P|292:64|244:80,1,75,10|0,0:0|0:0,0:0:0:0:
188,128,77060,6,0,L|152:220,1,75,2|0,0:0|0:0,0:0:0:0:
242,204,77376,2,0,L|215:274,1,75,10|0,0:0|0:0,0:0:0:0:
296,280,77692,2,0,L|278:334,2,37.5,0|0|2,0:0|0:0|0:0,0:0:0:0:
345,213,78007,2,0,P|384:206|434:230,1,75,0|8,0:0|0:0,0:0:0:0:
508,288,78323,6,0,P|448:316|368:268,1,150,2|0,0:0|0:0,0:0:0:0:
345,213,78797,2,0,B|326:167|351:130|351:130|433:101,1,150,2|0,0:0|0:0,0:0:0:0:
482,149,79271,2,0,P|463:175|407:190,1,75,10|0,0:0|0:0,0:0:0:0:
345,213,79586,6,0,L|249:209,1,75,2|0,0:0|0:0,0:0:0:0:
196,240,79902,2,0,L|96:236,1,75,10|0,0:0|0:0,0:0:0:0:
123,320,80218,1,0,0:0:0:0:
123,320,80376,1,2,0:0:0:0:
205,325,80534,2,0,P|254:306|278:266,1,75,0|10,0:0|0:0,0:0:0:0:
291,210,80850,6,0,P|319:166|419:178,2,150,2|2|2,0:0|0:0|0:0,0:0:0:0:
286,138,82113,6,0,P|279:174|291:210,1,75,14|0,0:0|0:0,0:0:0:0:
354,263,82429,1,8,0:2:0:0:
432,296,82586,2,0,L|508:280,2,75,2|0|0,3:2|3:2|3:2,3:2:0:0:
324,296,83060,2,0,L|248:312,2,75,8|0|0,3:2|3:2|3:2,3:2:0:0:
408,224,83534,2,0,L|484:208,2,75,8|0|0,3:2|3:2|3:2,3:2:0:0:
320,204,84008,2,0,P|300:172|304:124,1,75,10|0,0:0|0:0,0:0:0:0:
364,72,84323,2,0,P|384:104|380:152,1,75,10|0,0:0|0:0,0:0:0:0:
320,204,84639,6,0,P|280:216|232:192,1,75,2|0,0:0|0:0,0:0:0:0:
168,164,84955,1,8,0:2:0:0:
164,76,85113,2,0,L|188:0,2,75,2|0|0,3:2|3:2|3:2,3:2:0:0:
164,184,85586,2,0,L|140:260,2,75,8|0|0,3:2|3:2|3:2,3:2:0:0:
236,104,86060,2,0,L|260:28,2,75,8|0|2,3:2|3:2|3:2,3:2:0:0:
242,186,86534,2,0,P|270:214|318:214,1,75,10|0,0:0|0:0,0:0:0:0:
386,228,86850,2,0,P|430:232|462:264,1,75,10|0,0:0|0:0,0:0:0:0:
466,168,87165,6,0,P|458:120|474:80,1,75,2|0,0:0|0:0,0:0:0:0:
497,18,87481,1,8,0:2:0:0:
416,20,87639,2,0,L|312:32,2,75,2|0|0,3:2|3:2|3:2,3:2:0:0:
250,87,88113,2,0,L|176:96,2,75,8|0|0,3:2|3:2|3:2,3:2:0:0:
432,92,88586,2,0,L|328:104,2,75,8|0|0,3:2|3:2|3:2,3:2:0:0:
492,160,89060,2,0,P|500:204|480:248,1,75,10|0,0:0|0:0,0:0:0:0:
416,264,89376,2,0,P|408:308|428:352,1,75,10|0,0:0|0:0,0:0:0:0:
416,264,89692,6,0,L|312:244,1,75,2|0,0:0|0:0,0:0:0:0:
266,284,90008,1,8,0:2:0:0:
266,284,90165,2,0,L|162:264,2,75,8|0|0,3:2|3:2|3:2,3:2:0:0:
135,211,90639,2,0,L|62:197,2,75,8|0|0,3:2|3:2|3:2,3:2:0:0:
291,203,91113,2,0,L|187:183,2,75,8|0|0,3:2|3:2|3:2,3:2:0:0:
348,261,91586,2,0,P|313:283|254:276,1,75,10|0,0:0|0:0,0:0:0:0:
378,344,91902,2,0,P|428:340|470:362,1,75,10|0,0:0|0:0,0:0:0:0:
428,262,92218,6,0,L|455:115,1,150,2|8,0:0|0:0,0:0:0:0:
232,96,92850,2,0,P|284:88|324:108,1,75,2|0,0:0|0:0,0:0:0:0:
268,168,93165,2,0,P|248:220|264:260,1,75,2|0,0:0|0:0,0:0:0:0:
264,328,93481,2,0,B|188:316|188:316|104:268,1,150,10|0,0:0|0:0,0:0:0:0:
88,196,93955,6,0,L|92:152,2,37.5,10|0|0,0:0|0:0|0:0,0:0:0:0:
32,256,94271,1,0,0:0:0:0:
85,318,94428,2,0,B|116:340|116:340|173:347,1,75,10|0,0:0|0:0,0:0:0:0:
236,344,94744,6,0,L|412:328,1,150,2|8,0:0|0:0,0:0:0:0:
464,168,95376,2,0,P|420:176|376:160,1,75,2|0,0:0|0:0,0:0:0:0:
304,144,95692,2,0,P|267:136|231:144,1,75,2|0,0:0|0:0,0:0:0:0:
152,192,96008,2,0,P|152:248|256:284,1,150,10|0,0:0|0:0,0:0:0:0:
316,300,96481,6,0,L|376:276,2,37.5,10|0|0,0:0|0:0|0:0,0:0:0:0:
262,363,96797,1,0,0:0:0:0:
189,323,96955,2,0,P|169:278|174:240,1,75,10|0,0:0|0:0,0:0:0:0:
188,172,97271,6,0,L|228:24,1,150,2|8,0:0|0:0,0:0:0:0:
92,144,97902,2,0,P|88:188|104:220,1,75,2|0,0:0|0:0,0:0:0:0:
176,268,98218,2,0,P|144:296|108:300,1,75,2|0,0:0|0:0,0:0:0:0:
208,340,98534,2,0,P|252:288|220:204,1,150,10|0,0:0|0:0,0:0:0:0:
160,160,99008,6,0,L|112:156,2,37.5,10|0|0,0:0|0:0|0:0,0:0:0:0:
242,168,99323,1,0,0:0:0:0:
323,179,99481,2,0,P|366:170|391:137,1,75,10|0,0:0|0:0,0:0:0:0:
312,96,99797,6,0,L|132:76,1,150,2|8,0:0|0:0,0:0:0:0:
276,220,100429,2,0,L|332:280,1,75,2|0,0:0|0:0,0:0:0:0:
240,300,100744,2,0,L|184:240,1,75,2|0,0:0|0:0,0:0:0:0:
132,176,101060,2,0,P|120:112|200:60,1,150,10|0,0:0|0:0,0:0:0:0:
261,54,101534,5,8,0:0:0:0:
342,66,101692,2,0,L|434:81,1,75,2|0,0:0|0:0,0:0:0:0:
381,153,102008,2,0,L|473:168,1,75,10|2,0:0|0:0,0:0:0:0:
464,248,102323,6,0,P|456:312|404:340,1,112.500004291535,6|0,0:0|0:0,0:0:0:0:
346,329,102797,1,0,0:0:0:0:
276,304,102955,2,0,P|216:292|152:316,1,112.500004291535,8|0,0:0|0:0,0:0:0:0:
92,136,103586,2,0,P|66:195|91:245,1,112.500004291535,2|0,0:0|0:0,0:0:0:0:
207,121,104218,6,0,P|193:80|167:59,1,56.2500021457673,8|0,0:0|0:0,0:0:0:0:
260,171,104534,2,0,P|279:132|275:98,1,56.2500021457673
308,225,104850,2,0,P|366:211|435:236,1,112.500004291535,2|0,0:0|0:0,0:0:0:0:
473,268,105323,1,0,0:0:0:0:
509,333,105481,2,0,P|449:337|402:281,1,112.500004291535,8|0,0:0|0:0,0:0:0:0:
392,144,106113,6,0,L|399:85,1,56.2500021457673,2|0,0:0|0:0,0:0:0:0:
332,48,106429,2,0,L|325:107,1,56.2500021457673
275,157,106744,2,0,L|199:177,1,56.2500021457673,8|0,0:0|0:0,0:0:0:0:
147,166,107060,2,0,L|76:127,1,56.2500021457673
120,68,107376,6,0,P|176:52|240:76,1,112.500004291535,2|0,0:0|0:0,0:0:0:0:
292,99,107850,1,0,0:0:0:0:
356,132,108008,2,0,P|420:148|480:112,1,112.500004291535,8|0,0:0|0:0,0:0:0:0:
296,72,108639,6,0,P|272:120|292:188,1,112.500004291535,2|0,0:0|0:0,0:0:0:0:
216,328,109271,2,0,P|240:280|220:212,1,112.500004291535,8|0,0:0|0:0,0:0:0:0:
164,84,109902,6,0,L|44:72,1,112.500004291535,2|0,0:0|0:0,0:0:0:0:
20,140,110376,1,0,0:0:0:0:
20,140,110534,2,0,P|4:200|36:264,1,112.500004291535,8|0,0:0|0:0,0:0:0:0:
172,308,111165,6,0,L|240:316,1,56.2500021457673,2|0,0:0|0:0,0:0:0:0:
288,276,111481,2,0,L|356:284,1,56.2500021457673
404,240,111797,2,0,L|472:248,1,56.2500021457673,8|0,0:0|0:0,0:0:0:0:
504,308,112113,1,0,0:0:0:0:
460,364,112271,1,0,0:0:0:0:
388,360,112429,6,0,P|336:348|300:292,1,112.500004291535,2|0,0:0|0:0,0:0:0:0:
296,228,112902,1,0,0:0:0:0:
296,156,113060,2,0,P|292:104|244:56,1,112.500004291535,8|0,0:0|0:0,0:0:0:0:
152,180,113692,2,0,P|116:226|54:232,1,112.500004291535,2|0,0:0|0:0,0:0:0:0:
236,312,114323,6,0,L|296:340,1,56.2500021457673,8|0,0:0|0:0,0:0:0:0:
300,264,114639,2,0,L|360:236,1,56.2500021457673
368,312,114955,2,0,B|420:328|420:328|488:304,1,112.500004291535,2|0,0:0|0:0,0:0:0:0:
480,236,115429,1,0,0:0:0:0:
476,164,115586,2,0,P|452:120|380:108,1,112.500004291535,8|0,0:0|0:0,0:0:0:0:
240,136,116218,6,0,P|204:140|164:128,1,56.2500021457673,2|0,0:0|0:0,0:0:0:0:
308,113,116534,2,0,P|313:141|302:172,1,56.2500021457673
251,66,116850,2,0,P|278:45|312:41,1,56.2500021457673,8|0,0:0|0:0,0:0:0:0:
368,62,117165,1,0,0:0:0:0:
387,132,117323,1,0,0:0:0:0:
359,202,117481,6,0,P|339:242|354:318,1,112.500004291535,2|0,0:0|0:0,0:0:0:0:
411,343,117955,1,0,0:0:0:0:
412,269,118113,2,0,P|360:236|304:247,1,112.500004291535,8|0,0:0|0:0,0:0:0:0:
100,269,118744,2,0,P|152:236|208:247,1,112.500004291535,2|0,0:0|0:0,0:0:0:0:
346,316,119376,2,0,P|398:349|454:338,1,112.500004291535,8|0,0:0|0:0,0:0:0:0:
431,158,120008,6,0,L|409:283,1,112.500004291535,2|0,0:0|0:0,0:0:0:0:
348,196,120481,1,0,0:0:0:0:
348,196,120639,2,0,L|326:321,1,112.500004291535,8|0,0:0|0:0,0:0:0:0:
312,108,121271,1,0,0:0:0:0:
256,192,121429,12,4,122534,0:0:0:0:
368,216,129639,6,0,L|430:230,2,56.2500021457673,0|0|2,0:0|0:0|0:0,0:0:0:0:
261,215,131060,6,0,L|206:202,1,56.2500021457673,0|2,0:0|0:0,0:0:0:0:
196,191,131534,5,2,0:0:0:0:
189,178,131850,5,2,0:0:0:0:
190,93,132007,2,0,P|211:53|242:37,1,56.2500021457673,0|2,0:0|0:0,0:0:0:0:
306,40,132323,2,0,L|353:47,3,28.1250010728836,0|0|0|0,3:0|3:0|3:0|3:0,3:0:0:0:
352,62,132639,6,0,L|370:157,1,75,2|0,0:0|0:0,0:0:0:0:
384,208,132955,1,0,0:0:0:0:
404,280,133113,2,0,P|444:256|456:204,2,75,2|0|0,0:0|0:0|0:0,0:0:0:0:
328,284,133586,2,0,L|260:280,3,37.5,2|0|0|0,0:0|0:0|0:0|0:0,0:0:0:0:
252,280,133902,6,0,P|216:288|156:264,1,75,2|0,0:0|0:0,0:0:0:0:
104,268,134218,2,0,P|68:288|48:332,1,75,0|2,0:0|0:0,0:0:0:0:
16,236,134534,2,0,L|8:180,3,37.5
12,160,134850,2,0,L|36:104,3,37.5,2|0|0|0,0:0|0:0|0:0|0:0,0:0:0:0:
44,92,135165,6,0,L|136:84,1,75,2|0,0:0|0:0,0:0:0:0:
184,120,135481,2,0,L|276:112,1,75,0|2,0:0|0:0,0:0:0:0:
332,104,135797,2,0,P|335:59|302:18,2,75,0|0|2,0:0|0:0|0:0,0:0:0:0:
324,180,136271,1,0,0:0:0:0:
276,240,136429,6,0,L|160:256,1,112.5,2|0,0:0|0:0,0:0:0:0:
144,260,136744,2,0,P|136:304|156:344,1,75,0|2,0:0|0:0,0:0:0:0:
248,344,137060,2,0,L|300:356,3,37.5
324,352,137376,2,0,L|360:343,3,37.5,2|0|0|0,0:0|0:0|0:0|0:0,0:0:0:0:
389,327,137692,6,0,P|400:292|392:256,1,75,2|0,0:0|0:0,0:0:0:0:
352,192,138008,1,0,0:0:0:0:
292,148,138165,2,0,L|200:144,2,75,2|0|0,0:0|0:0|0:0,0:0:0:0:
356,108,138639,2,0,L|448:112,1,75,2|0,0:0|0:0,0:0:0:0:
480,168,138955,6,0,P|492:224|480:276,1,112.5,2|0,0:0|0:0,0:0:0:0:
474,295,139271,2,0,P|433:289|394:299,1,75,0|2,0:0|0:0,0:0:0:0:
320,324,139586,2,0,L|264:340,3,37.5
248,340,139902,2,0,P|212:336|176:304,1,75,2|0,0:0|0:0,0:0:0:0:
152,244,140218,6,0,L|152:144,1,75,2|0,0:0|0:0,0:0:0:0:
212,120,140534,1,0,0:0:0:0:
140,96,140692,2,0,L|40:76,1,75,2|0,0:0|0:0,0:0:0:0:
24,144,141008,1,0,0:0:0:0:
96,164,141165,2,0,L|196:184,1,75,2|0,0:0|0:0,0:0:0:0:
252,208,141481,6,0,L|284:240,3,37.5,2|0|0|0,0:0|0:0|0:0|0:0,0:0:0:0:
308,260,141797,2,0,P|352:268|400:244,1,75,0|2,0:0|0:0,0:0:0:0:
446,209,142113,2,0,B|455:168|455:168|444:115,1,75
400,68,142429,2,0,L|356:44,3,37.5,2|0|0|0,3:2|3:0|3:0|3:0,3:0:0:0:
328,44,142744,6,0,L|232:56,1,75,6|0,0:0|0:0,0:0:0:0:
164,68,143060,1,2,0:0:0:0:
76,88,143218,2,0,P|52:124|60:178,1,75
112,220,143534,2,0,P|136:184|127:129,1,75,2|0,0:0|0:0,0:0:0:0:
76,88,143850,6,0,B|127:72|127:72|233:105,1,150
270,165,144323,2,0,L|330:153,3,37.5,2|0|0|0,0:0|0:0|0:0|0:0,0:0:0:0:
338,153,144639,2,0,P|382:161|414:193,1,75,2|0,0:0|0:0,0:0:0:0:
417,261,144955,2,0,P|413:304|441:349,1,75,2|0,0:0|0:0,0:0:0:0:
494,286,145271,6,0,P|502:234|450:170,1,112.5,2|0,0:0|0:0,0:0:0:0:
444,177,145586,2,0,L|352:173,1,75,2|0,0:0|0:0,0:0:0:0:
286,165,145902,2,0,L|226:141,3,37.5,0|0|2|0,0:0|0:0|0:0|0:0,0:0:0:0:
222,149,146218,2,0,L|174:165,3,37.5
158,169,146534,6,0,P|114:157|94:65,1,150,2|0,0:0|0:0,0:0:0:0:
176,57,147008,2,0,B|252:73|252:73|328:57,1,150,2|0,0:0|0:0,0:0:0:0:
345,137,147481,2,0,P|333:177|353:221,1,75,2|0,0:0|0:0,0:0:0:0:
400,267,147797,6,0,L|452:275,3,37.5,2|0|0|0,0:0|0:0|0:0|0:0,0:0:0:0:
420,315,148113,2,0,L|472:323,3,37.5,2|0|0|0,0:0|0:0|0:0|0:0,0:0:0:0:
440,363,148429,2,0,L|336:351,1,75,0|2,0:0|0:0,0:0:0:0:
289,323,148744,2,0,L|185:311,1,75
148,264,149060,6,0,P|140:204|184:152,1,112.5,2|0,0:0|0:0,0:0:0:0:
188,152,149376,2,0,P|236:160|276:144,1,75,0|2,0:0|0:0,0:0:0:0:
225,71,149692,2,0,P|205:31|209:-5,2,75,0|0|2,0:0|0:0|0:0,0:0:0:0:
307,111,150165,1,0,0:0:0:0:
392,116,150323,6,0,P|428:164|424:196,1,75,2|0,0:0|0:0,0:0:0:0:
384,256,150639,2,0,P|348:208|352:176,1,75,2|0,0:0|0:0,0:0:0:0:
307,111,150955,2,0,L|311:55,3,37.5,0|0|2|0,0:0|0:0|0:0|0:0,0:0:0:0:
304,136,151271,2,0,L|200:152,1,75
196,232,151586,6,0,L|300:216,1,75,2|0,0:0|0:0,0:0:0:0:
336,280,151902,1,0,0:0:0:0:
252,308,152060,2,0,L|148:324,2,75,2|0|0,0:0|0:0|0:0,0:0:0:0:
344,308,152534,2,0,L|400:324,3,37.5,2|0|0|0,0:0|0:0|0:0|0:0,0:0:0:0:
408,327,152850,6,0,P|436:295|432:243,1,75,2|0,0:0|0:0,0:0:0:0:
424,176,153165,1,2,0:0:0:0:
344,132,153323,2,0,L|256:108,2,75,0|0|2,0:0|0:0|0:0,0:0:0:0:
424,92,153797,2,0,L|512:116,2,75,0|0|2,0:0|0:0|0:0,0:0:0:0:
340,52,154271,5,0,0:0:0:0:
252,48,154429,2,0,L|188:44,3,37.5,0|0|2|0,0:0|0:0|0:0|0:0,0:0:0:0:
184,44,154744,2,0,P|140:56|96:40,1,75
176,128,155060,2,0,P|220:116|264:132,1,75,2|0,0:0|0:0,0:0:0:0:
328,164,155376,6,0,L|360:204,3,37.5,2|0|0|0,0:0|0:0|0:0|0:0,0:0:0:0:
372,224,155692,2,0,L|356:268,3,37.5,2|0|0|0,0:0|0:0|0:0|0:0,0:0:0:0:
348,292,156008,2,0,L|376:332,3,37.5,0|0|2|0,0:0|0:0|0:0|0:0,0:0:0:0:
400,344,156323,2,0,L|460:340,3,37.5
476,336,156639,2,0,P|496:284|472:224,1,112.5,2|0,0:0|0:0,0:0:0:0:
464,208,156955,2,0,P|448:168|464:116,1,75,0|2,0:0|0:0,0:0:0:0:
439,55,157271,2,0,L|348:43,1,75
283,31,157586,2,0,B|267:67|267:67|286:122,1,75,2|0,0:0|0:0,0:0:0:0:
320,172,157902,6,0,L|348:212,3,37.5,2|0|0|0,0:0|0:0|0:0|0:0,0:0:0:0:
360,236,158218,2,0,P|332:272|272:268,1,75,2|0,0:0|0:0,0:0:0:0:
216,276,158534,2,0,P|180:276|140:300,1,75,0|2,0:0|0:0,0:0:0:0:
80,356,158850,2,0,P|60:328|60:284,1,75
84,200,159165,6,0,P|112:144|92:48,1,150,2|0,0:0|0:0,0:0:0:0:
12,40,159639,2,0,P|36:128|100:152,1,150,2|0,0:0|0:0,0:0:0:0:
172,164,160113,2,0,L|260:168,1,75,2|0,0:0|0:0,0:0:0:0:
332,200,160429,6,0,L|392:204,3,37.5,2|0|0|0,0:0|0:0|0:0|0:0,0:0:0:0:
400,204,160744,2,0,P|416:164|404:116,1,75,2|0,0:0|0:0,0:0:0:0:
332,108,161060,2,0,P|316:68|328:20,1,75,0|2,0:0|0:0,0:0:0:0:
408,60,161376,2,0,L|488:64,1,75
452,140,161692,1,2,0:0:0:0:
452,140,162165,5,2,0:0:0:0:
404,207,162323,2,0,P|368:216|312:193,1,75,2|0,0:0|0:0,0:0:0:0:
248,207,162639,2,0,L|203:219,3,37.5,2|0|2|0,0:0|0:0|0:0|0:0,0:0:0:0:
200,236,162955,6,0,B|144:244|144:244|72:220,1,112.500004291535,6|0,0:0|0:0,0:0:0:0:
44,160,163429,2,0,B|100:152|100:152|172:176,1,112.500004291535,2|0,0:0|0:0,0:0:0:0:
220,200,163902,2,0,P|244:248|216:320,1,112.500004291535,2|0,0:0|0:0,0:0:0:0:
168,340,164376,5,0,0:0:0:0:
108,300,164534,2,0,L|36:284,1,56.2500021457673,2|0,0:0|0:0,0:0:0:0:
168,256,164850,2,0,L|224:244,1,56.2500021457673,2|0,0:0|0:0,0:0:0:0:
124,196,165165,2,0,L|52:180,1,56.2500021457673,2|0,0:0|0:0,0:0:0:0:
184,152,165481,6,0,P|232:124|244:48,1,112.500004291535,2|0,0:0|0:0,0:0:0:0:
184,36,165955,2,0,L|68:24,1,112.500004291535,2|0,0:0|0:0,0:0:0:0:
32,92,166429,2,0,L|148:104,1,112.500004291535,2|0,0:0|0:0,0:0:0:0:
216,108,166902,5,0,0:0:0:0:
280,140,167060,2,0,P|319:161|351:159,1,56.2500021457673,2|0,0:0|0:0,0:0:0:0:
397,132,167376,2,0,P|395:87|377:61,1,56.2500021457673,2|0,0:0|0:0,0:0:0:0:
332,32,167692,2,0,P|294:55|280:83,1,56.2500021457673,2|0,0:0|0:0,0:0:0:0:
280,140,168008,6,0,P|304:188|296:256,1,112.500004291535,2|0,0:0|0:0,0:0:0:0:
293,318,168481,2,0,P|346:340|409:306,1,112.500004291535,2|0,0:0|0:0,0:0:0:0:
346,265,168955,2,0,P|293:243|230:277,1,112.500004291535,2|0,0:0|0:0,0:0:0:0:
196,318,169429,5,0,0:0:0:0:
128,352,169586,2,0,P|104:304|112:280,1,56.2500021457673,2|0,0:0|0:0,0:0:0:0:
156,252,169902,2,0,P|168:208|152:176,1,56.2500021457673,2|0,0:0|0:0,0:0:0:0:
100,164,170218,2,0,P|92:120|104:96,1,56.2500021457673,2|0,0:0|0:0,0:0:0:0:
144,56,170534,6,0,B|224:44|224:44|276:60,1,112.500004291535,2|0,0:0|0:0,0:0:0:0:
284,120,171008,2,0,B|364:144|364:144|416:136,1,112.500004291535,2|0,0:0|0:0,0:0:0:0:
376,68,171481,2,0,P|332:96|320:156,1,112.500004291535,2|0,0:0|0:0,0:0:0:0:
348,220,171955,6,0,P|368:256|364:296,2,56.2500021457673,0|2|0,0:0|0:0|0:0,0:0:0:0:
276,208,172429,2,0,L|196:192,1,56.2500021457673,2|0,0:0|0:0,0:0:0:0:
204,268,172744,2,0,L|124:252,1,56.2500021457673,2|0,0:0|0:0,0:0:0:0:
84,213,173060,6,0,P|82:151|133:99,1,112.5,8|0,0:1|0:1,0:1:0:0:
135,104,173376,2,0,B|97:111|97:111|37:97,1,75,0|8,0:1|0:1,0:1:0:0:
100,36,173692,2,0,L|136:24,2,37.5,0|0|0,0:1|0:1|0:1,0:1:0:0:
204,60,174008,6,0,P|252:76|320:52,1,112.5,8|0,0:1|0:1,0:1:0:0:
332,52,174323,2,0,P|368:72|380:120,1,75,0|8,0:1|0:1,0:1:0:0:
380,184,174639,1,0,0:1:0:0:
332,252,174797,1,0,0:1:0:0:
256,280,174955,2,0,L|200:288,3,37.5,8|0|0|0,0:1|0:1|0:1|0:1,0:1:0:0:
188,288,175271,2,0,L|148:268,3,37.5,8|0|0|0,0:1|0:1|0:1|0:1,0:1:0:0:
132,260,175586,6,0,P|72:260|28:320,1,112.5,8|0,0:1|0:1,0:1:0:0:
28,312,175902,2,0,B|23:275|23:275|41:233,1,75,0|8,0:1|0:1,0:1:0:0:
62,161,176218,2,0,P|27:127|23:80,1,75
106,89,176534,6,0,P|153:150|118:232,1,150,8|0,0:1|0:1,0:1:0:0:
77,274,177008,1,8,0:1:0:0:
156,296,177165,2,0,P|196:304|236:292,1,75,0|0,0:1|0:1,0:1:0:0:
192,224,177481,2,0,P|225:201|245:164,1,75,8|0,0:1|0:1,0:1:0:0:
164,148,177797,2,0,P|172:107|159:67,1,75,8|0,0:1|0:1,0:1:0:0:
200,0,178113,6,0,L|313:14,1,112.5,8|0,0:1|0:1,0:1:0:0:
338,17,178429,2,0,P|350:61|338:101,1,75,0|8,0:1|0:1,0:1:0:0:
352,172,178744,2,0,P|344:212|364:260,1,75,0|0,0:1|0:1,0:1:0:0:
432,276,179060,2,0,L|500:288,3,37.5,8|0|0|0,0:1|0:1|0:1|0:1,0:1:0:0:
488,288,179376,6,0,L|512:372,1,75,0|8,0:1|0:1,0:1:0:0:
428,340,179692,2,0,L|404:256,1,75,0|0,0:1|0:1,0:1:0:0:
392,188,180008,2,0,P|392:136|436:88,1,112.5,8|0,0:1|0:1,0:1:0:0:
448,80,180323,2,0,B|408:72|408:72|356:80,1,75,8|0,0:1|0:1,0:1:0:0:
296,100,180639,6,0,L|208:120,1,75,8|0,0:1|0:1,0:1:0:0:
208,200,180955,2,0,L|120:220,1,75,0|8,0:1|0:1,0:1:0:0:
141,133,181271,2,0,L|153:89,3,37.5,0|0|0|0,0:1|0:1|0:1|0:1,0:1:0:0:
160,76,181586,2,0,P|193:49|289:82,1,150,8|0,0:1|0:1,0:1:0:0:
320,148,182060,1,8,0:1:0:0:
380,200,182218,6,0,L|480:192,1,75,2|0,0:1|0:1,0:1:0:0:
348,272,182534,2,0,L|448:264,1,75,10|0,0:1|0:1,0:1:0:0:
320,344,182850,2,0,L|420:336,1,75,10|0,0:1|0:1,0:1:0:0:
251,303,183165,6,0,P|293:268|348:272,1,112.500004291535,6|0,0:0|0:0,0:0:0:0:
347,271,183797,2,0,L|355:215,1,56.2500021457673,8|0,0:0|0:0,0:0:0:0:
376,196,184429,6,0,L|368:252,2,56.2500021457673,2|0|0,0:0|0:0|0:0,0:0:0:0:
336,128,184902,1,0,0:0:0:0:
268,164,185060,2,0,L|196:156,2,56.2500021457673,8|0|0,0:0|0:0|0:0,0:0:0:0:
274,87,185534,1,0,0:0:0:0:
200,83,185692,6,0,P|144:120|140:179,1,112.500004291535,2|0,0:0|0:0,0:0:0:0:
136,161,186323,2,0,L|68:165,1,56.2500021457673,8|0,0:0|0:0,0:0:0:0:
68,184,186955,6,0,L|124:180,2,56.2500021457673,2|0|0,0:0|0:0|0:0,0:0:0:0:
12,231,187429,1,0,0:0:0:0:
36,299,187586,2,0,P|42:327|33:365,1,56.2500021457673,8|0,0:0|0:0,0:0:0:0:
152,308,188218,6,0,L|280:316,1,112.500004291535,2|0,0:0|0:0,0:0:0:0:
264,315,188850,2,0,L|232:260,1,56.2500021457673,8|0,0:0|0:0,0:0:0:0:
248,248,189481,6,0,L|276:296,2,56.2500021457673,2|0|0,0:0|0:0|0:0,0:0:0:0:
288,184,189955,1,0,0:0:0:0:
312,116,190113,2,0,L|283:67,2,56.2500021457673,8|0|0,0:0|0:0|0:0,0:0:0:0:
384,136,190586,1,0,0:0:0:0:
452,156,190744,6,0,L|484:272,1,112.500004291535,2|0,0:0|0:0,0:0:0:0:
482,264,191376,2,0,L|449:324,1,56.2500021457673,8|0,0:0|0:0,0:0:0:0:
428,312,192008,6,0,L|455:263,2,56.2500021457673,2|0|0,0:0|0:0|0:0,0:0:0:0:
360,336,192481,1,0,0:0:0:0:
287,330,192639,2,0,P|257:326|218:336,1,56.2500021457673,8|0,0:0|0:0,0:0:0:0:
98,216,193271,6,0,P|82:160|110:95,1,112.500004291535,2|0,0:0|0:0,0:0:0:0:
223,35,193902,2,0,L|267:48,3,28.1250010728836,8|0|0|0,0:0|0:0|0:0|0:0,0:0:0:0:
199,35,194218,2,0,L|100:41,1,84.3750032186509
92,44,194534,2,0,P|75:97|91:150,1,112.500004291535,2|0,0:0|0:0,0:0:0:0:
148,200,195008,1,0,0:0:0:0:
200,252,195165,2,0,P|224:304|212:368,1,112.500004291535,8|0,0:0|0:0,0:0:0:0:
148,200,195797,6,0,P|196:180|260:208,1,112.500004291535,2|0,0:0|0:0,0:0:0:0:
332,320,196429,2,0,L|316:352,3,28.1250010728836,8|0|0|0,0:0|0:0|0:0|0:0,0:0:0:0:
340,296,196744,2,0,L|324:212,1,84.3750032186509
320,192,197060,2,0,P|272:172|208:200,1,112.500004291535,2|0,0:0|0:0,0:0:0:0:
194,261,197534,1,0,0:0:0:0:
268,249,197692,2,0,P|272:201|224:141,1,112.500004291535,8|0,0:0|0:0,0:0:0:0:
68,108,198323,6,0,L|180:96,1,112.500004291535,2|0,0:0|0:0,0:0:0:0:
320,52,198955,2,0,L|348:16,3,28.1250010728836,8|0|0|0,0:0|0:0|0:0|0:0,0:0:0:0:
308,72,199271,2,0,P|308:108|344:148,1,84.3750032186509
352,156,199586,2,0,L|240:168,1,112.500004291535,2|0,0:0|0:0,0:0:0:0:
188,220,200060,1,0,0:0:0:0:
131,266,200218,2,0,L|19:278,1,112.500004291535,8|0,0:0|0:0,0:0:0:0:
36,300,200850,6,0,B|148:288|148:288|204:296|204:296|256:272,1,225.000008583069,2|0,0:0|0:0,0:0:0:0:
255,273,201639,2,0,P|229:225|277:169,1,112.500004291535,2|0,0:0|0:0,0:0:0:0:
254,178,202113,2,0,P|302:181|346:125,1,112.500004291535,2|0,0:0|0:0,0:0:0:0:
344,137,202586,2,0,B|339:178|339:178|343:218,1,56.2500021457673,0|2,0:0|0:0,0:0:0:0:
386,258,202902,2,0,B|384:295|384:295|372:322,1,56.2500021457673,0|2,0:0|0:0,0:0:0:0:
321,369,203218,1,2,0:0:0:0:
256,192,203376,12,0,205271,0:0:0:0:
271,239,205902,6,0,P|229:262|178:262,1,75,6|0,0:0|0:0,0:0:0:0:
211,180,206218,1,8,0:0:0:0:
288,156,206376,2,0,P|328:176|352:224,1,75,2|0,0:0|0:0,0:0:0:0:
352,284,206692,1,8,0:0:0:0:
288,336,206850,2,0,L|192:348,1,75,2|0,0:0|0:0,0:0:0:0:
132,332,207165,6,0,P|96:268|132:184,1,150,2|8,0:0|0:0,0:0:0:0:
176,260,207639,2,0,P|196:190|160:126,1,150,2|8,0:0|0:0,0:0:0:0:
96,76,208113,2,0,L|16:80,1,75,2|0,0:0|0:0,0:0:0:0:
52,156,208429,6,0,L|64:208,2,37.5,2|0|0,0:0|0:0|0:0,0:0:0:0:
136,144,208744,2,0,L|216:140,1,75,8|2,0:0|0:0,0:0:0:0:
292,140,209060,1,0,0:0:0:0:
308,60,209218,1,8,0:0:0:0:
240,12,209376,2,0,P|224:48|236:100,1,75,2|0,0:0|0:0,0:0:0:0:
240,164,209692,6,0,B|256:240|256:240|236:312,1,150,2|8,0:0|0:0,0:0:0:0:
180,240,210165,2,0,B|164:164|164:164|184:92,1,150,2|8,0:0|0:0,0:0:0:0:
260,64,210639,2,0,P|296:72|348:56,1,75,2|0,0:0|0:0,0:0:0:0:
412,44,210955,6,0,L|441:123,1,75,2|0,0:0|0:0,0:0:0:0:
440,196,211271,2,0,L|408:276,1,75,8|2,0:0|0:0,0:0:0:0:
360,328,211586,1,0,0:0:0:0:
428,376,211744,1,8,0:0:0:0:
496,332,211902,2,0,P|504:280|472:240,1,75,2|0,0:0|0:0,0:0:0:0:
440,196,212218,6,0,P|368:172|296:200,1,150,2|8,0:0|0:0,0:0:0:0:
236,244,212692,2,0,B|256:276|296:280|296:280|332:272|332:272|400:288,1,150,2|8,0:0|0:0,0:0:0:0:
328,352,213165,2,0,L|272:360,2,37.5,2|0|0,0:0|0:0|0:0,0:0:0:0:
216,336,213481,6,0,P|180:324|128:336,1,75,2|0,0:0|0:0,0:0:0:0:
68,332,213797,2,0,P|60:300|68:260,1,75,8|2,0:0|0:0,0:0:0:0:
140,220,214113,2,0,P|148:183|140:147,2,75,0|8|2,0:0|0:0|0:0,0:0:0:0:
68,184,214586,1,0,0:0:0:0:
76,100,214744,6,0,P|108:76|216:120,1,150,2|8,0:0|0:0,0:0:0:0:
260,164,215218,2,0,P|324:197|390:166,1,150,2|8,0:0|0:0,0:0:0:0:
444,104,215692,1,2,0:0:0:0:
488,172,215850,1,0,0:0:0:0:
452,248,216008,6,0,L|452:340,1,75,2|0,0:0|0:0,0:0:0:0:
376,288,216323,2,0,L|376:196,1,75,8|2,0:0|0:0,0:0:0:0:
360,132,216639,2,0,L|298:143,2,37.5,0|0|8,0:0|0:0|0:0,0:0:0:0:
444,104,216955,1,2,0:0:0:0:
488,172,217113,1,0,0:0:0:0:
452,248,217271,6,0,P|384:276|300:244,1,150,2|8,0:0|0:0,0:0:0:0:
286,331,217744,2,0,P|234:267|270:187,1,150,2|8,0:0|0:0,0:0:0:0:
298,138,218218,2,0,P|326:166|330:214,1,75,2|0,0:0|0:0,0:0:0:0:
264,240,218534,6,0,L|176:248,1,75,2|0,0:0|0:0,0:0:0:0:
112,224,218850,1,8,0:0:0:0:
76,148,219008,2,0,L|168:140,1,75,2|0,0:0|0:0,0:0:0:0:
232,160,219323,2,0,L|324:152,2,75,8|2|0,0:0|0:0|0:0,0:0:0:0:
151,142,219797,6,0,P|123:190|159:286,1,150,2|8,0:0|0:0,0:0:0:0:
227,298,220271,2,0,L|403:310,1,150,2|8,0:0|0:0,0:0:0:0:
452,268,220744,1,2,0:0:0:0:
468,188,220902,1,0,0:0:0:0:
432,112,221060,6,0,P|396:104|332:128,1,75,2|0,0:0|0:0,0:0:0:0:
352,192,221376,2,0,P|316:200|252:176,1,75,8|2,0:0|0:0,0:0:0:0:
264,112,221692,2,0,L|272:60,2,37.5,0|0|8,0:0|0:0|0:0,0:0:0:0:
184,136,222008,1,2,0:0:0:0:
172,56,222165,1,0,0:0:0:0:
236,4,222323,6,0,P|304:4|348:80,1,150,2|8,0:0|0:0,0:0:0:0:
336,148,222797,2,0,P|316:216|348:291,1,150,2|8,0:0|0:0,0:0:0:0:
424,316,223271,2,0,L|532:324,1,75,2|0,0:0|0:0,0:0:0:0:
472,244,223586,6,0,L|368:236,1,75,2|0,0:0|0:0,0:0:0:0:
262,269,223902,2,0,L|366:277,1,75,8|2,0:0|0:0,0:0:0:0:
301,199,224218,2,0,L|197:191,1,75,0|0,0:0|0:0,0:0:0:0:
149,161,224534,1,10,0:0:0:0:
143,78,224692,1,0,0:0:0:0:
160,0,224850,6,0,P|213:37|207:125,1,150,2|8,0:0|0:0,0:0:0:0:
149,161,225323,1,2,0:0:0:0:
95,223,225481,2,0,L|40:201,2,37.5,0|0|8,0:0|0:0|0:0,0:0:0:0:
157,277,225797,2,0,L|252:301,1,75,2|0,0:0|0:0,0:0:0:0:
312,296,226113,6,0,P|364:288|388:216,1,112.500004291535,6|0,0:0|0:0,0:0:0:0:
384,168,226586,2,0,P|376:128|416:64,1,112.500004291535,2|0,0:0|0:0,0:0:0:0:
484,60,227060,2,0,P|504:96|500:128,1,56.2500021457673,2|0,0:0|0:0,0:0:0:0:
488,184,227376,6,0,L|376:224,1,112.500004291535,2|0,0:0|0:0,0:0:0:0:
308,224,227850,2,0,L|176:192,1,112.500004291535,2|0,0:0|0:0,0:0:0:0:
128,180,228323,2,0,P|100:216|104:248,1,56.2500021457673,2|0,0:0|0:0,0:0:0:0:
124,296,228639,6,0,P|156:324|232:296,1,112.500004291535,2|0,0:0|0:0,0:0:0:0:
276,264,229113,2,0,P|284:212|352:184,1,112.500004291535,2|0,0:0|0:0,0:0:0:0:
404,176,229586,6,0,B|456:152|464:92|432:48|432:48|388:56|336:32,1,225.000008583069,2|0,0:0|0:0,0:0:0:0:
204,72,230534,2,0,L|144:88,1,56.2500021457673,2|0,0:0|0:0,0:0:0:0:
128,156,230850,2,0,L|60:176,1,56.2500021457673,2|0,0:0|0:0,0:0:0:0:
32,232,231165,6,0,P|40:280|108:312,1,112.500004291535,2|0,0:0|0:0,0:0:0:0:
164,312,231639,2,0,P|232:300|292:320,1,112.500004291535,2|0,0:0|0:0,0:0:0:0:
344,328,232113,2,0,P|388:324|408:312,1,56.2500021457673,2|0,0:0|0:0,0:0:0:0:
448,264,232429,6,0,L|460:148,1,112.500004291535,2|0,0:0|0:0,0:0:0:0:
392,112,232902,2,0,L|380:224,1,112.500004291535,2|0,0:0|0:0,0:0:0:0:
308,240,233376,2,0,P|256:244|236:232,1,56.2500021457673,2|0,0:0|0:0,0:0:0:0:
188,208,233692,6,0,P|160:164|88:144,1,112.500004291535,2|0,0:0|0:0,0:0:0:0:
36,128,234165,2,0,P|40:60|92:20,1,112.500004291535,2|0,0:0|0:0,0:0:0:0:
141,35,234639,2,0,B|283:81|283:81|335:70|346:28,1,225.000008583069,2|0,0:0|0:0,0:0:0:0:
276,8,235429,5,0,0:0:0:0:
212,44,235586,2,0,P|212:84|228:116,1,56.2500021457673,2|0,0:0|0:0,0:0:0:0:
144,100,235902,2,0,P|126:135|126:171,1,56.2500021457673,2|0,0:0|0:0,0:0:0:0:
52,132,236218,6,0,P|52:172|88:220,1,75,6|0,0:0|0:0,0:0:0:0:
128,260,236534,2,0,L|224:276,1,75,8|2,0:0|0:0,0:0:0:0:
284,272,236850,2,0,L|332:256,2,37.5,0|0|8,0:0|0:0|0:0,0:0:0:0:
240,340,237165,1,2,0:0:0:0:
156,348,237323,1,0,0:0:0:0:
76,336,237481,6,0,P|40:284|68:192,1,150,2|8,0:0|0:0,0:0:0:0:
116,144,237955,2,0,B|193:147|193:147|253:187,1,150,2|8,0:0|0:0,0:0:0:0:
282,265,238428,2,0,P|250:292|204:292,1,75,2|0,0:0|0:0,0:0:0:0:
152,248,238744,6,0,L|156:160,1,75,2|0,0:0|0:0,0:0:0:0:
212,112,239060,2,0,L|215:37,1,75,8|2,0:0|0:0,0:0:0:0:
292,64,239376,2,0,P|320:84|384:76,2,75,0|8|2,0:0|0:0|0:0,0:0:0:0:
348,4,239850,1,0,0:0:0:0:
428,32,240008,6,0,P|448:96|392:168,1,150,2|8,0:0|0:0,0:0:0:0:
328,192,240481,2,0,L|160:212,1,150,2|8,0:0|0:0,0:0:0:0:
100,228,240955,2,0,P|80:252|80:300,1,75,2|0,0:0|0:0,0:0:0:0:
144,344,241271,6,0,L|224:348,1,75,2|0,0:0|0:0,0:0:0:0:
260,276,241586,2,0,L|185:272,1,75,8|2,0:0|0:0,0:0:0:0:
120,220,241902,2,0,L|60:216,2,37.5,0|0|8,0:0|0:0|0:0,0:0:0:0:
192,180,242218,1,2,0:0:0:0:
212,100,242376,1,0,0:0:0:0:
180,24,242534,6,0,B|128:28|128:28|88:52|88:52|28:56,1,150,2|8,0:0|0:0,0:0:0:0:
40,132,243008,2,0,B|91:129|91:129|133:148|133:148|185:145,1,150,2|8,0:0|0:0,0:0:0:0:
268,148,243481,2,0,P|284:184|260:232,1,75,2|0,0:0|0:0,0:0:0:0:
200,252,243797,6,0,L|104:248,1,75,2|0,0:0|0:0,0:0:0:0:
92,324,244113,2,0,L|166:326,1,75,8|2,0:0|0:0,0:0:0:0:
244,176,244429,6,0,L|148:172,1,75,0|8,0:0|0:0,0:0:0:0:
125,248,244744,2,0,L|200:252,1,75,2|0,0:0|0:0,0:0:0:0:
284,260,245060,6,0,L|348:280,3,37.5,10|0|0|0,0:0|0:0|0:0|0:0,0:0:0:0:
352,272,245376,2,0,L|408:260,3,37.5,10|0|0|0,0:0|0:0|0:0|0:0,0:0:0:0:
420,256,245692,2,0,L|448:208,3,37.5,10|0|0|0,0:0|0:0|0:0|0:0,0:0:0:0:
447,182,246008,2,0,L|446:137,3,37.5,10|0|0|0,0:0|0:0|0:0|0:0,0:0:0:0:
430,117,246323,5,6,0:0:0:0:
