osu file format v14

[General]
AudioFilename: audio.mp3
AudioLeadIn: 0
PreviewTime: 125282
Countdown: 0
SampleSet: Normal
StackLeniency: 0.7
Mode: 3
LetterboxInBreaks: 0
SpecialStyle: 0
WidescreenStoryboard: 0

[Editor]
DistanceSpacing: 0.5
BeatDivisor: 8
GridSize: 4
TimelineZoom: 2.5

[Metadata]
Title:Saigo
TitleUnicode:最後
Artist:An (AcuticNotes)
ArtistUnicode:An (AcuticNotes)
Creator:Houraisan-
Version:Clarity
Source:NEGA FRAGMENTS
Tags:
BeatmapID:4352969
BeatmapSetID:888724

[Difficulty]
HPDrainRate:8
CircleSize:4
OverallDifficulty:9
ApproachRate:5
SliderMultiplier:1.4
SliderTickRate:1

[Events]
//Background and Video events
0,0,"71849224_p0.jpg",0,0
//Break Periods
//Storyboard Layer 0 (Background)
//Storyboard Layer 1 (Fail)
//Storyboard Layer 2 (Pass)
//Storyboard Layer 3 (Foreground)
//Storyboard Layer 4 (Overlay)
//Storyboard Sound Samples

[TimingPoints]
32,300,4,1,0,0,1,0

[HitObjects]
192,192,32,5,0,0:0:0:0:
448,192,32,1,0,0:0:0:0:
64,192,182,1,0,0:0:0:0:
192,192,332,1,0,0:0:0:0:
320,192,482,1,0,0:0:0:0:
64,192,482,1,0,0:0:0:0:
448,192,782,1,0,0:0:0:0:
320,192,932,1,0,0:0:0:0:
64,192,1082,128,0,1532:0:0:0:0:
192,192,1082,128,0,1382:0:0:0:0:
320,192,1382,128,0,1532:0:0:0:0:
192,192,1532,128,0,1682:0:0:0:0:
448,192,1532,128,0,1832:0:0:0:0:
192,192,1832,1,0,0:0:0:0:
320,192,1982,1,0,0:0:0:0:
192,192,2132,1,0,0:0:0:0:
448,192,2282,1,0,0:0:0:0:
320,192,2432,1,0,0:0:0:0:
192,192,2432,1,0,0:0:0:0:
64,192,2582,1,0,0:0:0:0:
192,192,2732,1,0,0:0:0:0:
64,192,2882,1,0,0:0:0:0:
320,192,2882,1,0,0:0:0:0:
448,192,3182,1,0,0:0:0:0:
320,192,3332,1,0,0:0:0:0:
64,192,3482,128,0,3707:0:0:0:0:
192,192,3482,128,0,3782:0:0:0:0:
64,192,3782,128,0,3932:0:0:0:0:
320,192,3932,128,0,4082:0:0:0:0:
192,192,3932,128,0,4232:0:0:0:0:
320,192,4232,1,0,0:0:0:0:
192,192,4382,1,0,0:0:0:0:
320,192,4532,1,0,0:0:0:0:
448,192,4682,1,0,0:0:0:0:
320,192,4832,1,0,0:0:0:0:
64,192,4832,1,0,0:0:0:0:
192,192,4982,1,0,0:0:0:0:
448,192,5132,1,0,0:0:0:0:
320,192,5282,1,0,0:0:0:0:
192,192,5282,1,0,0:0:0:0:
192,192,5582,1,0,0:0:0:0:
64,192,5732,1,0,0:0:0:0:
192,192,5882,128,0,6182:0:0:0:0:
320,192,5882,128,0,6332:0:0:0:0:
64,192,6182,128,0,6332:0:0:0:0:
448,192,6332,128,0,6632:0:0:0:0:
192,192,6332,128,0,6482:0:0:0:0:
64,192,6632,1,0,0:0:0:0:
320,192,6782,1,0,0:0:0:0:
192,192,6932,1,0,0:0:0:0:
320,192,7082,1,0,0:0:0:0:
448,192,7232,1,0,0:0:0:0:
192,192,7232,1,0,0:0:0:0:
64,192,7382,1,0,0:0:0:0:
320,192,7532,1,0,0:0:0:0:
192,192,7682,1,0,0:0:0:0:
64,192,7682,1,0,0:0:0:0:
448,192,7982,1,0,0:0:0:0:
192,192,7982,1,0,0:0:0:0:
192,192,8132,1,0,0:0:0:0:
64,192,8132,1,0,0:0:0:0:
64,192,8282,128,0,9032:0:0:0:0:
192,192,8282,128,0,10682:0:0:0:0:
448,192,8357,128,0,9107:0:0:0:0:
320,192,8394,128,0,9144:0:0:0:0:
64,192,9182,128,0,10832:0:0:0:0:
320,192,9632,128,0,10157:0:0:0:0:
320,192,10232,128,0,10457:0:0:0:0:
320,192,10532,128,0,10832:0:0:0:0:
192,192,10832,1,0,0:0:0:0:
448,192,10832,1,0,0:0:0:0:
192,192,11132,1,0,0:0:0:0:
64,192,11132,1,0,0:0:0:0:
320,192,11432,1,0,0:0:0:0:
448,192,11432,1,0,0:0:0:0:
64,192,11432,1,0,0:0:0:0:
192,192,11582,1,0,0:0:0:0:
320,192,11732,1,0,0:0:0:0:
192,192,12032,1,0,0:0:0:0:
320,192,12107,1,0,0:0:0:0:
64,192,12182,1,0,0:0:0:0:
448,192,12257,1,0,0:0:0:0:
320,192,12332,1,0,0:0:0:0:
192,192,12632,1,0,0:0:0:0:
448,192,12707,1,0,0:0:0:0:
320,192,12782,1,0,0:0:0:0:
64,192,12782,1,0,0:0:0:0:
192,192,12782,1,0,0:0:0:0:
192,192,12932,1,0,0:0:0:0:
320,192,13082,1,0,0:0:0:0:
64,192,13082,1,0,0:0:0:0:
192,192,13532,1,0,0:0:0:0:
64,192,13532,1,0,0:0:0:0:
448,192,13832,1,0,0:0:0:0:
64,192,13832,1,0,0:0:0:0:
192,192,13832,1,0,0:0:0:0:
320,192,13982,1,0,0:0:0:0:
192,192,14132,1,0,0:0:0:0:
448,192,14282,128,0,14582:0:0:0:0:
192,192,14432,1,0,0:0:0:0:
64,192,14507,1,0,0:0:0:0:
320,192,14582,128,0,14882:0:0:0:0:
192,192,14657,1,0,0:0:0:0:
64,192,14732,1,0,0:0:0:0:
192,192,14882,128,0,15182:0:0:0:0:
64,192,15032,128,0,15332:0:0:0:0:
320,192,15032,1,0,0:0:0:0:
320,192,15182,128,0,15332:0:0:0:0:
448,192,15182,1,0,0:0:0:0:
192,192,15332,128,0,15482:0:0:0:0:
64,192,15482,128,0,15632:0:0:0:0:
320,192,15482,1,0,0:0:0:0:
192,192,15632,1,0,0:0:0:0:
448,192,15632,1,0,0:0:0:0:
320,192,15782,1,0,0:0:0:0:
448,192,15932,1,0,0:0:0:0:
320,192,15932,1,0,0:0:0:0:
320,192,16232,1,0,0:0:0:0:
64,192,16232,1,0,0:0:0:0:
192,192,16232,1,0,0:0:0:0:
448,192,16382,1,0,0:0:0:0:
192,192,16532,1,0,0:0:0:0:
192,192,16832,1,0,0:0:0:0:
448,192,16907,1,0,0:0:0:0:
320,192,16982,1,0,0:0:0:0:
64,192,17057,1,0,0:0:0:0:
192,192,17132,1,0,0:0:0:0:
320,192,17432,1,0,0:0:0:0:
192,192,17507,1,0,0:0:0:0:
448,192,17582,1,0,0:0:0:0:
64,192,17582,1,0,0:0:0:0:
320,192,17582,1,0,0:0:0:0:
192,192,17732,1,0,0:0:0:0:
320,192,17882,1,0,0:0:0:0:
448,192,17882,1,0,0:0:0:0:
320,192,18332,1,0,0:0:0:0:
192,192,18332,1,0,0:0:0:0:
64,192,18557,1,0,0:0:0:0:
192,192,18632,1,0,0:0:0:0:
448,192,18632,1,0,0:0:0:0:
320,192,18632,1,0,0:0:0:0:
64,192,18782,1,0,0:0:0:0:
320,192,18932,1,0,0:0:0:0:
192,192,19082,128,0,19382:0:0:0:0:
448,192,19232,1,0,0:0:0:0:
320,192,19307,1,0,0:0:0:0:
64,192,19382,128,0,19682:0:0:0:0:
320,192,19457,1,0,0:0:0:0:
448,192,19532,1,0,0:0:0:0:
192,192,19682,128,0,19982:0:0:0:0:
320,192,19832,1,0,0:0:0:0:
320,192,19982,128,0,20282:0:0:0:0:
448,192,19982,1,0,0:0:0:0:
64,192,19982,1,0,0:0:0:0:
448,192,20282,128,0,20432:0:0:0:0:
192,192,20282,1,0,0:0:0:0:
64,192,20432,1,0,0:0:0:0:
192,192,20432,1,0,0:0:0:0:
320,192,20582,1,0,0:0:0:0:
192,192,20732,1,0,0:0:0:0:
64,192,20732,1,0,0:0:0:0:
448,192,21032,1,0,0:0:0:0:
320,192,21032,1,0,0:0:0:0:
64,192,21032,1,0,0:0:0:0:
192,192,21182,1,0,0:0:0:0:
448,192,21332,1,0,0:0:0:0:
64,192,21632,1,0,0:0:0:0:
192,192,21707,1,0,0:0:0:0:
448,192,21782,1,0,0:0:0:0:
64,192,21857,1,0,0:0:0:0:
320,192,21932,1,0,0:0:0:0:
320,192,22232,1,0,0:0:0:0:
64,192,22307,1,0,0:0:0:0:
448,192,22382,1,0,0:0:0:0:
192,192,22382,1,0,0:0:0:0:
320,192,22382,1,0,0:0:0:0:
320,192,22532,1,0,0:0:0:0:
192,192,22682,1,0,0:0:0:0:
320,192,22682,1,0,0:0:0:0:
64,192,23132,1,0,0:0:0:0:
192,192,23132,1,0,0:0:0:0:
64,192,23357,1,0,0:0:0:0:
448,192,23432,1,0,0:0:0:0:
192,192,23432,1,0,0:0:0:0:
320,192,23432,1,0,0:0:0:0:
320,192,23582,1,0,0:0:0:0:
192,192,23732,1,0,0:0:0:0:
448,192,23882,128,0,24182:0:0:0:0:
192,192,24032,1,0,0:0:0:0:
64,192,24107,1,0,0:0:0:0:
320,192,24182,128,0,24482:0:0:0:0:
192,192,24257,1,0,0:0:0:0:
64,192,24332,1,0,0:0:0:0:
192,192,24482,128,0,24632:0:0:0:0:
64,192,24632,128,0,24782:0:0:0:0:
320,192,24632,1,0,0:0:0:0:
320,192,24782,128,0,24932:0:0:0:0:
448,192,24782,1,0,0:0:0:0:
192,192,24782,1,0,0:0:0:0:
192,192,24932,128,0,25082:0:0:0:0:
64,192,25082,128,0,25232:0:0:0:0:
320,192,25082,1,0,0:0:0:0:
448,192,25232,1,0,0:0:0:0:
320,192,25232,1,0,0:0:0:0:
448,192,25382,1,0,0:0:0:0:
448,192,25532,1,0,0:0:0:0:
192,192,25532,1,0,0:0:0:0:
448,192,25832,1,0,0:0:0:0:
320,192,25832,1,0,0:0:0:0:
64,192,25832,1,0,0:0:0:0:
192,192,25982,1,0,0:0:0:0:
320,192,26132,1,0,0:0:0:0:
320,192,26432,1,0,0:0:0:0:
448,192,26507,1,0,0:0:0:0:
64,192,26582,1,0,0:0:0:0:
320,192,26657,1,0,0:0:0:0:
192,192,26732,1,0,0:0:0:0:
192,192,27032,1,0,0:0:0:0:
448,192,27107,1,0,0:0:0:0:
320,192,27182,1,0,0:0:0:0:
64,192,27182,1,0,0:0:0:0:
192,192,27182,1,0,0:0:0:0:
192,192,27332,1,0,0:0:0:0:
320,192,27482,1,0,0:0:0:0:
64,192,27482,1,0,0:0:0:0:
192,192,27932,1,0,0:0:0:0:
64,192,27932,1,0,0:0:0:0:
192,192,28157,1,0,0:0:0:0:
64,192,28232,1,0,0:0:0:0:
320,192,28232,1,0,0:0:0:0:
448,192,28232,1,0,0:0:0:0:
320,192,28382,1,0,0:0:0:0:
192,192,28532,1,0,0:0:0:0:
192,192,28682,128,0,28982:0:0:0:0:
320,192,28832,1,0,0:0:0:0:
448,192,28832,1,0,0:0:0:0:
64,192,28982,128,0,29282:0:0:0:0:
192,192,29282,128,0,29582:0:0:0:0:
320,192,29582,128,0,29882:0:0:0:0:
448,192,29882,128,0,30032:0:0:0:0:
192,192,30032,1,0,0:0:0:0:
64,192,30032,1,0,0:0:0:0:
192,192,30332,1,0,0:0:0:0:
320,192,30632,128,0,31082:0:0:0:0:
192,192,30632,1,0,0:0:0:0:
192,192,30932,1,0,0:0:0:0:
448,192,31082,128,0,31682:0:0:0:0:
192,192,31082,1,0,0:0:0:0:
64,192,31082,1,0,0:0:0:0:
192,192,31232,1,0,0:0:0:0:
192,192,31532,1,0,0:0:0:0:
64,192,31532,1,0,0:0:0:0:
192,192,31682,128,0,31832:0:0:0:0:
192,192,31982,1,0,0:0:0:0:
192,192,32132,1,0,0:0:0:0:
192,192,32282,1,0,0:0:0:0:
320,192,32432,1,0,0:0:0:0:
64,192,32432,128,0,32732:0:0:0:0:
192,192,32432,1,0,0:0:0:0:
320,192,32732,1,0,0:0:0:0:
320,192,33032,1,0,0:0:0:0:
320,192,33332,1,0,0:0:0:0:
64,192,33482,128,0,33782:0:0:0:0:
320,192,33482,1,0,0:0:0:0:
192,192,33482,1,0,0:0:0:0:
320,192,33632,1,0,0:0:0:0:
320,192,33782,128,0,33932:0:0:0:0:
192,192,33932,128,0,34082:0:0:0:0:
64,192,33932,1,0,0:0:0:0:
448,192,33932,1,0,0:0:0:0:
448,192,34082,128,0,34232:0:0:0:0:
448,192,34382,1,0,0:0:0:0:
448,192,34532,1,0,0:0:0:0:
320,192,34532,128,0,34682:0:0:0:0:
448,192,34682,1,0,0:0:0:0:
192,192,34682,128,0,35132:0:0:0:0:
320,192,34832,1,0,0:0:0:0:
448,192,34832,128,0,35132:0:0:0:0:
64,192,34832,1,0,0:0:0:0:
320,192,35132,1,0,0:0:0:0:
320,192,35432,1,0,0:0:0:0:
64,192,35432,128,0,35582:0:0:0:0:
192,192,35582,128,0,35882:0:0:0:0:
320,192,35732,1,0,0:0:0:0:
448,192,35882,1,0,0:0:0:0:
320,192,35882,1,0,0:0:0:0:
64,192,35882,128,0,36332:0:0:0:0:
320,192,36032,1,0,0:0:0:0:
320,192,36332,1,0,0:0:0:0:
448,192,36332,1,0,0:0:0:0:
192,192,36482,128,0,36632:0:0:0:0:
192,192,36782,1,0,0:0:0:0:
192,192,36932,1,0,0:0:0:0:
192,192,37082,1,0,0:0:0:0:
64,192,37232,1,0,0:0:0:0:
192,192,37232,1,0,0:0:0:0:
448,192,37232,128,0,37532:0:0:0:0:
64,192,37532,1,0,0:0:0:0:
320,192,37832,128,0,38282:0:0:0:0:
64,192,37832,1,0,0:0:0:0:
448,192,37982,128,0,38132:0:0:0:0:
64,192,38132,1,0,0:0:0:0:
64,192,38282,1,0,0:0:0:0:
448,192,38282,128,0,38432:0:0:0:0:
192,192,38282,1,0,0:0:0:0:
192,192,38882,128,0,39332:0:0:0:0:
448,192,39332,128,0,39482:0:0:0:0:
320,192,39482,128,0,39932:0:0:0:0:
192,192,39632,1,0,0:0:0:0:
64,192,39632,1,0,0:0:0:0:
192,192,39932,1,0,0:0:0:0:
192,192,40232,1,0,0:0:0:0:
64,192,40232,128,0,40532:0:0:0:0:
320,192,40532,128,0,40682:0:0:0:0:
192,192,40532,1,0,0:0:0:0:
192,192,40682,1,0,0:0:0:0:
64,192,40682,1,0,0:0:0:0:
448,192,40682,128,0,41132:0:0:0:0:
192,192,40832,1,0,0:0:0:0:
64,192,41132,1,0,0:0:0:0:
192,192,41132,1,0,0:0:0:0:
192,192,41282,128,0,41432:0:0:0:0:
192,192,41582,1,0,0:0:0:0:
192,192,41732,1,0,0:0:0:0:
192,192,41882,1,0,0:0:0:0:
192,192,42032,1,0,0:0:0:0:
320,192,42032,1,0,0:0:0:0:
448,192,42032,128,0,42332:0:0:0:0:
320,192,42332,1,0,0:0:0:0:
320,192,42632,1,0,0:0:0:0:
448,192,42932,1,0,0:0:0:0:
192,192,43082,128,0,43382:0:0:0:0:
320,192,43082,1,0,0:0:0:0:
448,192,43082,1,0,0:0:0:0:
448,192,43232,1,0,0:0:0:0:
64,192,43382,128,0,43532:0:0:0:0:
192,192,43532,128,0,43682:0:0:0:0:
448,192,43532,1,0,0:0:0:0:
320,192,43532,1,0,0:0:0:0:
448,192,43682,128,0,43832:0:0:0:0:
448,192,43982,1,0,0:0:0:0:
448,192,44132,1,0,0:0:0:0:
448,192,44282,1,0,0:0:0:0:
320,192,44282,128,0,44432:0:0:0:0:
448,192,44432,1,0,0:0:0:0:
64,192,44432,1,0,0:0:0:0:
192,192,44432,128,0,44732:0:0:0:0:
64,192,44732,1,0,0:0:0:0:
64,192,45032,1,0,0:0:0:0:
192,192,45182,128,0,45332:0:0:0:0:
320,192,45332,128,0,45482:0:0:0:0:
64,192,45332,1,0,0:0:0:0:
448,192,45482,128,0,45932:0:0:0:0:
64,192,45482,1,0,0:0:0:0:
192,192,45482,1,0,0:0:0:0:
64,192,45632,1,0,0:0:0:0:
192,192,45932,1,0,0:0:0:0:
64,192,45932,1,0,0:0:0:0:
320,192,46082,128,0,46232:0:0:0:0:
320,192,46382,1,0,0:0:0:0:
320,192,46532,1,0,0:0:0:0:
320,192,46682,1,0,0:0:0:0:
448,192,46832,1,0,0:0:0:0:
320,192,46832,1,0,0:0:0:0:
64,192,46832,128,0,47132:0:0:0:0:
448,192,47132,1,0,0:0:0:0:
320,192,47432,128,0,47732:0:0:0:0:
448,192,47432,1,0,0:0:0:0:
192,192,47582,128,0,47882:0:0:0:0:
448,192,47732,1,0,0:0:0:0:
320,192,47882,128,0,48032:0:0:0:0:
448,192,47882,1,0,0:0:0:0:
64,192,47882,1,0,0:0:0:0:
64,192,48932,1,0,0:0:0:0:
192,192,49007,1,0,0:0:0:0:
320,192,49082,1,0,0:0:0:0:
448,192,49157,1,0,0:0:0:0:
320,192,49232,1,0,0:0:0:0:
64,192,49232,1,0,0:0:0:0:
192,192,49532,1,0,0:0:0:0:
320,192,49532,1,0,0:0:0:0:
448,192,49832,1,0,0:0:0:0:
192,192,49832,1,0,0:0:0:0:
64,192,49832,1,0,0:0:0:0:
320,192,49982,1,0,0:0:0:0:
192,192,50282,1,0,0:0:0:0:
64,192,50282,1,0,0:0:0:0:
320,192,50432,1,0,0:0:0:0:
192,192,50507,1,0,0:0:0:0:
448,192,50657,1,0,0:0:0:0:
64,192,50732,1,0,0:0:0:0:
320,192,50732,1,0,0:0:0:0:
320,192,50882,1,0,0:0:0:0:
448,192,50957,1,0,0:0:0:0:
320,192,51032,1,0,0:0:0:0:
192,192,51032,1,0,0:0:0:0:
64,192,51032,1,0,0:0:0:0:
320,192,51182,1,0,0:0:0:0:
192,192,51332,1,0,0:0:0:0:
64,192,51482,1,0,0:0:0:0:
320,192,51632,1,0,0:0:0:0:
192,192,51632,1,0,0:0:0:0:
192,192,51932,1,0,0:0:0:0:
64,192,51932,1,0,0:0:0:0:
192,192,52082,1,0,0:0:0:0:
320,192,52232,1,0,0:0:0:0:
448,192,52232,1,0,0:0:0:0:
64,192,52232,1,0,0:0:0:0:
192,192,52382,1,0,0:0:0:0:
192,192,52532,1,0,0:0:0:0:
320,192,52682,1,0,0:0:0:0:
192,192,52682,1,0,0:0:0:0:
64,192,52832,1,0,0:0:0:0:
320,192,52907,1,0,0:0:0:0:
192,192,53057,1,0,0:0:0:0:
448,192,53132,1,0,0:0:0:0:
64,192,53132,1,0,0:0:0:0:
192,192,53282,1,0,0:0:0:0:
320,192,53357,1,0,0:0:0:0:
448,192,53432,1,0,0:0:0:0:
192,192,53432,1,0,0:0:0:0:
64,192,53432,1,0,0:0:0:0:
192,192,53732,1,0,0:0:0:0:
320,192,53882,1,0,0:0:0:0:
64,192,54032,1,0,0:0:0:0:
192,192,54032,1,0,0:0:0:0:
192,192,54232,128,0,54332:0:0:0:0:
448,192,54232,128,0,54332:0:0:0:0:
64,192,54332,1,0,0:0:0:0:
448,192,54432,128,0,54532:0:0:0:0:
192,192,54432,128,0,54532:0:0:0:0:
448,192,54632,128,0,54732:0:0:0:0:
192,192,54632,128,0,54732:0:0:0:0:
64,192,54632,1,0,0:0:0:0:
320,192,54632,1,0,0:0:0:0:
320,192,54832,128,0,54932:0:0:0:0:
64,192,54832,128,0,54932:0:0:0:0:
192,192,55032,128,0,55132:0:0:0:0:
320,192,55032,128,0,55132:0:0:0:0:
448,192,55082,1,0,0:0:0:0:
192,192,55232,128,0,55332:0:0:0:0:
64,192,55232,128,0,55332:0:0:0:0:
320,192,55432,128,0,55532:0:0:0:0:
448,192,55432,128,0,55532:0:0:0:0:
192,192,55532,1,0,0:0:0:0:
192,192,55632,128,0,55732:0:0:0:0:
64,192,55632,128,0,55732:0:0:0:0:
192,192,55832,128,0,55932:0:0:0:0:
320,192,55832,128,0,55932:0:0:0:0:
448,192,55832,1,0,0:0:0:0:
64,192,55832,1,0,0:0:0:0:
192,192,56032,128,0,56132:0:0:0:0:
448,192,56032,128,0,56132:0:0:0:0:
64,192,56232,128,0,56332:0:0:0:0:
448,192,56232,128,0,56332:0:0:0:0:
320,192,56432,128,0,56532:0:0:0:0:
448,192,56432,128,0,56532:0:0:0:0:
64,192,56432,1,0,0:0:0:0:
192,192,56432,1,0,0:0:0:0:
192,192,56732,1,0,0:0:0:0:
320,192,56732,1,0,0:0:0:0:
320,192,56882,1,0,0:0:0:0:
192,192,57032,1,0,0:0:0:0:
64,192,57032,1,0,0:0:0:0:
448,192,57032,1,0,0:0:0:0:
320,192,57332,1,0,0:0:0:0:
192,192,57482,1,0,0:0:0:0:
448,192,57632,1,0,0:0:0:0:
320,192,57707,1,0,0:0:0:0:
448,192,57782,1,0,0:0:0:0:
64,192,57782,1,0,0:0:0:0:
192,192,57857,1,0,0:0:0:0:
192,192,58082,1,0,0:0:0:0:
64,192,58082,1,0,0:0:0:0:
448,192,58157,1,0,0:0:0:0:
320,192,58232,1,0,0:0:0:0:
448,192,58307,1,0,0:0:0:0:
320,192,58382,1,0,0:0:0:0:
64,192,58382,1,0,0:0:0:0:
448,192,58682,1,0,0:0:0:0:
320,192,58682,128,0,58982:0:0:0:0:
192,192,58682,1,0,0:0:0:0:
192,192,59132,128,0,59432:0:0:0:0:
448,192,59132,1,0,0:0:0:0:
64,192,59132,1,0,0:0:0:0:
320,192,59132,1,0,0:0:0:0:
320,192,59432,1,0,0:0:0:0:
448,192,59432,1,0,0:0:0:0:
64,192,59432,1,0,0:0:0:0:
192,192,59732,1,0,0:0:0:0:
448,192,59732,128,0,59882:0:0:0:0:
64,192,59882,1,0,0:0:0:0:
320,192,59882,1,0,0:0:0:0:
448,192,60032,128,0,60332:0:0:0:0:
64,192,60032,1,0,0:0:0:0:
192,192,60107,1,0,0:0:0:0:
320,192,60257,1,0,0:0:0:0:
64,192,60332,1,0,0:0:0:0:
192,192,60332,1,0,0:0:0:0:
192,192,60557,1,0,0:0:0:0:
320,192,60632,1,0,0:0:0:0:
448,192,60632,1,0,0:0:0:0:
64,192,60632,1,0,0:0:0:0:
192,192,60932,1,0,0:0:0:0:
192,192,61082,1,0,0:0:0:0:
320,192,61232,1,0,0:0:0:0:
192,192,61232,1,0,0:0:0:0:
64,192,61232,128,0,61832:0:0:0:0:
320,192,61532,1,0,0:0:0:0:
192,192,61532,1,0,0:0:0:0:
320,192,61682,1,0,0:0:0:0:
192,192,61832,128,0,62432:0:0:0:0:
320,192,61832,1,0,0:0:0:0:
448,192,61832,1,0,0:0:0:0:
448,192,61982,1,0,0:0:0:0:
320,192,62132,1,0,0:0:0:0:
64,192,62282,128,0,62582:0:0:0:0:
320,192,62282,1,0,0:0:0:0:
320,192,62432,128,0,63032:0:0:0:0:
192,192,62582,128,0,62882:0:0:0:0:
448,192,62732,1,0,0:0:0:0:
64,192,62882,128,0,63032:0:0:0:0:
192,192,63032,128,0,63182:0:0:0:0:
448,192,63032,1,0,0:0:0:0:
320,192,63182,128,0,63332:0:0:0:0:
192,192,63332,128,0,63482:0:0:0:0:
448,192,63332,1,0,0:0:0:0:
64,192,63482,128,0,63632:0:0:0:0:
320,192,63482,1,0,0:0:0:0:
192,192,63632,128,0,63782:0:0:0:0:
320,192,63632,1,0,0:0:0:0:
448,192,63632,1,0,0:0:0:0:
320,192,63782,128,0,63932:0:0:0:0:
64,192,63932,128,0,64082:0:0:0:0:
192,192,63932,1,0,0:0:0:0:
448,192,63932,1,0,0:0:0:0:
448,192,64082,128,0,64232:0:0:0:0:
320,192,64232,1,0,0:0:0:0:
192,192,64232,1,0,0:0:0:0:
64,192,64232,1,0,0:0:0:0:
320,192,64382,1,0,0:0:0:0:
192,192,64532,128,0,64607:0:0:0:0:
448,192,64532,128,0,64607:0:0:0:0:
64,192,64532,1,0,0:0:0:0:
64,192,64682,1,0,0:0:0:0:
320,192,64682,1,0,0:0:0:0:
320,192,64832,128,0,64907:0:0:0:0:
192,192,64832,128,0,64907:0:0:0:0:
64,192,64832,1,0,0:0:0:0:
448,192,64907,1,0,0:0:0:0:
192,192,65057,1,0,0:0:0:0:
320,192,65132,1,0,0:0:0:0:
448,192,65132,1,0,0:0:0:0:
192,192,65282,1,0,0:0:0:0:
320,192,65357,1,0,0:0:0:0:
192,192,65432,1,0,0:0:0:0:
64,192,65432,1,0,0:0:0:0:
448,192,65432,1,0,0:0:0:0:
320,192,65582,1,0,0:0:0:0:
448,192,65732,128,0,66032:0:0:0:0:
192,192,65732,1,0,0:0:0:0:
192,192,65882,1,0,0:0:0:0:
320,192,66032,128,0,66182:0:0:0:0:
64,192,66032,1,0,0:0:0:0:
192,192,66182,128,0,66482:0:0:0:0:
64,192,66332,1,0,0:0:0:0:
320,192,66482,128,0,66632:0:0:0:0:
192,192,66632,128,0,66782:0:0:0:0:
64,192,66632,1,0,0:0:0:0:
448,192,66632,1,0,0:0:0:0:
64,192,66782,128,0,67082:0:0:0:0:
448,192,66932,1,0,0:0:0:0:
320,192,67082,128,0,67232:0:0:0:0:
192,192,67082,1,0,0:0:0:0:
192,192,67232,128,0,67682:0:0:0:0:
448,192,67232,1,0,0:0:0:0:
64,192,67232,1,0,0:0:0:0:
320,192,67682,128,0,68282:0:0:0:0:
448,192,67832,128,0,68282:0:0:0:0:
448,192,68432,128,0,70382:0:0:0:0:
320,192,68432,128,0,68507:0:0:0:0:
192,192,68432,1,0,0:0:0:0:
64,192,68432,1,0,0:0:0:0:
320,192,68582,128,0,68657:0:0:0:0:
320,192,68732,128,0,68807:0:0:0:0:
64,192,68732,1,0,0:0:0:0:
192,192,68882,128,0,68957:0:0:0:0:
64,192,68882,1,0,0:0:0:0:
192,192,69032,128,0,69107:0:0:0:0:
64,192,69032,1,0,0:0:0:0:
192,192,69182,128,0,69257:0:0:0:0:
64,192,69182,1,0,0:0:0:0:
64,192,69332,128,0,69407:0:0:0:0:
320,192,69332,1,0,0:0:0:0:
64,192,69482,128,0,69557:0:0:0:0:
320,192,69482,1,0,0:0:0:0:
64,192,69632,128,0,69707:0:0:0:0:
320,192,69632,1,0,0:0:0:0:
192,192,69782,128,0,69857:0:0:0:0:
320,192,69782,1,0,0:0:0:0:
192,192,69932,128,0,70007:0:0:0:0:
320,192,69932,1,0,0:0:0:0:
192,192,70082,128,0,70157:0:0:0:0:
320,192,70082,1,0,0:0:0:0:
320,192,70232,128,0,70307:0:0:0:0:
64,192,70382,128,0,70457:0:0:0:0:
192,192,70382,1,0,0:0:0:0:
192,192,70532,128,0,70607:0:0:0:0:
320,192,70532,1,0,0:0:0:0:
320,192,70682,128,0,70757:0:0:0:0:
448,192,70682,1,0,0:0:0:0:
192,192,70832,128,0,70982:0:0:0:0:
448,192,70832,1,0,0:0:0:0:
64,192,70832,1,0,0:0:0:0:
448,192,70982,128,0,71132:0:0:0:0:
320,192,70982,1,0,0:0:0:0:
64,192,70982,1,0,0:0:0:0:
192,192,71132,128,0,71282:0:0:0:0:
320,192,71282,128,0,71432:0:0:0:0:
448,192,71282,1,0,0:0:0:0:
64,192,71282,1,0,0:0:0:0:
448,192,71582,128,0,71732:0:0:0:0:
192,192,71582,1,0,0:0:0:0:
320,192,71582,1,0,0:0:0:0:
192,192,71882,128,0,73232:0:0:0:0:
320,192,71882,1,0,0:0:0:0:
448,192,71882,1,0,0:0:0:0:
64,192,71882,1,0,0:0:0:0:
320,192,73232,1,0,0:0:0:0:
448,192,73232,1,0,0:0:0:0:
64,192,73232,128,0,73982:0:0:0:0:
320,192,73532,1,0,0:0:0:0:
192,192,73532,1,0,0:0:0:0:
192,192,73832,1,0,0:0:0:0:
448,192,73832,1,0,0:0:0:0:
192,192,74132,128,0,74432:0:0:0:0:
448,192,74132,1,0,0:0:0:0:
320,192,74132,1,0,0:0:0:0:
448,192,74282,1,0,0:0:0:0:
320,192,74432,128,0,75032:0:0:0:0:
64,192,74432,1,0,0:0:0:0:
448,192,74432,1,0,0:0:0:0:
64,192,74582,1,0,0:0:0:0:
192,192,74732,1,0,0:0:0:0:
64,192,74732,1,0,0:0:0:0:
192,192,75032,1,0,0:0:0:0:
448,192,75032,1,0,0:0:0:0:
320,192,75332,1,0,0:0:0:0:
448,192,75332,1,0,0:0:0:0:
320,192,75482,1,0,0:0:0:0:
448,192,75632,128,0,76382:0:0:0:0:
320,192,75632,1,0,0:0:0:0:
64,192,75632,1,0,0:0:0:0:
192,192,75782,1,0,0:0:0:0:
192,192,75932,1,0,0:0:0:0:
64,192,75932,1,0,0:0:0:0:
320,192,76232,1,0,0:0:0:0:
192,192,76232,1,0,0:0:0:0:
64,192,76532,128,0,76757:0:0:0:0:
448,192,76532,1,0,0:0:0:0:
192,192,76607,128,0,76757:0:0:0:0:
320,192,76682,128,0,76832:0:0:0:0:
448,192,76757,128,0,76832:0:0:0:0:
192,192,76832,128,0,77132:0:0:0:0:
64,192,76832,1,0,0:0:0:0:
64,192,76982,1,0,0:0:0:0:
448,192,77132,128,0,77432:0:0:0:0:
320,192,77132,1,0,0:0:0:0:
64,192,77132,1,0,0:0:0:0:
320,192,77432,128,0,77732:0:0:0:0:
192,192,77432,1,0,0:0:0:0:
64,192,77432,1,0,0:0:0:0:
64,192,77732,128,0,78032:0:0:0:0:
192,192,77732,1,0,0:0:0:0:
448,192,77732,1,0,0:0:0:0:
320,192,77882,1,0,0:0:0:0:
192,192,78032,128,0,78107:0:0:0:0:
320,192,78032,1,0,0:0:0:0:
448,192,78032,1,0,0:0:0:0:
448,192,78182,1,0,0:0:0:0:
320,192,78332,128,0,78407:0:0:0:0:
192,192,78332,1,0,0:0:0:0:
448,192,78332,1,0,0:0:0:0:
64,192,78482,128,0,78557:0:0:0:0:
192,192,78632,1,0,0:0:0:0:
320,192,78632,1,0,0:0:0:0:
192,192,78932,1,0,0:0:0:0:
320,192,78932,1,0,0:0:0:0:
448,192,78932,128,0,80432:0:0:0:0:
192,192,79082,1,0,0:0:0:0:
192,192,79232,1,0,0:0:0:0:
64,192,79232,1,0,0:0:0:0:
64,192,79382,1,0,0:0:0:0:
64,192,79532,1,0,0:0:0:0:
320,192,79532,1,0,0:0:0:0:
192,192,79832,1,0,0:0:0:0:
320,192,79832,1,0,0:0:0:0:
320,192,80132,1,0,0:0:0:0:
64,192,80132,1,0,0:0:0:0:
320,192,80282,1,0,0:0:0:0:
320,192,80432,1,0,0:0:0:0:
64,192,80432,1,0,0:0:0:0:
192,192,80432,128,0,80507:0:0:0:0:
64,192,80582,1,0,0:0:0:0:
192,192,80582,128,0,80657:0:0:0:0:
320,192,80732,128,0,80807:0:0:0:0:
64,192,80732,1,0,0:0:0:0:
448,192,80732,1,0,0:0:0:0:
320,192,80882,128,0,80957:0:0:0:0:
192,192,81032,128,0,81107:0:0:0:0:
320,192,81032,1,0,0:0:0:0:
448,192,81032,1,0,0:0:0:0:
192,192,81182,128,0,81332:0:0:0:0:
320,192,81332,1,0,0:0:0:0:
448,192,81332,1,0,0:0:0:0:
192,192,81482,128,0,81557:0:0:0:0:
448,192,81482,1,0,0:0:0:0:
320,192,81632,128,0,81782:0:0:0:0:
448,192,81632,1,0,0:0:0:0:
192,192,81782,1,0,0:0:0:0:
64,192,81782,1,0,0:0:0:0:
320,192,81932,128,0,82007:0:0:0:0:
448,192,82082,128,0,82232:0:0:0:0:
192,192,82082,1,0,0:0:0:0:
64,192,82082,1,0,0:0:0:0:
448,192,82382,128,0,82532:0:0:0:0:
64,192,82382,1,0,0:0:0:0:
192,192,82382,1,0,0:0:0:0:
448,192,82832,1,0,0:0:0:0:
192,192,82832,1,0,0:0:0:0:
64,192,82832,1,0,0:0:0:0:
192,192,82982,1,0,0:0:0:0:
320,192,82982,1,0,0:0:0:0:
448,192,83132,1,0,0:0:0:0:
192,192,83132,1,0,0:0:0:0:
320,192,83132,1,0,0:0:0:0:
192,192,83582,1,0,0:0:0:0:
448,192,83582,1,0,0:0:0:0:
192,192,83732,1,0,0:0:0:0:
64,192,83732,1,0,0:0:0:0:
320,192,83732,1,0,0:0:0:0:
448,192,83882,1,0,0:0:0:0:
192,192,84032,1,0,0:0:0:0:
320,192,84182,1,0,0:0:0:0:
448,192,84182,1,0,0:0:0:0:
64,192,84182,1,0,0:0:0:0:
192,192,84332,1,0,0:0:0:0:
64,192,84332,1,0,0:0:0:0:
320,192,84332,1,0,0:0:0:0:
320,192,84482,1,0,0:0:0:0:
448,192,84482,1,0,0:0:0:0:
64,192,84632,1,0,0:0:0:0:
192,192,84782,1,0,0:0:0:0:
320,192,84782,1,0,0:0:0:0:
192,192,84932,1,0,0:0:0:0:
448,192,84932,1,0,0:0:0:0:
64,192,84932,1,0,0:0:0:0:
192,192,85232,1,0,0:0:0:0:
64,192,85232,1,0,0:0:0:0:
192,192,85382,1,0,0:0:0:0:
64,192,85382,1,0,0:0:0:0:
192,192,85532,1,0,0:0:0:0:
320,192,85532,1,0,0:0:0:0:
448,192,85532,1,0,0:0:0:0:
320,192,85982,1,0,0:0:0:0:
192,192,85982,1,0,0:0:0:0:
448,192,86132,1,0,0:0:0:0:
64,192,86132,1,0,0:0:0:0:
320,192,86132,1,0,0:0:0:0:
448,192,86282,128,0,86657:0:0:0:0:
320,192,86357,128,0,86657:0:0:0:0:
192,192,86432,128,0,86732:0:0:0:0:
64,192,86582,1,0,0:0:0:0:
448,192,86732,128,0,87032:0:0:0:0:
320,192,86732,1,0,0:0:0:0:
64,192,86732,1,0,0:0:0:0:
64,192,86882,1,0,0:0:0:0:
320,192,87032,128,0,87332:0:0:0:0:
192,192,87182,1,0,0:0:0:0:
192,192,87332,128,0,87632:0:0:0:0:
64,192,87332,1,0,0:0:0:0:
448,192,87332,1,0,0:0:0:0:
448,192,87632,128,0,88382:0:0:0:0:
64,192,87632,128,0,87707:0:0:0:0:
320,192,87632,1,0,0:0:0:0:
320,192,87782,1,0,0:0:0:0:
320,192,87932,1,0,0:0:0:0:
192,192,87932,128,0,88007:0:0:0:0:
64,192,87932,1,0,0:0:0:0:
64,192,88082,128,0,88157:0:0:0:0:
192,192,88382,1,0,0:0:0:0:
320,192,88382,1,0,0:0:0:0:
448,192,88457,128,0,88607:0:0:0:0:
192,192,88532,1,0,0:0:0:0:
64,192,88532,1,0,0:0:0:0:
320,192,88532,1,0,0:0:0:0:
448,192,88682,128,0,88982:0:0:0:0:
64,192,88682,1,0,0:0:0:0:
192,192,88832,1,0,0:0:0:0:
192,192,88982,1,0,0:0:0:0:
64,192,88982,1,0,0:0:0:0:
320,192,89132,1,0,0:0:0:0:
448,192,89132,1,0,0:0:0:0:
64,192,89132,1,0,0:0:0:0:
192,192,89282,1,0,0:0:0:0:
320,192,89282,1,0,0:0:0:0:
192,192,89432,1,0,0:0:0:0:
64,192,89582,1,0,0:0:0:0:
320,192,89582,1,0,0:0:0:0:
192,192,89732,1,0,0:0:0:0:
320,192,89732,1,0,0:0:0:0:
448,192,89732,1,0,0:0:0:0:
448,192,89882,1,0,0:0:0:0:
192,192,90032,1,0,0:0:0:0:
320,192,90032,1,0,0:0:0:0:
64,192,90032,128,0,90107:0:0:0:0:
64,192,90182,128,0,90257:0:0:0:0:
448,192,90182,1,0,0:0:0:0:
192,192,90182,1,0,0:0:0:0:
64,192,90332,1,0,0:0:0:0:
192,192,90332,128,0,90407:0:0:0:0:
448,192,90332,1,0,0:0:0:0:
320,192,90332,1,0,0:0:0:0:
192,192,90482,128,0,90557:0:0:0:0:
320,192,90632,128,0,90707:0:0:0:0:
320,192,90782,128,0,90932:0:0:0:0:
192,192,90782,1,0,0:0:0:0:
448,192,90782,1,0,0:0:0:0:
448,192,90932,1,0,0:0:0:0:
64,192,90932,1,0,0:0:0:0:
192,192,90932,1,0,0:0:0:0:
192,192,91082,128,0,91157:0:0:0:0:
448,192,91082,1,0,0:0:0:0:
320,192,91232,128,0,91382:0:0:0:0:
192,192,91232,1,0,0:0:0:0:
64,192,91382,1,0,0:0:0:0:
448,192,91382,1,0,0:0:0:0:
320,192,91532,1,0,0:0:0:0:
192,192,91532,128,0,91607:0:0:0:0:
448,192,91532,1,0,0:0:0:0:
64,192,91532,1,0,0:0:0:0:
448,192,91682,128,0,91832:0:0:0:0:
192,192,91682,1,0,0:0:0:0:
320,192,91682,1,0,0:0:0:0:
192,192,91832,1,0,0:0:0:0:
448,192,91982,128,0,92132:0:0:0:0:
320,192,91982,1,0,0:0:0:0:
64,192,91982,1,0,0:0:0:0:
64,192,92132,1,0,0:0:0:0:
192,192,92132,128,0,92432:0:0:0:0:
320,192,92132,1,0,0:0:0:0:
320,192,92432,128,0,92732:0:0:0:0:
448,192,92432,128,0,92507:0:0:0:0:
64,192,92432,128,0,92507:0:0:0:0:
448,192,92882,128,0,93182:0:0:0:0:
320,192,93182,128,0,93482:0:0:0:0:
192,192,93182,128,0,93257:0:0:0:0:
64,192,93182,128,0,93257:0:0:0:0:
192,192,93482,128,0,93857:0:0:0:0:
64,192,93482,128,0,93557:0:0:0:0:
448,192,93482,128,0,93557:0:0:0:0:
320,192,93707,128,0,94007:0:0:0:0:
192,192,93932,128,0,94157:0:0:0:0:
64,192,94082,128,0,94157:0:0:0:0:
320,192,94082,128,0,94157:0:0:0:0:
192,192,94232,128,0,94532:0:0:0:0:
448,192,94382,128,0,94457:0:0:0:0:
320,192,94532,128,0,94682:0:0:0:0:
64,192,94532,128,0,94607:0:0:0:0:
448,192,94682,128,0,95657:0:0:0:0:
320,192,94832,128,0,95957:0:0:0:0:
192,192,94982,128,0,95057:0:0:0:0:
448,192,95732,128,0,95807:0:0:0:0:
448,192,95882,128,0,95957:0:0:0:0:
64,192,96032,128,0,96407:0:0:0:0:
64,192,96482,128,0,96857:0:0:0:0:
64,192,96932,128,0,97232:0:0:0:0:
192,192,97232,1,0,0:0:0:0:
320,192,97232,1,0,0:0:0:0:
448,192,97232,128,0,97607:0:0:0:0:
320,192,97382,128,0,97607:0:0:0:0:
192,192,97457,128,0,97682:0:0:0:0:
64,192,97532,1,0,0:0:0:0:
448,192,97682,128,0,97757:0:0:0:0:
64,192,97682,1,0,0:0:0:0:
320,192,97682,1,0,0:0:0:0:
192,192,97832,128,0,97907:0:0:0:0:
320,192,97982,128,0,98057:0:0:0:0:
320,192,98132,128,0,98432:0:0:0:0:
192,192,98132,1,0,0:0:0:0:
192,192,98282,128,0,98582:0:0:0:0:
64,192,98432,128,0,98582:0:0:0:0:
448,192,98432,1,0,0:0:0:0:
448,192,98582,1,0,0:0:0:0:
320,192,98582,1,0,0:0:0:0:
192,192,98732,128,0,98807:0:0:0:0:
448,192,98732,128,0,98807:0:0:0:0:
64,192,98882,1,0,0:0:0:0:
192,192,99032,128,0,99257:0:0:0:0:
64,192,99032,1,0,0:0:0:0:
320,192,99107,128,0,99332:0:0:0:0:
448,192,99182,128,0,99407:0:0:0:0:
192,192,99332,128,0,99407:0:0:0:0:
320,192,99407,128,0,99482:0:0:0:0:
320,192,99632,128,0,100082:0:0:0:0:
192,192,99632,1,0,0:0:0:0:
64,192,99632,1,0,0:0:0:0:
192,192,99932,1,0,0:0:0:0:
448,192,100082,128,0,100532:0:0:0:0:
192,192,100082,1,0,0:0:0:0:
64,192,100082,1,0,0:0:0:0:
64,192,100532,128,0,100607:0:0:0:0:
320,192,100532,1,0,0:0:0:0:
192,192,100607,128,0,100682:0:0:0:0:
320,192,100682,128,0,100757:0:0:0:0:
64,192,100757,128,0,100832:0:0:0:0:
320,192,100832,128,0,100907:0:0:0:0:
448,192,100832,1,0,0:0:0:0:
192,192,100907,128,0,100982:0:0:0:0:
64,192,100982,128,0,101057:0:0:0:0:
448,192,100982,1,0,0:0:0:0:
320,192,100982,1,0,0:0:0:0:
192,192,101057,128,0,101132:0:0:0:0:
448,192,101132,128,0,101207:0:0:0:0:
64,192,101207,128,0,101282:0:0:0:0:
320,192,101282,128,0,101357:0:0:0:0:
192,192,101357,128,0,101432:0:0:0:0:
64,192,101432,1,0,0:0:0:0:
448,192,101432,1,0,0:0:0:0:
448,192,101732,128,0,101807:0:0:0:0:
448,192,101882,128,0,101957:0:0:0:0:
192,192,102032,128,0,102407:0:0:0:0:
320,192,102032,1,0,0:0:0:0:
64,192,102032,1,0,0:0:0:0:
448,192,102182,128,0,102407:0:0:0:0:
320,192,102332,128,0,102482:0:0:0:0:
64,192,102332,1,0,0:0:0:0:
448,192,102482,1,0,0:0:0:0:
64,192,102482,1,0,0:0:0:0:
192,192,102482,128,0,102632:0:0:0:0:
448,192,102632,128,0,102782:0:0:0:0:
320,192,102782,128,0,102932:0:0:0:0:
64,192,102932,128,0,103082:0:0:0:0:
192,192,102932,1,0,0:0:0:0:
448,192,102932,1,0,0:0:0:0:
320,192,103082,128,0,103232:0:0:0:0:
448,192,103232,1,0,0:0:0:0:
64,192,103382,128,0,103457:0:0:0:0:
320,192,103382,1,0,0:0:0:0:
448,192,103382,1,0,0:0:0:0:
192,192,103457,128,0,103532:0:0:0:0:
64,192,103532,128,0,103832:0:0:0:0:
192,192,103682,1,0,0:0:0:0:
448,192,103832,128,0,104207:0:0:0:0:
192,192,103832,1,0,0:0:0:0:
320,192,103907,128,0,104132:0:0:0:0:
192,192,103982,128,0,104057:0:0:0:0:
64,192,104132,128,0,104207:0:0:0:0:
320,192,104207,128,0,104357:0:0:0:0:
192,192,104282,128,0,104357:0:0:0:0:
64,192,104357,128,0,104582:0:0:0:0:
192,192,104432,1,0,0:0:0:0:
448,192,104432,1,0,0:0:0:0:
448,192,104582,128,0,104732:0:0:0:0:
320,192,104582,1,0,0:0:0:0:
192,192,104582,1,0,0:0:0:0:
320,192,104732,1,0,0:0:0:0:
64,192,104732,1,0,0:0:0:0:
64,192,104882,1,0,0:0:0:0:
320,192,104882,1,0,0:0:0:0:
320,192,105032,1,0,0:0:0:0:
64,192,105032,1,0,0:0:0:0:
64,192,105182,1,0,0:0:0:0:
320,192,105182,1,0,0:0:0:0:
64,192,105332,128,0,105407:0:0:0:0:
320,192,105332,1,0,0:0:0:0:
448,192,105332,1,0,0:0:0:0:
192,192,105407,128,0,105482:0:0:0:0:
448,192,105482,1,0,0:0:0:0:
64,192,105482,1,0,0:0:0:0:
320,192,105482,128,0,105557:0:0:0:0:
192,192,105557,128,0,105632:0:0:0:0:
448,192,105632,1,0,0:0:0:0:
64,192,105632,128,0,105707:0:0:0:0:
320,192,105632,1,0,0:0:0:0:
192,192,105707,128,0,105782:0:0:0:0:
448,192,105782,1,0,0:0:0:0:
320,192,105782,128,0,105857:0:0:0:0:
64,192,105782,1,0,0:0:0:0:
192,192,105857,128,0,105932:0:0:0:0:
64,192,105932,1,0,0:0:0:0:
448,192,105932,1,0,0:0:0:0:
320,192,106082,1,0,0:0:0:0:
64,192,106082,1,0,0:0:0:0:
192,192,106232,1,0,0:0:0:0:
448,192,106232,1,0,0:0:0:0:
64,192,106232,1,0,0:0:0:0:
192,192,106532,128,0,106682:0:0:0:0:
320,192,106682,128,0,106832:0:0:0:0:
192,192,106832,1,0,0:0:0:0:
448,192,106832,1,0,0:0:0:0:
64,192,106832,128,0,107282:0:0:0:0:
192,192,106982,128,0,107282:0:0:0:0:
320,192,107132,128,0,107282:0:0:0:0:
448,192,107132,1,0,0:0:0:0:
448,192,107282,128,0,107357:0:0:0:0:
64,192,107432,128,0,107507:0:0:0:0:
192,192,107432,1,0,0:0:0:0:
192,192,107582,128,0,107657:0:0:0:0:
64,192,107732,1,0,0:0:0:0:
320,192,107732,1,0,0:0:0:0:
448,192,107732,128,0,108407:0:0:0:0:
320,192,107882,128,0,108257:0:0:0:0:
192,192,108032,128,0,108182:0:0:0:0:
64,192,108032,1,0,0:0:0:0:
192,192,108257,128,0,108407:0:0:0:0:
64,192,108332,128,0,108407:0:0:0:0:
320,192,108332,128,0,108407:0:0:0:0:
320,192,108632,128,0,108707:0:0:0:0:
192,192,108632,1,0,0:0:0:0:
448,192,108707,128,0,108782:0:0:0:0:
320,192,108782,128,0,108857:0:0:0:0:
192,192,108857,128,0,108932:0:0:0:0:
448,192,108932,1,0,0:0:0:0:
64,192,108932,1,0,0:0:0:0:
320,192,109007,128,0,109082:0:0:0:0:
448,192,109082,128,0,109157:0:0:0:0:
64,192,109232,128,0,109682:0:0:0:0:
192,192,109232,1,0,0:0:0:0:
320,192,109232,1,0,0:0:0:0:
192,192,109532,1,0,0:0:0:0:
320,192,109532,1,0,0:0:0:0:
448,192,109532,1,0,0:0:0:0:
448,192,109682,128,0,110057:0:0:0:0:
192,192,109832,1,0,0:0:0:0:
64,192,110132,1,0,0:0:0:0:
192,192,110132,1,0,0:0:0:0:
320,192,110132,128,0,110207:0:0:0:0:
448,192,110207,128,0,110282:0:0:0:0:
192,192,110282,128,0,110357:0:0:0:0:
64,192,110357,128,0,110432:0:0:0:0:
320,192,110432,128,0,110507:0:0:0:0:
448,192,110432,1,0,0:0:0:0:
192,192,110507,128,0,110582:0:0:0:0:
64,192,110582,128,0,110657:0:0:0:0:
320,192,110657,128,0,110732:0:0:0:0:
192,192,110732,1,0,0:0:0:0:
448,192,110732,1,0,0:0:0:0:
64,192,110732,128,0,110807:0:0:0:0:
320,192,110807,128,0,110882:0:0:0:0:
192,192,110882,128,0,110957:0:0:0:0:
64,192,110957,128,0,111032:0:0:0:0:
320,192,111032,1,0,0:0:0:0:
448,192,111032,1,0,0:0:0:0:
448,192,111332,128,0,111407:0:0:0:0:
320,192,111332,1,0,0:0:0:0:
64,192,111332,1,0,0:0:0:0:
192,192,111332,1,0,0:0:0:0:
448,192,111482,128,0,111557:0:0:0:0:
320,192,111632,128,0,111857:0:0:0:0:
192,192,111632,1,0,0:0:0:0:
448,192,111782,128,0,112082:0:0:0:0:
320,192,111932,128,0,112082:0:0:0:0:
192,192,111932,1,0,0:0:0:0:
64,192,111932,1,0,0:0:0:0:
192,192,112082,128,0,112232:0:0:0:0:
448,192,112232,128,0,112382:0:0:0:0:
64,192,112232,1,0,0:0:0:0:
320,192,112382,128,0,112532:0:0:0:0:
64,192,112532,128,0,112682:0:0:0:0:
192,192,112532,1,0,0:0:0:0:
448,192,112532,1,0,0:0:0:0:
192,192,112682,128,0,112832:0:0:0:0:
320,192,112832,1,0,0:0:0:0:
320,192,112982,128,0,113057:0:0:0:0:
192,192,113057,128,0,113132:0:0:0:0:
320,192,113132,1,0,0:0:0:0:
64,192,113132,128,0,113432:0:0:0:0:
448,192,113132,1,0,0:0:0:0:
320,192,113432,1,0,0:0:0:0:
448,192,113432,128,0,113507:0:0:0:0:
192,192,113507,128,0,113582:0:0:0:0:
64,192,113582,128,0,113732:0:0:0:0:
192,192,113732,128,0,113807:0:0:0:0:
448,192,113732,1,0,0:0:0:0:
320,192,113807,128,0,114032:0:0:0:0:
64,192,114032,1,0,0:0:0:0:
192,192,114182,128,0,114632:0:0:0:0:
448,192,114182,128,0,114632:0:0:0:0:
320,192,114332,1,0,0:0:0:0:
64,192,114332,1,0,0:0:0:0:
64,192,114632,128,0,114707:0:0:0:0:
320,192,114632,1,0,0:0:0:0:
192,192,114932,128,0,115007:0:0:0:0:
448,192,114932,1,0,0:0:0:0:
64,192,114932,1,0,0:0:0:0:
320,192,115007,128,0,115082:0:0:0:0:
192,192,115082,128,0,115157:0:0:0:0:
64,192,115157,128,0,115232:0:0:0:0:
320,192,115232,128,0,115307:0:0:0:0:
448,192,115232,1,0,0:0:0:0:
64,192,115307,128,0,115382:0:0:0:0:
192,192,115382,128,0,115457:0:0:0:0:
320,192,115457,128,0,115532:0:0:0:0:
448,192,115532,1,0,0:0:0:0:
64,192,115532,1,0,0:0:0:0:
192,192,115532,128,0,115607:0:0:0:0:
320,192,115607,128,0,115682:0:0:0:0:
192,192,115682,128,0,115757:0:0:0:0:
64,192,115757,128,0,115832:0:0:0:0:
320,192,115832,1,0,0:0:0:0:
448,192,115832,1,0,0:0:0:0:
192,192,115832,1,0,0:0:0:0:
192,192,116132,128,0,116282:0:0:0:0:
320,192,116282,128,0,116432:0:0:0:0:
192,192,116432,5,0,0:0:0:0:
64,192,116432,1,0,0:0:0:0:
448,192,116432,128,0,116882:0:0:0:0:
320,192,116582,128,0,116882:0:0:0:0:
64,192,116732,1,0,0:0:0:0:
192,192,116732,128,0,116882:0:0:0:0:
64,192,116882,128,0,116957:0:0:0:0:
320,192,117032,128,0,117107:0:0:0:0:
192,192,117032,1,0,0:0:0:0:
192,192,117182,128,0,117257:0:0:0:0:
320,192,117332,128,0,117857:0:0:0:0:
448,192,117332,1,0,0:0:0:0:
64,192,117332,1,0,0:0:0:0:
192,192,117482,128,0,118007:0:0:0:0:
448,192,117632,1,0,0:0:0:0:
64,192,117632,128,0,117782:0:0:0:0:
64,192,117857,128,0,118007:0:0:0:0:
320,192,117932,128,0,118007:0:0:0:0:
448,192,117932,128,0,118007:0:0:0:0:
192,192,118232,1,0,0:0:0:0:
448,192,118307,128,0,118382:0:0:0:0:
320,192,118382,128,0,118457:0:0:0:0:
192,192,118457,128,0,118532:0:0:0:0:
64,192,118532,1,0,0:0:0:0:
448,192,118532,1,0,0:0:0:0:
320,192,118607,128,0,118682:0:0:0:0:
448,192,118682,128,0,118757:0:0:0:0:
64,192,118832,128,0,119282:0:0:0:0:
192,192,118832,1,0,0:0:0:0:
320,192,118832,1,0,0:0:0:0:
448,192,119132,1,0,0:0:0:0:
192,192,119132,1,0,0:0:0:0:
320,192,119132,1,0,0:0:0:0:
320,192,119282,128,0,119732:0:0:0:0:
192,192,119432,1,0,0:0:0:0:
64,192,119732,128,0,119807:0:0:0:0:
448,192,119732,1,0,0:0:0:0:
192,192,119732,1,0,0:0:0:0:
320,192,119807,128,0,119882:0:0:0:0:
192,192,119882,128,0,119957:0:0:0:0:
64,192,119957,128,0,120032:0:0:0:0:
320,192,120032,128,0,120107:0:0:0:0:
448,192,120032,1,0,0:0:0:0:
192,192,120107,128,0,120182:0:0:0:0:
64,192,120182,128,0,120257:0:0:0:0:
192,192,120257,128,0,120332:0:0:0:0:
64,192,120332,128,0,120407:0:0:0:0:
320,192,120332,1,0,0:0:0:0:
448,192,120332,1,0,0:0:0:0:
192,192,120407,128,0,120482:0:0:0:0:
320,192,120482,128,0,120557:0:0:0:0:
192,192,120557,128,0,120632:0:0:0:0:
448,192,120632,1,0,0:0:0:0:
64,192,120632,1,0,0:0:0:0:
448,192,120932,128,0,121082:0:0:0:0:
192,192,120932,1,0,0:0:0:0:
320,192,120932,1,0,0:0:0:0:
64,192,120932,1,0,0:0:0:0:
320,192,121082,128,0,121232:0:0:0:0:
64,192,121232,1,0,0:0:0:0:
192,192,121232,128,0,121457:0:0:0:0:
320,192,121382,128,0,121682:0:0:0:0:
192,192,121532,128,0,121682:0:0:0:0:
448,192,121532,1,0,0:0:0:0:
64,192,121532,1,0,0:0:0:0:
448,192,121682,128,0,121832:0:0:0:0:
192,192,121832,128,0,121982:0:0:0:0:
64,192,121832,1,0,0:0:0:0:
320,192,121982,128,0,122132:0:0:0:0:
64,192,122132,128,0,122282:0:0:0:0:
192,192,122132,1,0,0:0:0:0:
448,192,122132,1,0,0:0:0:0:
192,192,122282,128,0,122432:0:0:0:0:
320,192,122432,1,0,0:0:0:0:
448,192,122582,128,0,122657:0:0:0:0:
320,192,122657,128,0,122732:0:0:0:0:
448,192,122732,128,0,122882:0:0:0:0:
64,192,122732,1,0,0:0:0:0:
192,192,122732,1,0,0:0:0:0:
192,192,122882,128,0,122957:0:0:0:0:
320,192,122957,128,0,123032:0:0:0:0:
64,192,123032,128,0,123332:0:0:0:0:
448,192,123032,1,0,0:0:0:0:
192,192,123107,128,0,123257:0:0:0:0:
320,192,123182,128,0,123332:0:0:0:0:
192,192,123332,128,0,123557:0:0:0:0:
448,192,123332,1,0,0:0:0:0:
320,192,123407,128,0,123482:0:0:0:0:
64,192,123482,128,0,123632:0:0:0:0:
192,192,123632,1,0,0:0:0:0:
320,192,123632,1,0,0:0:0:0:
192,192,123782,1,0,0:0:0:0:
448,192,123782,1,0,0:0:0:0:
320,192,123932,1,0,0:0:0:0:
448,192,123932,1,0,0:0:0:0:
320,192,124082,1,0,0:0:0:0:
192,192,124082,1,0,0:0:0:0:
320,192,124232,1,0,0:0:0:0:
64,192,124232,1,0,0:0:0:0:
192,192,124382,1,0,0:0:0:0:
64,192,124382,1,0,0:0:0:0:
192,192,124532,1,0,0:0:0:0:
448,192,124532,1,0,0:0:0:0:
320,192,124682,1,0,0:0:0:0:
192,192,124682,1,0,0:0:0:0:
320,192,124832,1,0,0:0:0:0:
448,192,124832,1,0,0:0:0:0:
320,192,124982,5,0,0:0:0:0:
64,192,124982,1,0,0:0:0:0:
320,192,125132,1,0,0:0:0:0:
192,192,125132,1,0,0:0:0:0:
448,192,125282,128,0,125357:0:0:0:0:
64,192,125282,128,0,125357:0:0:0:0:
192,192,125282,128,0,125357:0:0:0:0:
64,192,125582,128,0,125657:0:0:0:0:
192,192,125582,128,0,125657:0:0:0:0:
64,192,125882,128,0,125957:0:0:0:0:
192,192,126032,5,0,0:0:0:0:
64,192,126032,1,0,0:0:0:0:
320,192,126032,128,0,128432:0:0:0:0:
192,192,126182,1,0,0:0:0:0:
448,192,126182,1,0,0:0:0:0:
448,192,126332,1,0,0:0:0:0:
192,192,126332,1,0,0:0:0:0:
64,192,126332,1,0,0:0:0:0:
192,192,126782,1,0,0:0:0:0:
64,192,126782,1,0,0:0:0:0:
192,192,126932,1,0,0:0:0:0:
448,192,126932,1,0,0:0:0:0:
64,192,126932,1,0,0:0:0:0:
64,192,127082,1,0,0:0:0:0:
192,192,127232,1,0,0:0:0:0:
64,192,127382,1,0,0:0:0:0:
448,192,127382,1,0,0:0:0:0:
192,192,127532,1,0,0:0:0:0:
448,192,127532,1,0,0:0:0:0:
64,192,127532,1,0,0:0:0:0:
64,192,127682,1,0,0:0:0:0:
448,192,127682,1,0,0:0:0:0:
192,192,127832,1,0,0:0:0:0:
64,192,127982,1,0,0:0:0:0:
448,192,127982,1,0,0:0:0:0:
448,192,128132,1,0,0:0:0:0:
192,192,128132,1,0,0:0:0:0:
64,192,128132,1,0,0:0:0:0:
192,192,128282,1,0,0:0:0:0:
192,192,128432,128,0,129557:0:0:0:0:
448,192,128432,1,0,0:0:0:0:
64,192,128432,1,0,0:0:0:0:
320,192,128582,1,0,0:0:0:0:
64,192,128582,1,0,0:0:0:0:
448,192,128732,1,0,0:0:0:0:
320,192,128732,1,0,0:0:0:0:
64,192,128732,1,0,0:0:0:0:
448,192,128882,1,0,0:0:0:0:
64,192,129032,1,0,0:0:0:0:
320,192,129182,1,0,0:0:0:0:
448,192,129182,1,0,0:0:0:0:
448,192,129332,1,0,0:0:0:0:
320,192,129332,1,0,0:0:0:0:
64,192,129332,1,0,0:0:0:0:
320,192,129482,1,0,0:0:0:0:
64,192,129557,128,0,129632:0:0:0:0:
320,192,129632,128,0,129707:0:0:0:0:
192,192,129632,1,0,0:0:0:0:
448,192,129707,128,0,130082:0:0:0:0:
320,192,129782,1,0,0:0:0:0:
64,192,129782,1,0,0:0:0:0:
192,192,129932,1,0,0:0:0:0:
320,192,129932,1,0,0:0:0:0:
64,192,129932,1,0,0:0:0:0:
320,192,130082,128,0,130382:0:0:0:0:
192,192,130082,1,0,0:0:0:0:
64,192,130082,1,0,0:0:0:0:
448,192,130232,1,0,0:0:0:0:
192,192,130382,128,0,130682:0:0:0:0:
64,192,130382,1,0,0:0:0:0:
448,192,130382,1,0,0:0:0:0:
64,192,130532,1,0,0:0:0:0:
320,192,130532,1,0,0:0:0:0:
448,192,130532,1,0,0:0:0:0:
64,192,130682,128,0,130982:0:0:0:0:
320,192,130682,1,0,0:0:0:0:
448,192,130832,1,0,0:0:0:0:
320,192,130832,1,0,0:0:0:0:
192,192,130982,128,0,131132:0:0:0:0:
448,192,130982,1,0,0:0:0:0:
320,192,131132,1,0,0:0:0:0:
448,192,131132,1,0,0:0:0:0:
64,192,131132,128,0,132632:0:0:0:0:
320,192,131582,1,0,0:0:0:0:
192,192,131582,1,0,0:0:0:0:
448,192,131732,1,0,0:0:0:0:
320,192,131732,1,0,0:0:0:0:
192,192,131732,1,0,0:0:0:0:
448,192,131882,1,0,0:0:0:0:
320,192,132032,1,0,0:0:0:0:
192,192,132182,1,0,0:0:0:0:
448,192,132182,1,0,0:0:0:0:
320,192,132332,1,0,0:0:0:0:
192,192,132332,1,0,0:0:0:0:
448,192,132332,1,0,0:0:0:0:
448,192,132482,1,0,0:0:0:0:
320,192,132482,1,0,0:0:0:0:
448,192,132632,128,0,132782:0:0:0:0:
320,192,132632,1,0,0:0:0:0:
320,192,132782,128,0,132932:0:0:0:0:
64,192,132782,1,0,0:0:0:0:
192,192,132932,128,0,133082:0:0:0:0:
64,192,132932,1,0,0:0:0:0:
448,192,132932,1,0,0:0:0:0:
64,192,133082,128,0,133532:0:0:0:0:
448,192,133082,1,0,0:0:0:0:
320,192,133232,1,0,0:0:0:0:
192,192,133232,1,0,0:0:0:0:
192,192,133382,1,0,0:0:0:0:
320,192,133532,128,0,133982:0:0:0:0:
192,192,133532,1,0,0:0:0:0:
448,192,133532,1,0,0:0:0:0:
192,192,133982,128,0,134432:0:0:0:0:
448,192,133982,1,0,0:0:0:0:
64,192,133982,1,0,0:0:0:0:
320,192,134132,1,0,0:0:0:0:
448,192,134132,1,0,0:0:0:0:
64,192,134132,1,0,0:0:0:0:
448,192,134282,1,0,0:0:0:0:
64,192,134432,128,0,134882:0:0:0:0:
320,192,134432,1,0,0:0:0:0:
448,192,134582,1,0,0:0:0:0:
320,192,134657,1,0,0:0:0:0:
192,192,134732,1,0,0:0:0:0:
448,192,134807,1,0,0:0:0:0:
320,192,134882,128,0,135182:0:0:0:0:
192,192,134882,1,0,0:0:0:0:
64,192,134957,1,0,0:0:0:0:
64,192,135182,128,0,135257:0:0:0:0:
448,192,135257,128,0,135332:0:0:0:0:
192,192,135332,128,0,135407:0:0:0:0:
320,192,135407,128,0,135482:0:0:0:0:
192,192,135482,128,0,135557:0:0:0:0:
64,192,135557,128,0,135632:0:0:0:0:
448,192,135632,128,0,136082:0:0:0:0:
320,192,135632,1,0,0:0:0:0:
192,192,135632,1,0,0:0:0:0:
320,192,135782,1,0,0:0:0:0:
192,192,135782,1,0,0:0:0:0:
192,192,135932,1,0,0:0:0:0:
64,192,135932,1,0,0:0:0:0:
320,192,135932,1,0,0:0:0:0:
320,192,136082,128,0,136532:0:0:0:0:
192,192,136382,1,0,0:0:0:0:
192,192,136532,128,0,138032:0:0:0:0:
448,192,136532,1,0,0:0:0:0:
64,192,136532,1,0,0:0:0:0:
320,192,136682,1,0,0:0:0:0:
448,192,136832,1,0,0:0:0:0:
64,192,136982,1,0,0:0:0:0:
320,192,136982,1,0,0:0:0:0:
448,192,137132,1,0,0:0:0:0:
320,192,137132,1,0,0:0:0:0:
64,192,137132,1,0,0:0:0:0:
448,192,137282,1,0,0:0:0:0:
320,192,137282,1,0,0:0:0:0:
448,192,137432,1,0,0:0:0:0:
64,192,137582,1,0,0:0:0:0:
320,192,137582,1,0,0:0:0:0:
448,192,137732,1,0,0:0:0:0:
320,192,137732,1,0,0:0:0:0:
64,192,137732,1,0,0:0:0:0:
320,192,137882,1,0,0:0:0:0:
320,192,138032,128,0,138482:0:0:0:0:
448,192,138032,1,0,0:0:0:0:
64,192,138032,1,0,0:0:0:0:
192,192,138182,1,0,0:0:0:0:
448,192,138182,1,0,0:0:0:0:
448,192,138332,1,0,0:0:0:0:
192,192,138332,1,0,0:0:0:0:
64,192,138332,1,0,0:0:0:0:
64,192,138482,128,0,138932:0:0:0:0:
192,192,138632,1,0,0:0:0:0:
320,192,138782,1,0,0:0:0:0:
192,192,138932,128,0,139832:0:0:0:0:
448,192,138932,1,0,0:0:0:0:
320,192,138932,1,0,0:0:0:0:
448,192,139082,1,0,0:0:0:0:
320,192,139232,1,0,0:0:0:0:
448,192,139382,1,0,0:0:0:0:
64,192,139382,1,0,0:0:0:0:
64,192,139532,1,0,0:0:0:0:
320,192,139532,1,0,0:0:0:0:
448,192,139532,1,0,0:0:0:0:
320,192,139682,1,0,0:0:0:0:
448,192,139682,1,0,0:0:0:0:
448,192,139832,128,0,140357:0:0:0:0:
64,192,139832,1,0,0:0:0:0:
192,192,139982,1,0,0:0:0:0:
64,192,139982,1,0,0:0:0:0:
64,192,140132,1,0,0:0:0:0:
192,192,140132,1,0,0:0:0:0:
320,192,140132,1,0,0:0:0:0:
192,192,140282,1,0,0:0:0:0:
320,192,140357,128,0,140432:0:0:0:0:
192,192,140432,128,0,140507:0:0:0:0:
448,192,140432,1,0,0:0:0:0:
64,192,140507,128,0,140957:0:0:0:0:
448,192,140582,1,0,0:0:0:0:
320,192,140582,1,0,0:0:0:0:
192,192,140732,1,0,0:0:0:0:
320,192,140732,1,0,0:0:0:0:
448,192,140732,1,0,0:0:0:0:
320,192,140957,128,0,141332:0:0:0:0:
192,192,141032,1,0,0:0:0:0:
64,192,141182,1,0,0:0:0:0:
192,192,141332,128,0,142832:0:0:0:0:
64,192,141332,1,0,0:0:0:0:
448,192,141332,1,0,0:0:0:0:
448,192,141482,1,0,0:0:0:0:
320,192,141632,1,0,0:0:0:0:
448,192,141782,1,0,0:0:0:0:
320,192,141782,1,0,0:0:0:0:
448,192,141932,1,0,0:0:0:0:
320,192,141932,1,0,0:0:0:0:
64,192,141932,1,0,0:0:0:0:
448,192,142082,1,0,0:0:0:0:
64,192,142082,1,0,0:0:0:0:
320,192,142232,1,0,0:0:0:0:
64,192,142382,1,0,0:0:0:0:
320,192,142382,1,0,0:0:0:0:
448,192,142532,1,0,0:0:0:0:
320,192,142532,1,0,0:0:0:0:
64,192,142532,1,0,0:0:0:0:
64,192,142832,128,0,142907:0:0:0:0:
320,192,142832,1,0,0:0:0:0:
64,192,142982,128,0,143057:0:0:0:0:
320,192,142982,1,0,0:0:0:0:
64,192,143132,128,0,143207:0:0:0:0:
320,192,143132,1,0,0:0:0:0:
192,192,143282,128,0,143357:0:0:0:0:
64,192,143282,1,0,0:0:0:0:
192,192,143432,128,0,143507:0:0:0:0:
64,192,143432,1,0,0:0:0:0:
192,192,143582,128,0,143657:0:0:0:0:
64,192,143582,1,0,0:0:0:0:
320,192,143732,128,0,143807:0:0:0:0:
192,192,143732,1,0,0:0:0:0:
320,192,143882,128,0,143957:0:0:0:0:
192,192,143882,1,0,0:0:0:0:
320,192,144032,128,0,144107:0:0:0:0:
192,192,144032,1,0,0:0:0:0:
448,192,144182,128,0,144257:0:0:0:0:
64,192,144182,1,0,0:0:0:0:
192,192,144257,1,0,0:0:0:0:
448,192,144332,128,0,144407:0:0:0:0:
320,192,144332,1,0,0:0:0:0:
64,192,144407,1,0,0:0:0:0:
448,192,144482,128,0,144557:0:0:0:0:
192,192,144482,1,0,0:0:0:0:
320,192,144557,1,0,0:0:0:0:
192,192,144632,128,0,144932:0:0:0:0:
320,192,144782,1,0,0:0:0:0:
448,192,144857,1,0,0:0:0:0:
320,192,144932,128,0,145232:0:0:0:0:
64,192,144932,1,0,0:0:0:0:
448,192,145007,1,0,0:0:0:0:
192,192,145082,1,0,0:0:0:0:
64,192,145157,1,0,0:0:0:0:
448,192,145232,128,0,147632:0:0:0:0:
192,192,145232,1,0,0:0:0:0:
320,192,145682,128,0,145757:0:0:0:0:
64,192,145682,128,0,145757:0:0:0:0:
192,192,146132,128,0,146207:0:0:0:0:
64,192,146132,128,0,146207:0:0:0:0:
192,192,146582,128,0,146657:0:0:0:0:
320,192,146582,128,0,146657:0:0:0:0:
320,192,147032,128,0,147107:0:0:0:0:
64,192,147032,128,0,147107:0:0:0:0:
192,192,147632,128,0,148232:0:0:0:0:
64,192,147632,128,0,147707:0:0:0:0:
320,192,147632,128,0,147707:0:0:0:0:
320,192,147782,128,0,147857:0:0:0:0:
448,192,147782,128,0,147857:0:0:0:0:
320,192,147932,128,0,148007:0:0:0:0:
64,192,147932,128,0,148007:0:0:0:0:
64,192,148082,128,0,148157:0:0:0:0:
448,192,148082,128,0,148157:0:0:0:0:
320,192,148232,128,0,148832:0:0:0:0:
192,192,148532,128,0,148607:0:0:0:0:
64,192,148532,128,0,148607:0:0:0:0:
64,192,148832,128,0,149132:0:0:0:0:
320,192,148982,128,0,149057:0:0:0:0:
448,192,148982,128,0,149057:0:0:0:0:
192,192,149432,128,0,149732:0:0:0:0:
320,192,149432,128,0,149507:0:0:0:0:
320,192,149732,128,0,150032:0:0:0:0:
64,192,149732,128,0,149807:0:0:0:0:
64,192,150032,128,0,150132:0:0:0:0:
448,192,150032,128,0,150632:0:0:0:0:
192,192,150032,128,0,150132:0:0:0:0:
192,192,150232,128,0,150332:0:0:0:0:
320,192,150232,128,0,150332:0:0:0:0:
192,192,150432,128,0,150532:0:0:0:0:
320,192,150432,128,0,150532:0:0:0:0:
192,192,150632,128,0,150732:0:0:0:0:
320,192,150632,128,0,150732:0:0:0:0:
320,192,150832,128,0,150932:0:0:0:0:
64,192,150832,128,0,150932:0:0:0:0:
320,192,151032,128,0,151132:0:0:0:0:
64,192,151032,128,0,151132:0:0:0:0:
64,192,151232,128,0,151332:0:0:0:0:
192,192,151232,128,0,151332:0:0:0:0:
448,192,151432,128,0,151532:0:0:0:0:
192,192,151432,128,0,151532:0:0:0:0:
192,192,151632,128,0,151732:0:0:0:0:
64,192,151632,128,0,151732:0:0:0:0:
192,192,151832,128,0,151932:0:0:0:0:
320,192,151832,128,0,151932:0:0:0:0:
448,192,152032,128,0,152132:0:0:0:0:
192,192,152032,128,0,152132:0:0:0:0:
448,192,152232,128,0,152332:0:0:0:0:
320,192,152232,128,0,152332:0:0:0:0:
448,192,152432,128,0,152532:0:0:0:0:
64,192,152432,128,0,152532:0:0:0:0:
320,192,152432,1,0,0:0:0:0:
192,192,152432,1,0,0:0:0:0:
320,192,152582,1,0,0:0:0:0:
64,192,152582,1,0,0:0:0:0:
64,192,152732,1,0,0:0:0:0:
192,192,152732,1,0,0:0:0:0:
192,192,152882,128,0,152957:0:0:0:0:
448,192,152882,128,0,152957:0:0:0:0:
320,192,153332,128,0,153407:0:0:0:0:
192,192,153332,128,0,153407:0:0:0:0:
320,192,153782,128,0,153857:0:0:0:0:
448,192,153782,128,0,153857:0:0:0:0:
320,192,154232,128,0,154382:0:0:0:0:
448,192,154382,128,0,154532:0:0:0:0:
64,192,154682,1,0,0:0:0:0:
320,192,154682,128,0,154982:0:0:0:0:
448,192,154682,1,0,0:0:0:0:
448,192,155132,128,0,155432:0:0:0:0:
192,192,155132,1,0,0:0:0:0:
320,192,155132,1,0,0:0:0:0:
320,192,155432,1,0,0:0:0:0:
192,192,155432,1,0,0:0:0:0:
64,192,155432,1,0,0:0:0:0:
320,192,155582,1,0,0:0:0:0:
192,192,155732,1,0,0:0:0:0:
320,192,155882,1,0,0:0:0:0:
192,192,155882,1,0,0:0:0:0:
448,192,156032,1,0,0:0:0:0:
320,192,156107,1,0,0:0:0:0:
320,192,156257,1,0,0:0:0:0:
64,192,156332,1,0,0:0:0:0:
448,192,156332,1,0,0:0:0:0:
192,192,156332,1,0,0:0:0:0:
192,192,156482,1,0,0:0:0:0:
320,192,156557,1,0,0:0:0:0:
192,192,156632,1,0,0:0:0:0:
64,192,156632,1,0,0:0:0:0:
448,192,156632,1,0,0:0:0:0:
320,192,156782,1,0,0:0:0:0:
448,192,156932,1,0,0:0:0:0:
448,192,157082,1,0,0:0:0:0:
192,192,157232,128,0,157832:0:0:0:0:
320,192,157232,1,0,0:0:0:0:
64,192,157382,128,0,157457:0:0:0:0:
320,192,157532,1,0,0:0:0:0:
448,192,157682,128,0,157757:0:0:0:0:
64,192,157832,128,0,158432:0:0:0:0:
448,192,157832,1,0,0:0:0:0:
320,192,157832,1,0,0:0:0:0:
448,192,157982,1,0,0:0:0:0:
192,192,158132,128,0,158207:0:0:0:0:
320,192,158132,128,0,158207:0:0:0:0:
192,192,158282,1,0,0:0:0:0:
448,192,158282,1,0,0:0:0:0:
320,192,158432,128,0,158882:0:0:0:0:
192,192,158432,1,0,0:0:0:0:
448,192,158507,1,0,0:0:0:0:
64,192,158582,1,0,0:0:0:0:
192,192,158657,1,0,0:0:0:0:
64,192,158732,1,0,0:0:0:0:
448,192,158732,1,0,0:0:0:0:
192,192,158882,1,0,0:0:0:0:
64,192,158957,1,0,0:0:0:0:
320,192,159032,1,0,0:0:0:0:
448,192,159032,1,0,0:0:0:0:
192,192,159032,1,0,0:0:0:0:
192,192,159182,1,0,0:0:0:0:
320,192,159332,1,0,0:0:0:0:
320,192,159482,1,0,0:0:0:0:
320,192,159632,1,0,0:0:0:0:
192,192,159632,1,0,0:0:0:0:
64,192,159782,128,0,159857:0:0:0:0:
320,192,159932,1,0,0:0:0:0:
192,192,159932,1,0,0:0:0:0:
320,192,160082,1,0,0:0:0:0:
448,192,160232,1,0,0:0:0:0:
64,192,160232,1,0,0:0:0:0:
192,192,160232,128,0,160307:0:0:0:0:
320,192,160232,1,0,0:0:0:0:
448,192,160382,1,0,0:0:0:0:
320,192,160532,1,0,0:0:0:0:
320,192,160682,1,0,0:0:0:0:
64,192,160682,1,0,0:0:0:0:
192,192,160832,1,0,0:0:0:0:
448,192,160907,1,0,0:0:0:0:
320,192,160982,1,0,0:0:0:0:
64,192,161057,1,0,0:0:0:0:
192,192,161132,1,0,0:0:0:0:
320,192,161132,1,0,0:0:0:0:
448,192,161282,1,0,0:0:0:0:
320,192,161357,1,0,0:0:0:0:
192,192,161432,1,0,0:0:0:0:
64,192,161432,1,0,0:0:0:0:
448,192,161432,1,0,0:0:0:0:
320,192,161582,1,0,0:0:0:0:
64,192,161732,128,0,162032:0:0:0:0:
448,192,161732,1,0,0:0:0:0:
320,192,161882,1,0,0:0:0:0:
192,192,162032,128,0,162257:0:0:0:0:
448,192,162032,1,0,0:0:0:0:
320,192,162032,1,0,0:0:0:0:
64,192,162182,128,0,162257:0:0:0:0:
320,192,162257,128,0,162407:0:0:0:0:
448,192,162332,1,0,0:0:0:0:
64,192,162482,128,0,162707:0:0:0:0:
192,192,162482,128,0,162557:0:0:0:0:
320,192,162632,1,0,0:0:0:0:
448,192,162632,1,0,0:0:0:0:
192,192,162707,128,0,162932:0:0:0:0:
320,192,162782,1,0,0:0:0:0:
320,192,162932,128,0,163082:0:0:0:0:
64,192,162932,128,0,163007:0:0:0:0:
448,192,162932,128,0,163007:0:0:0:0:
64,192,163082,128,0,163307:0:0:0:0:
448,192,163082,1,0,0:0:0:0:
320,192,163232,1,0,0:0:0:0:
448,192,163232,1,0,0:0:0:0:
192,192,163307,128,0,163607:0:0:0:0:
320,192,163682,128,0,164582:0:0:0:0:
448,192,163832,128,0,164507:0:0:0:0:
192,192,164432,128,0,164507:0:0:0:0:
448,192,164582,128,0,166532:0:0:0:0:
192,192,164582,128,0,164657:0:0:0:0:
192,192,164732,128,0,164807:0:0:0:0:
64,192,164732,1,0,0:0:0:0:
64,192,164882,128,0,164957:0:0:0:0:
320,192,164882,1,0,0:0:0:0:
64,192,165032,128,0,165107:0:0:0:0:
320,192,165032,1,0,0:0:0:0:
64,192,165182,128,0,165257:0:0:0:0:
320,192,165182,1,0,0:0:0:0:
320,192,165332,128,0,165407:0:0:0:0:
192,192,165332,1,0,0:0:0:0:
320,192,165482,128,0,165557:0:0:0:0:
192,192,165482,1,0,0:0:0:0:
320,192,165632,128,0,165707:0:0:0:0:
192,192,165632,1,0,0:0:0:0:
192,192,165782,128,0,165857:0:0:0:0:
64,192,165782,1,0,0:0:0:0:
192,192,165932,128,0,166007:0:0:0:0:
64,192,165932,1,0,0:0:0:0:
192,192,166082,128,0,166157:0:0:0:0:
64,192,166082,1,0,0:0:0:0:
64,192,166232,128,0,166307:0:0:0:0:
320,192,166232,1,0,0:0:0:0:
320,192,166382,128,0,166457:0:0:0:0:
192,192,166382,1,0,0:0:0:0:
192,192,166532,128,0,166607:0:0:0:0:
64,192,166532,1,0,0:0:0:0:
64,192,166682,128,0,166757:0:0:0:0:
320,192,166682,1,0,0:0:0:0:
192,192,166832,128,0,166982:0:0:0:0:
320,192,166832,1,0,0:0:0:0:
448,192,166832,1,0,0:0:0:0:
320,192,166982,128,0,167132:0:0:0:0:
64,192,166982,1,0,0:0:0:0:
448,192,166982,1,0,0:0:0:0:
64,192,167132,128,0,167282:0:0:0:0:
192,192,167282,128,0,167432:0:0:0:0:
320,192,167282,1,0,0:0:0:0:
448,192,167282,1,0,0:0:0:0:
448,192,167582,128,0,167732:0:0:0:0:
320,192,167582,1,0,0:0:0:0:
64,192,167582,1,0,0:0:0:0:
320,192,167882,128,0,168932:0:0:0:0:
64,192,167882,1,0,0:0:0:0:
448,192,167882,1,0,0:0:0:0:
64,192,168932,128,0,169007:0:0:0:0:
192,192,168932,128,0,169044:0:0:0:0:
448,192,168932,128,0,169082:0:0:0:0:
64,192,169082,128,0,169982:0:0:0:0:
448,192,169232,128,0,169307:0:0:0:0:
448,192,169532,128,0,169607:0:0:0:0:
192,192,170057,128,0,170432:0:0:0:0:
320,192,170432,128,0,171332:0:0:0:0:
448,192,170432,1,0,0:0:0:0:
64,192,170432,1,0,0:0:0:0:
448,192,170732,1,0,0:0:0:0:
192,192,170732,1,0,0:0:0:0:
192,192,170882,1,0,0:0:0:0:
64,192,170882,1,0,0:0:0:0:
192,192,171182,1,0,0:0:0:0:
64,192,171182,1,0,0:0:0:0:
64,192,171332,1,0,0:0:0:0:
448,192,171332,1,0,0:0:0:0:
192,192,171632,1,0,0:0:0:0:
320,192,171632,1,0,0:0:0:0:
64,192,171782,1,0,0:0:0:0:
320,192,171782,1,0,0:0:0:0:
320,192,172082,1,0,0:0:0:0:
192,192,172082,1,0,0:0:0:0:
192,192,172232,1,0,0:0:0:0:
448,192,172232,1,0,0:0:0:0:
192,192,172532,1,0,0:0:0:0:
64,192,172532,1,0,0:0:0:0:
192,192,172682,128,0,172757:0:0:0:0:
64,192,172832,128,0,172907:0:0:0:0:
320,192,172832,1,0,0:0:0:0:
448,192,172832,1,0,0:0:0:0:
448,192,173132,1,0,0:0:0:0:
192,192,173132,1,0,0:0:0:0:
320,192,173282,1,0,0:0:0:0:
192,192,173282,1,0,0:0:0:0:
192,192,173582,1,0,0:0:0:0:
64,192,173582,1,0,0:0:0:0:
64,192,173732,1,0,0:0:0:0:
320,192,173732,1,0,0:0:0:0:
448,192,174032,128,0,174107:0:0:0:0:
192,192,174032,1,0,0:0:0:0:
320,192,174032,1,0,0:0:0:0:
320,192,174182,1,0,0:0:0:0:
64,192,174182,1,0,0:0:0:0:
320,192,174482,1,0,0:0:0:0:
192,192,174482,1,0,0:0:0:0:
320,192,174632,128,0,174707:0:0:0:0:
64,192,174632,1,0,0:0:0:0:
448,192,174632,1,0,0:0:0:0:
192,192,174932,128,0,175007:0:0:0:0:
320,192,174932,1,0,0:0:0:0:
64,192,174932,1,0,0:0:0:0:
64,192,175232,128,0,175307:0:0:0:0:
192,192,175232,1,0,0:0:0:0:
320,192,175232,1,0,0:0:0:0:
192,192,175532,128,0,175607:0:0:0:0:
448,192,175532,1,0,0:0:0:0:
64,192,175532,1,0,0:0:0:0:
64,192,175682,128,0,175757:0:0:0:0:
320,192,175682,1,0,0:0:0:0:
448,192,175682,1,0,0:0:0:0:
192,192,175982,1,0,0:0:0:0:
64,192,175982,1,0,0:0:0:0:
64,192,176132,1,0,0:0:0:0:
320,192,176132,1,0,0:0:0:0:
320,192,176432,1,0,0:0:0:0:
64,192,176432,1,0,0:0:0:0:
192,192,176582,1,0,0:0:0:0:
320,192,176582,1,0,0:0:0:0:
320,192,176882,1,0,0:0:0:0:
448,192,176882,1,0,0:0:0:0:
448,192,177032,1,0,0:0:0:0:
192,192,177032,1,0,0:0:0:0:
192,192,177332,1,0,0:0:0:0:
64,192,177332,1,0,0:0:0:0:
448,192,177482,128,0,177557:0:0:0:0:
320,192,177632,128,0,177707:0:0:0:0:
192,192,177632,1,0,0:0:0:0:
320,192,177932,1,0,0:0:0:0:
192,192,177932,1,0,0:0:0:0:
64,192,177932,1,0,0:0:0:0:
64,192,178082,1,0,0:0:0:0:
192,192,178082,1,0,0:0:0:0:
448,192,178082,1,0,0:0:0:0:
320,192,178382,1,0,0:0:0:0:
448,192,178382,1,0,0:0:0:0:
64,192,178382,1,0,0:0:0:0:
192,192,178532,1,0,0:0:0:0:
320,192,178532,1,0,0:0:0:0:
448,192,178532,1,0,0:0:0:0:
320,192,178832,1,0,0:0:0:0:
192,192,178832,1,0,0:0:0:0:
64,192,178832,1,0,0:0:0:0:
320,192,178982,1,0,0:0:0:0:
448,192,178982,1,0,0:0:0:0:
64,192,179282,128,0,179432:0:0:0:0:
320,192,179282,1,0,0:0:0:0:
448,192,179282,1,0,0:0:0:0:
64,192,179582,128,0,179732:0:0:0:0:
320,192,179582,1,0,0:0:0:0:
448,192,179582,1,0,0:0:0:0:
192,192,180032,1,0,0:0:0:0:
64,192,180032,1,0,0:0:0:0:
448,192,180032,1,0,0:0:0:0:
320,192,180182,1,0,0:0:0:0:
192,192,180182,1,0,0:0:0:0:
320,192,180332,1,0,0:0:0:0:
448,192,180332,1,0,0:0:0:0:
192,192,180332,1,0,0:0:0:0:
320,192,180482,1,0,0:0:0:0:
320,192,180782,1,0,0:0:0:0:
64,192,180782,1,0,0:0:0:0:
448,192,180932,1,0,0:0:0:0:
64,192,180932,1,0,0:0:0:0:
192,192,180932,1,0,0:0:0:0:
320,192,181082,1,0,0:0:0:0:
192,192,181232,1,0,0:0:0:0:
320,192,181382,1,0,0:0:0:0:
192,192,181382,1,0,0:0:0:0:
448,192,181532,1,0,0:0:0:0:
320,192,181532,1,0,0:0:0:0:
64,192,181532,1,0,0:0:0:0:
192,192,181682,1,0,0:0:0:0:
64,192,181682,1,0,0:0:0:0:
320,192,181832,1,0,0:0:0:0:
448,192,181982,1,0,0:0:0:0:
192,192,181982,1,0,0:0:0:0:
320,192,182132,1,0,0:0:0:0:
192,192,182132,1,0,0:0:0:0:
64,192,182132,1,0,0:0:0:0:
448,192,182282,128,0,182357:0:0:0:0:
192,192,182282,1,0,0:0:0:0:
320,192,182432,128,0,182507:0:0:0:0:
192,192,182432,1,0,0:0:0:0:
64,192,182432,1,0,0:0:0:0:
64,192,182582,1,0,0:0:0:0:
192,192,182582,128,0,182732:0:0:0:0:
448,192,182582,1,0,0:0:0:0:
448,192,182732,1,0,0:0:0:0:
320,192,182732,1,0,0:0:0:0:
64,192,182732,1,0,0:0:0:0:
320,192,182882,128,0,183032:0:0:0:0:
192,192,182882,1,0,0:0:0:0:
320,192,183182,1,0,0:0:0:0:
64,192,183332,128,0,183632:0:0:0:0:
448,192,183332,1,0,0:0:0:0:
320,192,183332,1,0,0:0:0:0:
192,192,183407,128,0,183557:0:0:0:0:
320,192,183482,128,0,183632:0:0:0:0:
448,192,183557,128,0,183632:0:0:0:0:
192,192,183632,128,0,183932:0:0:0:0:
64,192,183782,1,0,0:0:0:0:
448,192,183932,128,0,184232:0:0:0:0:
64,192,183932,1,0,0:0:0:0:
320,192,183932,1,0,0:0:0:0:
320,192,184082,1,0,0:0:0:0:
192,192,184082,1,0,0:0:0:0:
320,192,184232,128,0,184532:0:0:0:0:
64,192,184232,1,0,0:0:0:0:
192,192,184382,1,0,0:0:0:0:
192,192,184532,128,0,184832:0:0:0:0:
448,192,184532,1,0,0:0:0:0:
64,192,184532,1,0,0:0:0:0:
448,192,184682,1,0,0:0:0:0:
64,192,184832,128,0,185732:0:0:0:0:
448,192,184832,1,0,0:0:0:0:
320,192,184832,1,0,0:0:0:0:
320,192,184982,1,0,0:0:0:0:
192,192,184982,1,0,0:0:0:0:
448,192,185132,1,0,0:0:0:0:
320,192,185132,1,0,0:0:0:0:
192,192,185132,1,0,0:0:0:0:
192,192,185282,1,0,0:0:0:0:
448,192,185582,1,0,0:0:0:0:
192,192,185732,128,0,187232:0:0:0:0:
320,192,185732,1,0,0:0:0:0:
448,192,185732,1,0,0:0:0:0:
320,192,185882,1,0,0:0:0:0:
320,192,186032,1,0,0:0:0:0:
448,192,186182,1,0,0:0:0:0:
64,192,186182,1,0,0:0:0:0:
320,192,186332,1,0,0:0:0:0:
448,192,186332,1,0,0:0:0:0:
64,192,186332,1,0,0:0:0:0:
320,192,186482,1,0,0:0:0:0:
64,192,186482,1,0,0:0:0:0:
448,192,186632,1,0,0:0:0:0:
320,192,186782,1,0,0:0:0:0:
448,192,186782,1,0,0:0:0:0:
448,192,186932,1,0,0:0:0:0:
320,192,186932,1,0,0:0:0:0:
64,192,186932,1,0,0:0:0:0:
320,192,187232,1,0,0:0:0:0:
192,192,187382,128,0,187457:0:0:0:0:
448,192,187382,128,0,187457:0:0:0:0:
320,192,187382,1,0,0:0:0:0:
64,192,187532,128,0,187607:0:0:0:0:
320,192,187532,128,0,187607:0:0:0:0:
192,192,187532,1,0,0:0:0:0:
448,192,187532,1,0,0:0:0:0:
64,192,187682,128,0,187757:0:0:0:0:
448,192,187682,128,0,187757:0:0:0:0:
192,192,187832,128,0,187907:0:0:0:0:
192,192,187982,128,0,188132:0:0:0:0:
320,192,187982,1,0,0:0:0:0:
448,192,187982,1,0,0:0:0:0:
448,192,188132,1,0,0:0:0:0:
320,192,188132,1,0,0:0:0:0:
64,192,188132,1,0,0:0:0:0:
320,192,188282,128,0,188357:0:0:0:0:
64,192,188282,1,0,0:0:0:0:
320,192,188432,128,0,188582:0:0:0:0:
192,192,188432,1,0,0:0:0:0:
448,192,188582,1,0,0:0:0:0:
64,192,188582,1,0,0:0:0:0:
448,192,188732,128,0,188807:0:0:0:0:
320,192,188732,1,0,0:0:0:0:
192,192,188732,1,0,0:0:0:0:
64,192,188732,1,0,0:0:0:0:
320,192,188882,128,0,189032:0:0:0:0:
64,192,188882,1,0,0:0:0:0:
192,192,188882,1,0,0:0:0:0:
448,192,189032,1,0,0:0:0:0:
320,192,189182,128,0,189332:0:0:0:0:
64,192,189182,1,0,0:0:0:0:
448,192,189182,1,0,0:0:0:0:
192,192,189332,1,0,0:0:0:0:
64,192,189332,1,0,0:0:0:0:
448,192,189332,1,0,0:0:0:0:
448,192,189632,1,0,0:0:0:0:
192,192,189632,128,0,189782:0:0:0:0:
320,192,189632,1,0,0:0:0:0:
448,192,189932,128,0,190082:0:0:0:0:
64,192,189932,1,0,0:0:0:0:
320,192,190082,128,0,190232:0:0:0:0:
192,192,190082,1,0,0:0:0:0:
64,192,190082,1,0,0:0:0:0:
192,192,190382,128,0,190532:0:0:0:0:
320,192,190532,1,0,0:0:0:0:
448,192,190532,1,0,0:0:0:0:
64,192,190682,128,0,190832:0:0:0:0:
320,192,190682,1,0,0:0:0:0:
320,192,190832,1,0,0:0:0:0:
448,192,190832,1,0,0:0:0:0:
64,192,190982,128,0,191132:0:0:0:0:
448,192,190982,1,0,0:0:0:0:
192,192,190982,1,0,0:0:0:0:
320,192,190982,1,0,0:0:0:0:
192,192,191282,128,0,191432:0:0:0:0:
448,192,191282,1,0,0:0:0:0:
320,192,191282,1,0,0:0:0:0:
320,192,191582,128,0,191732:0:0:0:0:
192,192,191582,1,0,0:0:0:0:
64,192,191582,1,0,0:0:0:0:
448,192,191882,128,0,194432:0:0:0:0:
320,192,191882,1,0,0:0:0:0:
64,192,191882,1,0,0:0:0:0:
320,192,192107,1,0,0:0:0:0:
64,192,192182,1,0,0:0:0:0:
192,192,192257,1,0,0:0:0:0:
64,192,192332,1,0,0:0:0:0:
64,192,193232,128,0,193457:0:0:0:0:
64,192,193532,128,0,193757:0:0:0:0:
64,192,193832,128,0,194057:0:0:0:0:
64,192,194132,128,0,194432:0:0:0:0:
320,192,194432,1,0,0:0:0:0:
192,192,194432,128,0,194732:0:0:0:0:
320,192,194882,128,0,195032:0:0:0:0:
448,192,195182,128,0,195482:0:0:0:0:
64,192,195182,1,0,0:0:0:0:
320,192,195182,1,0,0:0:0:0:
320,192,195482,128,0,195782:0:0:0:0:
192,192,195482,1,0,0:0:0:0:
64,192,195482,1,0,0:0:0:0:
192,192,195782,128,0,196082:0:0:0:0:
64,192,195782,1,0,0:0:0:0:
320,192,196082,128,0,196307:0:0:0:0:
64,192,196082,1,0,0:0:0:0:
448,192,196232,128,0,196607:0:0:0:0:
320,192,196382,128,0,196682:0:0:0:0:
448,192,196682,128,0,196907:0:0:0:0:
64,192,196832,1,0,0:0:0:0:
192,192,196907,1,0,0:0:0:0:
448,192,196982,128,0,197132:0:0:0:0:
64,192,196982,1,0,0:0:0:0:
64,192,197132,128,0,198332:0:0:0:0:
320,192,197132,1,0,0:0:0:0:
448,192,197394,128,0,197507:0:0:0:0:
192,192,197469,128,0,197657:0:0:0:0:
448,192,197582,128,0,197657:0:0:0:0:
320,192,197657,128,0,197957:0:0:0:0:
448,192,197807,128,0,197882:0:0:0:0:
448,192,197957,128,0,198032:0:0:0:0:
320,192,198032,128,0,198257:0:0:0:0:
448,192,198332,128,0,198407:0:0:0:0:
320,192,198332,128,0,198482:0:0:0:0:
448,192,198482,128,0,198707:0:0:0:0:
320,192,198557,128,0,198932:0:0:0:0:
448,192,198932,128,0,199007:0:0:0:0:
192,192,198932,128,0,199157:0:0:0:0:
448,192,199082,128,0,199232:0:0:0:0:
320,192,199232,128,0,199307:0:0:0:0:
64,192,199232,128,0,200432:0:0:0:0:
448,192,199307,128,0,199457:0:0:0:0:
192,192,199382,128,0,199982:0:0:0:0:
448,192,199607,128,0,199832:0:0:0:0:
448,192,200057,128,0,200207:0:0:0:0:
192,192,200132,128,0,200207:0:0:0:0:
192,192,200282,128,0,200432:0:0:0:0:
448,192,200357,128,0,200432:0:0:0:0:
320,192,200432,1,0,0:0:0:0:
320,192,200582,1,0,0:0:0:0:
320,192,200732,1,0,0:0:0:0:
192,192,200732,1,0,0:0:0:0:
448,192,201032,1,0,0:0:0:0:
192,192,201032,1,0,0:0:0:0:
64,192,201032,1,0,0:0:0:0:
320,192,201182,1,0,0:0:0:0:
192,192,201332,1,0,0:0:0:0:
320,192,201632,1,0,0:0:0:0:
448,192,201707,1,0,0:0:0:0:
64,192,201782,1,0,0:0:0:0:
320,192,201857,1,0,0:0:0:0:
192,192,201932,1,0,0:0:0:0:
192,192,202157,1,0,0:0:0:0:
320,192,202232,1,0,0:0:0:0:
192,192,202307,1,0,0:0:0:0:
320,192,202382,1,0,0:0:0:0:
448,192,202382,1,0,0:0:0:0:
64,192,202382,1,0,0:0:0:0:
192,192,202532,1,0,0:0:0:0:
320,192,202682,1,0,0:0:0:0:
192,192,202682,1,0,0:0:0:0:
192,192,203132,1,0,0:0:0:0:
64,192,203132,1,0,0:0:0:0:
192,192,203357,1,0,0:0:0:0:
320,192,203432,1,0,0:0:0:0:
448,192,203432,1,0,0:0:0:0:
64,192,203432,1,0,0:0:0:0:
192,192,203582,1,0,0:0:0:0:
320,192,203732,1,0,0:0:0:0:
448,192,203882,128,0,204182:0:0:0:0:
192,192,204032,1,0,0:0:0:0:
64,192,204107,1,0,0:0:0:0:
320,192,204182,128,0,204482:0:0:0:0:
192,192,204257,1,0,0:0:0:0:
64,192,204332,1,0,0:0:0:0:
192,192,204482,128,0,204857:0:0:0:0:
448,192,204557,1,0,0:0:0:0:
64,192,204632,128,0,205007:0:0:0:0:
320,192,204632,1,0,0:0:0:0:
448,192,204782,1,0,0:0:0:0:
320,192,204782,128,0,204932:0:0:0:0:
192,192,204932,128,0,205082:0:0:0:0:
64,192,205082,128,0,205232:0:0:0:0:
320,192,205082,1,0,0:0:0:0:
448,192,205232,1,0,0:0:0:0:
192,192,205232,1,0,0:0:0:0:
320,192,205382,1,0,0:0:0:0:
192,192,205532,1,0,0:0:0:0:
64,192,205832,1,0,0:0:0:0:
192,192,205832,1,0,0:0:0:0:
320,192,205832,1,0,0:0:0:0:
448,192,205982,1,0,0:0:0:0:
320,192,206132,1,0,0:0:0:0:
320,192,206432,1,0,0:0:0:0:
192,192,206507,1,0,0:0:0:0:
448,192,206582,1,0,0:0:0:0:
64,192,206657,1,0,0:0:0:0:
192,192,206732,1,0,0:0:0:0:
320,192,206957,1,0,0:0:0:0:
448,192,207032,1,0,0:0:0:0:
320,192,207107,1,0,0:0:0:0:
448,192,207182,1,0,0:0:0:0:
192,192,207182,1,0,0:0:0:0:
64,192,207182,1,0,0:0:0:0:
320,192,207332,1,0,0:0:0:0:
448,192,207482,1,0,0:0:0:0:
320,192,207482,1,0,0:0:0:0:
64,192,207932,1,0,0:0:0:0:
320,192,207932,1,0,0:0:0:0:
64,192,208157,1,0,0:0:0:0:
448,192,208232,1,0,0:0:0:0:
320,192,208232,1,0,0:0:0:0:
192,192,208232,1,0,0:0:0:0:
320,192,208382,1,0,0:0:0:0:
192,192,208532,1,0,0:0:0:0:
192,192,208682,128,0,208982:0:0:0:0:
448,192,208682,1,0,0:0:0:0:
320,192,208832,1,0,0:0:0:0:
448,192,208907,1,0,0:0:0:0:
64,192,208982,128,0,209282:0:0:0:0:
320,192,209057,1,0,0:0:0:0:
448,192,209132,1,0,0:0:0:0:
192,192,209282,128,0,209582:0:0:0:0:
448,192,209432,1,0,0:0:0:0:
320,192,209582,128,0,209882:0:0:0:0:
64,192,209582,1,0,0:0:0:0:
448,192,209582,1,0,0:0:0:0:
64,192,209732,1,0,0:0:0:0:
448,192,209882,128,0,210032:0:0:0:0:
192,192,209882,1,0,0:0:0:0:
320,192,210032,1,0,0:0:0:0:
192,192,210032,1,0,0:0:0:0:
64,192,210182,1,0,0:0:0:0:
320,192,210332,1,0,0:0:0:0:
192,192,210632,1,0,0:0:0:0:
64,192,210632,1,0,0:0:0:0:
448,192,210632,1,0,0:0:0:0:
320,192,210782,1,0,0:0:0:0:
192,192,210932,1,0,0:0:0:0:
192,192,211232,1,0,0:0:0:0:
448,192,211307,1,0,0:0:0:0:
320,192,211382,1,0,0:0:0:0:
64,192,211457,1,0,0:0:0:0:
192,192,211532,1,0,0:0:0:0:
448,192,211757,1,0,0:0:0:0:
320,192,211832,1,0,0:0:0:0:
448,192,211907,1,0,0:0:0:0:
320,192,211982,1,0,0:0:0:0:
192,192,211982,1,0,0:0:0:0:
64,192,211982,1,0,0:0:0:0:
192,192,212132,1,0,0:0:0:0:
320,192,212282,1,0,0:0:0:0:
64,192,212282,1,0,0:0:0:0:
192,192,212732,1,0,0:0:0:0:
320,192,212732,1,0,0:0:0:0:
192,192,212957,1,0,0:0:0:0:
448,192,213032,1,0,0:0:0:0:
64,192,213032,1,0,0:0:0:0:
320,192,213032,1,0,0:0:0:0:
192,192,213182,1,0,0:0:0:0:
448,192,213332,1,0,0:0:0:0:
192,192,213482,128,0,213782:0:0:0:0:
320,192,213632,1,0,0:0:0:0:
448,192,213707,1,0,0:0:0:0:
64,192,213782,128,0,214082:0:0:0:0:
320,192,213857,1,0,0:0:0:0:
448,192,213932,1,0,0:0:0:0:
320,192,214082,128,0,214307:0:0:0:0:
64,192,214232,128,0,214607:0:0:0:0:
192,192,214232,1,0,0:0:0:0:
320,192,214382,128,0,214682:0:0:0:0:
192,192,214382,1,0,0:0:0:0:
448,192,214382,1,0,0:0:0:0:
192,192,214532,128,0,214757:0:0:0:0:
448,192,214532,1,0,0:0:0:0:
64,192,214682,128,0,214832:0:0:0:0:
448,192,214832,1,0,0:0:0:0:
320,192,214832,1,0,0:0:0:0:
192,192,214982,1,0,0:0:0:0:
320,192,215132,1,0,0:0:0:0:
64,192,215432,1,0,0:0:0:0:
192,192,215432,1,0,0:0:0:0:
320,192,215432,1,0,0:0:0:0:
448,192,215582,1,0,0:0:0:0:
320,192,215732,1,0,0:0:0:0:
448,192,216032,1,0,0:0:0:0:
192,192,216107,1,0,0:0:0:0:
320,192,216182,1,0,0:0:0:0:
64,192,216257,1,0,0:0:0:0:
192,192,216332,1,0,0:0:0:0:
64,192,216557,1,0,0:0:0:0:
192,192,216632,1,0,0:0:0:0:
64,192,216707,1,0,0:0:0:0:
192,192,216782,1,0,0:0:0:0:
320,192,216782,1,0,0:0:0:0:
448,192,216782,1,0,0:0:0:0:
320,192,216932,1,0,0:0:0:0:
448,192,217082,1,0,0:0:0:0:
192,192,217082,1,0,0:0:0:0:
192,192,217532,1,0,0:0:0:0:
448,192,217532,1,0,0:0:0:0:
320,192,217757,1,0,0:0:0:0:
192,192,217832,1,0,0:0:0:0:
64,192,217832,1,0,0:0:0:0:
448,192,217832,1,0,0:0:0:0:
320,192,217982,1,0,0:0:0:0:
192,192,218132,1,0,0:0:0:0:
320,192,218282,128,0,218582:0:0:0:0:
64,192,218582,128,0,218882:0:0:0:0:
192,192,218882,128,0,219182:0:0:0:0:
320,192,219182,128,0,219482:0:0:0:0:
448,192,219482,128,0,219632:0:0:0:0:
192,192,219632,128,0,219707:0:0:0:0:
320,192,219632,128,0,219707:0:0:0:0:
320,192,219782,128,0,219857:0:0:0:0:
64,192,219782,128,0,219857:0:0:0:0:
448,192,220082,128,0,220157:0:0:0:0:
192,192,220082,128,0,220157:0:0:0:0:
64,192,220382,128,0,220457:0:0:0:0:
192,192,220382,128,0,220457:0:0:0:0:
448,192,220382,128,0,220457:0:0:0:0:
320,192,220682,128,0,220757:0:0:0:0:
192,192,220682,128,0,220757:0:0:0:0:
64,192,220682,128,0,220757:0:0:0:0:
192,192,220982,128,0,221057:0:0:0:0:
320,192,221282,128,0,221357:0:0:0:0:
448,192,221582,128,0,221657:0:0:0:0:
64,192,222032,128,0,222069:0:0:0:0:
448,192,222069,128,0,222107:0:0:0:0:
320,192,222107,128,0,222182:0:0:0:0:
192,192,222182,128,0,222332:0:0:0:0:
64,192,222332,128,0,224432:0:0:0:0:
