osu file format v14

[General]
AudioFilename: audio.mp3
AudioLeadIn: 0
PreviewTime: 86487
Countdown: 0
SampleSet: Normal
StackLeniency: 0
Mode: 1
LetterboxInBreaks: 0
WidescreenStoryboard: 1

[Editor]
Bookmarks: 11714,21314,40514,59714,86562,115362
DistanceSpacing: 0.5
BeatDivisor: 4
GridSize: 32
TimelineZoom: 2.38

[Metadata]
Title:Mei
TitleUnicode:冥
Artist:Amuro vs. Killer
ArtistUnicode:Amuro vs. Killer
Creator:radar
Version:Kantan
Source:beatmania IIDX 12 HAPPY SKY
Tags:genjuro ddr DanceDanceRevolution X2 D.J.Amuro 皆伝 dj TAKA Tatsh HUMAN SEQUENCER 冥王星 electronic rhythm game instrumental
BeatmapID:4120423
BeatmapSetID:1981014

[Difficulty]
HPDrainRate:8
CircleSize:5
OverallDifficulty:3
ApproachRate:5
SliderMultiplier:1.4
SliderTickRate:1

[Events]
//Background and Video events
0,0,"ga.jpg",0,0
//Break Periods
2,59914,68114
//Storyboard Layer 0 (Background)
//Storyboard Layer 1 (Fail)
//Storyboard Layer 2 (Pass)
//Storyboard Layer 3 (Foreground)
//Storyboard Layer 4 (Overlay)
//Storyboard Sound Samples

[TimingPoints]
2114,300,4,1,0,50,1,0
21164,-100,4,1,0,75,0,0
40364,-100,4,1,0,88,0,0
59714,600,4,1,0,88,1,0
59714,-50,4,1,0,88,0,0
59864,-100,4,1,0,33,0,0
69177,-100,4,1,0,88,0,0
69314,545.454545454546,4,1,0,88,1,0
69314,-57.1428571428571,4,1,0,88,0,0
69450,-100,4,1,0,33,0,0
71359,-100,4,1,0,88,0,0
71495,500,4,1,0,88,1,0
71495,-62.2853823119457,4,1,0,88,0,0
71620,-100,4,1,0,33,0,0
73370,-100,4,1,0,88,0,0
73495,461.538461538462,4,1,0,88,1,0
73495,-67.4239778267664,4,1,0,88,0,0
73610,-100,4,1,0,33,0,0
75233,-100,4,1,0,88,0,0
75341,428.571428571429,4,1,0,88,1,0
75341,-72.5589718792446,4,1,0,88,0,0
75448,-100,4,1,0,33,0,0
76948,-100,4,1,0,88,0,0
77055,400,4,1,0,88,1,0
77055,-77.6906265903216,4,1,0,88,0,0
77155,-100,4,1,0,33,0,0
77683,-100,4,1,0,33,0,0
77755,-100,4,1,0,88,0,0
77955,-100,4,1,0,33,0,0
78555,-100,4,1,0,88,0,0
78655,375,4,1,0,88,1,0
78655,-82.8191561550435,4,1,0,88,0,0
78748,-100,4,1,0,33,0,0
79311,-100,4,1,0,88,0,0
79498,-100,4,1,0,33,0,0
80061,-100,4,1,0,88,0,0
80155,352.941176470588,4,1,0,88,1,0
80155,-87.944766661681,4,1,0,88,0,0
80857,-87.9210109745915,4,1,0,88,0,0
81566,333.333333333333,4,1,0,88,1,0
81566,-93.0676600049617,4,1,0,88,0,0
82229,-93.0439236918955,4,1,0,88,0,0
82899,315.789473684211,4,1,0,88,1,0
82899,-98.1879507521882,4,1,0,88,0,0
83211,-98.1761109158421,4,1,0,88,0,0
83527,-98.1642363613537,4,1,0,88,0,0
83843,-98.1523646790098,4,1,0,88,0,0
84162,300,4,1,0,88,1,0
84162,-103.305785123967,4,1,0,88,0,0
85437,-100,4,1,0,33,0,0
86487,-100,4,1,0,88,0,0
86562,300,4,1,0,50,1,8
86622,300,4,1,0,50,1,0
86622,-100,4,1,0,88,0,1
115422,-100,4,1,0,88,0,0
119622,333.333333333333,4,1,0,88,1,8
119622,-100,4,1,0,88,0,8
119785,-100,4,1,0,88,0,8
119952,-100,4,1,0,88,0,8
120288,342.857142857143,4,1,0,88,1,0
120288,-100,4,1,0,88,0,0
120627,-100,4,1,0,88,0,0
120970,-100,4,1,0,88,0,0
121313,-100,4,1,0,88,0,0
121659,363.636363636364,4,1,0,88,1,0
121659,-100,4,1,0,88,0,0
122386,571.428571428571,4,1,0,88,1,8
122386,-100,4,1,0,88,0,8
122957,450.001125002813,4,1,0,88,1,8
122957,-100,4,1,0,88,0,8
123407,545.454545454546,4,1,0,88,1,0
123407,-100,4,1,0,88,0,0
123952,666.666666666667,4,1,0,88,1,8
123952,-100,4,1,0,88,0,8
124282,-100,4,1,0,88,0,8
124618,909.090909090909,4,1,0,88,1,8
124618,-100,4,1,0,88,0,8
125069,-100,4,1,0,88,0,8
125524,-100,4,1,0,88,0,8
125527,909.090909090909,4,1,0,36,1,0
125527,-14.4927536231884,4,1,0,36,0,8

[HitObjects]
123,285,11714,5,8,0:0:0:0:
123,285,12164,1,0,0:0:0:0:
123,285,12614,1,0,0:0:0:0:
123,285,13064,1,0,0:0:0:0:
112,292,14114,1,8,0:0:0:0:
134,283,14564,1,0,0:0:0:0:
134,283,15014,1,0,0:0:0:0:
143,283,15464,1,0,0:0:0:0:
155,280,16514,1,8,0:0:0:0:
155,280,16964,1,0,0:0:0:0:
155,280,17414,1,0,0:0:0:0:
155,280,17864,1,0,0:0:0:0:
155,280,18914,1,8,0:0:0:0:
155,280,19364,1,0,0:0:0:0:
157,275,19814,1,0,0:0:0:0:
153,280,21314,1,0,0:0:0:0:
153,280,21764,1,8,0:0:0:0:
177,272,22214,1,8,0:0:0:0:
183,290,22514,1,0,0:0:0:0:
181,288,22964,1,8,0:0:0:0:
183,275,23414,1,8,0:0:0:0:
145,285,23714,1,0,0:0:0:0:
172,274,24614,1,8,0:0:0:0:
172,274,24914,1,0,0:0:0:0:
172,274,25364,1,8,0:0:0:0:
172,274,25814,1,8,0:0:0:0:
172,274,26114,1,0,0:0:0:0:
144,284,26564,1,8,0:0:0:0:
171,268,27014,1,8,0:0:0:0:
166,277,27314,1,0,0:0:0:0:
166,277,27764,1,8,0:0:0:0:
166,277,28214,1,8,0:0:0:0:
166,277,28514,1,0,0:0:0:0:
166,277,29414,1,8,0:0:0:0:
166,277,29714,1,0,0:0:0:0:
166,277,30314,1,0,0:0:0:0:
152,274,30614,1,8,0:0:0:0:
162,268,30914,1,8,0:0:0:0:
171,275,31364,1,0,0:0:0:0:
159,261,31814,1,0,0:0:0:0:
158,262,32114,1,8,0:0:0:0:
159,261,32564,1,0,0:0:0:0:
158,262,33014,1,0,0:0:0:0:
159,261,33314,1,8,0:0:0:0:
162,259,33764,1,0,0:0:0:0:
159,261,34214,1,0,0:0:0:0:
162,259,34514,1,8,0:0:0:0:
162,259,35414,1,0,0:0:0:0:
162,259,35714,1,8,0:0:0:0:
162,259,36164,1,0,0:0:0:0:
162,259,36614,1,0,0:0:0:0:
162,259,36914,1,8,0:0:0:0:
162,259,37364,1,0,0:0:0:0:
162,259,37814,1,0,0:0:0:0:
162,259,38114,1,8,0:0:0:0:
162,259,38564,1,0,0:0:0:0:
162,259,39014,1,0,0:0:0:0:
82,56,39314,1,12,0:0:0:0:
134,275,40514,1,8,0:0:0:0:
134,275,40964,1,8,0:0:0:0:
136,264,41414,1,8,0:0:0:0:
137,247,41864,1,8,0:0:0:0:
137,247,42314,1,0,0:0:0:0:
137,247,42614,1,0,0:0:0:0:
137,247,42914,1,8,0:0:0:0:
137,247,43514,1,8,0:0:0:0:
137,247,44114,1,0,0:0:0:0:
150,249,44414,1,0,0:0:0:0:
143,237,44714,1,8,0:0:0:0:
143,237,45014,1,8,0:0:0:0:
143,237,45314,1,0,0:0:0:0:
143,237,45914,1,0,0:0:0:0:
143,237,46514,1,8,0:0:0:0:
143,237,47114,1,8,0:0:0:0:
143,237,47714,1,0,0:0:0:0:
143,237,48614,1,0,0:0:0:0:
149,235,48914,1,8,0:0:0:0:
149,235,49214,1,8,0:0:0:0:
137,278,50114,1,0,0:0:0:0:
137,278,50714,1,0,0:0:0:0:
140,271,51314,1,8,0:0:0:0:
133,263,51764,1,0,0:0:0:0:
146,261,52214,1,8,0:0:0:0:
146,261,52514,1,0,0:0:0:0:
146,261,52814,1,0,0:0:0:0:
146,261,53114,1,8,0:0:0:0:
146,261,53714,1,0,0:0:0:0:
146,261,54314,1,8,0:0:0:0:
148,239,54614,1,8,0:0:0:0:
146,261,54914,1,0,0:0:0:0:
147,256,55514,1,8,0:0:0:0:
147,256,56114,1,8,0:0:0:0:
147,256,56714,1,0,0:0:0:0:
159,255,57314,1,8,0:0:0:0:
159,255,57764,1,8,0:0:0:0:
159,255,58214,1,8,0:0:0:0:
158,246,58514,1,0,0:0:0:0:
161,247,58814,1,8,0:0:0:0:
161,247,59114,1,0,0:0:0:0:
158,246,59414,1,8,0:0:0:0:
161,247,59714,1,0,0:0:0:0:
131,280,69314,5,0,0:0:0:0:
131,280,71495,1,0,0:0:0:0:
131,280,73495,1,0,0:0:0:0:
131,280,75341,1,0,0:0:0:0:
131,280,77055,1,0,0:0:0:0:
131,280,78655,1,0,0:0:0:0:
131,280,80155,1,0,0:0:0:0:
131,280,80860,1,0,0:0:0:0:
131,280,81566,1,0,0:0:0:0:
131,280,82232,1,0,0:0:0:0:
131,280,82899,1,0,0:0:0:0:
131,280,83214,1,0,0:0:0:0:
131,280,83530,1,0,0:0:0:0:
131,280,83846,1,0,0:0:0:0:
131,280,84162,1,0,0:0:0:0:
256,192,84312,12,0,85362,0:0:0:0:
91,78,86622,5,12,0:0:0:0:
143,315,87222,1,0,0:0:0:0:
143,300,87822,1,8,0:0:0:0:
143,300,88122,1,0,0:0:0:0:
143,300,88422,1,8,0:0:0:0:
143,300,88722,1,8,0:0:0:0:
143,300,89022,1,0,0:0:0:0:
143,300,89622,1,8,0:0:0:0:
143,300,90222,1,0,0:0:0:0:
143,300,90822,1,0,0:0:0:0:
143,300,91122,1,0,0:0:0:0:
143,300,91422,1,8,0:0:0:0:
143,300,92022,1,0,0:0:0:0:
120,285,92622,1,8,0:0:0:0:
142,306,93222,1,0,0:0:0:0:
143,300,93522,1,8,0:0:0:0:
140,298,93822,1,0,0:0:0:0:
143,300,95022,1,0,0:0:0:0:
140,287,95322,1,0,0:0:0:0:
140,287,95622,1,8,0:0:0:0:
140,287,95922,1,8,0:0:0:0:
140,287,96222,1,0,0:0:0:0:
140,287,96822,1,8,0:0:0:0:
140,287,97272,1,8,0:0:0:0:
140,287,98022,1,8,0:0:0:0:
140,287,98472,1,8,0:0:0:0:
143,280,99222,1,8,0:0:0:0:
143,280,99672,1,8,0:0:0:0:
143,280,100422,1,8,0:0:0:0:
143,280,101022,1,0,0:0:0:0:
149,248,101322,1,0,0:0:0:0:
143,280,101622,1,8,0:0:0:0:
137,255,102072,1,8,0:0:0:0:
137,255,102822,1,0,0:0:0:0:
129,259,103422,1,8,0:0:0:0:
145,256,103722,1,0,0:0:0:0:
129,259,104022,1,8,0:0:0:0:
139,256,104322,1,0,0:0:0:0:
156,244,104622,1,8,0:0:0:0:
120,279,105822,1,0,0:0:0:0:
120,279,106122,1,8,0:0:0:0:
132,275,106422,1,0,0:0:0:0:
131,272,106722,1,8,0:0:0:0:
126,266,107022,1,0,0:0:0:0:
132,265,107322,1,0,0:0:0:0:
132,265,107622,1,8,0:0:0:0:
117,269,108222,1,0,0:0:0:0:
117,269,108822,1,8,0:0:0:0:
117,269,109422,1,8,0:0:0:0:
117,269,109722,1,0,0:0:0:0:
132,264,110022,1,8,0:0:0:0:
132,264,110622,1,0,0:0:0:0:
136,257,111522,1,8,0:0:0:0:
146,240,111822,1,0,0:0:0:0:
145,238,112422,1,8,0:0:0:0:
138,266,113022,1,0,0:0:0:0:
148,255,113622,1,8,0:0:0:0:
148,255,113922,1,0,0:0:0:0:
151,246,114222,1,8,0:0:0:0:
155,245,114822,1,0,0:0:0:0:
151,246,115122,1,8,0:0:0:0:
155,245,115422,1,0,0:0:0:0:
