osu file format v14

[General]
AudioFilename: audio.mp3
AudioLeadIn: 0
PreviewTime: 86487
Countdown: 0
SampleSet: Normal
StackLeniency: 0.7
Mode: 1
LetterboxInBreaks: 0
WidescreenStoryboard: 0

[Editor]
DistanceSpacing: 0.5
BeatDivisor: 4
GridSize: 32
TimelineZoom: 2.7

[Metadata]
Title:Mei
TitleUnicode:冥
Artist:Amuro vs. Killer
ArtistUnicode:Amuro vs. Killer
Creator:radar
Version:Another
Source:beatmania IIDX 12 HAPPY SKY
Tags:genjuro ddr DanceDanceRevolution X2 D.J.Amuro 皆伝 dj TAKA Tatsh HUMAN SEQUENCER 冥王星 electronic rhythm game instrumental
BeatmapID:4113536
BeatmapSetID:1981014

[Difficulty]
HPDrainRate:6
CircleSize:5
OverallDifficulty:6.5
ApproachRate:5
SliderMultiplier:1.4
SliderTickRate:1

[Events]
//Background and Video events
0,0,"ga.jpg",0,0
//Break Periods
2,59914,68114
//Storyboard Layer 0 (Background)
//Storyboard Layer 1 (Fail)
//Storyboard Layer 2 (Pass)
//Storyboard Layer 3 (Foreground)
//Storyboard Layer 4 (Overlay)
//Storyboard Sound Samples

[TimingPoints]
2114,300,4,1,0,50,1,0
21164,-100,4,1,0,75,0,0
40439,-100,4,1,0,88,0,0
59714,600,4,1,0,88,1,0
59714,-50,4,1,0,88,0,0
59864,-100,4,1,0,33,0,0
69164,-100,4,1,0,88,0,0
69314,545.454545454546,4,1,0,88,1,0
69450,-100,4,1,0,33,0,0
71359,-100,4,1,0,88,0,0
71495,500,4,1,0,88,1,0
71495,-85.8678925932567,4,1,0,88,0,0
71620,-85.8678925932567,4,1,0,33,0,0
73370,-85.8678925932567,4,1,0,88,0,0
73495,461.538461538462,4,1,0,88,1,0
73495,-77.8302294171959,4,1,0,88,0,0
73610,-77.8302294171959,4,1,0,33,0,0
75225,-77.8302294171959,4,1,0,88,0,0
75341,428.571428571429,4,1,0,88,1,0
75341,-72.8369015489674,4,1,0,88,0,0
75448,-72.8369015489674,4,1,0,33,0,0
76948,-72.8369015489674,4,1,0,88,0,0
77055,400,4,1,0,88,1,0
77055,-69.5765797463305,4,1,0,88,0,0
77155,-69.5765797463305,4,1,0,33,0,0
77755,-69.5765797463305,4,1,0,88,0,0
77852,-66.2245661502727,4,1,0,88,0,0
77955,-66.2245661502727,4,1,0,33,0,0
78561,-66.2245661502727,4,1,0,88,0,0
78655,375,4,1,0,88,1,0
78655,-67.3927354123067,4,1,0,88,0,0
78748,-67.3927354123067,4,1,0,33,0,0
79311,-67.3927354123067,4,1,0,88,0,0
79402,-64.6087279102393,4,1,0,88,0,0
79498,-64.6087279102393,4,1,0,33,0,0
80061,-64.6087279102393,4,1,0,88,0,0
80155,352.941176470588,4,1,0,88,1,0
80155,-65.9234618883853,4,1,0,88,0,0
80328,-65.3154049869458,4,1,0,88,0,0
80681,-64.1290328343489,4,1,0,88,0,0
80857,-63.5534833862349,4,1,0,88,0,0
81034,-62.984989742568,4,1,0,88,0,0
81387,-61.8810500035794,4,1,0,88,0,0
81566,333.333333333333,4,1,0,88,1,0
81566,-64.9535033257012,4,1,0,88,0,0
81896,-63.9060346960762,4,1,0,88,0,0
82229,-62.891813774706,4,1,0,88,0,0
82563,-61.9063780045481,4,1,0,88,0,0
82899,315.789473684211,4,1,0,88,1,0
82899,-64.340504657434,4,1,0,88,0,0
83053,-63.877269297854,4,1,0,88,0,0
83211,-63.4177691717329,4,1,0,88,0,0
83369,-62.9648326442442,4,1,0,88,0,0
83527,-62.5183200789049,4,1,0,88,0,0
83685,-62.0780957722469,4,1,0,88,0,0
83843,-61.6440278163136,4,1,0,88,0,0
84001,-61.215987966884,4,1,0,88,0,0
84162,300,4,1,0,88,1,0
84162,-63.9935279127902,4,1,0,88,0,0
84234,-63.7847382732099,4,1,0,88,0,0
84309,-63.5773066255295,4,1,0,88,0,0
84384,-63.3712197638913,4,1,0,88,0,0
84459,-63.1664646531123,4,1,0,88,0,0
84534,-62.9630284259359,4,1,0,88,0,0
84609,-62.7608983803363,4,1,0,88,0,0
84684,-62.560061976875,4,1,0,88,0,0
84759,-62.3605068361074,4,1,0,88,0,0
84834,-62.1622207360394,4,1,0,88,0,0
84909,-61.965191609632,4,1,0,88,0,0
84984,-61.7694075423534,4,1,0,88,0,0
85059,-61.5748567697772,4,1,0,88,0,0
85134,-61.3815276752261,4,1,0,88,0,0
85209,-61.1894087874595,4,1,0,88,0,0
85284,-60.9984887784048,4,1,0,88,0,0
85359,-60.8087564609304,4,1,0,88,0,0
85437,-60.8087564609304,4,1,0,33,0,0
86487,-60.8087564609304,4,1,0,88,0,0
86562,300,4,1,0,50,1,8
86622,300,4,1,0,50,1,0
86622,-95.2380952380952,4,1,0,88,0,1
115422,-95.2380952380952,4,1,0,88,0,0
115647,-105.263157894737,4,1,0,62,0,0
119622,333.333333333333,4,1,0,48,1,8
119622,-95.2380952380952,4,1,0,48,0,8
120288,342.857142857143,4,1,0,44,1,0
120456,-100.657085766984,4,1,0,44,0,0
120627,-101.322863884269,4,1,0,44,0,0
120799,-102.001479693158,4,1,0,44,0,0
120970,-102.685221481772,4,1,0,44,0,0
121142,-103.382271686795,4,1,0,44,0,0
121313,-104.084714109747,4,1,0,44,0,0
121485,-104.800960192038,4,1,0,44,0,0
121659,363.636363636364,4,1,0,40,1,0
121659,-99.4930021638046,4,1,0,40,0,0
122386,571.428571428571,4,1,0,40,1,8
122386,-65.2238867908869,4,1,0,40,0,8
122957,450.001125002813,4,1,0,40,1,8
122957,-84.8339936362201,4,1,0,40,0,8
123407,545.454545454546,4,1,0,36,1,0
123407,-71.3530445979744,4,1,0,36,0,0
123952,666.666666666667,4,1,0,36,1,8
123952,-59.7919057552452,4,1,0,36,0,8
124282,-60.6888651487264,4,1,0,36,0,8
124618,909.090909090909,4,1,0,36,1,8
124618,-45.18297344092,4,1,0,36,0,8
125069,-46.1410356492324,4,1,0,36,0,8
125527,909.090909090909,4,1,0,36,1,0
125527,-47.1428571428572,4,1,0,36,0,8

[HitObjects]
120,300,2114,5,8,0:0:0:0:
120,300,2414,1,0,0:0:0:0:
120,300,2564,1,8,0:0:0:0:
126,311,2864,1,0,0:0:0:0:
126,309,3014,1,8,0:0:0:0:
126,307,3464,1,0,0:0:0:0:
144,292,3914,1,0,0:0:0:0:
128,295,4514,1,8,0:0:0:0:
144,292,4814,1,0,0:0:0:0:
139,290,4964,1,0,0:0:0:0:
139,290,5114,1,0,0:0:0:0:
139,290,5414,1,0,0:0:0:0:
156,295,6914,1,8,0:0:0:0:
156,295,7214,1,0,0:0:0:0:
156,295,7364,1,8,0:0:0:0:
186,281,7664,1,0,0:0:0:0:
156,295,7814,1,8,0:0:0:0:
161,300,8264,1,0,0:0:0:0:
177,295,8714,1,0,0:0:0:0:
76,290,9314,1,8,0:0:0:0:
110,279,9614,1,0,0:0:0:0:
110,279,9764,1,8,0:0:0:0:
110,279,10064,1,0,0:0:0:0:
110,279,10214,1,8,0:0:0:0:
110,279,10664,1,0,0:0:0:0:
110,279,11114,1,0,0:0:0:0:
110,279,11714,1,0,0:0:0:0:
110,279,11864,1,0,0:0:0:0:
119,273,12014,1,8,0:0:0:0:
133,288,12239,1,0,0:0:0:0:
133,288,12314,1,0,0:0:0:0:
133,288,12464,1,0,0:0:0:0:
133,288,12614,1,8,0:0:0:0:
140,283,12764,1,0,0:0:0:0:
139,283,12839,1,8,0:0:0:0:
138,284,12914,1,0,0:0:0:0:
118,289,13064,1,0,0:0:0:0:
133,288,13214,1,8,0:0:0:0:
133,288,13364,1,0,0:0:0:0:
133,288,13439,1,8,0:0:0:0:
133,288,13514,1,0,0:0:0:0:
133,288,13589,1,0,0:0:0:0:
136,287,13664,1,8,0:0:0:0:
128,302,13814,1,0,0:0:0:0:
131,300,13889,1,8,0:0:0:0:
131,300,13964,1,8,0:0:0:0:
133,298,14114,1,0,0:0:0:0:
140,283,14264,1,0,0:0:0:0:
140,283,14414,1,8,0:0:0:0:
140,283,14639,1,0,0:0:0:0:
140,283,14714,1,0,0:0:0:0:
140,283,14864,1,0,0:0:0:0:
136,282,15014,1,8,0:0:0:0:
140,283,15164,1,0,0:0:0:0:
62,316,15239,1,0,0:0:0:0:
140,283,15314,1,8,0:0:0:0:
128,269,15464,1,0,0:0:0:0:
147,273,15539,1,0,0:0:0:0:
145,281,15614,1,8,0:0:0:0:
147,273,15764,1,0,0:0:0:0:
147,273,15839,1,0,0:0:0:0:
147,273,15914,1,0,0:0:0:0:
147,273,16064,1,8,0:0:0:0:
139,268,16214,1,0,0:0:0:0:
139,268,16289,1,8,0:0:0:0:
139,268,16364,1,8,0:0:0:0:
139,268,16439,1,8,0:0:0:0:
139,268,16514,1,0,0:0:0:0:
163,262,16664,1,0,0:0:0:0:
147,273,16814,1,8,0:0:0:0:
148,267,17039,1,0,0:0:0:0:
148,267,17114,1,0,0:0:0:0:
148,267,17264,1,0,0:0:0:0:
148,267,17414,1,8,0:0:0:0:
148,266,17564,1,0,0:0:0:0:
148,266,17639,1,8,0:0:0:0:
148,266,17714,1,0,0:0:0:0:
148,267,17864,1,0,0:0:0:0:
148,267,18014,1,8,0:0:0:0:
148,267,18164,1,0,0:0:0:0:
148,267,18239,1,8,0:0:0:0:
148,267,18314,1,0,0:0:0:0:
148,267,18389,1,0,0:0:0:0:
148,266,18464,1,8,0:0:0:0:
139,278,18614,1,0,0:0:0:0:
139,278,18689,1,8,0:0:0:0:
139,278,18764,1,8,0:0:0:0:
143,271,18914,1,0,0:0:0:0:
143,271,19064,1,0,0:0:0:0:
143,271,19214,1,8,0:0:0:0:
143,271,19439,1,0,0:0:0:0:
143,271,19514,1,0,0:0:0:0:
143,271,19664,1,0,0:0:0:0:
143,271,19814,1,8,0:0:0:0:
143,271,19964,1,0,0:0:0:0:
112,303,21314,1,0,0:0:0:0:
112,303,21389,1,8,0:0:0:0:
139,278,21464,1,8,0:0:0:0:
128,294,21539,1,8,0:0:0:0:
128,294,21614,1,8,0:0:0:0:
140,294,21764,1,0,0:0:0:0:
140,294,21839,1,8,0:0:0:0:
140,294,21989,1,0,0:0:0:0:
140,294,22064,1,0,0:0:0:0:
146,273,22214,1,8,0:0:0:0:
140,290,22514,1,0,0:0:0:0:
143,289,22589,1,8,0:0:0:0:
143,289,22664,1,8,0:0:0:0:
143,289,22739,1,8,0:0:0:0:
143,289,22814,1,8,0:0:0:0:
140,294,22964,1,0,0:0:0:0:
140,294,23039,1,8,0:0:0:0:
139,290,23189,1,0,0:0:0:0:
139,290,23264,1,0,0:0:0:0:
140,290,23414,1,8,0:0:0:0:
85,296,23714,1,8,0:0:0:0:
92,292,23789,1,0,0:0:0:0:
94,291,23864,1,0,0:0:0:0:
94,291,23939,1,0,0:0:0:0:
96,290,24014,1,0,0:0:0:0:
119,285,24164,1,8,0:0:0:0:
119,285,24239,1,0,0:0:0:0:
117,278,24389,1,8,0:0:0:0:
117,278,24464,1,8,0:0:0:0:
117,252,24614,1,0,0:0:0:0:
115,267,24914,1,8,0:0:0:0:
120,265,24989,1,0,0:0:0:0:
117,267,25064,1,0,0:0:0:0:
115,269,25139,1,0,0:0:0:0:
115,269,25214,1,0,0:0:0:0:
113,284,25364,1,8,0:0:0:0:
130,285,25439,1,0,0:0:0:0:
127,282,25589,1,8,0:0:0:0:
127,282,25664,1,8,0:0:0:0:
119,286,25814,1,0,0:0:0:0:
140,264,25964,1,8,0:0:0:0:
133,274,26114,1,0,0:0:0:0:
136,274,26189,1,8,0:0:0:0:
136,274,26264,1,8,0:0:0:0:
136,274,26339,1,8,0:0:0:0:
136,274,26414,1,8,0:0:0:0:
139,273,26564,1,0,0:0:0:0:
139,273,26639,1,8,0:0:0:0:
128,271,26789,1,0,0:0:0:0:
128,271,26864,1,0,0:0:0:0:
133,274,27014,1,8,0:0:0:0:
117,285,27314,1,0,0:0:0:0:
117,285,27389,1,8,0:0:0:0:
117,285,27464,1,8,0:0:0:0:
119,284,27539,1,8,0:0:0:0:
119,284,27614,1,8,0:0:0:0:
119,284,27764,1,0,0:0:0:0:
119,284,27839,1,8,0:0:0:0:
119,284,27989,1,0,0:0:0:0:
119,284,28064,1,0,0:0:0:0:
121,282,28214,1,8,0:0:0:0:
89,281,28514,1,8,0:0:0:0:
89,281,28589,1,0,0:0:0:0:
89,281,28664,1,0,0:0:0:0:
89,281,28739,1,0,0:0:0:0:
89,281,28814,1,0,0:0:0:0:
89,281,28964,1,8,0:0:0:0:
89,281,29039,1,0,0:0:0:0:
89,281,29189,1,8,0:0:0:0:
89,281,29264,1,8,0:0:0:0:
89,281,29414,1,0,0:0:0:0:
89,281,29714,1,8,0:0:0:0:
89,281,29789,1,0,0:0:0:0:
89,281,29864,1,0,0:0:0:0:
89,281,29939,1,0,0:0:0:0:
89,281,30014,1,0,0:0:0:0:
89,281,30164,1,8,0:0:0:0:
89,281,30239,1,0,0:0:0:0:
89,281,30389,1,8,0:0:0:0:
89,281,30464,1,8,0:0:0:0:
89,281,30614,1,0,0:0:0:0:
89,281,30764,1,8,0:0:0:0:
89,281,30914,1,0,0:0:0:0:
89,281,30989,1,8,0:0:0:0:
89,281,31064,1,0,0:0:0:0:
99,290,31139,1,8,0:0:0:0:
99,290,31214,1,0,0:0:0:0:
82,285,31364,1,8,0:0:0:0:
82,284,31439,1,8,0:0:0:0:
82,284,31589,1,0,0:0:0:0:
82,284,31664,1,0,0:0:0:0:
82,284,31814,1,8,0:0:0:0:
82,281,32114,1,0,0:0:0:0:
82,281,32189,1,8,0:0:0:0:
86,279,32264,1,0,0:0:0:0:
122,263,32339,1,8,0:0:0:0:
122,263,32414,1,0,0:0:0:0:
94,280,32564,1,8,0:0:0:0:
94,280,32639,1,8,0:0:0:0:
94,280,32789,1,0,0:0:0:0:
94,280,32864,1,0,0:0:0:0:
94,280,33014,1,8,0:0:0:0:
94,280,33314,1,8,0:0:0:0:
94,280,33389,1,0,0:0:0:0:
94,280,33464,1,8,0:0:0:0:
94,280,33539,1,0,0:0:0:0:
94,280,33614,1,8,0:0:0:0:
94,280,33764,1,0,0:0:0:0:
94,280,33839,1,0,0:0:0:0:
94,280,33989,1,8,0:0:0:0:
94,280,34064,1,8,0:0:0:0:
94,280,34214,1,0,0:0:0:0:
94,280,34514,1,8,0:0:0:0:
94,280,34589,1,0,0:0:0:0:
94,280,34664,1,8,0:0:0:0:
94,280,34739,1,0,0:0:0:0:
120,291,34814,1,8,0:0:0:0:
114,277,34964,1,0,0:0:0:0:
114,277,35039,1,0,0:0:0:0:
115,276,35189,1,8,0:0:0:0:
115,276,35264,1,8,0:0:0:0:
115,268,35414,1,0,0:0:0:0:
115,268,35564,1,8,0:0:0:0:
82,291,35714,1,0,0:0:0:0:
82,291,35789,1,8,0:0:0:0:
82,291,35864,1,0,0:0:0:0:
82,291,35939,1,8,0:0:0:0:
82,291,36014,1,0,0:0:0:0:
82,291,36164,1,8,0:0:0:0:
82,291,36239,1,8,0:0:0:0:
82,291,36389,1,0,0:0:0:0:
82,291,36464,1,0,0:0:0:0:
82,291,36614,1,8,0:0:0:0:
77,287,36914,1,0,0:0:0:0:
77,287,36989,1,8,0:0:0:0:
78,287,37064,1,0,0:0:0:0:
82,280,37139,1,8,0:0:0:0:
82,280,37214,1,0,0:0:0:0:
82,280,37364,1,8,0:0:0:0:
82,280,37439,1,8,0:0:0:0:
82,280,37589,1,0,0:0:0:0:
82,280,37664,1,0,0:0:0:0:
82,280,37814,1,8,0:0:0:0:
82,280,38114,1,8,0:0:0:0:
82,280,38189,1,0,0:0:0:0:
82,280,38264,1,8,0:0:0:0:
77,296,38339,1,0,0:0:0:0:
80,292,38414,1,8,0:0:0:0:
82,289,38564,1,0,0:0:0:0:
82,289,38639,1,0,0:0:0:0:
82,289,38789,1,8,0:0:0:0:
82,289,38864,1,8,0:0:0:0:
82,289,39014,1,0,0:0:0:0:
106,69,39314,1,4,0:0:0:0:
112,291,39914,1,0,0:0:0:0:
112,291,39989,1,8,0:0:0:0:
112,291,40064,1,8,0:0:0:0:
112,291,40139,1,0,0:0:0:0:
112,291,40214,1,8,0:0:0:0:
112,291,40289,1,0,0:0:0:0:
112,291,40364,1,0,0:0:0:0:
90,306,40514,1,0,0:0:0:0:
114,295,40589,1,8,0:0:0:0:
108,296,40664,1,0,0:0:0:0:
108,295,40739,1,0,0:0:0:0:
112,291,40814,1,8,0:0:0:0:
112,291,40889,1,0,0:0:0:0:
112,291,40964,1,8,0:0:0:0:
112,291,41039,1,8,0:0:0:0:
97,302,41114,1,0,0:0:0:0:
97,302,41189,1,8,0:0:0:0:
97,302,41264,1,0,0:0:0:0:
97,302,41339,1,0,0:0:0:0:
111,286,41414,1,8,0:0:0:0:
111,286,41489,1,0,0:0:0:0:
111,286,41564,1,8,0:0:0:0:
111,286,41639,1,8,0:0:0:0:
98,292,41714,1,0,0:0:0:0:
102,291,41789,1,8,0:0:0:0:
102,291,41864,1,0,0:0:0:0:
102,291,41939,1,0,0:0:0:0:
102,291,42014,1,8,0:0:0:0:
102,291,42089,1,0,0:0:0:0:
100,292,42164,1,8,0:0:0:0:
100,292,42239,1,8,0:0:0:0:
100,292,42314,1,0,0:0:0:0:
102,286,42389,1,8,0:0:0:0:
102,286,42464,1,0,0:0:0:0:
102,286,42539,1,0,0:0:0:0:
106,278,42614,1,8,0:0:0:0:
106,278,42689,1,0,0:0:0:0:
116,263,42764,1,8,0:0:0:0:
117,263,42839,1,8,0:0:0:0:
105,268,42914,1,8,0:0:0:0:
110,285,42989,1,0,0:0:0:0:
131,288,43064,1,8,0:0:0:0:
131,288,43139,1,0,0:0:0:0:
131,288,43214,1,8,0:0:0:0:
131,288,43289,1,0,0:0:0:0:
131,288,43364,1,8,0:0:0:0:
131,288,43439,1,8,0:0:0:0:
131,288,43514,1,0,0:0:0:0:
131,288,43589,1,0,0:0:0:0:
131,288,43664,1,8,0:0:0:0:
131,288,43739,1,0,0:0:0:0:
131,288,43814,1,8,0:0:0:0:
131,288,43889,1,8,0:0:0:0:
145,286,43964,1,0,0:0:0:0:
131,288,44039,1,8,0:0:0:0:
131,288,44114,1,8,0:0:0:0:
131,288,44189,1,8,0:0:0:0:
146,290,44264,1,0,0:0:0:0:
148,290,44339,1,0,0:0:0:0:
148,290,44414,1,8,0:0:0:0:
148,290,44489,1,0,0:0:0:0:
148,290,44564,1,8,0:0:0:0:
148,290,44639,1,8,0:0:0:0:
148,290,44714,1,0,0:0:0:0:
148,290,44789,1,0,0:0:0:0:
148,290,44864,1,8,0:0:0:0:
148,290,44939,1,0,0:0:0:0:
148,290,45014,1,8,0:0:0:0:
143,287,45089,1,0,0:0:0:0:
148,290,45164,1,8,0:0:0:0:
140,288,45314,1,0,0:0:0:0:
143,298,45389,1,0,0:0:0:0:
143,298,45464,1,0,0:0:0:0:
143,298,45539,1,8,0:0:0:0:
143,298,45614,1,0,0:0:0:0:
149,283,45689,1,0,0:0:0:0:
149,283,45764,1,8,0:0:0:0:
149,283,45839,1,8,0:0:0:0:
149,283,45914,1,0,0:0:0:0:
149,283,45989,1,8,0:0:0:0:
149,283,46064,1,8,0:0:0:0:
139,278,46139,1,0,0:0:0:0:
139,278,46214,1,8,0:0:0:0:
139,278,46289,1,0,0:0:0:0:
140,278,46364,1,8,0:0:0:0:
141,277,46439,1,8,0:0:0:0:
141,277,46514,1,0,0:0:0:0:
141,277,46589,1,0,0:0:0:0:
142,277,46664,1,8,0:0:0:0:
143,275,46739,1,8,0:0:0:0:
139,279,46814,1,0,0:0:0:0:
139,278,46889,1,8,0:0:0:0:
139,278,46964,1,0,0:0:0:0:
139,278,47039,1,0,0:0:0:0:
139,287,47114,1,8,0:0:0:0:
139,287,47189,1,0,0:0:0:0:
139,287,47264,1,8,0:0:0:0:
139,287,47339,1,8,0:0:0:0:
130,269,47414,1,0,0:0:0:0:
131,268,47489,1,8,0:0:0:0:
132,267,47564,1,0,0:0:0:0:
132,259,47639,1,0,0:0:0:0:
133,266,47714,1,8,0:0:0:0:
141,269,47789,1,0,0:0:0:0:
141,269,47864,1,8,0:0:0:0:
141,269,47939,1,8,0:0:0:0:
130,278,48014,1,0,0:0:0:0:
133,277,48089,1,8,0:0:0:0:
134,275,48164,1,8,0:0:0:0:
133,278,48239,1,0,0:0:0:0:
128,274,48314,1,8,0:0:0:0:
159,257,48389,1,0,0:0:0:0:
150,265,48464,1,8,0:0:0:0:
148,267,48539,1,8,0:0:0:0:
140,272,48614,1,0,0:0:0:0:
144,270,48689,1,8,0:0:0:0:
144,269,48764,1,8,0:0:0:0:
141,269,48839,1,8,0:0:0:0:
133,266,48914,1,0,0:0:0:0:
141,269,48989,1,8,0:0:0:0:
141,269,49064,1,0,0:0:0:0:
141,269,49139,1,0,0:0:0:0:
130,278,49214,1,8,0:0:0:0:
133,277,49289,1,0,0:0:0:0:
134,275,49364,1,0,0:0:0:0:
133,278,49439,1,8,0:0:0:0:
128,274,49514,1,0,0:0:0:0:
159,257,49589,1,8,0:0:0:0:
150,265,49664,1,0,0:0:0:0:
148,267,49739,1,0,0:0:0:0:
140,272,49814,1,8,0:0:0:0:
144,270,49889,1,8,0:0:0:0:
144,269,49964,1,0,0:0:0:0:
74,289,50114,1,8,0:0:0:0:
112,306,50189,1,0,0:0:0:0:
131,316,50339,1,0,0:0:0:0:
133,314,50414,1,8,0:0:0:0:
133,314,50489,1,8,0:0:0:0:
134,313,50564,1,0,0:0:0:0:
131,312,50714,1,8,0:0:0:0:
131,312,50789,1,0,0:0:0:0:
134,305,50939,1,0,0:0:0:0:
134,305,51014,1,8,0:0:0:0:
136,305,51089,1,8,0:0:0:0:
137,304,51164,1,8,0:0:0:0:
137,294,51314,1,0,0:0:0:0:
137,294,51389,1,8,0:0:0:0:
137,294,51464,1,8,0:0:0:0:
137,294,51539,1,0,0:0:0:0:
121,281,51614,1,8,0:0:0:0:
123,281,51689,1,8,0:0:0:0:
123,281,51764,1,0,0:0:0:0:
123,281,51839,1,8,0:0:0:0:
137,276,51914,1,0,0:0:0:0:
131,265,51989,1,0,0:0:0:0:
131,267,52064,1,8,0:0:0:0:
148,299,52139,1,0,0:0:0:0:
148,299,52214,1,8,0:0:0:0:
148,299,52289,1,0,0:0:0:0:
152,298,52364,1,8,0:0:0:0:
131,295,52514,1,0,0:0:0:0:
137,294,52589,1,0,0:0:0:0:
131,288,52664,1,8,0:0:0:0:
133,295,52739,1,0,0:0:0:0:
133,295,52814,1,8,0:0:0:0:
133,280,52889,1,8,0:0:0:0:
133,291,52964,1,0,0:0:0:0:
133,291,53039,1,0,0:0:0:0:
128,289,53114,1,8,0:0:0:0:
128,289,53189,1,0,0:0:0:0:
129,289,53264,1,8,0:0:0:0:
129,289,53339,1,0,0:0:0:0:
127,273,53414,1,8,0:0:0:0:
128,273,53489,1,8,0:0:0:0:
133,283,53564,1,8,0:0:0:0:
131,288,53639,1,0,0:0:0:0:
142,277,53714,1,8,0:0:0:0:
142,277,53789,1,0,0:0:0:0:
148,273,53864,1,8,0:0:0:0:
148,273,53939,1,8,0:0:0:0:
133,279,54014,1,0,0:0:0:0:
133,279,54089,1,8,0:0:0:0:
149,271,54164,1,0,0:0:0:0:
150,271,54239,1,0,0:0:0:0:
147,271,54314,1,8,0:0:0:0:
147,271,54389,1,0,0:0:0:0:
147,271,54464,1,8,0:0:0:0:
147,271,54539,1,0,0:0:0:0:
147,271,54614,1,8,0:0:0:0:
147,271,54689,1,8,0:0:0:0:
148,273,54764,1,8,0:0:0:0:
91,256,54914,1,0,0:0:0:0:
100,259,55064,1,0,0:0:0:0:
137,255,55139,1,0,0:0:0:0:
123,249,55214,1,8,0:0:0:0:
136,255,55364,1,0,0:0:0:0:
100,294,55514,1,8,0:0:0:0:
105,294,55589,1,0,0:0:0:0:
106,292,55664,1,8,0:0:0:0:
108,293,55739,1,0,0:0:0:0:
108,293,55814,1,8,0:0:0:0:
108,293,55964,1,0,0:0:0:0:
100,294,56114,1,8,0:0:0:0:
104,292,56189,1,0,0:0:0:0:
106,292,56264,1,8,0:0:0:0:
100,294,56339,1,0,0:0:0:0:
100,294,56414,1,8,0:0:0:0:
109,301,56564,1,0,0:0:0:0:
106,297,56714,1,8,0:0:0:0:
106,297,56789,1,8,0:0:0:0:
104,298,56864,1,0,0:0:0:0:
104,298,56939,1,8,0:0:0:0:
104,298,57014,1,0,0:0:0:0:
104,298,57089,1,0,0:0:0:0:
104,298,57164,1,8,0:0:0:0:
114,296,57314,1,0,0:0:0:0:
114,296,57389,1,0,0:0:0:0:
114,296,57539,1,8,0:0:0:0:
114,296,57614,1,0,0:0:0:0:
114,296,57764,1,8,0:0:0:0:
114,296,57839,1,8,0:0:0:0:
114,296,57989,1,0,0:0:0:0:
114,296,58064,1,8,0:0:0:0:
114,296,58214,1,0,0:0:0:0:
114,296,58364,1,8,0:0:0:0:
114,296,58439,1,0,0:0:0:0:
133,290,58514,1,8,0:0:0:0:
124,285,58664,1,0,0:0:0:0:
124,285,58739,1,0,0:0:0:0:
118,285,58889,1,8,0:0:0:0:
118,285,58964,1,8,0:0:0:0:
132,276,59039,1,8,0:0:0:0:
132,276,59114,1,0,0:0:0:0:
133,264,59264,1,0,0:0:0:0:
133,264,59414,1,8,0:0:0:0:
91,80,59714,1,4,0:0:0:0:
118,103,69314,5,4,0:0:0:0:
113,186,71495,1,4,0:0:0:0:
127,186,73495,1,4,0:0:0:0:
127,186,75341,1,4,0:0:0:0:
127,186,77055,1,4,0:0:0:0:
127,186,77855,1,4,0:0:0:0:
127,186,78655,1,4,0:0:0:0:
127,186,79405,1,4,0:0:0:0:
127,186,80155,1,4,0:0:0:0:
127,186,80331,1,4,0:0:0:0:
127,186,80684,1,4,0:0:0:0:
127,186,80860,1,4,0:0:0:0:
127,186,81037,1,4,0:0:0:0:
127,186,81390,1,4,0:0:0:0:
127,186,81566,1,4,0:0:0:0:
127,186,81899,1,4,0:0:0:0:
127,186,82232,1,4,0:0:0:0:
127,186,82566,1,4,0:0:0:0:
127,186,82899,1,4,0:0:0:0:
127,186,83056,1,4,0:0:0:0:
127,186,83214,1,4,0:0:0:0:
127,186,83372,1,4,0:0:0:0:
127,186,83530,1,4,0:0:0:0:
127,186,83688,1,4,0:0:0:0:
127,186,83846,1,4,0:0:0:0:
127,186,84004,1,4,0:0:0:0:
90,310,84162,1,0,0:0:0:0:
90,310,84237,1,0,0:0:0:0:
87,296,84312,1,0,0:0:0:0:
90,304,84387,1,0,0:0:0:0:
90,304,84462,1,0,0:0:0:0:
87,296,84537,1,0,0:0:0:0:
90,304,84612,1,0,0:0:0:0:
88,302,84687,1,0,0:0:0:0:
88,299,84762,1,0,0:0:0:0:
87,295,84837,1,0,0:0:0:0:
88,299,84912,1,0,0:0:0:0:
87,295,84987,1,0,0:0:0:0:
88,295,85062,1,0,0:0:0:0:
88,299,85137,1,0,0:0:0:0:
88,296,85212,1,0,0:0:0:0:
88,295,85287,1,0,0:0:0:0:
88,296,85362,1,0,0:0:0:0:
116,68,86622,1,12,0:0:0:0:
115,317,86847,1,8,0:0:0:0:
140,323,86922,1,0,0:0:0:0:
140,323,86997,1,8,0:0:0:0:
140,323,87072,1,8,0:0:0:0:
151,313,87147,1,0,0:0:0:0:
136,323,87222,1,8,0:0:0:0:
149,313,87372,1,0,0:0:0:0:
149,313,87522,1,8,0:0:0:0:
149,313,87597,1,0,0:0:0:0:
149,313,87672,1,8,0:0:0:0:
149,313,87747,1,8,0:0:0:0:
149,313,87822,1,0,0:0:0:0:
135,315,87972,1,8,0:0:0:0:
135,315,88047,1,0,0:0:0:0:
135,315,88122,1,0,0:0:0:0:
135,315,88197,1,0,0:0:0:0:
135,315,88272,1,8,0:0:0:0:
135,315,88422,1,0,0:0:0:0:
140,307,88572,1,0,0:0:0:0:
140,307,88722,1,8,0:0:0:0:
140,307,88797,1,0,0:0:0:0:
140,307,88872,1,8,0:0:0:0:
154,296,89022,1,0,0:0:0:0:
154,296,89172,1,0,0:0:0:0:
154,296,89322,1,8,0:0:0:0:
154,296,89472,1,0,0:0:0:0:
154,296,89547,1,0,0:0:0:0:
154,296,89622,1,8,0:0:0:0:
154,296,89772,1,0,0:0:0:0:
154,296,89922,1,8,0:0:0:0:
154,296,90072,1,0,0:0:0:0:
154,296,90147,1,8,0:0:0:0:
154,296,90222,1,0,0:0:0:0:
154,296,90372,1,8,0:0:0:0:
154,296,90522,1,0,0:0:0:0:
154,296,90597,1,8,0:0:0:0:
154,296,90672,1,0,0:0:0:0:
154,296,90747,1,0,0:0:0:0:
154,296,90822,1,8,0:0:0:0:
154,296,90897,1,0,0:0:0:0:
154,296,90972,1,8,0:0:0:0:
154,296,91047,1,0,0:0:0:0:
154,296,91122,1,8,0:0:0:0:
154,296,91197,1,8,0:0:0:0:
154,296,91272,1,0,0:0:0:0:
154,296,91422,1,8,0:0:0:0:
145,297,91647,1,8,0:0:0:0:
145,297,91722,1,0,0:0:0:0:
145,297,91872,1,8,0:0:0:0:
145,297,91947,1,8,0:0:0:0:
145,297,92022,1,0,0:0:0:0:
133,284,92172,1,0,0:0:0:0:
143,281,92322,1,8,0:0:0:0:
143,281,92472,1,0,0:0:0:0:
142,280,92622,1,0,0:0:0:0:
150,273,92772,1,8,0:0:0:0:
150,273,92847,1,0,0:0:0:0:
150,273,92922,1,8,0:0:0:0:
143,258,93072,1,0,0:0:0:0:
143,258,93147,1,0,0:0:0:0:
143,258,93222,1,8,0:0:0:0:
143,258,93297,1,0,0:0:0:0:
150,250,93372,1,8,0:0:0:0:
150,250,93447,1,0,0:0:0:0:
150,250,93522,1,8,0:0:0:0:
150,250,93597,1,8,0:0:0:0:
150,250,93672,1,0,0:0:0:0:
150,250,93822,1,8,0:0:0:0:
150,250,93897,1,0,0:0:0:0:
150,250,93972,1,0,0:0:0:0:
150,250,94047,1,8,0:0:0:0:
150,250,94122,1,0,0:0:0:0:
150,250,94197,1,8,0:0:0:0:
150,250,94272,1,8,0:0:0:0:
150,250,94347,1,0,0:0:0:0:
150,250,94422,1,8,0:0:0:0:
150,250,94497,1,8,0:0:0:0:
150,250,94572,1,0,0:0:0:0:
162,233,94722,1,8,0:0:0:0:
150,250,94872,1,0,0:0:0:0:
153,257,94947,1,8,0:0:0:0:
153,257,95022,1,0,0:0:0:0:
150,229,95097,1,0,0:0:0:0:
153,257,95172,1,8,0:0:0:0:
153,257,95247,1,0,0:0:0:0:
153,257,95322,1,8,0:0:0:0:
141,222,95397,1,8,0:0:0:0:
153,257,95472,1,0,0:0:0:0:
141,222,95547,1,8,0:0:0:0:
153,257,95622,1,0,0:0:0:0:
153,257,95772,1,0,0:0:0:0:
153,257,95922,1,8,0:0:0:0:
153,257,96072,1,0,0:0:0:0:
55,74,96222,1,12,0:0:0:0:
85,283,96447,1,8,0:0:0:0:
85,283,96522,1,0,0:0:0:0:
101,286,96672,1,8,0:0:0:0:
101,286,96747,1,0,0:0:0:0:
104,272,96822,1,8,0:0:0:0:
104,272,96972,1,0,0:0:0:0:
104,272,97047,1,8,0:0:0:0:
104,272,97122,1,0,0:0:0:0:
104,272,97197,1,0,0:0:0:0:
104,272,97272,1,8,0:0:0:0:
116,273,97422,1,0,0:0:0:0:
121,272,97572,1,0,0:0:0:0:
121,272,97722,1,8,0:0:0:0:
121,272,97872,1,0,0:0:0:0:
121,272,97947,1,8,0:0:0:0:
121,272,98022,1,0,0:0:0:0:
121,272,98172,1,8,0:0:0:0:
121,272,98247,1,0,0:0:0:0:
121,272,98322,1,8,0:0:0:0:
121,272,98397,1,8,0:0:0:0:
121,272,98472,1,0,0:0:0:0:
94,271,98622,1,8,0:0:0:0:
94,271,98772,1,0,0:0:0:0:
94,271,98922,1,0,0:0:0:0:
94,271,99072,1,8,0:0:0:0:
102,272,99147,1,0,0:0:0:0:
102,272,99222,1,8,0:0:0:0:
102,272,99372,1,0,0:0:0:0:
102,272,99447,1,8,0:0:0:0:
102,272,99522,1,0,0:0:0:0:
102,272,99597,1,0,0:0:0:0:
102,272,99672,1,8,0:0:0:0:
94,271,99822,1,0,0:0:0:0:
94,271,99972,1,0,0:0:0:0:
94,271,100122,1,8,0:0:0:0:
94,269,100272,1,0,0:0:0:0:
94,269,100347,1,8,0:0:0:0:
94,269,100422,1,0,0:0:0:0:
97,277,100572,1,8,0:0:0:0:
97,277,100647,1,0,0:0:0:0:
97,277,100722,1,8,0:0:0:0:
97,277,100797,1,0,0:0:0:0:
97,277,100872,1,8,0:0:0:0:
92,284,100947,1,8,0:0:0:0:
92,284,101022,1,0,0:0:0:0:
95,280,101172,1,0,0:0:0:0:
96,279,101322,1,8,0:0:0:0:
97,277,101472,1,0,0:0:0:0:
97,277,101547,1,0,0:0:0:0:
97,277,101622,1,8,0:0:0:0:
97,277,101772,1,0,0:0:0:0:
110,279,101922,1,8,0:0:0:0:
110,279,102072,1,8,0:0:0:0:
116,268,102222,1,0,0:0:0:0:
119,266,102372,1,0,0:0:0:0:
119,266,102522,1,8,0:0:0:0:
119,266,102672,1,0,0:0:0:0:
119,266,102747,1,8,0:0:0:0:
119,266,102822,1,0,0:0:0:0:
122,263,102972,1,0,0:0:0:0:
122,262,103122,1,8,0:0:0:0:
122,262,103272,1,0,0:0:0:0:
104,268,103422,1,8,0:0:0:0:
104,268,103497,1,0,0:0:0:0:
104,268,103572,1,8,0:0:0:0:
104,268,103647,1,8,0:0:0:0:
104,268,103722,1,8,0:0:0:0:
104,268,103797,1,0,0:0:0:0:
104,268,103872,1,8,0:0:0:0:
104,268,103947,1,8,0:0:0:0:
102,277,104022,1,0,0:0:0:0:
102,277,104097,1,0,0:0:0:0:
102,277,104172,1,8,0:0:0:0:
102,277,104247,1,0,0:0:0:0:
110,280,104322,1,8,0:0:0:0:
110,280,104397,1,8,0:0:0:0:
110,280,104472,1,0,0:0:0:0:
110,280,104547,1,8,0:0:0:0:
119,286,104622,1,0,0:0:0:0:
138,267,104772,1,0,0:0:0:0:
138,267,104922,1,8,0:0:0:0:
141,292,105072,1,0,0:0:0:0:
141,292,105147,1,8,0:0:0:0:
131,274,105222,1,0,0:0:0:0:
131,274,105372,1,0,0:0:0:0:
131,274,105522,1,8,0:0:0:0:
131,274,105672,1,0,0:0:0:0:
80,227,105822,1,8,0:0:0:0:
113,264,105897,1,0,0:0:0:0:
113,264,105972,1,8,0:0:0:0:
113,264,106047,1,8,0:0:0:0:
114,264,106122,1,8,0:0:0:0:
110,262,106197,1,0,0:0:0:0:
110,262,106272,1,8,0:0:0:0:
110,262,106347,1,0,0:0:0:0:
110,262,106422,1,8,0:0:0:0:
110,262,106497,1,8,0:0:0:0:
110,262,106572,1,8,0:0:0:0:
110,262,106647,1,0,0:0:0:0:
110,262,106722,1,8,0:0:0:0:
113,264,106797,1,0,0:0:0:0:
113,264,106872,1,8,0:0:0:0:
113,264,106947,1,8,0:0:0:0:
113,264,107022,1,8,0:0:0:0:
114,264,107097,1,0,0:0:0:0:
114,264,107172,1,8,0:0:0:0:
110,262,107247,1,0,0:0:0:0:
110,262,107322,1,8,0:0:0:0:
110,262,107397,1,8,0:0:0:0:
115,246,107472,1,0,0:0:0:0:
115,246,107547,1,0,0:0:0:0:
115,246,107622,1,8,0:0:0:0:
115,246,107697,1,0,0:0:0:0:
115,246,107772,1,8,0:0:0:0:
118,254,107847,1,8,0:0:0:0:
118,254,107922,1,0,0:0:0:0:
118,254,107997,1,0,0:0:0:0:
118,254,108072,1,8,0:0:0:0:
120,249,108222,1,0,0:0:0:0:
126,252,108372,1,0,0:0:0:0:
126,252,108522,1,8,0:0:0:0:
125,252,108672,1,0,0:0:0:0:
132,249,108822,1,8,0:0:0:0:
132,249,108972,1,0,0:0:0:0:
132,249,109122,1,0,0:0:0:0:
132,249,109272,1,8,0:0:0:0:
126,252,109422,1,0,0:0:0:0:
125,252,109572,1,8,0:0:0:0:
125,252,109722,1,8,0:0:0:0:
122,248,109872,1,0,0:0:0:0:
122,248,110022,1,8,0:0:0:0:
122,248,110172,1,0,0:0:0:0:
122,248,110322,1,8,0:0:0:0:
126,252,110472,1,8,0:0:0:0:
125,252,110622,1,0,0:0:0:0:
129,255,110772,1,0,0:0:0:0:
131,254,110922,1,8,0:0:0:0:
131,254,111147,1,0,0:0:0:0:
131,254,111222,1,0,0:0:0:0:
126,252,111372,1,8,0:0:0:0:
172,266,111522,1,0,0:0:0:0:
126,252,111672,1,8,0:0:0:0:
136,258,111972,1,0,0:0:0:0:
136,258,112122,1,8,0:0:0:0:
136,258,112422,1,8,0:0:0:0:
132,268,112572,1,8,0:0:0:0:
136,258,112647,1,0,0:0:0:0:
125,252,112797,1,0,0:0:0:0:
136,258,112872,1,8,0:0:0:0:
128,254,113022,1,8,0:0:0:0:
123,256,113172,1,0,0:0:0:0:
125,255,113322,1,8,0:0:0:0:
126,258,113472,1,0,0:0:0:0:
128,258,113547,1,0,0:0:0:0:
126,258,113622,1,8,0:0:0:0:
128,258,113772,1,8,0:0:0:0:
128,258,113922,1,0,0:0:0:0:
146,267,114072,1,0,0:0:0:0:
128,258,114222,1,8,0:0:0:0:
154,260,114372,1,0,0:0:0:0:
155,260,114447,1,0,0:0:0:0:
156,259,114522,1,8,0:0:0:0:
156,259,114672,1,0,0:0:0:0:
156,259,114747,1,8,0:0:0:0:
156,259,114822,1,0,0:0:0:0:
156,259,114972,1,0,0:0:0:0:
156,259,115122,1,8,0:0:0:0:
154,260,115272,1,0,0:0:0:0:
92,19,115422,1,12,0:0:0:0:
156,284,115722,1,0,0:0:0:0:
156,284,115872,1,0,0:0:0:0:
156,283,116172,1,8,0:0:0:0:
156,283,116322,1,0,0:0:0:0:
156,284,116622,1,8,0:0:0:0:
156,283,117072,1,0,0:0:0:0:
156,283,117222,1,8,0:0:0:0:
156,284,117372,1,0,0:0:0:0:
156,284,117522,1,8,0:0:0:0:
150,291,117822,1,0,0:0:0:0:
168,280,117972,1,8,0:0:0:0:
170,280,118122,1,8,0:0:0:0:
155,285,118572,1,0,0:0:0:0:
155,285,118722,1,8,0:0:0:0:
155,285,119022,1,0,0:0:0:0:
160,280,119172,1,0,0:0:0:0:
160,280,119322,1,8,0:0:0:0:
160,280,119472,1,0,0:0:0:0:
158,280,119622,1,8,0:0:0:0:
158,280,119788,1,0,0:0:0:0:
151,289,119955,1,0,0:0:0:0:
150,285,120288,1,8,0:0:0:0:
150,285,120459,1,0,0:0:0:0:
150,285,120630,1,8,0:0:0:0:
150,285,120802,1,8,0:0:0:0:
151,289,120973,1,0,0:0:0:0:
150,285,121145,1,0,0:0:0:0:
150,285,121316,1,8,0:0:0:0:
150,285,121488,1,0,0:0:0:0:
142,272,121659,1,8,0:0:0:0:
143,268,122386,1,8,0:0:0:0:
143,268,122957,1,0,0:0:0:0:
143,268,123407,1,8,0:0:0:0:
143,268,123952,1,0,0:0:0:0:
143,268,124285,1,0,0:0:0:0:
143,268,124618,1,8,0:0:0:0:
143,268,125072,1,8,0:0:0:0:
143,268,125527,1,8,0:0:0:0:
