osu file format v14

[General]
AudioFilename: beatmania IIDX 12 HAPPY SKY - Mei.mp3
AudioLeadIn: 0
PreviewTime: 21257
Countdown: 1
SampleSet: Soft
StackLeniency: 0.7
Mode: 2
LetterboxInBreaks: 1
WidescreenStoryboard: 0

[Editor]
DistanceSpacing: 0.7
BeatDivisor: 4
GridSize: 4
TimelineZoom: 2.799999

[Metadata]
Title:Mei
TitleUnicode:冥
Artist:Amuro vs. Killer
ArtistUnicode:Amuro vs. Killer
Creator:ZHSteven
Version:Original ver 2011
Source:beatmania IIDX 12th HAPPY SKY
Tags:human sequencer ddr x2 II dancedancerevolution darkness vs electronic instrumental
BeatmapID:1637751
BeatmapSetID:779984

[Difficulty]
HPDrainRate:5
CircleSize:5
OverallDifficulty:9
ApproachRate:9
SliderMultiplier:3
SliderTickRate:1

[Events]
//Background and Video events
0,0,"mei-bg.png",0,0
//Break Periods
//Storyboard Layer 0 (Background)
//Storyboard Layer 1 (Fail)
//Storyboard Layer 2 (Pass)
//Storyboard Layer 3 (Foreground)
//Storyboard Layer 4 (Overlay)
//Storyboard Sound Samples

[TimingPoints]
857,300,4,2,0,10,1,0
857,-133.333333333333,4,2,0,10,0,0
1757,-133.333333333333,4,2,0,20,0,0
2057,-133.333333333333,4,2,0,30,0,0
3257,-133.333333333333,4,1,0,10,0,0
4307,-133.333333333333,4,2,0,24,0,0
5807,-133.333333333333,4,1,0,10,0,0
6707,-133.333333333333,4,2,0,29,0,0
8132,-133.333333333333,4,1,0,16,0,0
8732,-133.333333333333,4,1,0,10,0,0
9107,-133.333333333333,4,2,0,29,0,0
11357,-111.111111111111,4,1,0,30,0,0
13607,-200,4,1,0,30,0,0
13757,-111.111111111111,4,1,0,30,0,0
20057,-133.333333333333,4,2,0,0,0,0
21257,-100,4,1,0,60,0,0
21332,-100,4,1,0,50,0,0
39557,-100,4,2,0,50,0,0
40007,-100,4,1,0,60,0,0
40082,-100,4,2,0,50,0,0
40457,-100,4,1,0,50,0,0
40532,-100,4,1,0,50,0,0
59657,600,4,1,0,60,1,0
59732,-100,4,2,0,30,0,0
69257,545.454545454545,4,1,0,40,1,0
69393,-100,4,2,0,30,0,0
71438,500,4,1,0,40,1,0
71563,-100,4,2,0,30,0,0
73438,461.538461538462,4,1,0,40,1,0
73553,-100,4,2,0,30,0,0
75284,428.571428571429,4,1,0,40,1,0
75391,-100,4,2,0,30,0,0
76998,400,4,1,0,40,1,0
77098,-100,4,2,0,40,0,0
77798,-100,4,1,0,40,0,0
77898,-100,4,2,0,40,0,0
78598,375,4,1,0,40,1,0
78691,-100,4,2,0,40,0,0
79348,-100,4,1,0,40,0,0
79441,-100,4,2,0,40,0,0
80098,352.941176470588,4,1,0,40,1,0
81509,333.333333333333,4,1,0,40,1,0
82842,315.789473684211,4,1,0,40,1,0
84105,300,4,1,0,40,1,0
85305,-100,4,2,0,40,0,0
86505,-100,4,1,0,70,0,0
86580,-100,4,1,0,60,0,0
110505,-111.111111111111,4,1,0,60,0,0
114705,-100,4,1,0,60,0,0
115305,-133.333333333333,4,1,0,60,0,0
115380,-133.333333333333,4,2,0,40,0,0
116205,-200,4,2,0,40,0,0
116805,-133.333333333333,4,2,0,40,0,0
119355,333.333333333333,4,2,0,40,1,0
119521,-133.333333333333,4,2,0,40,0,0
119855,342.857142857143,4,2,0,40,1,0
121569,363.636363636364,4,2,0,40,1,0
122296,428.571428571429,4,2,0,40,1,0
122835,600,4,2,0,40,1,0
123285,545.454545454545,4,2,0,40,1,0
123827,666.666666666667,4,2,0,40,1,0
124493,909.090909090909,4,2,0,40,1,0

[Colours]
Combo1 : 0,148,219
Combo2 : 128,128,192
Combo3 : 66,255,255

[HitObjects]
256,192,857,8,0,1457,0:0:0:0:
40,80,2057,6,0,B|112:200,1,112.499996647239
240,80,2357,2,0,B|144:176,1,112.499996647239
328,80,2657,6,0,B|456:80,1,112.499996647239
328,80,2957,2,0,C|192:72|272:176|120:272,1,449.999986588955
416,88,3857,2,0,B|464:136|400:208,1,112.499996647239,8|0,0:0|0:0,0:0:0:0:
464,248,4157,1,0,0:0:0:0:
384,240,4307,1,0,0:0:0:0:
504,96,4457,6,0,B|384:96,1,112.499996647239
256,104,4757,2,0,B|368:176,1,112.499996647239,0|2,0:0|0:0,0:0:0:0:
160,112,5057,2,0,B|184:176|72:160,2,112.499996647239
32,104,5507,1,0,0:0:0:0:
200,112,5657,1,0,0:0:0:0:
32,104,5807,1,0,0:0:0:0:
200,112,5957,1,0,0:0:0:0:
160,176,6557,5,0,0:0:0:0:
240,160,6857,5,0,0:0:0:0:
112,176,7007,2,0,B|104:232|112:288,1,112.499996647239,2|8,0:0|0:0,0:0:0:0:
248,296,7307,1,4,0:0:0:0:
160,288,7457,1,0,0:0:0:0:
336,304,7607,1,2,0:0:0:0:
448,248,7757,6,0,B|432:176|352:152,3,112.499996647239
328,96,8357,2,0,B|224:144|224:144|328:200,1,224.999993294478
400,96,8957,1,0,0:0:0:0:
104,48,9257,5,0,0:0:0:0:
240,120,9407,2,0,B|191:127|127:119,1,112.499996647239,2|8,0:0|0:0,0:0:0:0:
88,216,9707,1,4,0:0:0:0:
264,208,9857,2,0,B|200:200|152:208,1,112.499996647239,0|2,0:0|0:0,0:0:0:0:
296,120,10157,2,0,B|361:129|409:121,2,112.499996647239
232,192,11357,5,0,0:0:0:0:
192,80,11657,6,0,B|124:85,1,67.4999967813493
64,96,11806,6,0,B|131:89,1,67.4999967813493
232,192,11957,2,0,B|128:88,1,134.999993562699
208,296,12257,2,0,B|337:256,1,134.999993562699
464,144,12557,6,0,B|360:152,1,67.4999967813493
336,152,12707,6,0,B|403:147,1,67.4999967813493
448,72,12857,2,0,B|272:88,1,134.999993562699
160,96,13157,6,0,B|232:96,1,67.4999967813493
160,96,13307,6,0,B|81:84,1,67.4999967813493
112,192,13457,2,0,B|264:176,1,134.999993562699
336,168,13757,2,0,B|160:200,1,134.999993562699
440,112,14057,6,0,B|400:176,3,67.4999967813493
456,208,14357,2,0,B|304:304,1,134.999993562699
144,112,14657,2,0,B|208:176,3,67.4999967813493
104,208,14957,2,0,B|232:336,1,134.999993562699
408,112,15257,6,0,B|352:192,2,67.4999967813493
216,104,15557,2,0,B|288:176,2,67.4999967813493
64,88,15857,2,0,B|128:144,3,67.4999967813493
48,160,16157,2,0,B|192:160,1,134.999993562699
408,112,16457,6,0,B|472:232|208:224,1,269.999987125397
368,128,16907,1,0,0:0:0:0:
104,112,17057,2,0,B|40:232|304:224,1,269.999987125397
168,112,17507,2,0,B|80:112,1,67.4999967813493
160,184,17657,6,0,B|352:192,1,134.999993562699
448,168,17957,2,0,B|288:192,1,134.999993562699
80,136,18257,1,0,0:0:0:0:
192,136,18332,1,0,0:0:0:0:
136,232,18407,1,0,0:0:0:0:
256,232,18482,1,0,0:0:0:0:
192,136,18557,1,0,0:0:0:0:
304,144,18632,2,0,B|208:184,2,67.4999967813493
394,228,18857,6,0,B|202:244,1,134.999993562699
192,240,19157,2,0,B|288:240,1,67.4999967813493
192,240,19307,2,0,B|104:216,1,67.4999967813493
32,208,19457,2,0,B|176:208,1,134.999993562699
304,88,19757,2,0,B|240:144,3,67.4999967813493
360,192,20057,5,0,0:0:0:0:
208,200,20207,1,0,0:0:0:0:
120,80,20357,1,0,0:0:0:0:
32,192,20507,1,0,0:0:0:0:
120,160,20657,1,0,0:0:0:0:
264,232,20807,1,0,0:0:0:0:
184,232,20957,1,0,0:0:0:0:
264,144,21107,1,0,0:0:0:0:
304,72,21257,6,0,B|392:64,1,75
480,64,21407,2,0,B|360:72,1,75
312,128,21557,2,0,B|464:128,2,150
416,224,21932,2,0,B|320:208,1,75
288,264,22082,2,0,B|320:192,4,75
16,88,22457,6,0,B|128:208,1,150
40,208,22757,2,0,B|128:200,1,75
200,200,22907,2,0,B|80:208,1,75
80,96,23057,2,0,B|248:96,1,150
392,112,23357,2,0,B|360:168|304:160,1,75
272,96,23507,2,0,B|208:80|176:120,1,75
80,200,23657,6,0,B|168:200,1,75
240,216,23807,2,0,B|152:224,1,75
280,208,23957,2,0,B|160:112,1,150
88,144,24182,1,0,0:0:0:0:
192,80,24332,2,0,B|288:88,1,75
176,112,24557,1,0,0:0:0:0:
336,136,24707,1,0,0:0:0:0:
32,56,24857,6,0,B|96:128,3,75
160,160,25157,2,0,B|40:48,1,150
464,64,25457,2,0,B|408:120,3,75
328,176,25757,2,0,B|440:288,1,150
40,72,26057,6,0,B|144:144,1,75
224,72,26207,2,0,B|152:120,1,75
264,72,26357,2,0,B|352:152,2,75
168,64,26657,1,0,0:0:0:0:
376,72,26807,1,0,0:0:0:0:
216,240,26957,2,0,B|312:280|400:208,1,150
472,72,27257,6,0,B|368:144,1,75
296,72,27407,2,0,B|368:120,1,75
248,72,27557,2,0,B|160:152,1,75
96,120,27707,1,0,0:0:0:0:
192,136,27857,1,0,0:0:0:0:
48,192,28007,1,0,0:0:0:0:
240,280,28157,2,0,L|144:280,1,75
72,272,28307,2,0,L|112:200,1,75
408,216,28457,6,0,B|312:136,1,75
240,168,28607,2,0,B|320:240,1,75
408,144,28757,2,0,B|333:144,1,75
224,288,28907,2,0,B|384:288,1,150
240,168,29207,1,0,0:0:0:0:
96,88,29357,2,0,B|248:88,1,150
424,176,29657,6,0,B|328:96,1,75
280,176,29807,2,0,B|200:248,1,75
152,136,29957,2,0,B|227:136,1,75
296,288,30107,2,0,B|136:288,1,150
272,168,30407,1,0,0:0:0:0:
416,88,30557,2,0,B|264:88,1,150
8,104,30857,6,0,B|320:104,1,300
496,104,31307,2,0,B|432:168,2,75
336,192,31607,2,0,B|216:72,2,150
504,104,32057,6,0,B|192:104,1,300
16,104,32507,2,0,B|96:176,2,75
176,184,32807,2,0,B|296:64,1,150
282,77,32957,2,0,L|120:80,1,150
16,104,33257,6,0,B|144:104,1,75
160,104,33407,2,0,B|288:104,1,75
309,104,33557,2,0,B|352:168,3,75
440,104,33857,2,0,B|280:104,1,150
72,104,34157,2,0,B|232:104,1,150
496,104,34457,6,0,B|368:104,1,75
352,104,34607,2,0,B|224:104,1,75
203,104,34757,2,0,B|144:160,3,75
72,104,35057,2,0,B|232:104,1,150
440,104,35357,2,0,B|272:104,1,150
112,176,35657,5,0,0:0:0:0:
176,176,35732,2,0,B|336:184,1,150
408,184,35957,2,0,B|288:80,1,150
224,176,36182,2,0,B|299:176,1,75
264,240,36332,1,0,0:0:0:0:
336,240,36407,1,0,0:0:0:0:
512,240,36557,2,0,B|304:240,1,150
400,184,36857,5,0,0:0:0:0:
328,184,36932,2,0,B|168:184,1,150
104,184,37157,2,0,B|288:184,1,150
336,184,37382,2,0,B|261:184,1,75
296,248,37532,1,0,0:0:0:0:
216,248,37607,1,0,0:0:0:0:
24,248,37757,2,0,B|232:248,1,150
448,72,38057,2,0,B|336:72,1,75
256,72,38282,5,0,0:0:0:0:
288,184,38357,2,0,B|128:184,1,150
72,184,38582,1,0,0:0:0:0:
176,200,38657,2,0,B|115:264,2,75
64,168,38957,1,0,0:0:0:0:
336,144,39107,1,0,0:0:0:0:
176,280,39257,1,0,0:0:0:0:
424,72,39857,6,0,B|448:168,3,75
424,72,40157,6,0,B|384:160,1,75
424,72,40307,6,0,B|504:144,1,75
368,72,40457,6,0,B|232:72,1,75
218,72,40607,1,0,0:0:0:0:
312,144,40682,2,0,B|168:144,1,75
160,144,40832,1,0,0:0:0:0:
56,72,40907,6,0,B|192:72,1,75
208,72,41057,1,0,0:0:0:0:
96,136,41132,2,0,B|232:136,1,75
248,136,41282,1,0,0:0:0:0:
136,208,41357,6,0,B|232:208,1,75
300,208,41507,2,0,B|228:272,3,75
120,288,41807,2,0,B|248:288,1,75
264,288,41957,1,0,0:0:0:0:
344,288,42032,2,0,B|216:288,1,75
184,288,42182,2,0,B|109:288,1,75
24,288,42332,6,0,B|88:240,3,75
168,240,42632,1,0,0:0:0:0:
252,240,42707,1,0,0:0:0:0:
340,240,42782,1,0,0:0:0:0:
420,232,42857,6,0,B|360:173,3,75
268,176,43157,2,0,B|180:176,1,75
104,168,43307,2,0,B|44:112,1,75
120,168,43457,6,0,B|168:104,3,75
240,168,43757,2,0,B|184:96,1,75
312,168,43907,2,0,B|376:206,1,75
456,104,44057,1,0,0:0:0:0:
384,104,44132,1,0,0:0:0:0:
312,104,44207,1,0,0:0:0:0:
384,32,44282,1,0,0:0:0:0:
312,32,44357,1,0,0:0:0:0:
240,32,44432,5,0,0:0:0:0:
168,32,44507,1,0,0:0:0:0:
240,104,44582,1,0,0:0:0:0:
280,168,44657,1,0,0:0:0:0:
224,168,44732,1,0,0:0:0:0:
304,208,44807,1,0,0:0:0:0:
200,168,44882,1,0,0:0:0:0:
320,168,44957,1,0,0:0:0:0:
200,216,45032,1,0,0:0:0:0:
324,216,45107,6,0,B|236:216,1,75
60,216,45257,1,0,0:0:0:0:
256,224,45407,2,0,B|208:160,2,75
452,216,45707,1,0,0:0:0:0:
256,224,45857,6,0,B|304:160,2,75
452,216,46157,1,0,0:0:0:0:
60,216,46307,1,0,0:0:0:0:
452,216,46457,5,0,0:0:0:0:
256,224,46607,2,0,B|208:160,2,75
60,216,46907,1,0,0:0:0:0:
256,224,47057,6,0,B|304:160,2,75
452,216,47357,1,0,0:0:0:0:
60,216,47507,1,0,0:0:0:0:
256,216,47657,5,0,0:0:0:0:
396,176,47807,2,0,B|340:108,1,75
296,52,47957,1,0,0:0:0:0:
200,240,48107,2,0,B|264:192,1,75
324,152,48257,5,0,0:0:0:0:
128,156,48407,2,0,B|184:92,1,75
272,68,48557,2,0,B|340:140,2,75
180,64,48782,1,0,0:0:0:0:
256,80,48857,6,0,B|336:176,1,75
380,200,49007,2,0,B|452:288,1,75
320,260,49157,2,0,B|256:324,2,75
376,136,49382,1,0,0:0:0:0:
456,88,49457,1,0,0:0:0:0:
308,104,49607,5,0,0:0:0:0:
204,104,49682,1,0,0:0:0:0:
256,48,49757,1,0,0:0:0:0:
92,240,49907,1,0,0:0:0:0:
40,172,49982,1,0,0:0:0:0:
152,172,50057,1,0,0:0:0:0:
400,80,50357,5,0,0:0:0:0:
12,176,50657,1,0,0:0:0:0:
496,240,50957,1,0,0:0:0:0:
256,228,51257,6,0,B|144:112,1,150
256,228,51557,2,0,B|80:232,1,150
248,228,51857,2,0,B|304:178,3,75
384,112,52157,2,0,B|504:208,1,150
400,208,52382,1,0,0:0:0:0:
336,192,52457,6,0,B|288:256,1,75
224,216,52607,2,0,B|144:240,1,75
32,144,52757,2,0,B|136:152,1,75
192,112,52907,2,0,B|256:152,1,75
304,88,53057,6,0,B|368:144,3,75
472,72,53357,2,0,B|400:136,1,75
336,184,53507,2,0,B|240:184,1,75
160,144,53657,6,0,B|216:208,1,75
128,224,53807,2,0,B|216:256,1,75
104,304,53957,2,0,B|184:304,2,75
216,304,54182,1,0,0:0:0:0:
288,304,54257,6,0,B|344:244,1,75
440,292,54407,2,0,B|384:228,1,75
288,304,54557,2,0,B|360:264,1,75
456,272,54707,2,0,B|392:208,1,75
320,208,54857,6,0,B|488:104|488:104|272:144|32:192,1,600
480,184,55757,1,0,0:0:0:0:
304,184,55907,2,0,B|379:184,1,75
480,184,56057,1,0,0:0:0:0:
376,272,56207,6,0,B|301:272,1,75
200,272,56357,1,0,0:0:0:0:
304,184,56507,2,0,B|229:184,1,75
120,184,56657,1,0,0:0:0:0:
272,112,56807,5,0,0:0:0:0:
80,112,56957,1,0,0:0:0:0:
244,112,57107,1,0,0:0:0:0:
48,112,57257,1,0,0:0:0:0:
192,48,57407,6,0,B|104:48,1,75
32,48,57557,1,0,0:0:0:0:
200,172,57707,2,0,B|96:172,1,75
56,172,57857,1,0,0:0:0:0:
244,112,58007,1,0,0:0:0:0:
8,256,58157,6,0,B|96:200,1,75
144,168,58307,2,0,B|224:216,1,75
288,264,58457,2,0,B|360:224,1,75
472,264,58607,2,0,B|384:216,1,75
328,152,58757,6,0,B|240:80,2,75
400,88,58982,1,0,0:0:0:0:
488,32,59057,2,0,B|408:96,3,75
328,152,59357,6,0,B|432:200,1,75
284,192,59507,2,0,B|200:144,1,75
136,192,59657,1,0,0:0:0:0:
256,192,59957,12,0,61457,0:0:0:0:
184,184,62057,5,0,0:0:0:0:
352,176,62357,1,0,0:0:0:0:
192,96,62657,6,0,B|272:96,1,75
24,176,63107,6,0,B|120:176,1,75
320,224,63557,6,0,B|144:160,1,150
8,88,64007,2,0,B|77:115,1,75
328,184,64457,5,0,0:0:0:0:
160,176,64757,1,0,0:0:0:0:
320,96,65057,6,0,B|240:96,1,75
488,176,65507,6,0,B|400:176,1,75
192,224,65957,6,0,B|368:160,1,150
504,88,66407,2,0,B|434:115,2,75
320,184,66857,6,0,B|400:216,1,75
320,184,67157,6,0,B|240:216,1,75
152,240,67457,1,0,0:0:0:0:
48,160,67607,6,0,B|208:112,1,150
296,120,68057,2,0,B|128:64,1,150
40,168,68507,1,0,0:0:0:0:
256,208,68807,5,0,0:0:0:0:
368,184,68957,1,0,0:0:0:0:
312,96,69107,1,0,0:0:0:0:
416,88,69257,6,0,B|200:88,1,150
120,112,69666,1,0,0:0:0:0:
200,168,69802,1,0,0:0:0:0:
64,232,69938,2,0,B|256:192,1,150
288,136,70347,1,0,0:0:0:0:
88,88,70620,2,0,B|168:160,1,75
344,96,71029,2,0,B|256:136,2,75
96,88,71438,6,0,B|312:88,1,150
392,112,71813,1,0,0:0:0:0:
312,168,71938,1,0,0:0:0:0:
448,232,72063,2,0,B|256:192,1,150
224,136,72438,1,0,0:0:0:0:
416,88,72688,2,0,B|336:160,1,75
144,96,73063,2,0,B|232:136,2,75
416,88,73438,6,0,B|256:88,1,150
144,96,73784,1,0,0:0:0:0:
208,176,73899,1,0,0:0:0:0:
120,232,74014,2,0,B|45:232,1,75
176,208,74245,1,0,0:0:0:0:
256,120,74361,1,0,0:0:0:0:
72,88,74591,2,0,B|152:160,1,75
320,136,74938,2,0,B|240:168,2,75
96,88,75284,6,0,B|256:88,1,150
352,104,75605,1,0,0:0:0:0:
280,192,75712,1,0,0:0:0:0:
368,240,75819,2,0,B|443:240,1,75
304,248,76034,1,0,0:0:0:0:
240,160,76141,1,0,0:0:0:0:
392,96,76355,2,0,B|312:168,1,75
144,88,76676,2,0,B|224:120,1,75
304,168,76891,1,0,0:0:0:0:
504,80,76998,6,0,B|344:80,1,150
204,80,77398,2,0,B|300:80,3,75
0,184,77798,6,0,B|160:184,1,150
300,144,78198,2,0,B|204:144,3,75
512,80,78598,6,0,B|362:80,2,150
404,208,79066,2,0,B|356:140,1,75
0,72,79348,6,0,B|150:72,2,150
144,188,79816,2,0,B|192:248,1,75
408,80,80098,5,0,0:0:0:0:
124,76,80274,2,0,L|288:76,1,150
24,76,80627,1,0,0:0:0:0:
376,144,80803,1,0,0:0:0:0:
64,120,80980,1,0,0:0:0:0:
248,120,81156,2,0,L|112:220,1,150
452,216,81509,1,0,0:0:0:0:
24,184,81842,1,0,0:0:0:0:
364,144,82175,1,0,0:0:0:0:
24,184,82509,1,0,0:0:0:0:
24,112,82842,5,0,0:0:0:0:
215,110,82999,1,0,0:0:0:0:
80,192,83157,1,0,0:0:0:0:
280,199,83315,1,0,0:0:0:0:
472,196,83473,5,0,0:0:0:0:
281,199,83630,1,0,0:0:0:0:
416,281,83788,1,0,0:0:0:0:
216,288,83946,1,0,0:0:0:0:
24,264,84105,6,0,B|24:160,3,75
64,264,84405,5,0,0:0:0:0:
112,264,84480,1,0,0:0:0:0:
160,264,84555,1,0,0:0:0:0:
216,264,84630,1,0,0:0:0:0:
264,264,84705,6,0,B|336:200,3,75
304,264,85005,5,0,0:0:0:0:
352,264,85080,1,0,0:0:0:0:
400,264,85155,1,0,0:0:0:0:
448,264,85230,1,0,0:0:0:0:
504,264,85305,6,0,B|424:216,3,75
336,72,85605,6,0,B|368:160,1,75
264,96,85755,2,0,B|336:160,1,75
208,144,85905,2,0,B|288:144,1,75
168,216,86055,2,0,B|264:160,1,75
112,216,86205,6,0,B|192:136,1,75
56,216,86355,2,0,B|120:136,1,75
40,152,86505,6,0,B|216:80,1,150
280,72,86805,1,0,0:0:0:0:
176,216,86955,2,0,B|264:176,1,75
328,128,87105,1,0,0:0:0:0:
416,208,87255,1,0,0:0:0:0:
288,272,87330,1,0,0:0:0:0:
208,168,87405,2,0,B|272:224,2,75
328,128,87630,1,0,0:0:0:0:
416,88,87705,6,0,B|304:80,1,75
208,64,87855,2,0,B|304:96,1,75
208,168,88005,2,0,B|288:216,1,75
384,312,88155,6,0,B|256:248,1,75
208,320,88305,2,0,B|368:200,1,150
512,304,88605,2,0,B|352:184,1,150
16,272,88905,6,0,B|208:120|208:120|368:272,1,450
264,264,89430,1,0,0:0:0:0:
192,264,89505,1,0,0:0:0:0:
356,261,89655,1,0,0:0:0:0:
356,261,89805,1,0,0:0:0:0:
496,264,89955,1,0,0:0:0:0:
356,261,90105,5,0,0:0:0:0:
256,192,90255,1,0,0:0:0:0:
392,136,90405,1,0,0:0:0:0:
232,64,90555,1,0,0:0:0:0:
48,176,90705,5,0,0:0:0:0:
120,160,90855,1,0,0:0:0:0:
272,232,91005,1,0,0:0:0:0:
160,72,91155,1,0,0:0:0:0:
392,72,91305,6,0,B|208:160,2,150
256,136,91755,2,0,B|328:192,1,75
224,208,91905,2,0,B|152:112|31:221|31:221|152:232|152:232|72:296|72:296|208:240|255:287|255:287|384:168,1,750
296,168,92730,1,0,0:0:0:0:
256,136,92805,6,0,B|424:144,1,150
248,80,93105,2,0,B|392:176,1,150
216,80,93405,2,0,B|120:80|120:80|160:192,1,150
0,64,93705,5,0,0:0:0:0:
504,208,93855,5,0,0:0:0:0:
384,152,93930,1,0,0:0:0:0:
440,256,94005,1,0,0:0:0:0:
344,192,94080,1,0,0:0:0:0:
272,240,94155,1,0,0:0:0:0:
352,272,94230,1,0,0:0:0:0:
296,320,94305,5,0,0:0:0:0:
216,312,94380,1,0,0:0:0:0:
160,248,94455,1,0,0:0:0:0:
232,192,94530,1,0,0:0:0:0:
144,168,94605,5,0,0:0:0:0:
40,184,94680,1,0,0:0:0:0:
104,108,94755,1,0,0:0:0:0:
0,232,94830,1,0,0:0:0:0:
48,144,94905,5,0,0:0:0:0:
112,224,94980,1,0,0:0:0:0:
72,104,95055,1,0,0:0:0:0:
176,64,95130,1,0,0:0:0:0:
240,136,95205,5,0,0:0:0:0:
328,96,95280,1,0,0:0:0:0:
272,264,95355,1,0,0:0:0:0:
320,192,95430,1,0,0:0:0:0:
408,240,95505,5,0,0:0:0:0:
488,240,95580,1,0,0:0:0:0:
384,168,95655,1,0,0:0:0:0:
456,168,95730,1,0,0:0:0:0:
352,104,95805,5,0,0:0:0:0:
424,104,95880,1,0,0:0:0:0:
312,48,95955,1,0,0:0:0:0:
392,56,96105,6,0,B|496:56|496:56|288:56,1,300
416,160,96555,2,0,B|480:232,2,75
352,104,96855,1,0,0:0:0:0:
280,168,97005,2,0,B|448:216,1,150
264,96,97305,6,0,B|168:224,2,150
96,160,97755,6,0,B|32:232,2,75
160,104,98055,1,0,0:0:0:0:
96,160,98205,2,0,B|280:208,1,150
432,88,98505,6,0,B|306:169,2,150
256,104,98955,2,0,B|336:104,2,75
128,104,99255,1,0,0:0:0:0:
304,216,99405,2,0,B|168:128,1,150
376,216,99705,6,0,B|248:96,2,150
296,96,100155,2,0,B|221:96,1,75
104,104,100305,2,0,B|272:232,1,150
408,104,100605,2,0,B|240:232,1,150
104,200,100905,6,0,B|216:88,1,150
408,200,101205,2,0,B|272:72,1,150
472,208,101505,2,0,B|280:160,1,150
128,204,101805,2,0,B|256:48,1,150
40,216,102105,6,0,B|208:120|200:112,1,150
272,80,102405,1,0,0:0:0:0:
112,256,102555,2,0,B|185:242,2,75
240,296,102855,1,0,0:0:0:0:
88,328,103005,1,0,0:0:0:0:
280,168,103155,1,0,0:0:0:0:
64,264,103305,5,0,0:0:0:0:
0,264,103380,1,0,0:0:0:0:
64,264,103455,1,0,0:0:0:0:
128,264,103530,1,0,0:0:0:0:
192,264,103605,1,0,0:0:0:0:
128,264,103680,1,0,0:0:0:0:
192,264,103755,1,0,0:0:0:0:
256,264,103830,1,0,0:0:0:0:
320,264,103905,5,0,0:0:0:0:
256,264,103980,1,0,0:0:0:0:
320,264,104055,1,0,0:0:0:0:
384,264,104130,1,0,0:0:0:0:
448,264,104205,1,0,0:0:0:0:
384,264,104280,1,0,0:0:0:0:
448,264,104355,1,0,0:0:0:0:
512,264,104430,1,0,0:0:0:0:
452,232,104505,6,0,B|216:44|216:44|-32:224,1,600
512,200,105405,1,0,0:0:0:0:
99,104,105705,6,0,B|200:120,1,75
80,104,105855,2,0,B|5:96,1,75
56,192,106005,1,0,0:0:0:0:
400,136,106155,6,0,B|336:80,1,75
272,96,106305,2,0,B|347:87,1,75
408,200,106455,1,0,0:0:0:0:
48,224,106605,6,0,B|120:168,3,75
48,280,106905,2,0,B|136:240,1,75
216,288,107055,2,0,B|168:232,1,75
288,280,107205,6,0,B|216:224,1,75
352,280,107355,2,0,B|264:272,1,75
352,280,107505,2,0,B|400:224,1,75
488,296,107655,2,0,B|408:252,1,75
328,200,107805,6,0,B|408:144,1,75
488,200,107955,2,0,B|424:140,1,75
352,72,108105,5,0,0:0:0:0:
172,184,108255,1,0,0:0:0:0:
320,160,108405,1,0,0:0:0:0:
128,92,108555,1,0,0:0:0:0:
288,60,108705,5,0,0:0:0:0:
464,160,108855,1,0,0:0:0:0:
336,104,109005,1,0,0:0:0:0:
192,216,109155,1,0,0:0:0:0:
64,88,109305,5,0,0:0:0:0:
336,184,109455,1,0,0:0:0:0:
16,136,109605,2,0,B|78:88|78:88|161:130|161:130|16:200,1,300
400,184,110205,6,0,B|288:312,1,150
488,176,110505,2,0,B|232:48,1,269.999987125397
472,64,111105,6,0,B|328:136,1,134.999993562699
192,84,111405,2,0,B|312:244,1,134.999993562699
64,128,111705,2,0,B|208:200,2,134.999993562699
320,84,112305,6,0,B|184:272,1,202.499993820191
280,236,112605,2,0,B|352:188|408:268|296:316,1,134.999993562699
232,248,112905,2,0,B|376:200,1,134.999993562699
480,128,113205,1,0,0:0:0:0:
312,156,113355,1,0,0:0:0:0:
416,56,113505,6,0,B|272:96,1,134.999993562699
96,168,113805,2,0,B|8:48,1,134.999993562699
412,64,114105,2,0,B|164:112|164:112|436:272,1,539.999983520508
440,64,114705,6,0,B|264:152|264:152|368:184,1,300
464,192,115155,1,0,0:0:0:0:
320,208,115305,6,0,B|184:152,1,112.499996647239
48,200,115605,2,0,B|160:136,1,112.499996647239
256,112,115905,2,0,B|392:56,1,112.499996647239
200,216,116205,2,0,B|272:152,1,75
448,272,116505,6,0,B|368:192,1,112.5
312,176,116805,1,0,0:0:0:0:
180,132,116955,1,0,0:0:0:0:
288,104,117105,1,0,0:0:0:0:
104,148,117255,1,0,0:0:0:0:
376,80,117405,1,0,0:0:0:0:
64,168,117555,1,0,0:0:0:0:
480,216,117705,6,0,B|384:144,1,112.499996647239
232,284,118005,2,0,B|345:278,2,112.499996647239
388,220,118455,1,0,0:0:0:0:
80,232,118605,2,0,B|160:136,2,112.499996647239
236,108,119055,1,0,0:0:0:0:
24,160,119205,2,0,B|152:144|160:160,1,112.499996647239
312,240,119521,1,0,0:0:0:0:
112,264,119688,1,0,0:0:0:0:
208,184,119855,1,0,0:0:0:0:
200,72,120197,6,0,P|132:84|72:184,1,150
196,196,120540,2,0,B|292:164|292:44,1,150
384,148,120883,2,0,P|368:220|264:276,1,150
212,240,121226,2,0,B|100:128,1,150
20,64,121569,2,0,B|220:96|220:96|102:122|102:122|96:284|348:280,1,600
68,272,122835,5,0,0:0:0:0:
424,128,123285,6,0,B|280:176,1,150
24,112,123827,2,0,B|192:184,1,150
296,192,124493,6,0,B|160:256,2,150
180,128,124947,2,0,L|324:168,1,150
264,168,125402,1,0,0:0:0:0:
