osu file format v14

[General]
AudioFilename: audio.mp3
AudioLeadIn: 0
PreviewTime: 86843
Countdown: 0
SampleSet: Normal
StackLeniency: 1
Mode: 2
LetterboxInBreaks: 0
WidescreenStoryboard: 1

[Editor]
Bookmarks: 11993,21593,40793,96504,115704,125800,132163
DistanceSpacing: 1
BeatDivisor: 4
GridSize: 8
TimelineZoom: 2.6

[Metadata]
Title:Mei
TitleUnicode:冥
Artist:Amuro vs. Killer
ArtistUnicode:Amuro vs. Killer
Creator:Spectator
Version:Stardust Prism's Salad
Source:beatmania IIDX 12 HAPPY SKY
Tags:dika312 Stardust Prism Lacrima Myle wwwww Connor Electronic Instrumental Video Game HUMAN SEQUENCER ddr DanceDanceRevolution X2 Toy'sMarch2 toys Toy's March 2 dance revolution 2dx BEMANI Konami Takayuki Ishikawa 石川貴之 Tatsuya Shimizu 清水達也 D.J.Amuro 安室 皆伝 dj TAKA Tatsh TAKASH rhythm 冥王星 PLUTO STORY
BeatmapID:4518179
BeatmapSetID:2144786

[Difficulty]
HPDrainRate:3
CircleSize:3.2
OverallDifficulty:6
ApproachRate:6
SliderMultiplier:1.2
SliderTickRate:1

[Events]
//Background and Video events
0,0,"bg.jpg",0,0
//Break Periods
2,60186,68536
//Storyboard Layer 0 (Background)
//Storyboard Layer 1 (Fail)
//Storyboard Layer 2 (Pass)
//Storyboard Layer 3 (Foreground)
//Storyboard Layer 4 (Overlay)
//Storyboard Sound Samples

[TimingPoints]
2386,300,4,2,1,30,1,0
9886,-100,4,2,1,20,0,0
10186,-100,4,2,1,30,0,0
10486,-100,4,2,1,20,0,0
11986,-100,4,1,6,30,0,0
20386,-100,4,1,1,15,0,0
20686,-100,4,1,1,25,0,0
20986,-100,4,1,1,40,0,0
21286,-100,4,1,1,50,0,0
21586,-100,4,1,27,45,0,0
21661,-100,4,1,7,45,0,0
31186,-100,4,1,27,45,0,0
31261,-100,4,1,7,45,0,0
40786,-100,4,1,1,50,0,1
59986,600,4,1,1,30,1,0
59986,-100,4,1,1,30,0,0
69586,545.454545454546,4,1,8,40,1,0
71767,500,4,1,8,50,1,0
73767,461.538461538462,4,1,8,50,1,0
75613,428.571428571429,4,1,8,40,1,0
77327,400,4,1,8,50,1,0
78927,375,4,1,8,50,1,0
80427,352.941176470588,4,1,1,60,1,0
81838,333.333333333333,4,1,1,70,1,0
83171,315.789473684211,4,1,1,60,1,0
84434,300,4,1,1,50,1,0
85034,-100,4,1,1,45,0,0
85634,315.789473684211,4,2,1,40,1,0
85634,-100,4,2,1,40,0,0
85673,-100,4,2,1,5,0,0
85712,-100,4,2,1,37,0,0
85751,-100,4,2,1,5,0,0
85791,-100,4,2,1,35,0,0
85830,-100,4,2,1,5,0,0
85870,-100,4,2,1,32,0,0
85909,-100,4,2,1,5,0,0
85949,-100,4,2,1,30,0,0
85988,-100,4,2,1,5,0,0
86028,-100,4,2,1,32,0,0
86067,-100,4,2,1,5,0,0
86107,-100,4,2,1,35,0,0
86146,-100,4,2,1,5,0,0
86186,-100,4,2,1,37,0,0
86225,-100,4,2,1,5,0,0
86265,-100,4,2,1,40,0,0
86304,-100,4,2,1,5,0,0
86344,-100,4,2,1,42,0,0
86383,-100,4,2,1,5,0,0
86423,-100,4,2,1,45,0,0
86462,-100,4,2,1,5,0,0
86502,-100,4,2,1,47,0,0
86541,-100,4,2,1,5,0,0
86581,-100,4,2,1,50,0,0
86620,-100,4,2,1,5,0,0
86660,-100,4,2,1,52,0,0
86699,-100,4,2,1,5,0,0
86739,-100,4,2,1,55,0,0
86778,-100,4,2,1,5,0,0
86818,-100,4,2,1,57,0,0
86857,-100,4,2,1,5,0,0
86897,300,4,1,27,60,1,1
86897,-100,4,1,27,60,0,1
87047,-100,4,1,1,60,0,1
96347,-100,4,1,1,60,0,0
96497,-100,4,1,27,60,0,1
96572,-100,4,1,1,60,0,1
97097,-100,4,1,32,60,0,1
97697,-100,4,1,1,60,0,1
98297,-100,4,1,32,60,0,1
98897,-100,4,1,1,60,0,1
99497,-100,4,1,32,60,0,1
100097,-100,4,1,1,60,0,1
100697,-100,4,1,32,60,0,1
101297,-100,4,1,1,60,0,1
105797,-100,4,1,1,60,0,0
106097,-100,4,1,27,60,0,1
106172,-100,4,1,1,60,0,1
115697,-100,4,1,1,50,0,0
115847,-100,4,2,1,50,0,0
119747,333.333333333333,4,2,1,50,1,0
120247,342.857142857143,4,2,1,50,1,0
120589,-100,4,2,1,40,0,0
121961,363.636363636364,4,2,1,40,1,0
122688,428.571428571429,4,2,1,40,1,0
123223,600,4,2,1,40,1,0
123673,545.454545454546,4,2,1,40,1,0
124218,666.666666666667,4,2,1,40,1,0
124884,909.090909090909,4,2,1,40,1,0
126020,-100,4,2,1,5,0,0

[Colours]
Combo1 : 80,197,235
Combo2 : 207,207,207
Combo3 : 109,151,192
Combo4 : 140,236,236

[HitObjects]
385,326,11986,6,0,P|422:298|353:209,1,180,2|0,0:0|0:0,0:0:0:0:
180,198,12886,1,8,0:0:0:0:
65,301,13186,2,0,P|54:226|196:164,1,240
374,182,14386,6,0,L|179:183,2,180,2|0|8,0:0|0:0|0:0,0:0:0:0:
252,226,15586,5,0,0:0:0:0:
39,317,16186,1,0,0:0:0:0:
278,320,16786,6,0,P|334:256|256:212,1,180,2|0,0:0|0:0,0:0:0:0:
102,260,17686,1,8,0:0:0:0:
237,257,17986,6,0,P|240:189|93:116,1,240
295,230,19186,6,0,L|87:212,2,180,2|0|8,0:0|0:0|0:0,0:0:0:0:
256,192,20386,12,0,21286,0:0:0:0:
259,282,21586,6,0,L|117:273,1,120,8|10,0:0|0:0,0:0:0:0:
201,241,22036,1,2,0:0:0:0:
322,193,22336,1,4,0:0:0:0:
322,193,22486,1,8,0:0:0:0:
200,207,22786,6,0,P|171:156|227:119,1,120,6|10,0:0|0:0,0:0:0:0:
268,112,23236,1,2,0:0:0:0:
388,234,23536,2,0,L|310:234,1,60,4|8,0:0|0:0,0:0:0:0:
94,340,23986,6,0,P|62:322|112:270,1,120,6|10,0:0|0:0,0:0:0:0:
160,257,24436,1,2,0:0:0:0:
285,205,24736,1,4,0:0:0:0:
220,201,24886,1,8,0:0:0:0:
220,201,25186,6,0,L|358:202,1,120,2|10,0:0|0:0,0:0:0:0:
280,175,25636,1,2,0:0:0:0:
159,278,25936,2,0,L|159:208,1,60,4|8,0:0|0:0,0:0:0:0:
391,296,26386,6,0,P|425:273|372:225,1,120,6|10,0:0|0:0,0:0:0:0:
327,217,26836,1,2,0:0:0:0:
205,236,27136,2,0,L|278:236,1,60,4|8,0:0|0:0,0:0:0:0:
265,236,27586,6,0,L|117:236,1,120,6|10,0:0|0:0,0:0:0:0:
206,233,28036,1,2,0:0:0:0:
326,290,28336,2,0,L|264:290,1,60,0|8,0:0|0:0,0:0:0:0:
50,260,28786,6,0,P|24:239|70:167,1,120,6|10,0:0|0:0,0:0:0:0:
122,161,29236,1,2,0:0:0:0:
249,213,29536,2,0,L|176:213,1,60,4|8,0:0|0:0,0:0:0:0:
189,219,29986,6,0,L|333:218,1,120,6|10,0:0|0:0,0:0:0:0:
248,200,30436,1,2,0:0:0:0:
129,161,30736,2,0,L|62:161,2,60,4|8|0,0:0|0:0|0:0,0:0:0:0:
273,260,31186,6,0,L|401:260,1,120,8|10,0:0|0:0,0:0:0:0:
358,252,31636,1,0,0:0:0:0:
219,240,31936,2,0,L|219:175,1,60,4|8,0:0|0:0,0:0:0:0:
339,196,32386,6,0,P|365:172|326:107,1,120,6|10,0:0|0:0,0:0:0:0:
271,116,32836,1,2,0:0:0:0:
143,220,33136,2,0,L|78:220,1,60,4|8,0:0|0:0,0:0:0:0:
311,190,33586,6,0,L|449:190,1,120,6|10,0:0|0:0,0:0:0:0:
370,173,34036,1,0,0:0:0:0:
247,271,34336,2,0,L|247:205,1,60,4|8,0:0|0:0,0:0:0:0:
368,241,34786,6,0,P|400:222|351:172,1,120,6|10,0:0|0:0,0:0:0:0:
302,163,35236,1,2,0:0:0:0:
422,140,35536,2,0,L|487:140,1,60,4|8,0:0|0:0,0:0:0:0:
253,246,35986,6,0,L|126:245,1,120,6|10,0:0|0:0,0:0:0:0:
197,208,36436,1,0,0:0:0:0:
320,195,36736,2,0,L|321:128,1,60,4|8,0:0|0:0,0:0:0:0:
201,218,37186,6,0,P|162:188|213:153,1,120,6|10,0:0|0:0,0:0:0:0:
269,142,37636,1,2,0:0:0:0:
398,111,37936,2,0,L|312:111,1,60,4|8,0:0|0:0,0:0:0:0:
136,256,38386,6,0,L|14:256,1,120,6|10,0:0|0:0,0:0:0:0:
78,226,38836,1,0,0:0:0:0:
202,225,39136,2,0,L|212:156,2,60,4|8|0,0:0|0:0|0:0,0:0:0:0:
346,143,39586,5,4,1:2:0:0:
346,143,40336,6,0,L|347:65,2,60,4|8|4,1:1|1:1|1:1,0:0:0:0:
201,270,40786,6,0,L|74:263,1,120,6|8,0:1|0:0,0:0:0:0:
209,231,41386,2,0,L|264:277,2,60,4|4|8,0:0|0:0|0:0,0:0:0:0:
140,244,41836,6,0,P|106:220|161:177,1,120,4|4,0:0|0:0,0:0:0:0:
209,172,42286,1,8,0:0:0:0:
329,121,42586,1,4,0:0:0:0:
269,119,42736,1,4,0:0:0:0:
209,117,42886,1,8,0:0:0:0:
437,264,43186,6,0,L|442:193,1,60,4|0,0:0|0:0,0:0:0:0:
381,192,43486,1,8,0:0:0:0:
261,268,43786,2,0,L|401:263,1,120,4|8,0:0|0:0,0:0:0:0:
317,237,44236,1,4,0:0:0:0:
194,222,44536,6,0,L|191:151,1,60,4|8,0:0|0:0,0:0:0:0:
314,148,44986,1,4,0:0:0:0:
373,153,45136,1,4,0:0:0:0:
433,158,45286,1,8,0:0:0:0:
206,239,45586,6,0,L|66:239,1,120,6|8,0:1|0:0,0:0:0:0:
207,216,46186,2,0,L|206:147,1,60,4|4,0:0|0:0,0:0:0:0:
143,148,46486,1,8,0:0:0:0:
79,155,46636,6,0,P|42:128|94:88,1,120,4|4,0:0|0:0,0:0:0:0:
144,71,47086,1,8,0:0:0:0:
271,173,47386,2,0,L|192:173,1,60,4|4,0:0|0:0,0:0:0:0:
211,173,47686,1,8,0:0:0:0:
438,224,47986,6,0,P|475:203|429:161,1,120,4|8,0:0|0:0,0:0:0:0:
311,207,48586,1,4,0:0:0:0:
370,207,48736,1,4,0:0:0:0:
430,207,48886,1,8,0:0:0:0:
370,207,49036,1,4,0:0:0:0:
249,305,49336,5,4,0:0:0:0:
188,304,49486,2,0,P|155:289|194:235,1,120,8|4,0:0|0:0,0:0:0:0:
251,234,49936,1,4,0:0:0:0:
329,236,50086,1,10,0:0:0:0:
108,208,50386,6,0,L|249:200,1,120,6|8,0:1|0:0,0:0:0:0:
106,151,50986,2,0,L|246:142,1,120,4|8,0:0|0:0,0:0:0:0:
351,159,51586,6,0,L|425:166,2,60,0|4|8,0:0|0:0|0:0,0:0:0:0:
230,238,52186,2,0,L|200:175,2,60,4|4|8,0:0|0:0|0:0,0:0:0:0:
297,208,52636,1,0,0:0:0:0:
441,187,52786,6,0,L|485:132,2,60,4|4|8,0:0|0:0|0:0,0:0:0:0:
319,291,53386,2,0,P|321:237|382:208,1,120,4|8,0:0|0:0,0:0:0:0:
439,204,53836,1,4,0:0:0:0:
296,184,53986,6,0,L|158:174,1,120,0|8,0:0|0:0,0:0:0:0:
297,182,54586,2,0,L|328:127,2,60,4|4|8,0:0|0:0|0:0,0:0:0:0:
237,161,55036,1,0,0:0:0:0:
92,235,55186,6,0,L|25:251,2,60,2|0|8,0:1|0:0|0:0,0:0:0:0:
212,192,55786,2,0,L|341:200,1,120,4|8,0:0|0:0,0:0:0:0:
208,256,56386,6,0,L|84:259,1,120,0|8,0:0|0:0,0:0:0:0:
212,205,56986,2,0,L|215:142,1,60,4|4,0:0|0:0,0:0:0:0:
147,150,57286,1,8,0:0:0:0:
369,198,57586,6,0,P|396:174|356:114,1,120,4|0,0:0|0:0,0:0:0:0:
236,253,58186,1,4,0:0:0:0:
297,255,58336,1,4,0:0:0:0:
361,257,58486,1,8,0:0:0:0:
145,248,58786,6,0,L|109:185,2,60,0|4|8,0:0|0:0|0:0,0:0:0:0:
266,218,59386,2,0,L|300:157,2,60,4|4|10,0:0|0:0|0:0,0:0:0:0:
199,245,59836,1,0,0:0:0:0:
46,270,59986,5,4,0:1:0:0:
168,190,69586,5,4,0:0:0:0:
256,192,70131,12,8,71222,0:0:0:0:
341,195,71767,5,4,0:0:0:0:
256,192,72267,12,8,73267,0:0:0:0:
145,181,73767,5,4,0:0:0:0:
256,192,74228,12,8,75151,0:0:0:0:
377,187,75613,5,4,0:0:0:0:
256,192,76041,12,8,76898,0:0:0:0:
205,200,77327,5,4,0:0:0:0:
414,180,78127,1,4,0:0:0:0:
162,181,78927,5,4,0:0:0:0:
383,182,79677,1,4,0:0:0:0:
144,132,80427,5,4,0:0:0:0:
144,132,80603,1,4,0:0:0:0:
264,171,80956,1,4,0:0:0:0:
322,183,81132,1,4,0:0:0:0:
269,168,81309,1,4,0:0:0:0:
144,270,81662,5,4,0:0:0:0:
74,268,81838,1,4,0:0:0:0:
201,182,82171,1,4,0:0:0:0:
326,149,82504,1,4,0:0:0:0:
201,159,82838,1,4,0:0:0:0:
57,167,83171,5,4,0:0:0:0:
256,192,83486,12,0,85634,0:0:0:0:
258,211,86897,6,0,L|125:210,2,120,12|8|4,0:0|0:0|0:0,0:0:0:0:
378,186,87797,2,0,L|311:186,1,60,8|4,0:0|0:0,0:0:0:0:
174,323,88097,6,0,P|144:304|189:246,1,120,0|8,0:0|0:0,0:0:0:0:
238,239,88547,1,0,0:0:0:0:
309,251,88697,1,4,0:0:0:0:
189,202,88997,1,8,0:0:0:0:
405,302,89297,6,0,P|435:273|384:215,1,120,6|8,0:0|0:0,0:0:0:0:
275,173,89897,1,4,0:0:0:0:
334,172,90047,1,0,0:0:0:0:
394,172,90197,1,8,0:0:0:0:
179,284,90497,6,0,P|149:264|199:208,1,120,0|8,0:0|0:0,0:0:0:0:
245,202,90947,1,0,0:0:0:0:
309,215,91097,1,4,0:0:0:0:
427,161,91397,2,0,L|356:160,1,60,8|0,0:0|0:0,0:0:0:0:
223,228,91697,6,0,L|88:227,1,120,6|8,0:0|0:0,0:0:0:0:
224,209,92297,2,0,P|261:183|210:143,1,120,4|8,0:0|0:0,0:0:0:0:
159,145,92747,1,4,0:0:0:0:
36,135,93047,5,4,0:0:0:0:
99,134,93197,1,8,0:0:0:0:
221,222,93497,2,0,L|220:153,1,60,4|4,0:0|0:0,0:0:0:0:
158,152,93797,1,8,0:0:0:0:
380,155,94097,6,0,L|502:155,1,120,6|8,0:0|0:0,0:0:0:0:
381,252,94697,2,0,L|370:189,2,60,4|4|8,0:0|0:0|0:0,0:0:0:0:
159,210,95297,6,0,P|131:185|176:122,1,120,0|8,0:0|0:0,0:0:0:0:
295,106,95897,2,0,L|316:40,2,60,4|4|8,0:0|0:0|0:0,0:0:0:0:
230,142,96347,1,0,0:0:0:0:
86,353,96497,6,0,P|59:345|106:243,1,180,12|0,0:0|0:0,0:0:0:0:
156,231,97097,1,6,0:0:0:0:
281,182,97397,1,10,0:0:0:0:
221,188,97547,6,0,L|78:189,1,120,4|4,0:0|0:0,0:0:0:0:
160,177,97997,1,8,0:0:0:0:
286,152,98297,2,0,L|410:152,1,120,6|10,0:0|0:0,0:0:0:0:
344,128,98747,1,0,0:0:0:0:
200,280,98897,6,0,L|18:274,1,180,6|0,0:0|0:0,0:0:0:0:
84,243,99497,1,6,0:0:0:0:
205,217,99797,1,10,0:0:0:0:
277,217,99947,6,0,P|308:194|262:136,1,120,4|4,0:0|0:0,0:0:0:0:
212,145,100397,1,8,0:0:0:0:
87,230,100697,2,0,L|44:177,2,60,6|4|10,0:0|0:0|0:0,0:0:0:0:
160,229,101147,1,0,0:0:0:0:
305,196,101297,6,0,L|448:200,1,120,6|8,0:0|0:0,0:0:0:0:
301,216,101897,1,4,0:0:0:0:
241,218,102047,1,4,0:0:0:0:
181,220,102197,1,8,0:0:0:0:
247,222,102347,6,0,P|276:198|235:139,1,120,4|4,0:0|0:0,0:0:0:0:
178,137,102797,1,8,0:0:0:0:
63,266,103097,2,0,L|63:202,1,60,4|4,0:0|0:0,0:0:0:0:
129,198,103397,1,8,0:0:0:0:
356,155,103697,6,0,L|442:159,2,60,6|0|8,0:0|0:0|0:0,0:0:0:0:
236,265,104297,2,0,L|165:269,2,60,4|4|8,0:0|0:0|0:0,0:0:0:0:
353,306,104897,5,0,0:0:0:0:
300,279,105047,1,4,0:0:0:0:
281,224,105197,1,8,0:0:0:0:
305,171,105347,1,0,0:0:0:0:
360,149,105497,1,4,0:0:0:0:
425,154,105647,1,4,0:0:0:0:
360,149,105797,1,10,0:0:0:0:
144,261,106097,6,0,L|129:208,2,30,12|0|0,0:0|0:0|0:0,0:0:0:0:
204,203,106397,1,8,0:0:0:0:
272,138,106547,2,0,L|145:137,1,120,0|4,0:0|0:0,0:0:0:0:
91,136,106997,1,8,0:0:0:0:
311,274,107297,6,0,P|346:251|291:207,1,120,0|8,0:0|0:0,0:0:0:0:
194,187,107897,1,4,0:0:0:0:
253,185,108047,1,4,0:0:0:0:
313,184,108197,1,8,0:0:0:0:
95,303,108497,6,0,P|65:287|101:223,1,120,6|8,0:0|0:0,0:0:0:0:
220,167,109097,2,0,L|343:180,1,120,4|8,0:0|0:0,0:0:0:0:
116,246,109697,6,0,L|42:250,1,60,0|4,0:0|0:0,0:0:0:0:
122,243,109997,2,0,L|261:248,1,120,8|4,0:0|0:0,0:0:0:0:
122,243,110597,1,8,0:0:0:0:
121,240,110747,1,0,0:0:0:0:
265,225,110897,6,0,L|396:227,1,120,6|8,0:0|0:0,0:0:0:0:
261,282,111497,2,0,L|202:313,2,60,4|4|8,0:0|0:0|0:0,0:0:0:0:
335,297,111947,6,0,P|369:280|327:227,1,120,4|4,0:0|0:0,0:0:0:0:
274,223,112397,1,8,0:0:0:0:
151,248,112697,2,0,L|180:177,1,60,4|0,0:0|0:0,0:0:0:0:
251,179,112997,1,0,0:0:0:0:
471,154,113297,6,0,L|475:94,1,60,6|0,0:0|0:0,0:0:0:0:
403,101,113597,1,8,0:0:0:0:
286,258,113897,2,0,L|431:268,1,120,4|8,0:0|0:0,0:0:0:0:
178,282,114497,6,0,L|121:221,2,60,0|4|8,0:0|0:0|0:0,0:0:0:0:
310,260,115097,2,0,L|346:209,2,60,4|4|8,0:0|0:0|0:0,0:0:0:0:
235,233,115547,1,0,0:0:0:0:
86,246,115697,5,2,0:0:0:0:
256,192,115997,12,2,117797,0:0:0:0:
347,211,118097,5,2,0:0:0:0:
256,192,118397,12,2,120247,0:0:0:0:
119,199,120589,5,2,0:0:0:0:
256,192,120932,12,2,121618,0:0:0:0:
352,169,121961,5,2,0:0:0:0:
149,163,122688,1,2,0:0:0:0:
320,162,123223,1,2,0:0:0:0:
80,226,123673,5,2,0:0:0:0:
256,192,125793,12,2,132156,0:0:0:0:
