osu file format v14

[General]
AudioFilename: audio.mp3
AudioLeadIn: 0
PreviewTime: 86843
Countdown: 0
SampleSet: Normal
StackLeniency: 1
Mode: 2
LetterboxInBreaks: 0
WidescreenStoryboard: 1

[Editor]
Bookmarks: 11993,21593,40793,96504,115704
DistanceSpacing: 1
BeatDivisor: 4
GridSize: 8
TimelineZoom: 2.6

[Metadata]
Title:Mei
TitleUnicode:冥
Artist:Amuro vs. Killer
ArtistUnicode:Amuro vs. Killer
Creator:Spectator
Version:Platter
Source:beatmania IIDX 12 HAPPY SKY
Tags:dika312 Stardust Prism Lacrima Myle wwwww Connor Electronic Instrumental Video Game HUMAN SEQUENCER ddr DanceDanceRevolution X2 Toy'sMarch2 toys Toy's March 2 dance revolution 2dx BEMANI Konami Takayuki Ishikawa 石川貴之 Tatsuya Shimizu 清水達也 D.J.Amuro 安室 皆伝 dj TAKA Tatsh TAKASH rhythm 冥王星 PLUTO STORY
BeatmapID:4518178
BeatmapSetID:2144786

[Difficulty]
HPDrainRate:4
CircleSize:4
OverallDifficulty:7
ApproachRate:7
SliderMultiplier:3.59999990463257
SliderTickRate:1

[Events]
//Background and Video events
0,0,"bg.jpg",0,0
//Break Periods
2,60186,68686
//Storyboard Layer 0 (Background)
//Storyboard Layer 1 (Fail)
//Storyboard Layer 2 (Pass)
//Storyboard Layer 3 (Foreground)
//Storyboard Layer 4 (Overlay)
//Storyboard Sound Samples

[TimingPoints]
2386,300,4,2,1,30,1,0
9886,-100,4,2,1,20,0,0
10186,-100,4,2,1,30,0,0
10486,-100,4,2,1,20,0,0
11986,-100,4,1,6,30,0,0
20386,-100,4,1,1,15,0,0
20686,-100,4,1,1,25,0,0
20986,-100,4,1,1,40,0,0
21286,-100,4,1,1,50,0,0
21586,-100,4,1,27,45,0,0
21661,-100,4,1,7,45,0,0
31186,-100,4,1,27,45,0,0
31261,-100,4,1,7,45,0,0
40786,-100,4,1,1,50,0,1
59986,600,4,1,1,30,1,0
59986,-100,4,1,1,30,0,0
69586,545.454545454546,4,1,8,40,1,0
71767,500,4,1,8,50,1,0
73767,461.538461538462,4,1,8,50,1,0
75613,428.571428571429,4,1,8,40,1,0
77327,400,4,1,8,50,1,0
78927,375,4,1,8,50,1,0
80427,352.941176470588,4,1,1,60,1,0
81838,333.333333333333,4,1,1,70,1,0
83171,315.789473684211,4,1,1,60,1,0
84434,300,4,1,1,50,1,0
85034,-100,4,1,1,45,0,0
85634,315.789473684211,4,2,1,40,1,0
85634,-100,4,2,1,40,0,0
85673,-100,4,2,1,5,0,0
85712,-100,4,2,1,37,0,0
85751,-100,4,2,1,5,0,0
85791,-100,4,2,1,35,0,0
85830,-100,4,2,1,5,0,0
85870,-100,4,2,1,32,0,0
85909,-100,4,2,1,5,0,0
85949,-100,4,2,1,30,0,0
85988,-100,4,2,1,5,0,0
86028,-100,4,2,1,32,0,0
86067,-100,4,2,1,5,0,0
86107,-100,4,2,1,35,0,0
86146,-100,4,2,1,5,0,0
86186,-100,4,2,1,37,0,0
86225,-100,4,2,1,5,0,0
86265,-100,4,2,1,40,0,0
86304,-100,4,2,1,5,0,0
86344,-100,4,2,1,42,0,0
86383,-100,4,2,1,5,0,0
86423,-100,4,2,1,45,0,0
86462,-100,4,2,1,5,0,0
86502,-100,4,2,1,47,0,0
86541,-100,4,2,1,5,0,0
86581,-100,4,2,1,50,0,0
86620,-100,4,2,1,5,0,0
86660,-100,4,2,1,52,0,0
86699,-100,4,2,1,5,0,0
86739,-100,4,2,1,55,0,0
86778,-100,4,2,1,5,0,0
86818,-100,4,2,1,57,0,0
86857,-100,4,2,1,5,0,0
86897,300,4,1,27,60,1,1
86897,-100,4,1,27,60,0,1
87047,-100,4,1,1,60,0,1
96347,-100,4,1,1,60,0,0
96497,-100,4,1,27,60,0,1
96572,-100,4,1,1,60,0,1
97097,-100,4,1,32,60,0,1
97697,-100,4,1,1,60,0,1
98297,-100,4,1,32,60,0,1
98897,-100,4,1,1,60,0,1
99497,-100,4,1,32,60,0,1
100097,-100,4,1,1,60,0,1
100697,-100,4,1,32,60,0,1
101297,-100,4,1,1,60,0,1
105797,-100,4,1,1,60,0,0
106097,-100,4,1,27,60,0,1
106172,-100,4,1,1,60,0,1
115697,-100,4,1,1,50,0,0
115847,-100,4,2,1,50,0,0
119747,333.333333333333,4,2,1,50,1,0
120247,342.857142857143,4,2,1,50,1,0
120589,-100,4,2,1,40,0,0
121961,363.636363636364,4,2,1,40,1,0
122688,428.571428571429,4,2,1,40,1,0
123223,600,4,2,1,40,1,0
123673,545.454545454546,4,2,1,40,1,0
124218,666.666666666667,4,2,1,40,1,0
124884,909.090909090909,4,2,1,40,1,0
126020,-100,4,2,1,5,0,0

[Colours]
Combo1 : 80,197,235
Combo2 : 207,207,207
Combo3 : 109,151,192
Combo4 : 140,236,236

[HitObjects]
44,52,2386,5,2,0:0:0:0:
37,131,2536,1,0,0:0:0:0:
117,131,2686,1,0,1:0:0:0:
263,128,2836,1,0,1:0:0:0:
294,199,2986,1,0,0:0:0:0:
265,271,3136,1,0,2:0:0:0:
117,277,3286,1,0,1:0:0:0:
448,168,4786,5,2,0:0:0:0:
456,168,4936,1,0,0:0:0:0:
368,168,5086,1,0,0:0:0:0:
376,168,5236,1,2,0:0:0:0:
288,168,5386,1,0,0:0:0:0:
296,168,5536,1,0,0:0:0:0:
376,168,5686,1,2,0:0:0:0:
44,52,7186,5,2,0:0:0:0:
37,131,7336,1,0,0:0:0:0:
117,131,7486,1,0,1:0:0:0:
263,128,7636,1,0,1:0:0:0:
294,199,7786,1,0,0:0:0:0:
265,271,7936,1,0,0:0:0:0:
117,277,8086,1,0,1:0:0:0:
448,168,9586,5,2,0:0:0:0:
456,168,9736,1,0,0:0:0:0:
368,168,9886,1,0,1:0:0:0:
376,168,10036,1,0,1:0:0:0:
288,168,10186,1,0,0:0:0:0:
296,168,10336,1,0,2:0:0:0:
376,168,10486,1,0,1:0:0:0:
39,241,11986,5,2,0:0:0:0:
39,241,12286,1,8,0:0:0:0:
187,136,12436,1,0,0:0:0:0:
206,171,12511,1,0,0:0:0:0:
187,136,12586,1,0,0:0:0:0:
108,120,12736,1,0,0:0:0:0:
187,136,12886,1,8,0:0:0:0:
354,60,13186,5,2,0:0:0:0:
360,139,13336,1,0,0:0:0:0:
212,217,13486,1,8,0:0:0:0:
215,296,13636,1,0,0:0:0:0:
254,301,13711,1,0,0:0:0:0:
293,306,13786,1,0,0:0:0:0:
370,284,13936,1,0,0:0:0:0:
293,306,14086,1,8,0:0:0:0:
293,306,14236,1,0,0:0:0:0:
441,261,14386,5,2,0:0:0:0:
441,261,14536,1,0,0:0:0:0:
293,306,14686,1,8,0:0:0:0:
217,279,14836,1,0,0:0:0:0:
217,279,14911,1,0,0:0:0:0:
217,279,14986,1,0,0:0:0:0:
293,306,15136,1,0,0:0:0:0:
145,340,15286,1,8,0:0:0:0:
145,340,15586,5,8,0:0:0:0:
293,306,15736,1,0,0:0:0:0:
253,300,15811,1,0,0:0:0:0:
213,294,15886,1,8,0:0:0:0:
213,90,16036,1,0,0:0:0:0:
253,84,16111,1,0,0:0:0:0:
293,78,16186,1,8,0:0:0:0:
441,51,16336,1,0,0:0:0:0:
441,51,16486,1,8,0:0:0:0:
441,51,16786,5,2,0:0:0:0:
361,41,16936,1,0,0:0:0:0:
213,165,17086,1,8,0:0:0:0:
291,151,17236,1,0,0:0:0:0:
292,111,17311,1,0,0:0:0:0:
293,71,17386,1,0,0:0:0:0:
213,60,17536,1,0,0:0:0:0:
65,116,17686,1,8,0:0:0:0:
65,116,17986,5,2,0:0:0:0:
65,116,18136,1,0,0:0:0:0:
213,179,18286,1,8,0:0:0:0:
290,158,18436,1,0,0:0:0:0:
305,120,18511,1,0,0:0:0:0:
290,158,18586,1,8,0:0:0:0:
213,179,18736,1,0,0:0:0:0:
361,219,18886,1,8,0:0:0:0:
400,216,18961,1,0,0:0:0:0:
439,213,19036,1,0,0:0:0:0:
439,213,19186,5,2,0:0:0:0:
361,219,19336,1,0,0:0:0:0:
213,242,19486,1,0,0:0:0:0:
292,233,19636,1,0,0:0:0:0:
295,193,19711,1,0,0:0:0:0:
299,153,19786,1,0,0:0:0:0:
219,151,19936,1,0,0:0:0:0:
71,153,20086,1,8,0:0:0:0:
256,192,20386,12,0,21286,0:0:0:0:
187,144,21586,5,8,0:0:0:0:
107,136,21736,1,2,0:0:0:0:
187,144,21886,1,10,0:0:0:0:
395,96,22036,1,2,0:0:0:0:
397,135,22111,1,0,0:0:0:0:
399,174,22186,1,0,0:0:0:0:
319,182,22336,1,4,0:0:0:0:
171,185,22486,1,8,0:0:0:0:
171,185,22786,5,6,0:0:0:0:
91,177,22936,1,2,0:0:0:0:
171,185,23086,1,10,0:0:0:0:
379,137,23236,1,2,0:0:0:0:
418,141,23311,1,0,0:0:0:0:
457,145,23386,1,0,0:0:0:0:
463,224,23536,1,4,0:0:0:0:
384,238,23686,1,8,0:0:0:0:
463,224,23836,1,0,0:0:0:0:
254,321,23986,5,6,0:0:0:0:
252,241,24136,1,2,0:0:0:0:
329,221,24286,1,10,0:0:0:0:
473,144,24436,1,2,0:0:0:0:
433,138,24511,1,0,0:0:0:0:
393,133,24586,1,0,0:0:0:0:
390,53,24736,1,4,0:0:0:0:
242,104,24886,1,8,0:0:0:0:
242,104,25186,5,2,0:0:0:0:
162,115,25336,1,2,0:0:0:0:
242,104,25486,1,10,0:0:0:0:
321,94,25636,1,2,0:0:0:0:
111,204,25786,1,0,0:0:0:0:
9,140,26011,1,0,0:0:0:0:
111,204,26236,1,0,0:0:0:0:
326,207,26386,5,6,0:0:0:0:
405,195,26536,1,2,0:0:0:0:
326,207,26686,1,10,0:0:0:0:
111,204,26836,1,2,0:0:0:0:
109,243,26911,1,0,0:0:0:0:
108,282,26986,1,0,0:0:0:0:
187,282,27136,1,4,0:0:0:0:
335,281,27286,1,8,0:0:0:0:
335,281,27586,5,6,0:0:0:0:
255,277,27736,1,2,0:0:0:0:
334,281,27886,1,10,0:0:0:0:
186,118,28036,1,2,0:0:0:0:
183,158,28111,1,0,0:0:0:0:
180,198,28186,1,0,0:0:0:0:
259,204,28336,1,0,0:0:0:0:
180,198,28486,1,8,0:0:0:0:
100,193,28636,1,0,0:0:0:0:
308,301,28786,5,6,0:0:0:0:
386,288,28936,1,2,0:0:0:0:
308,301,29086,1,10,0:0:0:0:
160,290,29236,1,2,0:0:0:0:
161,250,29311,1,0,0:0:0:0:
162,210,29386,1,0,0:0:0:0:
241,200,29536,1,4,0:0:0:0:
388,192,29686,1,8,0:0:0:0:
388,192,29986,5,6,0:0:0:0:
308,183,30136,1,2,0:0:0:0:
308,183,30286,1,10,0:0:0:0:
388,192,30436,1,2,0:0:0:0:
241,257,30586,1,0,0:0:0:0:
241,257,30736,1,4,0:0:0:0:
280,261,30811,1,0,0:0:0:0:
319,266,30886,1,8,0:0:0:0:
398,276,31036,1,0,0:0:0:0:
181,335,31186,5,8,0:0:0:0:
181,335,31486,1,10,0:0:0:0:
329,289,31636,1,0,0:0:0:0:
330,249,31711,1,0,0:0:0:0:
331,209,31786,1,0,0:0:0:0:
251,198,31936,1,4,0:0:0:0:
103,187,32086,1,8,0:0:0:0:
103,187,32386,5,6,0:0:0:0:
23,176,32536,1,2,0:0:0:0:
103,187,32686,1,10,0:0:0:0:
250,126,32836,1,2,0:0:0:0:
252,165,32911,1,0,0:0:0:0:
254,204,32986,1,0,0:0:0:0:
175,217,33136,1,4,0:0:0:0:
253,232,33286,1,8,0:0:0:0:
331,246,33436,1,0,0:0:0:0:
122,345,33586,5,6,0:0:0:0:
119,265,33736,1,2,0:0:0:0:
197,249,33886,1,10,0:0:0:0:
345,162,34036,1,0,0:0:0:0:
384,156,34111,1,0,0:0:0:0:
423,150,34186,1,0,0:0:0:0:
423,150,34336,1,4,0:0:0:0:
275,87,34486,1,8,0:0:0:0:
275,87,34786,5,6,0:0:0:0:
196,103,34936,1,2,0:0:0:0:
275,87,35086,1,10,0:0:0:0:
353,69,35236,1,2,0:0:0:0:
144,206,35386,1,0,0:0:0:0:
42,142,35611,1,0,0:0:0:0:
144,206,35836,1,0,0:0:0:0:
353,69,35986,5,6,0:0:0:0:
357,148,36136,1,2,0:0:0:0:
277,155,36286,1,10,0:0:0:0:
425,239,36436,1,0,0:0:0:0:
427,199,36511,1,0,0:0:0:0:
429,159,36586,1,0,0:0:0:0:
349,156,36736,1,4,0:0:0:0:
201,157,36886,1,8,0:0:0:0:
201,157,37186,5,6,0:0:0:0:
280,156,37336,1,2,0:0:0:0:
201,157,37486,1,10,0:0:0:0:
412,225,37636,1,2,0:0:0:0:
451,226,37711,1,0,0:0:0:0:
490,227,37786,1,0,0:0:0:0:
490,227,37936,1,4,0:0:0:0:
410,227,38086,1,8,0:0:0:0:
330,228,38236,1,0,0:0:0:0:
122,238,38386,5,6,0:0:0:0:
122,158,38536,1,2,0:0:0:0:
201,147,38686,1,10,0:0:0:0:
53,79,38836,1,0,0:0:0:0:
51,118,38911,1,0,0:0:0:0:
49,157,38986,1,0,0:0:0:0:
128,159,39136,1,4,0:0:0:0:
49,157,39286,1,8,0:0:0:0:
448,161,39586,5,4,1:2:0:0:
256,169,40186,1,2,1:2:0:0:
259,129,40261,1,0,1:1:0:0:
262,89,40336,1,4,1:1:0:0:
410,50,40486,1,8,1:1:0:0:
417,129,40636,1,4,1:1:0:0:
196,257,40786,5,6,0:1:0:0:
196,257,41086,1,8,0:0:0:0:
274,243,41236,1,0,0:0:0:0:
422,189,41386,1,4,0:0:0:0:
428,268,41536,1,4,0:0:0:0:
348,279,41686,1,8,0:0:0:0:
200,257,41836,1,4,0:0:0:0:
200,257,42136,5,4,0:0:0:0:
348,279,42286,1,8,0:0:0:0:
351,199,42436,1,0,0:0:0:0:
271,205,42586,1,4,0:0:0:0:
351,199,42736,1,4,0:0:0:0:
203,116,42886,1,8,0:0:0:0:
163,119,42961,1,0,0:0:0:0:
123,122,43036,1,0,0:0:0:0:
336,307,43186,5,4,0:0:0:0:
341,227,43336,1,0,0:0:0:0:
193,227,43486,1,8,0:0:0:0:
193,227,43786,1,4,0:0:0:0:
341,227,43936,1,4,0:0:0:0:
345,147,44086,1,8,0:0:0:0:
197,141,44236,1,4,0:0:0:0:
117,129,44386,5,0,0:0:0:0:
197,141,44536,1,4,0:0:0:0:
345,47,44686,1,8,0:0:0:0:
305,52,44761,1,0,0:0:0:0:
265,59,44836,1,0,0:0:0:0:
344,46,44986,1,4,0:0:0:0:
351,125,45136,1,4,0:0:0:0:
204,206,45286,1,8,0:0:0:0:
124,218,45436,1,0,0:0:0:0:
332,293,45586,5,6,0:1:0:0:
332,293,45886,1,8,0:0:0:0:
252,300,46036,1,0,0:0:0:0:
399,214,46186,1,4,0:0:0:0:
478,205,46336,1,4,0:0:0:0:
399,214,46486,1,8,0:0:0:0:
252,300,46636,1,4,0:0:0:0:
252,300,46936,5,4,0:0:0:0:
105,316,47086,1,8,0:0:0:0:
105,316,47236,1,0,0:0:0:0:
248,130,47386,1,4,0:0:0:0:
327,137,47536,1,4,0:0:0:0:
248,130,47686,1,8,0:0:0:0:
327,137,47836,1,0,0:0:0:0:
120,283,47986,1,4,0:0:0:0:
120,283,48286,5,8,0:0:0:0:
199,275,48436,1,0,0:0:0:0:
348,186,48586,1,4,0:0:0:0:
348,186,48736,1,4,0:0:0:0:
269,194,48886,1,8,0:0:0:0:
120,283,49036,1,4,0:0:0:0:
120,283,49336,5,4,0:0:0:0:
269,194,49486,1,8,0:0:0:0:
271,154,49561,1,0,0:0:0:0:
273,114,49636,1,0,0:0:0:0:
193,111,49786,1,4,0:0:0:0:
272,113,49936,1,4,0:0:0:0:
352,113,50086,1,10,0:0:0:0:
272,113,50236,1,0,0:0:0:0:
480,117,50386,5,6,0:1:0:0:
480,117,50686,1,8,0:0:0:0:
190,187,50986,1,4,0:0:0:0:
190,187,51286,1,8,0:0:0:0:
480,117,51586,5,0,0:0:0:0:
480,117,51886,1,8,0:0:0:0:
190,187,52186,1,4,0:0:0:0:
112,168,52336,1,4,0:0:0:0:
112,168,52486,1,8,0:0:0:0:
190,187,52636,1,0,0:0:0:0:
400,272,52786,5,4,0:0:0:0:
328,268,52936,1,4,0:0:0:0:
256,263,53086,1,8,0:0:0:0:
400,272,53386,1,4,0:0:0:0:
256,263,53686,1,8,0:0:0:0:
108,218,53836,1,4,0:0:0:0:
108,218,54136,5,4,0:0:0:0:
256,263,54286,1,8,0:0:0:0:
258,183,54436,1,0,0:0:0:0:
108,218,54586,1,4,0:0:0:0:
71,217,54661,1,0,0:0:0:0:
28,216,54736,1,4,0:0:0:0:
28,216,54886,1,8,0:0:0:0:
101,218,55036,1,0,0:0:0:0:
236,142,55186,5,2,0:1:0:0:
315,129,55336,1,0,0:0:0:0:
315,129,55486,1,8,0:0:0:0:
236,142,55636,1,0,0:0:0:0:
88,105,55786,1,4,0:0:0:0:
88,105,56086,1,8,0:0:0:0:
378,175,56386,5,0,0:0:0:0:
378,175,56686,1,8,0:0:0:0:
88,105,56986,1,4,0:0:0:0:
88,105,57286,1,8,0:0:0:0:
127,108,57361,1,0,0:0:0:0:
166,111,57436,1,0,0:0:0:0:
375,144,57586,5,4,0:0:0:0:
378,223,57736,1,0,0:0:0:0:
230,248,57886,1,0,0:0:0:0:
230,248,58186,1,4,0:0:0:0:
151,233,58336,1,4,0:0:0:0:
229,247,58486,1,8,0:0:0:0:
378,223,58636,1,4,0:0:0:0:
378,223,58936,5,4,0:0:0:0:
230,248,59086,1,8,0:0:0:0:
224,168,59236,1,0,0:0:0:0:
378,223,59386,1,4,0:0:0:0:
457,215,59536,1,4,0:0:0:0:
417,207,59611,1,0,0:0:0:0:
377,199,59686,1,10,0:0:0:0:
298,183,59836,1,0,0:0:0:0:
71,218,59986,1,4,0:1:0:0:
256,192,69586,5,4,0:0:0:0:
256,192,69858,12,8,71495,0:0:0:0:
256,192,71767,5,4,0:0:0:0:
256,192,72017,12,8,73517,0:0:0:0:
145,191,73767,5,4,0:0:0:0:
256,192,74228,12,8,75151,0:0:0:0:
367,191,75613,5,4,0:0:0:0:
256,192,76041,12,8,76898,0:0:0:0:
394,190,77327,5,4,0:0:0:0:
118,190,78127,1,4,0:0:0:0:
394,190,78927,5,4,0:0:0:0:
118,190,79677,1,4,0:0:0:0:
394,190,80427,5,4,0:0:0:0:
217,193,80603,1,4,0:0:0:0:
217,193,80956,1,4,0:0:0:0:
394,190,81132,1,4,0:0:0:0:
394,190,81309,1,4,0:0:0:0:
394,190,81662,1,4,0:0:0:0:
217,193,81838,5,4,0:0:0:0:
59,166,82171,1,4,0:0:0:0:
217,193,82504,1,4,0:0:0:0:
373,228,82838,1,4,0:0:0:0:
50,174,83171,5,4,0:0:0:0:
128,186,83328,1,4,0:0:0:0:
276,231,83486,1,4,0:0:0:0:
198,243,83643,1,4,0:0:0:0:
50,174,83802,1,4,0:0:0:0:
128,186,83959,1,4,0:0:0:0:
276,231,84117,1,4,0:0:0:0:
198,243,84276,1,4,0:0:0:0:
256,192,84434,12,0,86581,0:0:0:0:
248,192,86897,5,12,0:0:0:0:
248,192,87197,1,8,0:0:0:0:
287,186,87272,1,0,0:0:0:0:
326,180,87347,1,0,0:0:0:0:
475,170,87497,1,4,0:0:0:0:
475,250,87647,1,4,0:0:0:0:
396,267,87797,1,8,0:0:0:0:
247,278,87947,1,4,0:0:0:0:
248,286,88247,5,4,0:0:0:0:
396,267,88397,1,8,0:0:0:0:
396,227,88472,1,0,0:0:0:0:
396,187,88547,1,0,0:0:0:0:
248,286,88697,1,4,0:0:0:0:
167,270,88847,1,4,0:0:0:0:
167,270,88997,1,8,0:0:0:0:
248,286,89147,1,0,0:0:0:0:
40,290,89297,5,6,0:0:0:0:
40,290,89447,1,4,0:0:0:0:
187,177,89597,1,8,0:0:0:0:
266,179,89747,1,0,0:0:0:0:
226,177,89822,1,0,0:0:0:0:
186,175,89897,1,4,0:0:0:0:
187,95,90047,1,0,0:0:0:0:
266,95,90197,1,8,0:0:0:0:
345,98,90347,1,4,0:0:0:0:
137,262,90497,1,0,0:0:0:0:
137,262,90797,5,8,0:0:0:0:
57,260,90947,1,0,0:0:0:0:
189,177,91097,1,4,0:0:0:0:
268,171,91247,1,4,0:0:0:0:
268,171,91397,1,8,0:0:0:0:
189,177,91547,1,0,0:0:0:0:
397,165,91697,1,6,0:0:0:0:
397,165,91997,5,8,0:0:0:0:
317,158,92147,1,0,0:0:0:0:
168,156,92297,1,4,0:0:0:0:
165,76,92447,1,4,0:0:0:0:
244,69,92597,1,8,0:0:0:0:
393,64,92747,1,4,0:0:0:0:
393,64,93047,5,4,0:0:0:0:
246,226,93197,1,8,0:0:0:0:
246,146,93347,1,0,0:0:0:0:
393,147,93497,1,4,0:0:0:0:
472,147,93647,1,4,0:0:0:0:
393,147,93797,1,8,0:0:0:0:
33,152,94097,5,6,0:0:0:0:
33,152,94397,1,8,0:0:0:0:
72,150,94472,1,0,0:0:0:0:
111,148,94547,1,0,0:0:0:0:
259,69,94697,1,4,0:0:0:0:
260,148,94847,1,4,0:0:0:0:
220,151,94922,1,0,0:0:0:0:
180,154,94997,1,8,0:0:0:0:
100,163,95147,1,4,0:0:0:0:
248,283,95297,5,0,0:0:0:0:
327,272,95447,1,4,0:0:0:0:
327,272,95597,1,8,0:0:0:0:
248,283,95747,1,0,0:0:0:0:
397,196,95897,1,4,0:0:0:0:
402,275,96047,1,4,0:0:0:0:
254,340,96197,1,8,0:0:0:0:
174,340,96347,1,0,0:0:0:0:
387,117,96497,5,12,0:0:0:0:
387,117,96797,1,8,0:0:0:0:
239,192,96947,1,0,0:0:0:0:
278,195,97022,1,0,0:0:0:0:
317,198,97097,1,6,0:0:0:0:
466,201,97247,1,4,0:0:0:0:
466,201,97397,1,10,0:0:0:0:
317,198,97547,1,4,0:0:0:0:
317,198,97847,5,4,0:0:0:0:
170,197,97997,1,8,0:0:0:0:
170,197,98147,1,0,0:0:0:0:
209,200,98222,1,0,0:0:0:0:
248,206,98297,1,6,0:0:0:0:
396,231,98447,1,4,0:0:0:0:
396,231,98597,1,10,0:0:0:0:
248,206,98747,1,0,0:0:0:0:
248,206,99047,5,0,0:0:0:0:
101,205,99197,1,8,0:0:0:0:
101,205,99347,1,0,0:0:0:0:
140,208,99422,1,0,0:0:0:0:
179,214,99497,1,6,0:0:0:0:
327,239,99647,1,4,0:0:0:0:
327,239,99797,1,10,0:0:0:0:
179,214,99947,1,4,0:0:0:0:
179,214,100247,5,4,0:0:0:0:
32,213,100397,1,8,0:0:0:0:
32,213,100547,1,0,0:0:0:0:
71,216,100622,1,0,0:0:0:0:
110,222,100697,1,6,0:0:0:0:
258,247,100847,1,4,0:0:0:0:
258,247,100997,1,10,0:0:0:0:
110,222,101147,1,0,0:0:0:0:
110,222,101297,5,6,0:0:0:0:
387,220,101597,1,8,0:0:0:0:
110,222,101897,1,4,0:0:0:0:
110,142,102047,1,4,0:0:0:0:
189,131,102197,1,8,0:0:0:0:
337,124,102347,1,4,0:0:0:0:
337,124,102647,5,4,0:0:0:0:
257,125,102797,1,8,0:0:0:0:
337,124,102947,1,0,0:0:0:0:
486,129,103097,1,4,0:0:0:0:
486,129,103247,1,4,0:0:0:0:
337,124,103397,1,8,0:0:0:0:
337,124,103697,5,6,0:0:0:0:
337,124,103847,1,0,0:0:0:0:
297,128,103922,1,0,0:0:0:0:
257,132,103997,1,8,0:0:0:0:
177,140,104147,1,0,0:0:0:0:
325,215,104297,1,4,0:0:0:0:
364,212,104372,1,0,0:0:0:0:
403,209,104447,1,4,0:0:0:0:
403,209,104597,1,8,0:0:0:0:
325,215,104747,1,4,0:0:0:0:
325,215,105047,5,4,0:0:0:0:
470,259,105197,1,8,0:0:0:0:
470,219,105272,1,0,0:0:0:0:
470,179,105347,1,0,0:0:0:0:
390,177,105497,1,4,0:0:0:0:
470,179,105647,1,4,0:0:0:0:
256,186,105797,1,10,0:0:0:0:
256,186,106097,5,12,0:0:0:0:
216,187,106172,1,0,0:0:0:0:
176,188,106247,1,0,0:0:0:0:
174,108,106397,1,8,0:0:0:0:
322,122,106547,1,0,0:0:0:0:
362,123,106622,1,0,0:0:0:0:
402,124,106697,1,4,0:0:0:0:
404,44,106847,1,4,0:0:0:0:
256,186,106997,1,8,0:0:0:0:
216,187,107072,1,0,0:0:0:0:
176,188,107147,1,4,0:0:0:0:
176,188,107297,5,0,0:0:0:0:
324,184,107447,1,4,0:0:0:0:
326,223,107522,1,0,0:0:0:0:
326,263,107597,1,8,0:0:0:0:
246,267,107747,1,0,0:0:0:0:
395,333,107897,1,4,0:0:0:0:
474,330,108047,1,4,0:0:0:0:
474,330,108197,1,8,0:0:0:0:
395,333,108347,1,0,0:0:0:0:
183,268,108497,5,6,0:0:0:0:
183,268,108647,1,0,0:0:0:0:
262,266,108797,1,8,0:0:0:0:
262,266,108947,1,0,0:0:0:0:
115,106,109097,1,4,0:0:0:0:
36,103,109247,1,4,0:0:0:0:
36,103,109397,1,8,0:0:0:0:
115,106,109547,1,4,0:0:0:0:
262,107,109697,5,0,0:0:0:0:
262,107,109847,1,4,0:0:0:0:
37,210,109997,1,8,0:0:0:0:
37,210,110297,1,4,0:0:0:0:
116,210,110447,1,4,0:0:0:0:
196,210,110597,1,8,0:0:0:0:
117,210,110747,1,0,0:0:0:0:
325,138,110897,1,6,0:0:0:0:
325,138,111197,5,8,0:0:0:0:
245,142,111347,1,0,0:0:0:0:
98,146,111497,1,4,0:0:0:0:
18,148,111647,1,4,0:0:0:0:
98,146,111797,1,8,0:0:0:0:
315,232,111947,1,4,0:0:0:0:
315,232,112247,5,4,0:0:0:0:
235,225,112397,1,8,0:0:0:0:
315,232,112547,1,0,0:0:0:0:
168,309,112697,1,4,0:0:0:0:
48,296,112922,1,0,0:0:0:0:
168,309,113147,1,0,0:0:0:0:
379,199,113297,5,6,0:0:0:0:
379,199,113447,1,0,0:0:0:0:
299,201,113597,1,8,0:0:0:0:
379,199,113747,1,0,0:0:0:0:
247,134,113897,1,4,0:0:0:0:
167,132,114047,1,4,0:0:0:0:
167,132,114347,1,4,0:0:0:0:
376,83,114497,5,0,0:0:0:0:
455,91,114647,1,4,0:0:0:0:
455,91,114797,1,8,0:0:0:0:
376,83,114947,1,0,0:0:0:0:
228,202,115097,1,4,0:0:0:0:
228,202,115247,1,4,0:0:0:0:
377,201,115397,1,8,0:0:0:0:
377,201,115547,1,0,0:0:0:0:
136,200,115697,1,2,0:0:0:0:
136,200,115997,5,2,0:0:0:0:
66,159,116147,1,2,0:0:0:0:
41,82,116297,1,0,0:0:0:0:
66,159,116447,1,2,0:0:0:0:
136,200,116597,1,2,0:0:0:0:
325,200,117047,5,0,0:0:0:0:
399,193,117197,1,2,0:0:0:0:
325,200,117347,1,0,0:0:0:0:
176,128,117497,1,2,0:0:0:0:
98,134,117647,1,0,0:0:0:0:
176,128,117797,1,2,0:0:0:0:
352,115,118097,5,2,0:0:0:0:
352,115,118247,1,0,0:0:0:0:
272,121,118397,1,2,0:0:0:0:
451,247,118697,1,2,0:0:0:0:
451,247,118847,1,0,0:0:0:0:
371,255,118997,1,2,0:0:0:0:
451,247,119147,1,0,0:0:0:0:
302,323,119297,5,2,0:0:0:0:
227,292,119447,1,0,0:0:0:0:
194,219,119597,1,2,0:0:0:0:
229,156,119747,1,0,0:0:0:0:
306,137,119913,1,2,0:0:0:0:
386,137,120080,1,0,0:0:0:0:
306,137,120247,1,2,0:0:0:0:
31,66,120589,5,2,0:0:0:0:
51,143,120761,1,0,0:0:0:0:
98,206,120932,1,2,0:0:0:0:
169,243,121104,1,0,0:0:0:0:
247,258,121275,1,2,0:0:0:0:
325,273,121447,1,0,0:0:0:0:
325,273,121618,1,2,0:0:0:0:
245,263,121789,1,0,0:0:0:0:
157,246,121961,5,2,0:0:0:0:
465,316,122688,1,2,0:0:0:0:
257,225,123223,1,2,0:0:0:0:
77,150,123673,1,2,0:0:0:0:
330,142,124218,5,2,0:0:0:0:
330,142,124551,1,2,0:0:0:0:
155,94,124884,1,2,0:0:0:0:
155,94,125338,1,2,0:0:0:0:
474,55,125793,5,2,0:0:0:0:
256,192,126020,12,2,132156,0:0:0:0:
